osu file format v14

[General]
AudioFilename: thisisanmp3.mp3
AudioLeadIn: 0
PreviewTime: 194798
Countdown: 0
SampleSet: Soft
StackLeniency: 0.3
Mode: 0
LetterboxInBreaks: 0
WidescreenStoryboard: 1

[Editor]
Bookmarks: 15652,27804,39956,53627,77931,90083,102615,114387,128058,152361,162994,176665,194893,205526,207045,217678
DistanceSpacing: 1.5
BeatDivisor: 8
GridSize: 4
TimelineZoom: 1.4

[Metadata]
Title:Hoshiboshi no Wataridori
TitleUnicode:星々の渡り鳥
Artist:yanaginagi
ArtistUnicode:やなぎなぎ
Creator:Natsu
Version:Hard
Source:AMNESIA
Tags:アムネシア
BeatmapID:1047587
BeatmapSetID:482502

[Difficulty]
HPDrainRate:5
CircleSize:4
OverallDifficulty:6
ApproachRate:7.5
SliderMultiplier:1.5
SliderTickRate:1

[Events]
//Background and Video events
0,0,"j3X9a0A.png",0,0
//Break Periods
2,80220,88564
2,154460,162094
2,195093,204626
//Storyboard Layer 0 (Background)
//Storyboard Layer 1 (Fail)
//Storyboard Layer 2 (Pass)
//Storyboard Layer 3 (Foreground)
//Storyboard Sound Samples

[TimingPoints]
15653,379.746835443038,4,2,1,20,1,0
15653,-125,4,2,1,20,0,0
16032,-125,4,2,1,10,0,0
17171,-125,4,2,1,20,0,0
17361,-125,4,2,1,10,0,0
20209,-125,4,2,1,20,0,0
20399,-125,4,2,1,10,0,0
20589,-125,4,2,1,5,0,0
20779,-125,4,2,1,10,0,0
21728,-125,4,2,1,20,0,0
22108,-125,4,2,1,10,0,0
22678,-125,4,2,1,5,0,0
22868,-125,4,2,1,10,0,0
23247,-125,4,2,1,20,0,0
23437,-125,4,2,1,10,0,0
24766,-125,4,2,1,5,0,0
25146,-125,4,2,1,10,0,0
26285,-125,4,2,1,20,0,0
26380,-125,4,2,1,5,0,0
27804,-125,4,2,1,20,0,0
28184,-125,4,2,1,15,0,0
29323,-125,4,2,1,20,0,0
29513,-125,4,2,1,15,0,0
30083,-125,4,2,1,10,0,0
30273,-125,4,2,1,15,0,0
31032,-125,4,2,1,5,0,0
31222,-125,4,2,1,15,0,0
32361,-125,4,2,1,20,0,0
37298,-125,4,2,1,5,0,0
37488,-125,4,2,1,20,0,0
38058,-125,4,2,1,5,0,0
38247,-125,4,2,1,20,0,0
38817,-125,4,2,1,5,0,0
39007,-125,4,2,1,20,0,0
39956,-125,4,2,1,30,0,0
46032,-117.647058823529,4,2,1,40,0,0
50589,-111.111111111111,4,2,1,50,0,0
52108,-111.111111111111,4,2,1,30,0,0
53627,-100,4,2,1,50,0,1
65684,-100,4,2,1,50,0,0
65779,-100,4,2,1,50,0,1
76412,-125,4,2,1,50,0,0
90083,-125,4,2,1,40,0,0
90463,-125,4,2,1,30,0,0
101665,-111.111111111111,4,2,1,30,0,0
114387,-125,4,2,1,40,0,0
117235,-125,4,2,1,20,0,0
117425,-125,4,2,1,40,0,0
120463,-111.111111111111,4,2,1,45,0,0
128058,-100,4,2,1,50,0,1
140115,-100,4,2,1,50,0,0
140209,-100,4,2,1,50,0,1
150842,-125,4,2,1,50,0,0
152456,-125,4,2,1,20,0,0
162994,-100,4,2,1,50,0,0
191855,-100,4,2,1,40,0,0
193374,-100,4,2,1,30,0,0
194893,-100,4,2,1,50,0,0
207045,-100,4,2,1,50,0,1
217678,-100,4,2,1,50,0,0
218058,-100,4,2,1,20,0,0
218437,-125,4,2,1,45,0,0
218817,-125,4,2,1,20,0,0
219007,-125,4,2,1,45,0,0
219197,-100,4,2,1,60,0,0
226792,-100,4,2,1,30,0,0
226982,-100,4,2,1,60,0,0
228880,428.571428571429,4,2,1,60,1,0
229539,500,4,2,1,60,1,0
229789,-100,4,2,1,20,0,0
235914,-100,4,2,1,5,0,0

[Colours]
Combo1 : 71,126,254
Combo2 : 255,170,255
Combo3 : 137,172,254
Combo4 : 255,102,255

[HitObjects]
25,31,15652,5,4,1:0:0:0:
25,31,16032,2,0,L|29:101,1,60,0|0,0:0|0:0,0:0:0:0:
100,145,16412,1,0,0:0:0:0:
100,145,16792,2,0,L|104:215,1,60,0|0,0:0|0:0,0:0:0:0:
166,269,17171,5,4,1:0:0:0:
238,214,17361,2,0,P|292:193|349:208,1,120,0|0,0:0|0:0,0:0:0:0:
437,365,18121,1,0,0:0:0:0:
512,318,18311,1,0,0:0:0:0:
433,273,18501,2,0,L|432:187,1,60,0|4,0:0|1:0,0:0:0:0:
294,97,19070,6,0,P|264:103|235:96,1,60,0|0,0:0|0:0,0:0:0:0:
154,56,19450,2,0,P|124:49|95:55,1,60,0|0,0:0|0:0,0:0:0:0:
18,101,19830,1,0,0:0:0:0:
18,283,20209,5,4,1:0:0:0:
95,328,20400,2,0,P|124:334|154:328,1,60,0|0,0:0|0:0,0:0:0:0:
244,326,20779,2,0,P|283:263|209:262,1,180,0|2,0:0|1:0,0:0:0:0:
23,369,21728,5,4,1:0:0:0:
23,369,22108,2,0,L|0:305,1,60,0|0,0:0|0:0,0:0:0:0:
92,299,22488,2,0,L|115:235,1,60,0|0,0:0|0:0,0:0:0:0:
23,223,22868,2,0,L|0:159,1,60,0|0,0:0|0:0,0:0:0:0:
40,85,23247,5,4,1:0:0:0:
91,158,23437,1,0,0:0:0:0:
230,44,23817,2,0,L|289:37,1,60,0|2,0:0|1:0,0:0:0:0:
364,88,24197,2,0,L|429:81,2,60,0|0|0,0:0|0:0|0:0,0:0:0:0:
281,123,24766,1,4,1:0:0:0:
173,267,25146,6,0,L|161:335,1,60,0|0,0:0|0:0,0:0:0:0:
318,234,25716,1,0,0:0:0:0:
198,99,26096,1,0,0:0:0:0:
172,184,26285,6,0,P|256:168|284:87,1,180,4|0,1:0|0:0,0:0:0:0:
198,99,27045,1,2,1:0:0:0:
110,79,27235,1,2,1:0:0:0:
59,4,27425,1,2,1:0:0:0:
283,86,27804,5,4,1:0:0:0:
283,86,28184,2,0,P|298:112|299:142,1,60,0|0,0:0|0:0,0:0:0:0:
349,215,28564,2,0,P|323:229|293:230,1,60,0|0,0:0|0:0,0:0:0:0:
218,281,28944,2,0,P|203:255|202:225,1,60,0|0,0:0|0:0,0:0:0:0:
203,135,29323,6,0,L|143:125,1,60,4|0,1:0|0:0,0:0:0:0:
309,249,29893,2,0,L|369:259,1,60,0|2,0:0|1:0,0:0:0:0:
256,192,30273,1,0,0:0:0:0:
205,266,30463,1,0,0:0:0:0:
170,182,30652,2,0,P|156:125|174:69,1,120,0|0,0:0|0:0,0:0:0:0:
261,45,31222,6,0,L|330:36,1,60,0|0,0:0|0:0,0:0:0:0:
410,26,31602,1,0,0:0:0:0:
486,188,31982,1,0,0:0:0:0:
449,106,32171,1,0,0:0:0:0:
410,26,32361,6,0,L|349:35,1,60,4|2,1:0|1:0,0:0:0:0:
212,150,32931,1,2,1:0:0:0:
290,0,33311,1,0,0:0:0:0:
299,179,33690,1,0,0:0:0:0:
294,89,33880,1,4,1:0:0:0:
146,192,34260,6,0,B|63:192|63:192|84:162,1,120,0|0,0:0|0:0,0:0:0:0:
226,51,35020,1,0,0:0:0:0:
337,191,35399,2,0,P|358:246|343:303,2,120,4|2|2,1:0|1:0|1:0,0:0:0:0:
23,23,36728,5,0,0:0:0:0:
23,23,36918,2,0,L|47:140,1,120,2|0,1:0|0:0,0:0:0:0:
178,77,37488,5,0,0:0:0:0:
178,77,37678,2,0,L|112:176,1,120,2|0,1:0|0:0,0:0:0:0:
251,225,38247,5,0,0:0:0:0:
251,225,38437,2,0,L|134:249,1,120,2|0,1:0|0:0,0:0:0:0:
196,384,39007,5,2,1:0:0:0:
196,384,39197,2,0,L|96:318,1,120,2|0,1:0|0:0,0:0:0:0:
6,131,39956,6,0,P|26:82|73:108,1,120,4|0,0:0|0:0,0:0:0:0:
74,198,40526,5,0,0:0:0:0:
74,198,40716,2,0,L|149:204,1,60,2|0,1:0|0:0,0:0:0:0:
182,279,41096,2,0,L|257:285,1,60,2|0,1:0|0:0,0:0:0:0:
337,370,41475,6,0,L|278:366,1,60,4|2,0:0|1:0,0:0:0:0:
79,338,42045,2,0,P|61:296|121:186,1,180,2|0,1:0|0:0,0:0:0:0:
256,68,42994,1,4,0:0:0:0:
491,201,43564,5,0,0:0:0:0:
491,201,43754,2,0,L|480:276,1,60,2|0,1:0|0:0,0:0:0:0:
394,280,44134,2,0,L|383:355,1,60,2|0,1:0|0:0,0:0:0:0:
264,368,44513,6,0,P|235:360|205:366,1,60,4|0,0:0|0:0,0:0:0:0:
25,369,45083,1,2,1:0:0:0:
3,281,45273,2,0,P|-7:237|3:194,2,90,2|2|2,1:0|1:0|1:0,0:0:0:0:
137,306,46032,6,0,L|219:306,1,63.7500012159348,4|0,0:0|0:0,0:0:0:0:
282,357,46412,1,8,3:0:0:0:
284,261,46602,2,0,P|274:227|286:195,2,63.7500012159348,0|10|0,0:0|3:0|0:0,0:0:0:0:
373,226,47171,2,0,L|455:226,1,63.7500012159348,8|0,3:0|0:0,0:0:0:0:
492,360,47551,5,4,0:0:0:0:
406,319,47740,1,0,0:0:0:0:
436,226,47931,2,0,P|439:193|426:157,2,63.7500012159348,8|2|2,3:0|1:0|1:0,0:0:0:0:
406,319,48501,1,0,0:0:0:0:
348,243,48690,2,0,L|271:243,1,63.7500012159348,8|0,3:0|0:0,0:0:0:0:
201,193,49070,6,0,P|192:162|200:131,1,63.7500012159348,4|0,0:0|0:0,0:0:0:0:
239,43,49450,2,0,L|173:43,1,63.7500012159348,8|0,3:0|0:0,0:0:0:0:
79,43,49830,1,10,3:0:0:0:
37,229,50209,1,8,3:0:0:0:
107,164,50399,1,2,1:0:0:0:
138,283,50589,6,0,P|200:307|259:280,1,134.999995880127,4|8,0:0|3:0,0:0:0:0:
314,194,51159,1,8,3:0:0:0:
379,116,51349,1,8,3:0:0:0:
472,154,51539,1,8,3:0:0:0:
465,255,51728,1,8,3:0:0:0:
367,279,51918,1,8,3:0:0:0:
314,194,52108,6,0,L|266:193,3,33.7499989700318,8|8|8|8,3:0|3:0|3:0|3:0,0:0:0:0:
264,144,52488,2,0,L|216:141,3,33.7499989700318,8|8|8|8,3:0|3:0|3:0|3:0,0:0:0:0:
211,94,52868,2,0,L|163:93,3,33.7499989700318,8|8|8|8,3:0|3:0|3:0|3:0,0:0:0:0:
161,44,53248,2,0,L|113:41,3,33.7499989700318,8|0|0|0,3:0|0:0|0:0|0:0,0:0:0:0:
81,45,53627,6,0,P|46:110|82:181,1,150,6|12,0:0|0:0,0:0:0:0:
168,237,54197,1,2,0:0:0:0:
168,237,54292,1,2,0:0:0:0:
168,237,54387,2,0,L|253:237,1,75,2|0,0:0|0:0,0:0:0:0:
347,194,54766,1,8,0:0:0:0:
430,267,54956,2,0,P|442:303|435:339,1,75,0|6,0:0|0:0,0:0:0:0:
212,374,55526,5,8,0:0:0:0:
134,292,55716,1,2,0:0:0:0:
134,292,55811,1,2,0:0:0:0:
134,292,55906,2,0,P|122:256|129:220,1,75,2|0,0:0|0:0,0:0:0:0:
230,170,56285,1,8,0:0:0:0:
386,331,56665,6,0,P|323:367|255:343,1,150,6|8,0:0|0:0,0:0:0:0:
172,265,57235,1,0,0:0:0:0:
230,169,57425,2,0,P|255:101|226:33,1,150,2|8,0:0|0:0,0:0:0:0:
139,104,57994,5,0,0:0:0:0:
139,104,58184,1,6,0:0:0:0:
358,153,58564,1,8,0:0:0:0:
205,318,58944,1,2,0:0:0:0:
139,104,59323,1,8,0:0:0:0:
205,194,59513,5,8,1:0:0:0:
205,194,59608,1,8,1:0:0:0:
205,194,59703,2,0,P|273:219|343:192,1,150,6|8,0:0|0:0,0:0:0:0:
442,116,60273,5,0,0:0:0:0:
442,116,60463,2,0,P|417:184|444:254,1,150,6|8,0:0|0:0,0:0:0:0:
377,362,61032,5,0,0:0:0:0:
377,362,61222,2,0,P|309:337|239:364,1,150,6|8,0:0|0:0,0:0:0:0:
129,336,61792,5,0,0:0:0:0:
129,336,61982,2,0,L|98:251,1,75,6|0,0:0|0:0,0:0:0:0:
214,247,62361,2,0,L|245:162,1,75,8|0,0:0|0:0,0:0:0:0:
286,61,62741,6,0,P|354:87|423:62,1,150,6|8,0:0|0:0,0:0:0:0:
505,162,63311,5,0,0:0:0:0:
505,162,63501,2,0,P|479:230|504:299,1,150,6|8,0:0|0:0,0:0:0:0:
415,369,64070,5,0,0:0:0:0:
346,279,64260,1,6,0:0:0:0:
304,383,64450,1,0,0:0:0:0:
415,369,64640,2,0,L|501:354,1,75,2|8,0:0|3:0,0:0:0:0:
510,244,65020,1,12,0:0:0:0:
414,184,65209,1,8,3:0:0:0:
414,184,65303,1,8,3:0:0:0:
414,184,65399,2,0,L|375:193,3,37.5,8|8|8|8,3:0|3:0|3:0|3:0,0:0:0:0:
334,203,65779,6,0,P|299:157|322:71,2,150,6|12|2,0:0|0:0|0:0,0:0:0:0:
494,360,66918,5,8,0:0:0:0:
392,310,67108,1,0,0:0:0:0:
485,247,67298,1,6,0:0:0:0:
296,124,67678,1,8,0:0:0:0:
287,348,68058,1,2,0:0:0:0:
485,247,68437,1,8,0:0:0:0:
259,249,68817,6,0,B|148:249|148:249|181:228,1,150,6|8,0:0|0:0,0:0:0:0:
279,171,69387,1,0,0:0:0:0:
251,326,69577,2,0,L|91:326,1,150,2|8,0:0|0:0,0:0:0:0:
19,248,70146,1,0,0:0:0:0:
103,174,70336,2,0,P|133:106|104:39,1,150,6|8,0:0|0:0,0:0:0:0:
12,105,70906,5,0,0:0:0:0:
4,217,71096,1,2,0:0:0:0:
111,181,71285,1,8,3:0:0:0:
111,181,71379,1,8,3:0:0:0:
111,181,71475,2,0,L|149:180,3,37.5,8|8|8|8,3:0|3:0|3:0|3:0,0:0:0:0:
190,178,71855,2,0,P|217:247|192:317,1,150,6|8,0:0|0:0,0:0:0:0:
92,368,72425,5,0,0:0:0:0:
192,315,72615,2,0,L|281:314,1,75,8|0,0:0|0:0,0:0:0:0:
369,360,72994,1,8,3:0:0:0:
353,248,73184,1,0,0:0:0:0:
266,314,73374,1,6,0:0:0:0:
489,286,73754,5,8,0:0:0:0:
351,108,74134,1,2,0:0:0:0:
266,314,74513,1,8,0:0:0:0:
489,286,74893,6,0,L|521:257,3,37.5,8|8|8|8,3:0|3:0|3:0|3:0,0:0:0:0:
464,238,75273,2,0,L|466:194,3,37.5,8|8|8|8,3:0|3:0|3:0|3:0,0:0:0:0:
411,214,75652,2,0,L|382:182,3,37.5,8|8|8|8,3:0|3:0|3:0|3:0,0:0:0:0:
363,239,76032,2,0,L|319:236,3,37.5,8|8|8|8,3:0|3:0|3:0|3:0,0:0:0:0:
340,291,76411,5,6,0:0:0:0:
50,354,77171,6,0,P|23:303|36:245,1,120,2|0,1:0|0:0,0:0:0:0:
99,180,77741,1,2,1:0:0:0:
192,271,77931,1,6,0:0:0:0:
256,192,78026,12,6,80020,0:0:0:0:
490,23,90083,5,6,0:0:0:0:
330,107,90463,1,8,3:0:0:0:
473,214,90842,2,0,L|485:286,1,60,8|0,3:0|0:0,0:0:0:0:
500,361,91222,1,8,3:0:0:0:
345,267,91602,5,12,3:0:0:0:
345,267,91792,2,0,P|317:273|284:268,1,60,0|8,0:0|3:0,0:0:0:0:
228,199,92171,2,0,L|217:135,1,60,0|8,0:0|3:0,0:0:0:0:
284,78,92551,2,0,P|312:72|345:77,1,60,0|8,0:0|3:0,0:0:0:0:
401,146,92931,2,0,L|412:210,1,60,0|8,0:0|3:0,0:0:0:0:
491,367,93501,5,8,3:0:0:0:
330,282,93880,2,0,P|301:276|272:282,1,60,8|0,3:0|0:0,0:0:0:0:
204,341,94260,2,0,P|174:347|145:340,1,60,8|0,3:0|0:0,0:0:0:0:
87,271,94640,5,12,3:0:0:0:
144,201,94830,2,0,P|149:173|140:137,1,60,0|8,0:0|3:0,0:0:0:0:
87,71,95209,1,0,0:0:0:0:
176,60,95399,2,0,L|296:60,1,120,8|8,3:0|3:0,0:0:0:0:
377,20,95969,1,2,0:0:0:0:
370,109,96159,1,6,0:0:0:0:
209,192,96539,6,0,P|201:220|207:249,1,60,8|0,3:0|0:0,0:0:0:0:
256,324,96918,1,8,3:0:0:0:
304,249,97108,2,0,P|310:220|302:192,1,60,0|8,0:0|3:0,0:0:0:0:
256,113,97488,1,0,0:0:0:0:
209,192,97678,5,12,3:0:0:0:
163,114,97868,2,0,P|133:108|104:116,1,60,0|8,0:0|3:0,0:0:0:0:
56,191,98247,2,0,L|49:261,1,60,0|8,0:0|3:0,0:0:0:0:
96,328,98627,2,0,P|125:333|154:325,1,60,0|8,0:0|3:0,0:0:0:0:
203,251,99007,2,0,L|210:181,1,60,2|8,0:0|3:0,0:0:0:0:
321,40,99577,5,0,0:0:0:0:
375,109,99767,2,0,P|404:118|432:109,1,60,0|8,0:0|3:0,0:0:0:0:
493,175,100147,2,0,L|496:245,1,60,0|12,0:0|3:0,0:0:0:0:
498,325,100527,1,0,0:0:0:0:
422,274,100716,6,0,P|393:269|362:275,1,60,12|0,3:0|0:0,0:0:0:0:
280,309,101096,2,0,L|280:378,2,60,2|0|8,0:0|0:0|0:0,0:0:0:0:
195,220,101665,5,8,3:0:0:0:
195,220,101759,1,8,3:0:0:0:
195,220,101855,2,0,L|195:168,3,33.7499989700318,8|8|8|8,3:0|3:0|3:0|3:0,0:0:0:0:
197,135,102235,1,6,0:0:0:0:
382,53,102615,5,8,0:0:0:0:
458,118,102804,2,0,P|470:151|458:193,2,67.4999979400635,2|0|8,1:0|0:0|3:0,0:0:0:0:
382,53,103374,2,0,L|315:53,1,67.4999979400635,8|0,0:0|3:0,0:0:0:0:
214,124,103754,5,0,3:0:0:0:
214,124,103944,2,0,P|206:157|216:190,1,67.4999979400635,2|8,1:0|0:0,0:0:0:0:
309,225,104323,2,0,P|317:191|307:159,1,67.4999979400635,2|0,1:0|0:0,0:0:0:0:
256,61,104704,5,8,3:0:0:0:
356,71,104894,1,8,0:0:0:0:
307,160,105083,2,0,B|267:186|267:186|176:186,1,134.999995880127,2|0,1:0|0:0,0:0:0:0:
38,185,105652,6,0,L|125:186,1,67.4999979400635,8|8,0:0|3:0,0:0:0:0:
169,264,106032,2,0,P|178:295|168:327,1,67.4999979400635,8|8,3:0|3:0,0:0:0:0:
266,357,106412,2,0,L|353:358,1,67.4999979400635,8|0,0:0|0:0,0:0:0:0:
466,377,106792,5,8,3:0:0:0:
410,290,106982,2,0,P|401:259|407:226,1,67.4999979400635,2|0,1:0|0:0,0:0:0:0:
449,134,107361,2,0,L|467:91,3,33.7499989700318,8|8|8|8,3:0|3:0|3:0|3:0,0:0:0:0:
482,56,107740,1,4,0:0:0:0:
380,74,107931,2,0,P|348:81|315:76,1,67.4999979400635,8|2,0:0|3:0,0:0:0:0:
229,22,108311,1,4,0:0:0:0:
119,191,108690,5,8,0:0:0:0:
319,163,109070,2,0,P|328:195|322:228,1,67.4999979400635,0|8,0:0|3:0,0:0:0:0:
240,288,109450,2,0,P|230:320|236:353,1,67.4999979400635,8|0,0:0|0:0,0:0:0:0:
337,364,109830,2,0,B|403:340|403:390|467:364,1,134.999995880127,2|8,1:0|0:0,0:0:0:0:
499,163,110589,2,0,L|509:94,2,67.4999979400635,0|8|8,0:0|3:0|0:0,0:0:0:0:
384,197,111159,5,0,0:0:0:0:
384,197,111349,2,0,P|324:224|256:200,1,134.999995880127,6|8,0:0|0:0,0:0:0:0:
130,109,111918,5,0,0:0:0:0:
130,109,112108,2,0,P|190:82|258:106,1,134.999995880127,6|8,0:0|0:0,0:0:0:0:
388,201,112678,5,0,0:0:0:0:
388,201,112868,2,0,P|361:261|385:329,1,134.999995880127,6|8,0:0|0:0,0:0:0:0:
263,371,113438,5,8,3:0:0:0:
263,371,113532,1,8,3:0:0:0:
263,371,113627,2,0,L|193:371,1,67.4999979400635,8|4,3:0|1:0,0:0:0:0:
171,272,114007,2,0,L|101:272,1,67.4999979400635,8|8,1:0|1:0,0:0:0:0:
34,330,114387,1,6,0:0:0:0:
256,148,114956,5,2,1:0:0:0:
256,147,115146,2,0,P|284:140|320:149,1,60,0|0,0:0|0:0,0:0:0:0:
371,199,115526,2,0,P|400:204|428:196,1,60,0|0,0:0|0:0,0:0:0:0:
509,112,115906,5,6,0:0:0:0:
459,51,116096,1,0,0:0:0:0:
459,51,116475,2,0,B|344:0|344:106|228:51,1,240,2|0,1:0|0:0,0:0:0:0:
108,13,117425,1,6,0:0:0:0:
256,244,117995,5,2,1:0:0:0:
297,177,118185,1,0,0:0:0:0:
219,177,118374,2,0,L|157:172,1,60,2|0,1:0|0:0,0:0:0:0:
81,218,118754,1,8,0:0:0:0:
156,91,118944,5,6,0:0:0:0:
229,39,119134,2,0,P|285:20|342:37,1,120,0|2,0:0|1:0,0:0:0:0:
342,126,119703,1,8,3:0:0:0:
433,165,119893,1,8,3:0:0:0:
433,165,119988,1,8,3:0:0:0:
433,165,120083,2,0,L|444:199,3,30,8|8|8|8,3:0|3:0|3:0|3:0,0:0:0:0:
491,206,120463,6,0,L|510:270,1,67.4999979400635,6|0,0:0|0:0,0:0:0:0:
465,362,120843,1,8,3:0:0:0:
386,295,121033,2,0,P|354:288|322:298,1,67.4999979400635,2|8,1:0|3:0,0:0:0:0:
232,345,121412,2,0,P|199:354|167:347,1,67.4999979400635,0|8,0:0|3:0,0:0:0:0:
93,277,121792,1,2,1:0:0:0:
206,192,121982,5,6,0:0:0:0:
149,108,122171,2,0,P|138:76|145:43,1,67.4999979400635,0|8,0:0|1:0,0:0:0:0:
246,27,122552,2,0,L|324:27,1,67.4999979400635,2|0,1:0|0:0,0:0:0:0:
412,49,122932,1,0,0:0:0:0:
341,121,123121,2,0,P|334:153|342:185,1,67.4999979400635,8|0,0:0|0:0,0:0:0:0:
439,282,123501,6,0,P|446:249|438:217,1,67.4999979400635,4|8,0:0|3:0,0:0:0:0:
342,185,123880,2,0,L|274:186,1,67.4999979400635,8|8,0:0|3:0,0:0:0:0:
185,235,124260,1,8,3:0:0:0:
185,133,124450,1,8,1:0:0:0:
98,185,124640,2,0,L|59:185,2,33.7499989700318,8|8|8,1:0|1:0|1:0,0:0:0:0:
251,185,125020,6,0,B|330:186|330:186|338:166|369:147,1,134.999995880127,4|8,0:0|3:0,0:0:0:0:
469,147,125589,1,8,3:0:0:0:
501,244,125779,1,8,3:0:0:0:
419,302,125969,1,8,0:0:0:0:
338,243,126159,1,8,0:0:0:0:
369,147,126348,1,0,0:0:0:0:
304,68,126539,6,0,L|260:57,3,33.7499989700318,6|8|8|8,0:0|3:0|3:0|3:0,0:0:0:0:
220,60,126918,2,0,L|176:71,3,33.7499989700318,8|8|8|8,3:0|3:0|3:0|3:0,0:0:0:0:
136,72,127298,2,0,L|92:61,3,33.7499989700318,8|8|8|8,3:0|3:0|3:0|3:0,0:0:0:0:
52,64,127678,2,0,L|8:75,3,33.7499989700318,8|8|8|8,3:0|3:0|3:0|3:0,0:0:0:0:
11,128,128058,6,0,P|34:198|5:265,1,150,6|12,0:0|0:0,0:0:0:0:
100,325,128628,1,2,0:0:0:0:
100,325,128723,1,2,0:0:0:0:
100,325,128818,2,0,L|177:325,1,75,2|0,0:0|0:0,0:0:0:0:
274,378,129197,1,8,0:0:0:0:
336,284,129387,2,0,P|346:248|338:212,1,75,0|6,0:0|0:0,0:0:0:0:
171,60,129957,5,8,0:0:0:0:
91,139,130147,1,2,0:0:0:0:
91,139,130242,1,2,0:0:0:0:
91,139,130336,2,0,P|80:174|88:210,1,75,2|0,0:0|0:0,0:0:0:0:
163,294,130716,1,8,0:0:0:0:
363,191,131096,6,0,B|412:171|455:191|455:191|442:130,1,150,6|8,0:0|0:0,0:0:0:0:
419,26,131666,1,0,0:0:0:0:
320,80,131856,2,0,P|250:105|181:81,1,150,2|8,0:0|0:0,0:0:0:0:
87,19,132425,5,0,0:0:0:0:
10,101,132615,1,6,0:0:0:0:
215,192,132995,1,8,0:0:0:0:
31,323,133375,1,2,0:0:0:0:
10,101,133754,1,8,0:0:0:0:
59,202,133944,5,8,1:0:0:0:
59,202,134039,1,8,1:0:0:0:
59,202,134134,2,0,P|126:228|193:198,1,150,6|8,0:0|0:0,0:0:0:0:
316,107,134704,5,0,0:0:0:0:
316,107,134893,2,0,P|289:174|319:241,1,150,6|8,0:0|0:0,0:0:0:0:
407,372,135463,5,0,0:0:0:0:
407,372,135652,2,0,P|339:345|272:375,1,150,6|8,0:0|0:0,0:0:0:0:
137,316,136223,5,8,3:0:0:0:
137,316,136413,2,0,L|118:231,1,75,8|8,3:0|3:0,0:0:0:0:
18,195,136792,2,0,L|-1:110,1,75,8|8,0:0|0:0,0:0:0:0:
85,45,137172,6,0,P|155:67|224:43,1,150,6|8,0:0|0:0,0:0:0:0:
305,135,137742,5,0,0:0:0:0:
305,135,137932,2,0,B|305:299,1,150,6|8,0:0|0:0,0:0:0:0:
408,362,138501,5,0,0:0:0:0:
507,311,138690,1,6,0:0:0:0:
408,256,138880,1,0,0:0:0:0:
507,201,139071,2,0,P|512:165|499:130,1,75,2|8,0:0|3:0,0:0:0:0:
416,53,139451,1,12,0:0:0:0:
360,150,139640,1,8,3:0:0:0:
360,150,139734,1,8,3:0:0:0:
360,150,139830,2,0,L|324:176,3,37.5,8|8|8|8,3:0|3:0|3:0|3:0,0:0:0:0:
280,201,140210,6,0,P|211:229|136:193,2,150,6|12|2,0:0|0:0|0:0,0:0:0:0:
409,16,141349,5,8,0:0:0:0:
353,114,141539,1,0,0:0:0:0:
465,114,141729,1,6,0:0:0:0:
265,11,142108,1,8,0:0:0:0:
277,236,142489,1,2,0:0:0:0:
465,114,142868,1,8,0:0:0:0:
240,127,143248,6,0,B|121:127|121:127|159:97,1,150,6|8,0:0|0:0,0:0:0:0:
240,46,143818,1,0,0:0:0:0:
195,206,144008,6,0,L|35:206,1,150,2|8,0:0|0:0,0:0:0:0:
120,289,144577,1,0,0:0:0:0:
195,206,144767,2,0,P|225:136|184:60,1,150,6|8,0:0|0:0,0:0:0:0:
64,20,145337,5,0,0:0:0:0:
17,122,145526,1,2,0:0:0:0:
135,144,145716,1,8,3:0:0:0:
135,144,145810,1,8,3:0:0:0:
135,144,145906,2,0,L|184:147,3,37.5,8|8|8|8,3:0|3:0|3:0|3:0,0:0:0:0:
228,152,146285,2,0,P|200:221|251:285,1,150,6|8,0:0|0:0,0:0:0:0:
344,320,146856,5,0,0:0:0:0:
427,245,147046,2,0,L|512:245,1,75,8|0,0:0|0:0,0:0:0:0:
461,140,147425,1,8,3:0:0:0:
350,162,147615,1,0,0:0:0:0:
427,245,147805,1,6,0:0:0:0:
379,24,148185,5,8,0:0:0:0:
275,223,148564,1,2,0:0:0:0:
485,142,148944,1,8,0:0:0:0:
263,100,149323,6,0,L|213:113,3,37.5,8|8|8|8,3:0|3:0|3:0|3:0,0:0:0:0:
234,165,149703,2,0,L|184:178,3,37.5,8|8|8|8,3:0|3:0|3:0|3:0,0:0:0:0:
204,230,150083,2,0,L|154:243,3,37.5,8|8|8|8,3:0|3:0|3:0|3:0,0:0:0:0:
175,295,150463,2,0,L|125:308,3,37.5,8|8|8|8,3:0|3:0|3:0|3:0,0:0:0:0:
124,347,150842,5,6,0:0:0:0:
21,50,151602,6,0,P|76:70|131:50,1,120,2|0,1:0|0:0,0:0:0:0:
212,9,152172,1,2,1:0:0:0:
171,134,152362,1,6,0:0:0:0:
256,192,152457,12,8,154260,0:0:0:0:
490,42,162994,6,0,L|490:117,1,75,6|0,0:0|0:0,0:0:0:0:
428,211,163374,2,0,L|416:256,3,37.5,8|8|8|8,3:0|3:0|3:0|3:0,0:0:0:0:
365,226,163754,2,0,L|339:252,3,37.5,8|8|8|8,3:0|3:0|3:0|3:0,0:0:0:0:
304,206,164134,2,0,L|265:210,3,37.5,8|8|8|8,3:0|3:0|3:0|3:0,0:0:0:0:
269,153,164513,6,0,P|248:83|285:20,1,150,6|12,0:0|0:0,0:0:0:0:
489,115,165273,1,2,0:0:0:0:
404,189,165463,1,8,3:0:0:0:
339,96,165653,1,8,0:0:0:0:
489,115,165842,6,0,P|515:177|494:260,1,150,6|0,0:0|0:0,0:0:0:0:
397,309,166412,2,0,B|325:341|325:283|251:315,1,150,8|0,0:0|0:0,0:0:0:0:
156,376,166982,2,0,L|133:297,1,75,2|8,0:0|0:0,0:0:0:0:
92,152,167361,6,0,P|153:177|228:147,1,150,6|0,0:0|0:0,0:0:0:0:
323,85,167931,2,0,P|357:73|393:83,1,75,8|0,0:0|0:0,0:0:0:0:
443,184,168311,2,0,P|430:218|440:254,1,75,8|0,3:0|0:0,0:0:0:0:
484,357,168690,2,0,L|395:357,1,75,8|0,0:0|0:0,0:0:0:0:
286,282,169070,6,0,P|216:257|147:283,1,150,6|8,0:0|0:0,0:0:0:0:
58,352,169640,2,0,L|43:197,1,150,2|0,0:0|0:0,0:0:0:0:
35,91,170209,1,8,0:0:0:0:
183,30,170399,5,8,3:0:0:0:
183,30,170494,1,8,3:0:0:0:
183,30,170589,2,0,P|252:54|321:28,1,150,6|8,0:0|0:0,0:0:0:0:
502,162,171349,1,2,0:0:0:0:
408,224,171539,1,0,0:0:0:0:
402,112,171728,1,8,0:0:0:0:
492,254,171918,6,0,P|442:308|369:305,1,150,6|0,0:0|0:0,0:0:0:0:
292,222,172488,1,8,0:0:0:0:
210,144,172678,2,0,P|137:141|87:194,1,150,6|0,0:0|0:0,0:0:0:0:
60,303,173247,1,8,0:0:0:0:
60,303,173437,2,0,P|132:305|182:252,1,150,6|0,0:0|0:0,0:0:0:0:
210,144,174007,6,0,B|248:125|248:125|301:159|348:125,1,150,8|2,0:0|0:0,0:0:0:0:
392,20,174577,1,0,0:0:0:0:
464,105,174766,2,0,L|471:179,1,75,8|0,0:0|0:0,0:0:0:0:
487,291,175146,6,0,P|499:325|492:362,1,75,6|0,0:0|0:0,0:0:0:0:
381,338,175526,2,0,P|344:331|308:341,1,75,8|0,0:0|0:0,0:0:0:0:
202,376,175906,2,0,L|176:329,3,37.5,8|8|8|8,3:0|3:0|3:0|3:0,0:0:0:0:
128,334,176285,2,0,L|102:287,3,37.5,8|8|8|8,3:0|3:0|3:0|3:0,0:0:0:0:
55,284,176665,5,6,0:0:0:0:
248,168,177045,1,12,0:0:0:0:
42,73,177425,2,0,P|37:109|47:145,1,75,2|2,0:0|0:0,0:0:0:0:
141,207,177804,1,8,0:0:0:0:
248,168,177994,6,0,P|319:143|389:166,1,150,6|0,0:0|0:0,0:0:0:0:
408,276,178564,2,0,P|401:312|410:348,2,75,8|0|2,0:0|0:0|0:0,0:0:0:0:
492,200,179134,2,0,P|501:165|491:129,1,75,2|8,0:0|0:0,0:0:0:0:
344,86,179513,6,0,B|230:86|230:86|262:58,1,150,6|0,0:0|0:0,0:0:0:0:
358,12,180083,2,0,L|444:12,1,75,8|0,0:0|0:0,0:0:0:0:
469,119,180463,2,0,P|461:156|477:201,1,75,2|0,0:0|0:0,0:0:0:0:
506,298,180842,1,8,0:0:0:0:
366,215,181032,6,0,L|291:215,1,75,6|0,0:0|0:0,0:0:0:0:
249,320,181412,2,0,L|324:320,1,75,2|8,0:0|0:0,0:0:0:0:
424,269,181792,2,0,P|444:199|400:141,1,150,2|8,0:0|1:0,0:0:0:0:
292,110,182361,2,0,L|240:110,3,37.5,8|8|8|8,1:0|1:0|1:0|1:0,0:0:0:0:
219,154,182741,6,0,L|133:154,1,75,6|0,0:0|0:0,0:0:0:0:
36,189,183121,2,0,P|58:258|24:322,1,150,8|0,0:0|0:0,0:0:0:0:
127,368,183690,1,2,0:0:0:0:
127,368,183880,2,0,L|202:368,1,75,8|0,0:0|0:0,0:0:0:0:
335,301,184260,6,0,P|384:340|329:372,1,150,6|8,0:0|0:0,0:0:0:0:
202,154,185020,2,0,P|192:117|200:81,1,75,2|0,0:0|0:0,0:0:0:0:
311,81,185399,2,0,P|319:117|310:154,1,75,8|0,0:0|0:0,0:0:0:0:
190,265,185779,6,0,L|128:307,1,75,6|0,0:0|0:0,0:0:0:0:
116,194,186159,2,0,L|41:193,1,75,10|0,0:0|0:0,0:0:0:0:
96,94,186539,2,0,L|35:50,1,75,10|0,0:0|0:0,0:0:0:0:
140,11,186918,1,10,0:0:0:0:
332,128,187298,6,0,L|394:86,1,75,6|0,0:0|0:0,0:0:0:0:
406,199,187678,2,0,L|481:200,1,75,10|0,0:0|0:0,0:0:0:0:
426,299,188058,2,0,L|487:343,1,75,10|0,0:0|0:0,0:0:0:0:
382,382,188437,1,10,0:0:0:0:
196,256,188817,5,4,0:0:0:0:
296,208,189007,1,8,0:0:0:0:
203,143,189197,2,0,P|188:110|193:73,1,75,8|8,0:0|0:0,0:0:0:0:
296,20,189577,1,8,0:0:0:0:
344,120,189766,1,8,0:0:0:0:
408,28,189956,1,8,0:0:0:0:
273,94,190146,1,12,0:0:0:0:
256,192,190241,12,2,194893,1:0:0:0:
55,363,205526,6,0,P|39:330|40:293,1,75,6|0,0:0|0:0,0:0:0:0:
116,208,205906,2,0,L|160:192,3,37.5,8|8|8|8,3:0|3:0|3:0|3:0,0:0:0:0:
188,237,206285,2,0,L|232:221,3,37.5,8|8|8|8,3:0|3:0|3:0|3:0,0:0:0:0:
265,262,206665,2,0,L|309:246,3,37.5,8|8|8|8,3:0|3:0|3:0|3:0,0:0:0:0:
352,227,207045,6,0,P|396:168|388:89,1,150,6|12,0:0|0:0,0:0:0:0:
291,43,207615,1,2,0:0:0:0:
291,43,207710,1,2,0:0:0:0:
291,43,207805,2,0,L|214:40,1,75,2|0,0:0|0:0,0:0:0:0:
228,152,208184,2,0,L|151:149,1,75,8|0,0:0|0:0,0:0:0:0:
64,78,208564,1,6,0:0:0:0:
149,286,208944,5,8,0:0:0:0:
251,240,209134,1,2,0:0:0:0:
251,240,209229,1,2,0:0:0:0:
251,240,209324,2,0,L|328:237,1,75,2|0,0:0|0:0,0:0:0:0:
419,173,209703,2,0,P|408:137|417:101,1,75,8|0,0:0|0:0,0:0:0:0:
500,23,210083,6,0,L|347:23,1,150,6|8,0:0|0:0,0:0:0:0:
253,81,210653,1,0,0:0:0:0:
184,169,210843,2,0,P|171:203|184:238,1,75,2|0,0:0|0:0,0:0:0:0:
256,324,211222,2,0,L|339:323,1,75,8|0,0:0|0:0,0:0:0:0:
444,322,211602,2,0,P|410:258|441:192,1,150,6|8,0:0|0:0,0:0:0:0:
496,94,212171,5,0,0:0:0:0:
399,36,212361,2,0,L|344:26,3,37.5,8|8|8|8,2:0|2:0|2:0|2:0,0:0:0:0:
341,82,212741,2,0,L|286:72,3,37.5,8|8|8|8,2:0|2:0|2:0|2:0,0:0:0:0:
248,60,213121,6,0,P|218:127|247:194,1,150,6|8,0:0|0:0,0:0:0:0:
324,276,213690,1,0,0:0:0:0:
233,342,213880,2,0,P|196:352|159:342,1,75,2|0,0:0|0:0,0:0:0:0:
94,252,214260,2,0,L|94:172,1,75,8|0,0:0|0:0,0:0:0:0:
199,135,214640,1,6,0:0:0:0:
8,14,215020,5,8,0:0:0:0:
229,53,215399,1,2,1:0:0:0:
38,174,215779,1,8,1:0:0:0:
242,268,216159,5,6,0:0:0:0:
308,177,216349,1,8,3:0:0:0:
308,177,216444,1,8,3:0:0:0:
308,177,216539,2,0,L|360:168,3,37.5,8|8|8|8,3:0|3:0|3:0|3:0,0:0:0:0:
341,114,216918,2,0,L|394:104,3,37.5,8|8|8|8,3:0|3:0|3:0|3:0,0:0:0:0:
377,50,217298,2,0,L|430:40,3,37.5,8|8|8|8,3:0|3:0|3:0|3:0,0:0:0:0:
469,31,217678,6,0,P|503:93|472:175,1,150,6|0,0:0|0:0,0:0:0:0:
334,268,218437,6,0,L|214:268,1,120,2|0,1:0|0:0,0:0:0:0:
146,328,219007,1,2,1:0:0:0:
182,190,219197,6,0,P|211:122|191:51,1,150,6|8,0:0|0:0,0:0:0:0:
334,94,219766,2,0,P|401:122|472:102,1,150,6|8,0:0|0:0,0:0:0:0:
443,246,220336,2,0,P|414:313|434:384,1,150,6|0,0:0|0:0,0:0:0:0:
298,377,220906,5,0,0:0:0:0:
298,377,221001,1,0,0:0:0:0:
298,377,221096,2,0,L|213:377,2,75,8|8|8,0:0|0:0|0:0,0:0:0:0:
256,272,221665,1,8,3:0:0:0:
256,272,221760,1,8,3:0:0:0:
256,272,221855,2,0,L|205:271,3,37.5,8|8|8|8,3:0|3:0|3:0|3:0,0:0:0:0:
161,272,222235,6,0,P|121:210|140:140,1,150,6|8,0:0|0:0,0:0:0:0:
268,185,222804,2,0,P|338:204|399:164,1,150,6|8,0:0|0:0,0:0:0:0:
471,49,223374,2,0,L|471:216,1,150,6|2,0:0|0:0,0:0:0:0:
414,296,223944,5,8,3:0:0:0:
414,296,224038,1,8,3:0:0:0:
414,296,224134,2,0,L|374:328,3,37.5,8|8|8|8,3:0|3:0|3:0|3:0,0:0:0:0:
335,346,224513,2,0,P|263:326|194:352,1,150,8|8,3:0|0:0,0:0:0:0:
83,370,225083,1,0,0:0:0:0:
160,231,225273,6,0,P|204:172|189:101,1,150,6|8,0:0|0:0,0:0:0:0:
76,17,225842,2,0,L|231:17,1,150,6|8,0:0|0:0,0:0:0:0:
368,28,226412,2,0,P|357:101|400:161,1,150,6|0,0:0|0:0,0:0:0:0:
479,240,226982,5,8,3:0:0:0:
479,240,227077,1,8,3:0:0:0:
479,240,227171,2,0,P|488:275|476:321,2,75,8|8|12,0:0|0:0|0:0,0:0:0:0:
375,285,227741,1,8,3:0:0:0:
375,285,227836,1,8,3:0:0:0:
375,285,227931,2,0,L|324:285,3,37.5,8|8|8|8,3:0|3:0|3:0|3:0,0:0:0:0:
280,284,228311,6,0,P|248:226|278:145,1,150,6|8,0:0|0:0,0:0:0:0:
337,74,228880,2,0,L|182:74,1,150,6|8,0:0|0:0,0:0:0:0:
97,39,229539,2,0,P|88:72|112:132,1,75,6|0,0:0|0:0,0:0:0:0:
256,192,229914,12,0,235914,0:0:0:0:
