osu file format v14

[General]
AudioFilename: audio.mp3
AudioLeadIn: 0
PreviewTime: 194798
Countdown: 0
SampleSet: Soft
StackLeniency: 0.7
Mode: 2
LetterboxInBreaks: 0
WidescreenStoryboard: 1

[Editor]
DistanceSpacing: 1.3
BeatDivisor: 4
GridSize: 4
TimelineZoom: 1.5

[Metadata]
Title:Hoshiboshi no Wataridori
TitleUnicode:星々の渡り鳥
Artist:yanaginagi
ArtistUnicode:やなぎなぎ
Creator:-Hex-
Version:Salad
Source:AMNESIA
Tags:アムネシア natsu anime ending Shinya Saito Yuya Ebisawa Katsuhiko Kurosu Shuntaro Kado Shin Kono
BeatmapID:1942014
BeatmapSetID:924320

[Difficulty]
HPDrainRate:4
CircleSize:3
OverallDifficulty:7
ApproachRate:7
SliderMultiplier:1.4
SliderTickRate:1

[Events]
//Background and Video events
0,0,"bg.jpg",0,0
//Break Periods
2,80979,89183
2,155599,162094
2,195093,204626
//Storyboard Layer 0 (Background)
//Storyboard Layer 1 (Fail)
//Storyboard Layer 2 (Pass)
//Storyboard Layer 3 (Foreground)
//Storyboard Sound Samples

[TimingPoints]
15653,379.746835443038,4,2,1,25,1,0
15653,-100,4,2,1,25,0,0
16032,-100,4,2,1,25,0,0
16602,-100,4,2,1,25,0,0
16792,-100,4,2,1,25,0,0
17171,-100,4,2,1,25,0,0
17361,-100,4,2,1,25,0,0
20209,-100,4,2,1,25,0,0
20399,-100,4,2,1,25,0,0
20589,-100,4,2,1,25,0,0
20779,-100,4,2,1,25,0,0
21728,-100,4,2,1,25,0,0
22108,-100,4,2,1,25,0,0
22678,-100,4,2,1,25,0,0
22868,-100,4,2,1,25,0,0
23247,-100,4,2,1,25,0,0
23437,-100,4,2,1,25,0,0
23627,-100,4,2,1,25,0,0
23817,-100,4,2,1,25,0,0
24766,-100,4,2,1,25,0,0
25146,-100,4,2,1,25,0,0
25526,-100,4,2,1,25,0,0
25716,-100,4,2,1,25,0,0
25906,-100,4,2,1,25,0,0
26096,-100,4,2,1,25,0,0
26285,-100,4,2,1,25,0,0
26380,-100,4,2,1,25,0,0
27804,-100,4,2,1,25,0,0
28184,-100,4,2,1,25,0,0
29323,-100,4,2,1,25,0,0
29513,-100,4,2,1,25,0,0
29703,-100,4,2,1,25,0,0
29893,-100,4,2,1,25,0,0
30083,-100,4,2,1,25,0,0
30273,-100,4,2,1,25,0,0
31032,-100,4,2,1,25,0,0
31222,-100,4,2,1,25,0,0
31792,-100,4,2,1,25,0,0
31982,-100,4,2,1,25,0,0
32361,-100,4,2,1,25,0,0
32741,-100,4,2,1,25,0,0
32931,-100,4,2,1,25,0,0
33121,-100,4,2,1,25,0,0
33311,-100,4,2,1,25,0,0
34450,-100,4,2,1,25,0,0
34640,-100,4,2,1,25,0,0
34830,-100,4,2,1,25,0,0
35020,-100,4,2,1,25,0,0
35209,-100,4,2,1,25,0,0
35399,-100,4,2,1,25,0,0
37298,-100,4,2,1,25,0,0
37488,-100,4,2,1,25,0,0
38058,-100,4,2,1,25,0,0
38247,-100,4,2,1,25,0,0
38817,-100,4,2,1,25,0,0
39007,-100,4,2,1,25,0,0
39956,-100,4,2,1,40,0,0
41855,-100,4,2,1,40,0,0
42045,-100,4,2,1,40,0,0
42804,-100,4,2,1,40,0,0
42994,-100,4,2,1,40,0,0
43374,-100,4,2,1,40,0,0
43564,-100,4,2,1,40,0,0
46032,-100,4,2,1,40,0,0
50115,-100,4,2,1,40,0,0
50209,-100,4,2,1,40,0,0
50589,-100,4,2,1,40,0,0
52108,-100,4,2,1,45,0,0
53627,-100,4,2,1,60,0,1
65684,-100,4,2,1,60,0,0
65779,-100,4,2,1,60,0,1
76412,-100,4,2,1,40,0,0
90083,-100,4,2,1,30,0,0
90368,-100,4,2,1,30,0,0
90463,-100,4,2,1,30,0,0
90652,-100,4,2,1,30,0,0
90842,-100,4,2,1,30,0,0
91412,-100,4,2,1,30,0,0
91602,-100,4,2,1,30,0,0
93311,-100,4,2,1,30,0,0
93501,-100,4,2,1,30,0,0
93690,-100,4,2,1,30,0,0
93880,-100,4,2,1,30,0,0
99387,-100,4,2,1,30,0,0
99577,-100,4,2,1,30,0,0
101001,-100,4,2,1,30,0,0
101096,-100,4,2,1,30,0,0
101665,-100,4,2,1,30,0,0
102425,-100,4,2,1,40,0,0
102615,-100,4,2,1,40,0,0
110969,-100,4,2,1,40,0,0
111159,-100,4,2,1,40,0,0
114387,-100,4,2,1,40,0,0
117235,-100,4,2,1,40,0,0
117425,-100,4,2,1,40,0,0
120463,-100,4,2,1,40,0,0
126539,-100,4,2,1,45,0,0
128058,-100,4,2,1,60,0,1
140115,-100,4,2,1,60,0,0
140209,-100,4,2,1,60,0,1
150842,-100,4,2,1,40,0,0
152456,-100,4,2,1,40,0,0
162994,-100,4,2,1,50,0,0
164513,-100,4,2,1,50,0,0
188437,-100,4,2,1,50,0,0
188627,-100,4,2,1,50,0,0
191855,-100,4,2,1,25,0,0
193374,-100,4,2,1,10,0,0
194893,-100,4,2,1,50,0,0
207045,-90.9090909090909,4,2,1,60,0,1
214925,-90.9090909090909,4,2,1,60,0,1
215020,-90.9090909090909,4,2,1,60,0,1
217678,-100,4,2,1,50,0,0
218437,-100,4,2,1,45,0,0
218817,-100,4,2,1,20,0,0
219007,-100,4,2,1,45,0,0
219197,-100,4,2,1,50,0,0
224893,-83.3333333333333,4,2,1,50,0,0
225083,-100,4,2,1,50,0,0
226792,-100,4,2,1,30,0,0
226982,-100,4,2,1,50,0,0
228880,428.571428571429,4,2,1,50,1,0
228880,-66.6666666666667,4,2,1,50,0,0
229308,-100,4,2,1,50,0,0
229539,500,4,2,1,60,1,0
229789,-100,4,2,1,25,0,0
235914,-100,4,2,1,5,0,0

[Colours]
Combo1 : 78,67,99
Combo2 : 224,84,95
Combo3 : 174,184,193
Combo4 : 209,143,145

[HitObjects]
306,264,15652,5,4,1:0:0:0:
166,162,16032,2,0,L|94:163,2,70,0|0|0,0:0|0:0|0:0,0:0:0:0:
306,271,16792,2,0,L|306:178,1,70,0|0,0:0|0:0,0:0:0:0:
208,133,17171,5,4,1:0:0:0:
419,265,17741,1,0,0:0:0:0:
279,194,18121,2,0,P|250:148|304:88,1,140,0|0,0:0|0:0,0:0:0:0:
396,52,18690,5,4,1:0:0:0:
256,347,19070,2,0,L|173:345,1,70,0|0,0:0|0:0,0:0:0:0:
94,285,19450,2,0,L|21:248,2,70,0|0|0,0:0|0:0|0:0,0:0:0:0:
292,160,20209,6,0,L|374:158,1,70,4|0,1:0|0:0,0:0:0:0:
193,329,20779,2,0,P|130:284|214:199,1,210,0|2,0:0|1:0,0:0:0:0:
505,53,21728,5,4,1:0:0:0:
351,302,22108,2,0,L|193:277,1,140,0|0,0:0|0:0,0:0:0:0:
290,197,22678,1,0,0:0:0:0:
367,152,22868,1,0,0:0:0:0:
172,81,23247,6,0,L|167:8,1,70,4|0,1:0|0:0,0:0:0:0:
322,312,23817,1,0,0:0:0:0:
168,180,24197,2,0,L|245:181,1,70,0|0,0:0|0:0,0:0:0:0:
420,53,24766,5,4,1:0:0:0:
265,324,25146,2,0,L|186:324,1,70,0|0,0:0|0:0,0:0:0:0:
377,218,25716,2,0,P|424:169|370:119,1,140,0|0,0:0|0:0,0:0:0:0:
289,62,26285,1,4,1:0:0:0:
121,355,27045,1,2,1:0:0:0:
121,250,27235,1,2,1:0:0:0:
30,130,27425,1,2,1:0:0:0:
351,35,27804,5,4,1:0:0:0:
182,321,28184,2,0,P|141:280|201:224,1,140,0|0,0:0|0:0,0:0:0:0:
337,241,28944,2,0,L|336:155,1,70,0|0,0:0|0:0,0:0:0:0:
238,101,29323,5,4,1:0:0:0:
449,311,29893,1,0,0:0:0:0:
281,200,30273,2,0,L|188:199,1,70,0|0,0:0|0:0,0:0:0:0:
303,156,30652,6,0,L|306:74,1,70,0|4,0:0|1:0,0:0:0:0:
137,323,31222,2,0,L|222:324,1,70,0|0,0:0|0:0,0:0:0:0:
299,240,31602,1,0,0:0:0:0:
131,168,31982,2,0,L|129:77,1,70,0|0,0:0|0:0,0:0:0:0:
230,46,32361,5,4,1:0:0:0:
320,164,32551,2,0,L|153:158,2,140,2|2|0,1:0|1:0|0:0,0:0:0:0:
406,242,33501,1,0,0:0:0:0:
84,56,33880,5,4,1:0:0:0:
238,338,34260,2,0,L|244:184,1,140,0|0,0:0|0:0,0:0:0:0:
89,128,35020,1,0,0:0:0:0:
270,270,35399,2,0,L|429:275,2,140,4|2|2,1:0|1:0|1:0,0:0:0:0:
38,191,36728,1,0,0:0:0:0:
136,84,36918,6,0,P|199:148|119:216,1,210,2|0,1:0|0:0,0:0:0:0:
43,322,37678,2,0,L|282:324,1,210,2|0,1:0|0:0,0:0:0:0:
161,248,38437,2,0,P|144:178|261:147,1,210,2|2,1:0|1:0,0:0:0:0:
352,201,39197,2,0,L|510:201,1,140,2|0,1:0|0:0,0:0:0:0:
140,37,39956,5,4,0:0:0:0:
332,332,40526,2,0,L|329:257,1,70,0|2,0:0|1:0,0:0:0:0:
418,209,40906,2,0,L|500:209,2,70,0|2|0,0:0|1:0|0:0,0:0:0:0:
236,136,41475,6,0,L|233:55,1,70,4|2,0:0|1:0,0:0:0:0:
408,186,42045,2,0,P|475:211|390:287,1,210,2|0,1:0|0:0,0:0:0:0:
72,35,42994,5,4,0:0:0:0:
282,344,43564,2,0,L|202:341,1,70,0|2,0:0|1:0,0:0:0:0:
120,276,43944,2,0,L|36:268,2,70,0|2|0,0:0|1:0|0:0,0:0:0:0:
302,175,44513,6,0,L|382:172,1,70,4|0,0:0|0:0,0:0:0:0:
197,327,45083,1,2,1:0:0:0:
112,250,45273,2,0,P|40:243|-3:252,2,105,2|2|2,1:0|1:0|1:0,0:0:0:0:
294,191,46032,6,0,P|317:140|251:101,1,140,4|8,0:0|3:0,0:0:0:0:
166,98,46602,1,0,0:0:0:0:
328,305,46982,2,0,L|252:296,1,70,0|8,0:0|3:0,0:0:0:0:
168,232,47361,6,0,L|319:223,1,140,0|0,0:0|0:0,0:0:0:0:
403,152,47931,1,8,3:0:0:0:
309,90,48121,1,2,1:0:0:0:
141,337,48501,2,0,L|69:332,2,70,0|8|0,0:0|3:0|0:0,0:0:0:0:
316,247,49070,6,0,L|480:242,1,140,4|8,0:0|3:0,0:0:0:0:
368,153,49640,1,0,0:0:0:0:
279,113,49830,1,10,3:0:0:0:
461,313,50209,2,0,L|387:309,1,70,8|2,3:0|1:0,0:0:0:0:
208,143,50589,6,0,P|172:180|236:232,1,140,4|8,0:0|3:0,0:0:0:0:
416,343,51349,2,0,L|416:186,1,140,8|8,3:0|3:0,0:0:0:0:
80,244,52108,2,0,P|60:192|132:152,1,140,12|8,3:0|3:0,0:0:0:0:
289,347,52868,2,0,L|294:270,1,70,8|8,3:0|3:0,0:0:0:0:
188,242,53247,2,0,L|181:157,1,70,8|8,3:0|3:0,0:0:0:0:
366,121,53627,6,0,L|516:117,2,140,6|12|2,0:0|0:0|0:0,0:0:0:0:
170,338,54766,2,0,L|270:338,1,70,8|0,0:0|0:0,0:0:0:0:
416,240,55146,5,6,0:0:0:0:
248,173,55526,2,0,L|251:96,1,70,8|2,0:0|0:0,0:0:0:0:
342,77,55906,2,0,L|430:75,1,70,2|0,0:0|0:0,0:0:0:0:
502,108,56285,2,0,L|503:185,1,70,8|0,0:0|0:0,0:0:0:0:
325,339,56665,6,0,L|159:333,1,140,6|8,0:0|0:0,0:0:0:0:
86,268,57235,1,2,0:0:0:0:
185,213,57425,2,0,L|336:207,1,140,2|8,0:0|0:0,0:0:0:0:
416,140,57994,1,0,0:0:0:0:
241,325,58184,5,6,0:0:0:0:
404,233,58564,1,8,0:0:0:0:
243,239,58944,1,2,0:0:0:0:
411,129,59323,1,8,0:0:0:0:
66,336,59703,6,0,P|50:269|121:238,1,140,6|8,0:0|0:0,0:0:0:0:
201,192,60273,1,0,0:0:0:0:
300,146,60463,2,0,P|325:102|250:47,1,140,6|8,0:0|0:0,0:0:0:0:
174,39,61032,1,0,0:0:0:0:
349,178,61222,6,0,L|346:336,1,140,6|8,0:0|0:0,0:0:0:0:
255,331,61792,1,0,0:0:0:0:
353,262,61982,2,0,L|514:246,1,140,10|8,0:0|0:0,0:0:0:0:
142,188,62741,6,0,P|113:141|172:81,1,140,6|8,0:0|0:0,0:0:0:0:
259,50,63311,1,0,0:0:0:0:
443,333,63501,2,0,B|515:284|515:284|467:226,1,140,6|8,0:0|0:0,0:0:0:0:
390,188,64070,1,0,0:0:0:0:
215,328,64260,6,0,L|130:327,1,70,6|0,0:0|0:0,0:0:0:0:
243,246,64640,2,0,L|251:163,1,70,2|8,0:0|3:0,0:0:0:0:
81,80,65020,1,12,0:0:0:0:
270,315,65399,2,0,L|357:316,1,70,8|8,3:0|3:0,0:0:0:0:
168,190,65779,6,0,L|9:177,2,140,6|12|2,0:0|0:0|0:0,0:0:0:0:
350,160,66918,2,0,L|353:83,1,70,8|0,0:0|0:0,0:0:0:0:
177,27,67298,1,6,0:0:0:0:
308,142,67678,1,8,0:0:0:0:
167,226,68058,1,2,0:0:0:0:
39,305,68437,1,8,0:0:0:0:
362,112,68817,6,0,L|203:102,1,140,6|8,0:0|0:0,0:0:0:0:
54,303,69577,2,0,P|11:260|71:202,1,140,2|8,0:0|0:0,0:0:0:0:
140,158,70146,1,0,0:0:0:0:
316,65,70336,2,0,L|174:60,1,140,6|8,0:0|0:0,0:0:0:0:
351,278,71096,2,0,L|430:281,2,70,2|8|8,0:0|3:0|3:0,0:0:0:0:
29,212,71855,6,0,P|27:155|109:118,1,140,6|8,0:0|0:0,0:0:0:0:
275,57,72615,2,0,L|188:58,1,70,8|0,0:0|0:0,0:0:0:0:
303,133,72994,2,0,L|386:131,1,70,8|0,0:0|0:0,0:0:0:0:
197,278,73374,5,6,0:0:0:0:
357,232,73754,1,8,0:0:0:0:
511,157,74134,1,2,0:0:0:0:
343,46,74513,1,8,0:0:0:0:
23,257,74893,6,0,L|191:249,1,140,8|8,3:0|3:0,0:0:0:0:
263,185,75463,1,8,3:0:0:0:
163,137,75652,2,0,P|99:113|99:41,1,140,8|8,3:0|3:0,0:0:0:0:
182,22,76222,1,8,3:0:0:0:
363,310,76412,5,6,0:0:0:0:
30,303,77171,2,0,P|27:221|38:158,1,140,2|0,1:0|0:0,0:0:0:0:
114,67,77741,1,2,1:0:0:0:
294,67,77931,5,6,0:0:0:0:
256,192,78311,12,0,80779,0:0:0:0:
385,322,90083,5,6,0:0:0:0:
231,204,90463,1,8,3:0:0:0:
398,106,90842,2,0,L|399:29,1,70,8|0,3:0|0:0,0:0:0:0:
304,12,91222,1,8,3:0:0:0:
108,323,91602,5,12,3:0:0:0:
199,258,91792,2,0,P|241:201|180:162,1,140,0|0,0:0|0:0,0:0:0:0:
18,115,92551,2,0,P|21:62|109:32,1,140,0|0,0:0|0:0,0:0:0:0:
191,97,93121,5,8,3:0:0:0:
359,312,93501,1,8,3:0:0:0:
192,226,93880,2,0,L|184:151,1,70,8|0,3:0|0:0,0:0:0:0:
276,126,94260,2,0,L|281:45,1,70,0|0,0:0|0:0,0:0:0:0:
192,32,94640,5,12,3:0:0:0:
93,134,94830,2,0,L|99:229,1,70,0|8,0:0|3:0,0:0:0:0:
198,283,95209,2,0,P|252:244|168:158,1,210,0|8,0:0|3:0,0:0:0:0:
82,104,95969,1,2,0:0:0:0:
258,39,96159,5,6,0:0:0:0:
97,249,96539,2,0,P|103:321|179:321,1,140,8|8,3:0|3:0,0:0:0:0:
258,325,97108,1,0,0:0:0:0:
433,167,97488,1,0,0:0:0:0:
258,138,97678,6,0,P|270:62|331:41,1,140,12|8,3:0|3:0,0:0:0:0:
420,25,98247,1,0,0:0:0:0:
252,207,98627,2,0,L|239:360,1,140,0|2,0:0|0:0,0:0:0:0:
410,312,99197,5,8,3:0:0:0:
266,183,99577,1,0,0:0:0:0:
175,114,99766,2,0,L|319:104,2,140,0|0|0,0:0|0:0|0:0,0:0:0:0:
360,248,100716,5,12,3:0:0:0:
436,302,100906,1,0,0:0:0:0:
436,216,101096,1,2,0:0:0:0:
360,248,101285,1,0,0:0:0:0:
177,124,101475,1,8,0:0:0:0:
92,51,101665,2,0,L|14:49,2,70,8|8|8,3:0|3:0|3:0,0:0:0:0:
272,303,102235,5,6,0:0:0:0:
118,218,102615,2,0,P|101:173|175:131,1,140,8|0,0:0|0:0,0:0:0:0:
264,90,103184,2,0,L|351:83,1,70,8|8,3:0|0:0,0:0:0:0:
149,339,103754,6,0,P|130:265|190:230,1,140,0|8,3:0|0:0,0:0:0:0:
260,199,104323,1,2,1:0:0:0:
433,66,104703,2,0,L|508:67,2,70,8|8|2,3:0|0:0|1:0,0:0:0:0:
257,281,105273,5,8,3:0:0:0:
439,154,105652,2,0,L|514:143,1,70,8|8,0:0|3:0,0:0:0:0:
409,74,106032,2,0,L|307:63,2,70,8|8|0,3:0|3:0|0:0,0:0:0:0:
225,304,106792,6,0,P|201:235|259:191,1,140,8|8,3:0|0:0,0:0:0:0:
334,144,107361,1,8,3:0:0:0:
144,338,107741,1,8,2:0:0:0:
51,278,107931,2,0,L|43:196,1,70,8|2,0:0|3:0,0:0:0:0:
222,106,108311,5,4,0:0:0:0:
404,320,108690,2,0,L|257:313,1,140,8|0,0:0|0:0,0:0:0:0:
461,174,109450,1,8,0:0:0:0:
258,78,109830,2,0,L|423:72,2,140,2|8|0,1:0|0:0|0:0,0:0:0:0:
356,170,110779,1,8,3:0:0:0:
462,257,110969,1,8,0:0:0:0:
126,45,111349,6,0,L|279:54,1,140,6|8,0:0|0:0,0:0:0:0:
353,55,111918,1,0,0:0:0:0:
440,104,112108,2,0,L|423:260,1,140,6|8,0:0|0:0,0:0:0:0:
343,246,112678,1,0,0:0:0:0:
161,352,112868,5,6,0:0:0:0:
68,309,113058,1,8,0:0:0:0:
161,352,113247,1,8,0:0:0:0:
343,222,113627,2,0,L|423:221,1,70,8|4,3:0|1:0,0:0:0:0:
499,120,114007,1,8,1:0:0:0:
415,40,114197,1,8,1:0:0:0:
237,121,114387,5,6,0:0:0:0:
441,341,114956,2,0,L|349:342,1,70,2|0,1:0|0:0,0:0:0:0:
272,280,115336,2,0,L|190:282,2,70,0|0|0,0:0|0:0|0:0,0:0:0:0:
452,148,115906,6,0,L|453:62,1,70,6|0,0:0|0:0,0:0:0:0:
253,203,116475,2,0,P|145:210|93:120,1,210,2|0,1:0|0:0,0:0:0:0:
417,373,117425,5,6,0:0:0:0:
262,246,117994,2,0,L|348:235,1,70,2|0,1:0|0:0,0:0:0:0:
425,168,118374,2,0,L|510:156,2,70,2|0|8,1:0|0:0|0:0,0:0:0:0:
245,30,118944,6,0,L|156:24,1,70,6|0,0:0|0:0,0:0:0:0:
352,255,119513,1,2,1:0:0:0:
254,183,119703,2,0,P|207:177|149:175,2,105,8|8|8,3:0|3:0|3:0,0:0:0:0:
437,35,120463,6,0,P|449:72|372:133,1,140,6|8,0:0|3:0,0:0:0:0:
293,173,121032,1,2,1:0:0:0:
97,226,121412,2,0,L|192:237,1,70,0|8,0:0|3:0,0:0:0:0:
265,262,121792,6,0,L|114:294,1,140,2|0,1:0|0:0,0:0:0:0:
40,323,122361,1,8,3:0:0:0:
131,368,122551,1,2,1:0:0:0:
320,177,122931,2,0,L|396:172,2,70,0|8|0,0:0|0:0|0:0,0:0:0:0:
134,126,123501,6,0,P|69:95|75:31,1,140,4|8,0:0|0:0,0:0:0:0:
255,271,124260,1,8,3:0:0:0:
352,206,124450,2,0,L|426:206,2,70,8|8|8,1:0|1:0|1:0,0:0:0:0:
169,122,125020,6,0,L|-2:130,1,140,4|8,0:0|3:0,0:0:0:0:
225,247,125779,2,0,L|381:254,1,140,8|8,3:0|0:0,0:0:0:0:
23,151,126539,2,0,P|12:104|97:57,1,140,6|8,0:0|3:0,0:0:0:0:
259,354,127298,2,0,L|327:322,1,70,8|8,3:0|3:0,0:0:0:0:
216,265,127678,2,0,L|135:228,1,70,8|8,3:0|3:0,0:0:0:0:
339,146,128058,6,0,P|407:137|504:136,2,140,6|12|2,0:0|0:0|0:0,0:0:0:0:
157,46,129197,2,0,L|161:129,1,70,8|0,0:0|0:0,0:0:0:0:
337,241,129577,5,6,0:0:0:0:
162,178,129956,2,0,L|78:180,1,70,8|2,0:0|0:0,0:0:0:0:
192,252,130336,2,0,L|278:251,1,70,2|0,0:0|0:0,0:0:0:0:
162,178,130716,2,0,L|161:101,1,70,8|0,0:0|0:0,0:0:0:0:
345,71,131096,6,0,P|387:98|329:172,1,140,6|8,0:0|0:0,0:0:0:0:
262,200,131665,1,0,0:0:0:0:
168,302,131855,2,0,L|334:299,1,140,2|8,0:0|0:0,0:0:0:0:
398,227,132425,1,0,0:0:0:0:
222,105,132615,5,6,0:0:0:0:
359,199,132994,1,8,0:0:0:0:
207,330,133374,1,2,0:0:0:0:
382,109,133754,1,8,0:0:0:0:
41,28,134134,6,0,P|37:87|105:104,1,140,6|8,0:0|0:0,0:0:0:0:
195,126,134703,1,0,0:0:0:0:
102,182,134893,2,0,L|89:339,1,140,6|8,0:0|0:0,0:0:0:0:
188,357,135463,1,0,0:0:0:0:
370,271,135653,6,0,P|406:257|487:168,1,140,6|8,0:0|0:0,0:0:0:0:
380,138,136222,1,8,3:0:0:0:
284,60,136412,2,0,P|218:48|136:40,1,140,8|8,3:0|0:0,0:0:0:0:
477,195,137171,2,0,L|475:347,1,140,6|8,0:0|0:0,0:0:0:0:
393,341,137741,1,0,0:0:0:0:
211,267,137931,2,0,L|47:267,1,140,6|8,0:0|0:0,0:0:0:0:
148,170,138501,1,0,0:0:0:0:
323,240,138690,6,0,L|422:242,1,70,6|0,0:0|0:0,0:0:0:0:
293,160,139070,2,0,L|284:77,1,70,10|8,0:0|3:0,0:0:0:0:
461,39,139450,1,12,0:0:0:0:
262,321,139830,2,0,L|180:321,1,70,8|8,3:0|3:0,0:0:0:0:
368,227,140209,6,0,P|425:224|508:241,2,140,6|12|2,0:0|0:0|0:0,0:0:0:0:
196,90,141349,2,0,L|284:92,1,70,8|0,0:0|0:0,0:0:0:0:
441,314,141728,1,6,0:0:0:0:
308,240,142108,1,8,0:0:0:0:
456,143,142488,1,2,0:0:0:0:
300,27,142868,1,8,0:0:0:0:
21,340,143247,6,0,P|85:330|167:328,1,140,6|8,0:0|0:0,0:0:0:0:
350,309,144007,2,0,P|291:292|194:284,1,140,2|8,0:0|0:0,0:0:0:0:
121,213,144577,1,0,0:0:0:0:
294,190,144766,2,0,P|309:125|250:86,1,140,6|8,0:0|0:0,0:0:0:0:
69,108,145526,2,0,L|-13:102,2,70,2|8|8,0:0|3:0|3:0,0:0:0:0:
392,164,146285,6,0,P|378:99|307:67,1,140,6|8,0:0|0:0,0:0:0:0:
134,187,147045,2,0,L|60:186,1,70,8|0,0:0|0:0,0:0:0:0:
156,253,147425,2,0,L|236:255,1,70,8|0,0:0|0:0,0:0:0:0:
51,327,147804,5,6,0:0:0:0:
193,250,148184,1,8,0:0:0:0:
31,172,148564,1,2,0:0:0:0:
202,55,148944,1,8,0:0:0:0:
492,333,149323,6,0,L|330:318,1,140,10|8,3:0|3:0,0:0:0:0:
448,250,149893,1,8,3:0:0:0:
274,180,150083,2,0,P|225:169|200:129,2,70,8|8|8,3:0|3:0|3:0,0:0:0:0:
362,113,150653,1,8,3:0:0:0:
187,26,150842,5,6,0:0:0:0:
456,350,151602,2,0,L|450:191,1,140,2|0,1:0|0:0,0:0:0:0:
373,146,152171,1,2,1:0:0:0:
190,36,152361,5,6,0:0:0:0:
256,192,152741,12,0,155399,0:0:0:0:
238,341,162994,5,6,0:0:0:0:
147,227,163184,2,0,L|85:220,2,35,0|0|8,0:0|0:0|3:0,0:0:0:0:
239,105,163564,1,8,3:0:0:0:
141,50,163754,2,0,L|57:48,2,70,8|8|8,3:0|3:0|3:0,0:0:0:0:
468,354,164513,6,0,L|483:197,1,140,6|12,0:0|0:0,0:0:0:0:
299,231,165273,1,2,0:0:0:0:
215,178,165463,1,8,3:0:0:0:
209,86,165653,1,8,0:0:0:0:
387,54,165842,6,0,P|430:81|372:147,1,140,6|0,0:0|0:0,0:0:0:0:
294,204,166412,1,8,0:0:0:0:
476,344,166792,1,0,0:0:0:0:
477,261,166982,1,2,0:0:0:0:
393,197,167171,1,8,0:0:0:0:
215,76,167361,6,0,L|363:73,1,140,6|0,0:0|0:0,0:0:0:0:
263,180,167931,1,8,0:0:0:0:
417,298,168311,2,0,L|422:386,1,70,8|0,3:0|0:0,0:0:0:0:
246,350,168690,1,8,0:0:0:0:
411,228,169070,2,0,P|440:187|385:127,1,140,6|8,0:0|0:0,0:0:0:0:
298,97,169640,2,0,L|147:97,1,140,2|0,0:0|0:0,0:0:0:0:
66,37,170209,1,8,0:0:0:0:
405,248,170589,6,0,P|408:295|316:320,1,140,6|8,0:0|0:0,0:0:0:0:
165,196,171349,2,0,L|77:194,2,70,2|0|8,0:0|0:0|0:0,0:0:0:0:
340,95,171918,6,0,L|173:95,1,140,6|0,0:0|0:0,0:0:0:0:
200,188,172488,1,8,0:0:0:0:
375,193,172678,1,6,0:0:0:0:
184,340,173058,2,0,L|111:342,1,70,0|8,0:0|0:0,0:0:0:0:
297,259,173437,6,0,P|348:219|275:129,1,210,6|8,0:0|0:0,0:0:0:0:
102,152,174387,2,0,L|171:129,1,70,2|0,0:0|0:0,0:0:0:0:
70,71,174766,2,0,L|-1:57,1,70,8|0,0:0|0:0,0:0:0:0:
179,353,175146,6,0,L|184:263,1,70,6|0,0:0|0:0,0:0:0:0:
84,226,175526,1,8,0:0:0:0:
259,61,175906,1,8,3:0:0:0:
455,292,176285,2,0,L|386:294,1,70,8|8,3:0|3:0,0:0:0:0:
209,184,176665,6,0,L|41:182,1,140,6|12,0:0|0:0,0:0:0:0:
260,72,177425,2,0,L|335:73,2,70,2|2|8,0:0|0:0|0:0,0:0:0:0:
78,216,177994,6,0,P|38:253|94:307,1,140,6|0,0:0|0:0,0:0:0:0:
168,352,178564,1,8,0:0:0:0:
357,255,178944,1,2,0:0:0:0:
259,194,179134,2,0,L|257:117,1,70,2|8,0:0|0:0,0:0:0:0:
432,36,179513,6,0,P|438:71|347:119,1,140,6|0,0:0|0:0,0:0:0:0:
271,155,180083,1,8,0:0:0:0:
440,338,180463,2,0,L|509:325,2,70,2|0|8,0:0|0:0|0:0,0:0:0:0:
258,269,181032,6,0,L|414:261,1,140,6|2,0:0|0:0,0:0:0:0:
215,158,181792,1,2,0:0:0:0:
405,88,182171,2,0,P|438:78|489:-17,1,140,8|8,1:0|1:0,0:0:0:0:
310,315,182741,6,0,L|160:341,1,140,6|8,0:0|0:0,0:0:0:0:
341,256,183501,2,0,L|340:174,1,70,0|2,0:0|0:0,0:0:0:0:
241,153,183880,2,0,L|237:70,1,70,8|0,0:0|0:0,0:0:0:0:
422,23,184260,6,0,P|465:45|477:143,1,140,6|8,0:0|0:0,0:0:0:0:
292,273,185020,2,0,L|215:269,1,70,2|0,0:0|0:0,0:0:0:0:
321,191,185399,2,0,L|397:192,1,70,8|0,0:0|0:0,0:0:0:0:
215,89,185779,5,6,0:0:0:0:
411,352,186159,2,0,L|410:183,1,140,10|10,0:0|0:0,0:0:0:0:
206,155,186918,1,10,0:0:0:0:
500,47,187298,2,0,L|493:209,1,140,6|10,0:0|0:0,0:0:0:0:
311,344,188058,1,10,0:0:0:0:
220,281,188247,1,0,0:0:0:0:
321,209,188437,1,10,0:0:0:0:
27,200,188817,6,0,L|23:119,1,70,4|8,0:0|0:0,0:0:0:0:
201,36,189197,1,8,0:0:0:0:
376,310,189577,1,8,0:0:0:0:
279,221,189766,1,8,0:0:0:0:
381,139,189956,1,8,0:0:0:0:
199,27,190146,5,12,0:0:0:0:
256,192,190526,12,0,194893,0:0:0:0:
377,333,205526,5,6,0:0:0:0:
228,254,205906,2,0,L|313:254,1,70,8|8,3:0|3:0,0:0:0:0:
200,169,206285,2,0,L|115:169,1,70,8|8,3:0|3:0,0:0:0:0:
31,95,206665,2,0,L|118:97,1,70,8|8,3:0|3:0,0:0:0:0:
303,335,207045,6,0,P|382:324|485:329,2,154.000004699707,6|12|2,0:0|0:0|0:0,0:0:0:0:
102,215,208184,2,0,L|90:123,1,77.0000023498536,8|0,0:0|0:0,0:0:0:0:
279,28,208564,1,6,0:0:0:0:
451,133,208944,1,8,0:0:0:0:
262,244,209323,1,2,0:0:0:0:
466,358,209703,1,8,0:0:0:0:
142,68,210083,6,0,P|91:85|39:192,1,154.000004699707,6|8,0:0|0:0,0:0:0:0:
255,341,210842,2,0,L|416:338,1,154.000004699707,2|8,0:0|0:0,0:0:0:0:
308,256,211412,1,0,0:0:0:0:
115,160,211602,2,0,P|44:130|80:76,1,154.000004699707,6|8,0:0|0:0,0:0:0:0:
239,81,212361,1,8,2:0:0:0:
155,24,212551,1,8,2:0:0:0:
68,88,212741,1,8,2:0:0:0:
399,342,213121,6,0,P|278:327|227:329,1,154.000004699707,6|8,0:0|0:0,0:0:0:0:
462,242,213880,2,0,L|365:233,1,77.0000023498536,2|0,0:0|0:0,0:0:0:0:
292,175,214260,2,0,L|284:89,1,77.0000023498536,8|0,0:0|0:0,0:0:0:0:
479,21,214640,5,6,0:0:0:0:
323,168,215020,1,8,0:0:0:0:
504,255,215399,1,2,1:0:0:0:
311,348,215779,1,8,1:0:0:0:
19,16,216159,6,0,P|64:25|179:49,1,154.000004699707,6|8,0:0|3:0,0:0:0:0:
258,95,216728,1,8,3:0:0:0:
76,160,216918,2,0,P|46:174|12:207,2,77.0000023498536,8|8|8,3:0|3:0|3:0,0:0:0:0:
169,206,217488,1,8,3:0:0:0:
351,49,217678,5,6,0:0:0:0:
154,340,218437,2,0,P|76:325|33:265,1,140,2|0,1:0|0:0,0:0:0:0:
103,220,219007,1,2,1:0:0:0:
285,107,219197,6,0,P|298:158|231:206,1,140,6|8,0:0|0:0,0:0:0:0:
152,267,219766,2,0,P|125:236|176:157,1,140,6|8,0:0|0:0,0:0:0:0:
342,50,220336,6,0,P|412:91|325:176,1,210,6|0,0:0|0:0,0:0:0:0:
272,193,221096,2,0,L|270:364,1,140,8|8,3:0|0:0,0:0:0:0:
438,104,221855,2,0,L|518:105,1,70,8|8,3:0|3:0,0:0:0:0:
328,286,222235,6,0,L|161:290,1,140,6|8,0:0|0:0,0:0:0:0:
279,215,222804,2,0,P|329:194|307:115,1,140,6|8,0:0|0:0,0:0:0:0:
137,131,223374,6,0,P|127:77|257:16,1,210,6|8,0:0|3:0,0:0:0:0:
334,93,224134,1,8,3:0:0:0:
153,316,224513,2,0,L|241:313,1,70,8|8,3:0|3:0,0:0:0:0:
399,215,224893,2,0,L|398:122,1,83.9999974365235,8|0,0:0|0:0,0:0:0:0:
210,103,225273,6,0,P|124:78|115:23,1,140,6|8,0:0|0:0,0:0:0:0:
212,1,225842,2,0,P|266:49|210:84,1,140,6|8,0:0|0:0,0:0:0:0:
50,175,226412,6,0,P|32:221|153:268,1,210,6|8,0:0|3:0,0:0:0:0:
246,218,227171,2,0,L|251:62,1,140,8|12,3:0|0:0,0:0:0:0:
54,328,227931,2,0,L|141:335,1,70,8|8,3:0|3:0,0:0:0:0:
307,240,228311,6,0,P|313:186|231:151,1,140,6|8,0:0|0:0,0:0:0:0:
46,214,228880,2,0,P|42:297|162:315,1,210.000008010865,6|8,0:0|0:0,0:0:0:0:
363,39,229539,5,6,0:0:0:0:
256,192,230039,12,0,235914,0:0:0:0:
