osu file format v14

[General]
AudioFilename: audio.mp3
AudioLeadIn: 0
PreviewTime: 194798
Countdown: 0
SampleSet: Soft
StackLeniency: 0.7
Mode: 2
LetterboxInBreaks: 0
WidescreenStoryboard: 1

[Editor]
DistanceSpacing: 1.3
BeatDivisor: 4
GridSize: 16
TimelineZoom: 1.5

[Metadata]
Title:Hoshiboshi no Wataridori
TitleUnicode:星々の渡り鳥
Artist:yanaginagi
ArtistUnicode:やなぎなぎ
Creator:-Hex-
Version:Cup
Source:AMNESIA
Tags:アムネシア natsu anime ending Shinya Saito Yuya Ebisawa Katsuhiko Kurosu Shuntaro Kado Shin Kono
BeatmapID:1948117
BeatmapSetID:924320

[Difficulty]
HPDrainRate:3
CircleSize:2.5
OverallDifficulty:6
ApproachRate:6
SliderMultiplier:1
SliderTickRate:1

[Events]
//Background and Video events
0,0,"bg.jpg",0,0
//Break Periods
2,80979,89033
2,155599,161944
2,195093,204476
//Storyboard Layer 0 (Background)
//Storyboard Layer 1 (Fail)
//Storyboard Layer 2 (Pass)
//Storyboard Layer 3 (Foreground)
//Storyboard Sound Samples

[TimingPoints]
15653,379.746835443038,4,2,1,25,1,0
15653,-100,4,2,1,25,0,0
16032,-100,4,2,1,25,0,0
16602,-100,4,2,1,25,0,0
16792,-100,4,2,1,25,0,0
17171,-100,4,2,1,25,0,0
17361,-100,4,2,1,25,0,0
20209,-100,4,2,1,25,0,0
20399,-100,4,2,1,25,0,0
20589,-100,4,2,1,25,0,0
20779,-100,4,2,1,25,0,0
21728,-100,4,2,1,25,0,0
22108,-100,4,2,1,25,0,0
22678,-100,4,2,1,25,0,0
22868,-100,4,2,1,25,0,0
23247,-100,4,2,1,25,0,0
23437,-100,4,2,1,25,0,0
23627,-100,4,2,1,25,0,0
23817,-100,4,2,1,25,0,0
24766,-100,4,2,1,25,0,0
25146,-100,4,2,1,25,0,0
25526,-100,4,2,1,25,0,0
25716,-100,4,2,1,25,0,0
25906,-100,4,2,1,25,0,0
26096,-100,4,2,1,25,0,0
26285,-100,4,2,1,25,0,0
26380,-100,4,2,1,25,0,0
27804,-100,4,2,1,25,0,0
28184,-100,4,2,1,25,0,0
29323,-100,4,2,1,25,0,0
29513,-100,4,2,1,25,0,0
29703,-100,4,2,1,25,0,0
29893,-100,4,2,1,25,0,0
30083,-100,4,2,1,25,0,0
30273,-100,4,2,1,25,0,0
31032,-100,4,2,1,25,0,0
31222,-100,4,2,1,25,0,0
31792,-100,4,2,1,25,0,0
31982,-100,4,2,1,25,0,0
32361,-100,4,2,1,25,0,0
32741,-100,4,2,1,25,0,0
32931,-100,4,2,1,25,0,0
33121,-100,4,2,1,25,0,0
33311,-100,4,2,1,25,0,0
34450,-100,4,2,1,25,0,0
34640,-100,4,2,1,25,0,0
34830,-100,4,2,1,25,0,0
35020,-100,4,2,1,25,0,0
35209,-100,4,2,1,25,0,0
35399,-100,4,2,1,25,0,0
37298,-100,4,2,1,25,0,0
37488,-100,4,2,1,25,0,0
38058,-100,4,2,1,25,0,0
38247,-100,4,2,1,25,0,0
38817,-100,4,2,1,25,0,0
39007,-100,4,2,1,25,0,0
39956,-100,4,2,1,40,0,0
41855,-100,4,2,1,40,0,0
42045,-100,4,2,1,40,0,0
42804,-100,4,2,1,40,0,0
42994,-100,4,2,1,40,0,0
43374,-100,4,2,1,40,0,0
43564,-100,4,2,1,40,0,0
46032,-100,4,2,1,40,0,0
50115,-100,4,2,1,40,0,0
50209,-100,4,2,1,40,0,0
50589,-100,4,2,1,40,0,0
52108,-100,4,2,1,45,0,0
53627,-100,4,2,1,60,0,1
65684,-100,4,2,1,60,0,0
65779,-100,4,2,1,60,0,1
76412,-100,4,2,1,40,0,0
90083,-100,4,2,1,30,0,0
90368,-100,4,2,1,30,0,0
90463,-100,4,2,1,30,0,0
90652,-100,4,2,1,30,0,0
90842,-100,4,2,1,30,0,0
91412,-100,4,2,1,30,0,0
91602,-100,4,2,1,30,0,0
93311,-100,4,2,1,30,0,0
93501,-100,4,2,1,30,0,0
93690,-100,4,2,1,30,0,0
93880,-100,4,2,1,30,0,0
99387,-100,4,2,1,30,0,0
99577,-100,4,2,1,30,0,0
101001,-100,4,2,1,30,0,0
101096,-100,4,2,1,30,0,0
101665,-100,4,2,1,30,0,0
102425,-100,4,2,1,40,0,0
102615,-100,4,2,1,40,0,0
110969,-100,4,2,1,40,0,0
111159,-100,4,2,1,40,0,0
114387,-100,4,2,1,40,0,0
117235,-100,4,2,1,40,0,0
117425,-100,4,2,1,40,0,0
120463,-100,4,2,1,40,0,0
126539,-100,4,2,1,45,0,0
128058,-100,4,2,1,60,0,1
140115,-100,4,2,1,60,0,0
140209,-100,4,2,1,60,0,1
150842,-100,4,2,1,40,0,0
152456,-100,4,2,1,40,0,0
162994,-100,4,2,1,50,0,0
164513,-100,4,2,1,50,0,0
188437,-100,4,2,1,50,0,0
188627,-100,4,2,1,50,0,0
191855,-100,4,2,1,25,0,0
193374,-100,4,2,1,10,0,0
194893,-100,4,2,1,50,0,0
207045,-90.9090909090909,4,2,1,60,0,1
214925,-90.9090909090909,4,2,1,60,0,1
215020,-90.9090909090909,4,2,1,60,0,1
217678,-100,4,2,1,50,0,0
218437,-100,4,2,1,45,0,0
218817,-100,4,2,1,20,0,0
219007,-100,4,2,1,45,0,0
219197,-100,4,2,1,50,0,0
224893,-83.3333333333333,4,2,1,50,0,0
225083,-100,4,2,1,50,0,0
226792,-100,4,2,1,30,0,0
226982,-100,4,2,1,50,0,0
228880,428.571428571429,4,2,1,50,1,0
228880,-66.6666666666667,4,2,1,50,0,0
229308,-100,4,2,1,50,0,0
229539,500,4,2,1,60,1,0
229789,-100,4,2,1,25,0,0
235914,-100,4,2,1,5,0,0

[Colours]
Combo1 : 78,67,99
Combo2 : 224,84,95
Combo3 : 174,184,193
Combo4 : 209,143,145

[HitObjects]
98,341,15652,5,4,1:0:0:0:
208,267,16032,2,0,L|211:151,1,100,0|0,0:0|0:0,0:0:0:0:
100,78,16792,1,0,0:0:0:0:
250,194,17171,2,0,L|413:195,1,150,4|0,1:0|0:0,0:0:0:0:
290,318,18121,2,0,L|288:166,1,150,0|4,0:0|1:0,0:0:0:0:
178,34,19070,6,0,L|60:33,2,100,0|0|0,0:0|0:0|0:0,0:0:0:0:
328,304,20209,2,0,L|329:242,1,50,4|0,1:0|0:0,0:0:0:0:
218,27,20779,2,0,P|170:55|232:110,1,150,0|2,0:0|1:0,0:0:0:0:
366,363,21728,5,4,1:0:0:0:
256,269,22108,2,0,L|150:269,2,100,0|0|0,0:0|0:0|0:0,0:0:0:0:
406,209,23247,2,0,P|411:135|333:113,1,150,4|0,1:0|0:0,0:0:0:0:
240,137,24197,2,0,L|236:79,1,50,0|0,0:0|0:0,0:0:0:0:
387,28,24766,5,4,1:0:0:0:
277,204,25146,2,0,L|279:272,1,50,0|0,0:0|0:0,0:0:0:0:
389,118,25716,2,0,P|389:78|337:45,1,100,0|0,0:0|0:0,0:0:0:0:
268,29,26285,1,4,1:0:0:0:
87,333,27045,6,0,L|32:332,2,50,2|2|2,1:0|1:0|1:0,0:0:0:0:
227,167,27804,5,4,1:0:0:0:
117,67,28184,2,0,P|61:84|5:108,2,100,0|0|0,0:0|0:0|0:0,0:0:0:0:
257,248,29323,2,0,L|256:191,1,50,4|0,1:0|0:0,0:0:0:0:
146,347,29893,1,0,0:0:0:0:
256,183,30273,2,0,L|322:177,1,50,0|0,0:0|0:0,0:0:0:0:
376,128,30652,6,0,P|378:88|282:55,1,150,0|0,0:0|0:0,0:0:0:0:
170,160,31602,2,0,L|165:276,1,100,0|0,0:0|0:0,0:0:0:0:
306,150,32361,2,0,L|471:149,1,150,4|2,1:0|1:0,0:0:0:0:
346,251,33311,2,0,L|348:311,1,50,0|0,0:0|0:0,0:0:0:0:
228,353,33880,5,4,1:0:0:0:
113,236,34260,2,0,P|83:204|95:135,1,100,0|0,0:0|0:0,0:0:0:0:
195,62,35020,1,0,0:0:0:0:
340,159,35399,2,0,P|411:223|334:281,1,200,4|2,1:0|1:0,0:0:0:0:
117,26,36728,1,0,0:0:0:0:
52,66,36918,6,0,P|14:134|102:207,1,200,2|2,1:0|1:0,0:0:0:0:
286,45,38247,1,0,0:0:0:0:
352,111,38437,2,0,P|399:157|332:209,1,150,2|2,1:0|1:0,0:0:0:0:
293,214,39197,1,2,1:0:0:0:
173,341,39577,1,0,0:0:0:0:
343,153,39956,6,0,L|345:53,1,100,4|0,0:0|0:0,0:0:0:0:
225,26,40716,2,0,L|111:26,1,100,2|2,1:0|1:0,0:0:0:0:
275,128,41475,2,0,L|275:197,1,50,4|2,0:0|1:0,0:0:0:0:
155,203,42045,2,0,P|122:249|188:301,1,150,2|0,1:0|0:0,0:0:0:0:
335,230,42994,6,0,L|334:125,1,100,4|0,0:0|0:0,0:0:0:0:
214,39,43754,2,0,L|320:39,1,100,2|2,1:0|1:0,0:0:0:0:
469,137,44513,2,0,L|469:199,1,50,4|0,0:0|0:0,0:0:0:0:
349,320,45083,5,2,1:0:0:0:
348,230,45273,2,0,L|257:229,2,75,2|2|2,1:0|1:0|1:0,0:0:0:0:
448,38,46032,6,0,L|334:39,1,100,4|8,0:0|3:0,0:0:0:0:
228,216,46792,2,0,L|230:328,1,100,10|8,3:0|3:0,0:0:0:0:
390,97,47551,5,4,0:0:0:0:
270,265,47931,1,8,3:0:0:0:
320,265,48120,1,2,1:0:0:0:
370,265,48310,1,0,0:0:0:0:
490,65,48690,1,8,3:0:0:0:
330,304,49070,6,0,L|228:302,2,100,4|8|10,0:0|3:0|3:0,0:0:0:0:
455,208,50209,1,8,3:0:0:0:
295,99,50589,2,0,L|174:99,1,100,4|8,0:0|3:0,0:0:0:0:
70,168,51349,2,0,L|69:279,1,100,8|8,3:0|3:0,0:0:0:0:
229,345,52108,6,0,L|119:343,1,100,12|8,3:0|3:0,0:0:0:0:
269,231,52868,2,0,L|304:174,2,50,8|8|8,3:0|3:0|3:0,0:0:0:0:
99,41,53627,6,0,L|222:42,2,100,6|12|2,0:0|0:0|0:0,0:0:0:0:
229,277,54766,1,8,0:0:0:0:
399,182,55146,2,0,P|411:154|412:75,1,100,6|8,0:0|0:0,0:0:0:0:
284,342,55906,2,0,P|244:328|166:329,1,100,2|8,0:0|0:0,0:0:0:0:
17,127,56665,6,0,L|183:129,1,150,6|2,0:0|0:0,0:0:0:0:
165,39,57425,1,2,0:0:0:0:
36,312,57804,1,8,0:0:0:0:
206,229,58184,1,6,0:0:0:0:
214,97,58564,1,8,0:0:0:0:
84,118,58944,1,2,0:0:0:0:
76,255,59323,1,8,0:0:0:0:
246,248,59703,6,0,P|299:216|255:145,1,150,6|0,0:0|0:0,0:0:0:0:
197,91,60463,1,6,0:0:0:0:
436,205,61032,1,0,0:0:0:0:
346,205,61222,2,0,L|343:322,1,100,6|8,0:0|0:0,0:0:0:0:
213,127,61982,2,0,L|326:128,1,100,10|8,0:0|0:0,0:0:0:0:
143,170,62741,6,0,P|71:187|58:264,1,150,6|0,0:0|0:0,0:0:0:0:
106,323,63501,1,6,0:0:0:0:
286,228,64070,1,0,0:0:0:0:
376,174,64260,2,0,L|377:61,1,100,6|2,0:0|0:0,0:0:0:0:
196,18,65020,1,12,0:0:0:0:
326,301,65399,2,0,L|259:303,1,50,8|8,3:0|3:0,0:0:0:0:
180,244,65779,6,0,L|64:242,2,100,6|12|2,0:0|0:0|0:0,0:0:0:0:
310,145,66918,1,8,0:0:0:0:
140,49,67298,1,6,0:0:0:0:
270,332,67678,2,0,L|273:217,1,100,8|2,0:0|0:0,0:0:0:0:
143,124,68437,1,8,0:0:0:0:
323,340,68817,6,0,L|428:339,1,100,6|8,0:0|0:0,0:0:0:0:
303,246,69577,2,0,L|305:141,1,100,2|8,0:0|0:0,0:0:0:0:
465,55,70336,2,0,L|362:56,1,100,6|8,0:0|0:0,0:0:0:0:
235,285,71096,2,0,L|207:344,2,50,2|8|8,0:0|3:0|3:0,0:0:0:0:
410,237,71855,6,0,P|427:195|423:128,1,100,6|8,0:0|0:0,0:0:0:0:
251,91,72615,2,0,P|236:49|247:-8,1,100,8|8,0:0|0:0,0:0:0:0:
425,329,73374,1,6,0:0:0:0:
295,221,73754,2,0,L|403:219,2,100,8|2|8,0:0|0:0|0:0,0:0:0:0:
120,335,74893,6,0,L|229:335,1,100,8|8,3:0|3:0,0:0:0:0:
220,251,75463,1,8,3:0:0:0:
350,176,75842,2,0,P|372:131|344:77,1,100,8|8,3:0|3:0,0:0:0:0:
268,20,76412,5,6,0:0:0:0:
69,343,77171,2,0,L|234:344,1,150,2|2,1:0|1:0,0:0:0:0:
129,246,77931,5,6,0:0:0:0:
256,192,78311,8,0,80779,0:0:0:0:
352,346,90083,5,6,0:0:0:0:
237,245,90463,2,0,L|232:132,1,100,8|8,3:0|3:0,0:0:0:0:
348,74,91222,1,8,3:0:0:0:
203,201,91602,2,0,P|206:271|281:285,1,150,12|0,3:0|0:0,0:0:0:0:
384,184,92551,2,0,L|382:67,1,100,0|0,0:0|0:0,0:0:0:0:
312,29,93121,5,8,3:0:0:0:
202,175,93501,1,8,3:0:0:0:
317,332,93880,2,0,L|426:333,1,100,8|0,3:0|0:0,0:0:0:0:
267,224,94640,2,0,L|266:169,1,50,12|0,3:0|0:0,0:0:0:0:
381,40,95209,2,0,L|218:41,1,150,0|8,0:0|3:0,0:0:0:0:
81,335,96159,5,6,0:0:0:0:
196,247,96539,2,0,P|258:248|296:257,2,100,8|8|8,3:0|3:0|3:0,0:0:0:0:
51,151,97678,2,0,P|45:114|137:52,1,150,12|0,3:0|0:0,0:0:0:0:
238,360,98627,2,0,L|238:249,1,100,0|2,0:0|0:0,0:0:0:0:
162,201,99197,5,8,3:0:0:0:
277,334,99577,2,0,L|378:340,2,100,0|8|12,0:0|3:0|3:0,0:0:0:0:
132,251,100716,2,0,B|133:163|133:163|259:164,1,200,12|8,3:0|0:0,0:0:0:0:
360,63,101855,1,8,3:0:0:0:
205,256,102235,5,6,0:0:0:0:
325,178,102615,2,0,L|436:178,1,100,8|0,0:0|0:0,0:0:0:0:
305,56,103374,1,8,0:0:0:0:
460,237,103754,2,0,P|463:300|373:328,1,150,0|2,3:0|1:0,0:0:0:0:
273,253,104703,2,0,L|275:185,1,50,8|8,3:0|0:0,0:0:0:0:
430,86,105273,5,8,3:0:0:0:
310,352,105652,2,0,L|207:351,2,100,8|8|0,0:0|3:0|0:0,0:0:0:0:
441,136,106792,2,0,L|382:135,1,50,8|2,3:0|1:0,0:0:0:0:
261,29,107361,2,0,L|370:30,1,100,8|8,3:0|2:0,0:0:0:0:
362,118,107931,1,8,0:0:0:0:
192,334,108311,5,4,0:0:0:0:
317,198,108690,2,0,L|200:199,1,100,8|0,0:0|0:0,0:0:0:0:
92,114,109450,1,8,0:0:0:0:
262,48,109830,2,0,P|322:122|246:169,1,200,2|0,1:0|0:0,0:0:0:0:
95,301,110969,1,8,0:0:0:0:
270,181,111349,6,0,P|292:120|193:57,1,200,6|6,0:0|0:0,0:0:0:0:
55,326,112488,1,8,0:0:0:0:
225,263,112868,2,0,L|338:261,1,100,6|8,0:0|0:0,0:0:0:0:
195,156,113627,2,0,L|194:38,1,100,8|8,3:0|1:0,0:0:0:0:
370,45,114387,6,0,L|368:157,1,100,6|0,0:0|0:0,0:0:0:0:
248,256,115146,2,0,L|246:358,1,100,0|0,0:0|0:0,0:0:0:0:
422,336,115906,2,0,L|486:335,1,50,6|0,0:0|0:0,0:0:0:0:
342,220,116475,2,0,L|186:220,1,150,2|0,1:0|0:0,0:0:0:0:
368,20,117425,6,0,L|252:18,1,100,6|0,0:0|0:0,0:0:0:0:
142,189,118184,2,0,L|143:304,1,100,0|0,0:0|0:0,0:0:0:0:
318,333,118944,2,0,L|370:334,1,50,6|0,0:0|0:0,0:0:0:0:
238,201,119513,5,2,1:0:0:0:
238,201,119703,2,0,L|321:201,2,75,8|8|8,3:0|3:0|3:0,0:0:0:0:
148,123,120463,6,0,L|255:122,1,100,6|8,0:0|3:0,0:0:0:0:
421,35,121222,2,0,L|321:35,1,100,8|8,3:0|3:0,0:0:0:0:
151,340,121982,5,6,0:0:0:0:
281,238,122361,1,8,3:0:0:0:
330,237,122551,1,2,1:0:0:0:
380,237,122740,1,0,0:0:0:0:
255,74,123121,1,8,0:0:0:0:
425,341,123501,6,0,L|315:342,2,100,4|8|8,0:0|0:0|3:0,0:0:0:0:
305,226,124640,1,8,1:0:0:0:
465,152,125020,2,0,P|480:93|474:45,1,100,4|8,0:0|3:0,0:0:0:0:
346,13,125779,2,0,P|317:8|233:12,1,100,8|8,3:0|0:0,0:0:0:0:
86,332,126539,6,0,P|124:325|200:330,1,100,6|8,0:0|3:0,0:0:0:0:
310,185,127298,1,8,3:0:0:0:
238,183,127488,1,8,3:0:0:0:
166,182,127678,1,8,3:0:0:0:
336,43,128058,6,0,P|286:43|236:45,2,100,6|12|2,0:0|0:0|0:0,0:0:0:0:
471,334,129197,1,8,0:0:0:0:
301,215,129577,2,0,P|267:205|194:202,1,100,6|8,0:0|0:0,0:0:0:0:
68,116,130336,2,0,P|50:66|49:13,1,100,2|8,0:0|0:0,0:0:0:0:
219,344,131096,6,0,L|58:337,1,150,6|0,0:0|0:0,0:0:0:0:
70,258,131855,1,2,0:0:0:0:
205,104,132235,1,8,0:0:0:0:
45,329,132615,1,6,0:0:0:0:
145,243,132994,1,8,0:0:0:0:
285,164,133374,1,2,0:0:0:0:
290,25,133754,1,8,0:0:0:0:
115,238,134134,6,0,P|111:296|197:338,1,150,6|0,0:0|0:0,0:0:0:0:
272,360,134893,1,6,0:0:0:0:
474,210,135463,1,0,0:0:0:0:
384,157,135653,2,0,L|378:53,1,100,6|8,0:0|0:0,0:0:0:0:
499,349,136412,2,0,P|439:345|387:346,1,100,8|8,3:0|0:0,0:0:0:0:
223,357,137171,6,0,P|213:295|291:256,1,150,6|0,0:0|0:0,0:0:0:0:
370,195,137931,1,6,0:0:0:0:
168,106,138501,1,0,0:0:0:0:
258,45,138690,2,0,L|258:150,1,100,6|10,0:0|0:0,0:0:0:0:
77,312,139450,1,12,0:0:0:0:
212,216,139830,2,0,L|269:217,1,50,8|8,3:0|3:0,0:0:0:0:
347,143,140209,6,0,L|464:144,2,100,6|12|2,0:0|0:0|0:0,0:0:0:0:
217,178,141349,1,8,0:0:0:0:
387,369,141728,1,6,0:0:0:0:
257,126,142108,2,0,P|228:122|153:122,1,100,8|2,0:0|0:0,0:0:0:0:
288,345,142868,1,8,0:0:0:0:
118,281,143247,6,0,L|116:169,1,100,6|8,0:0|0:0,0:0:0:0:
247,72,144007,2,0,L|127:71,1,100,2|8,0:0|0:0,0:0:0:0:
317,305,144766,2,0,L|422:306,1,100,6|8,0:0|0:0,0:0:0:0:
282,230,145526,2,0,L|229:199,2,50,2|8|8,0:0|3:0|3:0,0:0:0:0:
457,55,146285,6,0,P|401:45|350:48,1,100,6|8,0:0|0:0,0:0:0:0:
183,297,147045,2,0,P|159:244|155:188,1,100,8|8,0:0|0:0,0:0:0:0:
334,64,147804,1,6,0:0:0:0:
204,338,148184,2,0,L|105:332,2,100,8|2|8,0:0|0:0|0:0,0:0:0:0:
379,171,149323,6,0,L|257:171,1,100,10|8,3:0|3:0,0:0:0:0:
278,82,149893,1,8,3:0:0:0:
138,349,150273,2,0,P|127:305|176:254,1,100,8|8,3:0|3:0,0:0:0:0:
225,200,150842,5,6,0:0:0:0:
485,18,151602,2,0,L|323:18,1,150,2|2,1:0|1:0,0:0:0:0:
415,100,152361,5,6,0:0:0:0:
256,192,152741,12,0,155399,0:0:0:0:
95,352,162994,5,6,0:0:0:0:
215,279,163374,2,0,L|317:276,2,100,8|8|8,3:0|3:0|3:0,0:0:0:0:
45,183,164513,6,0,L|40:71,1,100,6|12,0:0|0:0,0:0:0:0:
171,51,165273,2,0,L|275:50,1,100,2|8,0:0|0:0,0:0:0:0:
346,96,165842,2,0,P|357:180|298:238,1,150,6|8,0:0|0:0,0:0:0:0:
189,345,166792,2,0,L|136:344,1,50,0|2,0:0|0:0,0:0:0:0:
309,251,167361,6,0,P|360:236|403:137,1,150,6|8,0:0|0:0,0:0:0:0:
273,99,168311,2,0,P|247:42|245:-2,1,100,8|8,3:0|0:0,0:0:0:0:
374,304,169070,2,0,P|402:299|477:306,2,100,6|8|0,0:0|0:0|0:0,0:0:0:0:
239,170,170209,1,8,0:0:0:0:
414,341,170589,6,0,L|310:342,1,100,6|8,0:0|0:0,0:0:0:0:
184,250,171349,2,0,L|184:194,1,50,2|0,0:0|0:0,0:0:0:0:
354,68,171918,1,6,0:0:0:0:
114,343,172678,1,6,0:0:0:0:
382,128,173437,5,6,0:0:0:0:
218,322,174007,2,0,L|109:312,2,100,8|2|8,0:0|0:0|0:0,0:0:0:0:
393,120,175146,2,0,L|288:118,1,100,6|8,0:0|0:0,0:0:0:0:
122,316,175906,1,8,3:0:0:0:
257,204,176285,2,0,L|325:205,1,50,8|8,3:0|3:0,0:0:0:0:
389,134,176665,6,0,L|394:33,1,100,6|12,0:0|0:0,0:0:0:0:
259,346,177425,2,0,L|208:345,1,50,2|2,0:0|0:0,0:0:0:0:
379,242,177994,2,0,P|389:168|317:128,1,150,6|8,0:0|0:0,0:0:0:0:
203,41,178944,2,0,L|257:42,1,50,2|2,0:0|0:0,0:0:0:0:
428,344,179513,6,0,L|260:342,1,150,6|8,0:0|0:0,0:0:0:0:
148,247,180463,2,0,L|146:184,1,50,2|0,0:0|0:0,0:0:0:0:
317,135,181032,2,0,L|317:30,1,100,6|2,0:0|0:0,0:0:0:0:
182,343,181792,1,2,0:0:0:0:
317,267,182171,1,8,1:0:0:0:
39,21,182741,6,0,P|37:104|144:150,1,200,6|0,0:0|0:0,0:0:0:0:
262,267,183880,1,8,0:0:0:0:
92,220,184260,2,0,L|292:224,1,200,6|2,0:0|0:0,0:0:0:0:
157,109,185399,1,8,0:0:0:0:
332,40,185779,5,6,0:0:0:0:
197,211,186159,2,0,L|298:239,1,100,10|10,0:0|0:0,0:0:0:0:
428,330,186918,1,10,0:0:0:0:
253,200,187298,2,0,L|152:165,1,100,6|10,0:0|0:0,0:0:0:0:
289,358,188058,1,10,0:0:0:0:
294,246,188437,1,10,0:0:0:0:
124,140,188817,6,0,L|64:140,2,50,4|8|8,0:0|0:0|0:0,0:0:0:0:
259,53,189577,1,8,0:0:0:0:
189,50,189766,1,8,0:0:0:0:
119,49,189956,1,8,0:0:0:0:
189,50,190146,5,12,0:0:0:0:
256,192,190526,12,0,194893,0:0:0:0:
250,323,205526,5,6,0:0:0:0:
140,248,205906,2,0,L|44:192,2,100,8|8|8,3:0|3:0|3:0,0:0:0:0:
322,150,207045,6,0,P|366:146|441:146,2,110.000003356934,6|12|2,0:0|0:0|0:0,0:0:0:0:
190,44,208184,1,8,0:0:0:0:
372,277,208564,1,6,0:0:0:0:
234,184,208944,2,0,P|268:176|362:172,1,110.000003356934,8|2,0:0|0:0,0:0:0:0:
480,58,209703,1,8,0:0:0:0:
298,319,210083,6,0,P|189:305|186:305,1,110.000003356934,6|8,0:0|0:0,0:0:0:0:
52,200,210842,2,0,P|18:162|46:112,1,110.000003356934,2|8,0:0|0:0,0:0:0:0:
179,336,211602,2,0,P|122:328|57:327,1,110.000003356934,6|8,0:0|0:0,0:0:0:0:
213,196,212361,2,0,L|250:147,2,55.0000016784668,8|8|8,2:0|2:0|2:0,0:0:0:0:
31,55,213121,6,0,P|103:46|162:49,1,110.000003356934,6|8,0:0|0:0,0:0:0:0:
322,296,213880,2,0,P|252:304|197:294,1,110.000003356934,2|8,0:0|0:0,0:0:0:0:
401,176,214640,1,6,0:0:0:0:
269,81,215020,2,0,P|322:73|386:71,2,110.000003356934,8|2|8,0:0|1:0|1:0,0:0:0:0:
82,344,216159,6,0,L|214:344,1,110.000003356934,6|8,0:0|3:0,0:0:0:0:
196,258,216728,1,8,3:0:0:0:
339,178,217108,2,0,P|372:177|397:93,1,110.000003356934,8|8,3:0|3:0,0:0:0:0:
333,61,217678,5,6,0:0:0:0:
93,335,218437,2,0,P|62:306|111:217,1,150,2|2,1:0|1:0,0:0:0:0:
199,153,219197,6,0,P|269:128|301:54,1,150,6|6,0:0|0:0,0:0:0:0:
46,83,220336,2,0,P|69:207|141:240,1,200,6|8,0:0|3:0,0:0:0:0:
256,344,221475,1,8,0:0:0:0:
126,235,221855,1,8,3:0:0:0:
296,138,222235,6,0,P|341:188|277:241,1,150,6|6,0:0|0:0,0:0:0:0:
41,41,223374,2,0,L|255:40,1,200,6|8,0:0|3:0,0:0:0:0:
111,338,224513,2,0,L|112:271,1,50,8|8,3:0|3:0,0:0:0:0:
202,233,224893,1,8,0:0:0:0:
32,38,225273,6,0,P|51:104|122:155,1,150,6|6,0:0|0:0,0:0:0:0:
368,354,226412,2,0,P|437:342|405:226,1,200,6|8,0:0|3:0,0:0:0:0:
296,64,227551,1,12,0:0:0:0:
417,219,227931,1,8,3:0:0:0:
247,325,228311,5,6,0:0:0:0:
454,80,228880,1,6,0:0:0:0:
203,228,229539,5,6,0:0:0:0:
256,192,230039,12,0,235914,0:0:0:0:
