osu file format v14

[General]
AudioFilename: audio.mp3
AudioLeadIn: 1000
PreviewTime: 134534
Countdown: 0
SampleSet: Soft
StackLeniency: 0.7
Mode: 0
LetterboxInBreaks: 0
WidescreenStoryboard: 1

[Editor]
Bookmarks: 7645,18679,29714,40921,60231,84886,93162,115403,126438,134714,156783,173334,184369,195403,206438,236783,247817,257300,262989
DistanceSpacing: 1.3
BeatDivisor: 4
GridSize: 32
TimelineZoom: 1.7

[Metadata]
Title:Harumodoki
TitleUnicode:春擬き
Artist:yanaginagi
ArtistUnicode:やなぎなぎ
Creator:lapp
Version:Denial
Source:やはり俺の青春ラブコメはまちがっている。続
Tags:wanpachi cycopoton j-rock jrock rock japanese jp anime animation yahari ore no seishun rabu kome wa machigatteiru. zoku my teen love Youth Romantic Comedy Is Wrong, As I Expected snafu too! too oregairu season 2 s2 pseudospring pseudo-spring pseudo spring feel sentai filmworks full ver version
BeatmapID:3932366
BeatmapSetID:1906935

[Difficulty]
HPDrainRate:5
CircleSize:4
OverallDifficulty:9
ApproachRate:9.2
SliderMultiplier:1.72
SliderTickRate:1

[Events]
//Background and Video events
0,0,"cropped-1920-1080-736341_waifu2x_art_noise1_scale.jpg",0,0
//Break Periods
//Storyboard Layer 0 (Background)
//Storyboard Layer 1 (Fail)
//Storyboard Layer 2 (Pass)
//Storyboard Layer 3 (Foreground)
//Storyboard Layer 4 (Overlay)
//Storyboard Sound Samples

[TimingPoints]
911,344.827586206897,4,2,6,50,1,0
911,-138.888888888889,4,2,6,50,0,0
7635,-89.2857142857143,4,2,6,75,0,0
15911,-153.846153846154,4,2,6,70,0,0
18669,-121.951219512195,4,2,6,60,0,0
27290,-238.095238095238,4,2,6,45,0,0
29014,-238.095238095238,4,2,6,65,0,0
29704,-108.695652173913,4,2,6,65,0,0
40911,-161.290322580645,4,2,6,60,0,0
51945,-108.695652173913,4,2,6,70,0,0
57462,-108.695652173913,4,2,6,75,0,0
58842,-108.695652173913,4,2,6,40,0,0
59531,-108.695652173913,4,2,6,55,0,0
59876,-75.7575757575758,4,2,6,75,0,0
60221,-89.2857142857143,4,2,6,80,0,1
82290,-89.2857142857143,4,2,6,80,0,0
90393,-200,4,2,6,70,0,0
93152,-121.951219512195,4,2,6,55,0,0
115393,-161.290322580645,4,2,6,50,0,0
126428,-108.695652173913,4,2,6,70,0,0
131945,-108.695652173913,4,2,6,75,0,0
133324,-108.695652173913,4,2,6,40,0,0
134014,-108.695652173913,4,2,6,55,0,0
134359,-75.7575757575758,4,2,6,75,0,0
134704,-89.2857142857143,4,2,6,80,0,1
156773,-121.951219512195,4,2,6,60,0,0
167807,-81.967213114754,4,2,6,70,0,0
169704,-108.695652173913,4,2,6,60,0,0
170566,-75.7575757575758,4,2,6,70,0,0
171945,-98.0392156862745,4,2,6,60,0,0
173324,-89.2857142857143,4,2,6,80,0,0
184359,-238.095238095238,4,2,6,45,0,0
195393,-121.951219512195,4,2,6,55,0,0
200911,-121.951219512195,4,2,6,65,0,0
202290,-121.951219512195,4,2,6,70,0,0
203669,-121.951219512195,4,2,6,75,0,0
205048,-121.951219512195,4,2,6,40,0,0
205738,-121.951219512195,4,2,6,55,0,0
206083,-75.7575757575757,4,2,6,75,0,0
206428,-89.2857142857143,4,2,6,80,0,1
232462,-181.818181818182,4,2,6,60,0,0
236428,-81.9672131147541,4,2,6,60,0,0
236773,-89.2857142857143,4,2,6,75,0,0
247807,-89.2857142857143,4,2,6,80,0,0
256773,-61.7283950617284,4,2,6,80,0,0
257290,-61.7283950617284,4,2,6,70,0,0
264273,-61.7283950617284,4,2,6,5,0,0

[Colours]
Combo1 : 128,255,128
Combo2 : 128,255,255
Combo3 : 255,128,128
Combo4 : 255,255,128

[HitObjects]
51,111,911,6,0,P|110:97|183:82,1,123.840003023438,2|2,0:0|0:0,0:0:0:0:
292,149,1600,2,0,P|351:135|424:120,1,123.840003023438,2|2,0:0|0:0,0:0:0:0:
218,235,2290,5,2,0:0:0:0:
293,329,2635,1,2,0:0:0:0:
106,250,2979,1,2,0:0:0:0:
182,138,3324,1,2,0:0:0:0:
402,61,3669,5,2,0:0:0:0:
402,61,4014,2,0,P|348:68|288:21,2,123.840003023438,2|2|2,0:0|0:0|0:0,0:0:0:0:
473,174,5048,5,2,0:0:0:0:
473,174,5393,2,0,P|419:167|359:214,2,123.840003023438,2|2|2,0:0|0:0|0:0,0:0:0:0:
354,300,6428,6,0,P|338:295|312:286,3,30.9600007558594,0|0|0|0,3:0|3:0|3:0|3:0,0:0:0:0:
265,218,6773,2,0,P|250:222|235:227,3,30.9600007558594,0|0|0|0,3:0|3:0|3:0|3:0,0:0:0:0:
142,287,7117,1,8,0:0:0:0:
107,308,7203,1,8,0:0:0:0:
67,306,7289,1,0,1:3:0:0:
35,280,7375,1,0,1:3:0:0:
25,241,7461,1,0,1:0:0:0:
40,203,7548,1,0,1:0:0:0:
74,181,7635,6,0,P|120:243|242:215,1,192.640002351563,6|2,1:2|1:2,0:0:0:0:
298,55,8152,5,10,1:2:0:0:
268,92,8238,1,0,1:0:0:0:
266,139,8324,1,2,1:2:0:0:
293,178,8410,1,0,1:0:0:0:
337,194,8496,1,10,1:2:0:0:
365,155,8583,1,0,1:0:0:0:
407,132,8669,1,2,1:2:0:0:
455,129,8755,1,0,1:0:0:0:
499,147,8842,2,0,P|490:171|481:201,1,48.1600005878906,10|0,1:2|1:0,0:0:0:0:
510,301,9014,2,0,P|501:326|492:355,1,48.1600005878906,2|0,1:2|1:0,0:0:0:0:
397,272,9186,6,0,P|373:278|350:285,3,48.1600005878906,10|0|2|0,1:2|1:0|1:2|1:0,0:0:0:0:
246,223,9531,2,0,P|222:229|199:236,3,48.1600005878906,10|0|2|0,1:2|1:0|1:2|1:0,0:0:0:0:
326,174,9876,1,10,1:2:0:0:
239,348,10048,1,2,1:2:0:0:
413,176,10221,1,10,1:2:0:0:
211,52,10393,6,0,B|259:44|323:78|323:78|360:69|378:20,1,192.640002351563,6|2,1:2|1:2,0:0:0:0:
246,223,10911,5,10,1:2:0:0:
203,243,10997,1,0,1:0:0:0:
155,242,11083,1,2,1:2:0:0:
113,220,11169,1,0,1:0:0:0:
86,181,11255,1,10,1:2:0:0:
44,203,11342,1,0,1:0:0:0:
24,246,11428,1,2,1:2:0:0:
33,290,11514,1,0,1:0:0:0:
67,325,11600,2,0,P|91:311|120:297,1,48.1600005878906,10|0,1:2|1:0,0:0:0:0:
330,255,11773,2,0,P|309:242|287:231,1,48.1600005878906,2|0,1:2|1:0,0:0:0:0:
168,103,11945,6,0,P|177:130|184:160,1,48.1600005878906,10|0,1:2|1:0,0:0:0:0:
202,376,12117,2,0,P|208:352|215:329,1,48.1600005878906,2|0,1:2|1:0,0:0:0:0:
306,113,12290,1,10,1:2:0:0:
134,251,12462,1,2,1:2:0:0:
271,37,12635,1,10,1:2:0:0:
102,167,12807,1,10,1:2:0:0:
325,283,12979,1,10,1:2:0:0:
158,70,13152,6,0,P|126:116|-12:118,1,192.640002351563,6|2,1:2|1:2,0:0:0:0:
139,300,13669,5,10,1:2:0:0:
178,326,13755,1,0,1:0:0:0:
226,327,13841,1,2,1:2:0:0:
266,302,13927,1,0,1:0:0:0:
287,259,14014,1,10,1:2:0:0:
307,215,14101,1,0,1:0:0:0:
347,190,14187,1,2,1:2:0:0:
395,191,14273,1,0,1:0:0:0:
435,218,14359,5,10,1:2:0:0:
413,228,14445,1,0,1:0:0:0:
389,232,14531,1,2,1:2:0:0:
365,230,14617,1,0,1:0:0:0:
343,222,14703,1,10,1:2:0:0:
323,208,14790,1,0,1:0:0:0:
309,189,14876,1,2,1:2:0:0:
299,167,14962,1,0,1:0:0:0:
296,143,15048,6,0,P|301:116|309:84,1,48.1600005878906,10|0,1:2|1:0,0:0:0:0:
213,9,15221,2,0,P|207:32|202:56,1,48.1600005878906,2|0,1:2|1:0,0:0:0:0:
118,283,15393,1,10,1:2:0:0:
66,253,15479,1,0,1:3:0:0:
41,199,15565,1,0,1:3:0:0:
51,141,15651,1,0,1:3:0:0:
93,99,15738,2,0,P|104:123|117:147,1,48.1600005878906,0|0,1:3|1:3,0:0:0:0:
247,335,15911,6,0,B|307:278|392:281|462:342|462:342|319:249|281:78|406:37|477:89|461:161|379:186,1,670.799969293214,6|8,1:2|1:3,0:0:0:0:
400,177,18066,1,8,1:3:0:0:
400,177,18152,1,10,1:2:0:0:
75,117,18324,1,10,0:0:0:0:
75,117,18669,6,0,P|115:126|203:77,1,141.0400021521,6|2,1:2|1:2,0:0:0:0:
293,179,19186,2,0,P|261:185|221:195,1,70.5200010760498,10|2,0:2|0:0,0:0:0:0:
190,305,19531,1,2,1:2:0:0:
190,305,19704,2,0,P|224:296|258:289,1,70.5200010760498,2|0,1:2|0:0,0:0:0:0:
258,289,19962,5,0,1:0:0:0:
258,289,20048,2,0,P|302:316|373:311,1,105.780001614075,10|0,0:2|1:0,0:0:0:0:
385,304,20393,1,2,1:2:0:0:
502,225,20566,1,8,0:0:0:0:
502,225,20911,5,2,1:2:0:0:
406,49,21083,1,2,1:2:0:0:
406,49,21428,6,0,P|390:107|364:201,1,141.0400021521,8|2,0:0|1:2,0:0:0:0:
220,137,21945,2,0,P|253:127|291:117,1,70.5200010760498,10|2,0:2|0:0,0:0:0:0:
114,66,22290,1,2,1:2:0:0:
114,66,22462,2,0,P|147:56|185:46,1,70.5200010760498,2|0,1:2|0:0,0:0:0:0:
23,154,22807,6,0,P|72:148|145:210,1,141.0400021521,10|2,0:2|1:2,0:0:0:0:
107,293,23324,1,10,0:2:0:0:
21,260,23497,1,2,0:0:0:0:
226,157,23669,5,2,1:2:0:0:
291,351,23842,1,2,1:2:0:0:
291,351,24186,6,0,P|328:341|428:320,1,141.0400021521,8|2,0:0|1:2,0:0:0:0:
507,196,24704,1,10,0:2:0:0:
425,219,24876,1,2,0:0:0:0:
345,191,25048,1,2,1:2:0:0:
289,126,25221,2,0,P|254:133|220:142,1,70.5200010760498,2|0,1:2|0:0,0:0:0:0:
185,214,25479,5,0,1:2:0:0:
185,214,25566,2,0,P|150:221|116:230,1,70.5200010760498,10|0,1:2|0:0,0:0:0:0:
7,267,25911,1,2,1:2:0:0:
29,185,26083,1,10,0:2:0:0:
50,103,26255,1,0,0:0:0:0:
50,103,26342,1,8,0:0:0:0:
50,103,26428,1,2,1:2:0:0:
115,341,26600,1,2,1:2:0:0:
357,258,26945,5,6,1:2:0:0:
357,258,27290,6,0,P|352:276|346:302,2,36.1199988977051,2|2|2,0:0|0:0|0:0,0:0:0:0:
381,175,27807,2,0,P|385:157|389:139,1,36.1199988977051,2|2,0:0|0:0,0:0:0:0:
400,37,28324,6,0,P|369:56|321:56,1,72.2399977954102,2|2,0:2|0:0,0:0:0:0:
245,18,28842,2,0,P|226:19|209:28,1,36.1199988977051,2|2,0:0|1:2,0:0:0:0:
191,52,29100,1,0,1:0:0:0:
191,52,29186,1,10,1:2:0:0:
107,237,29359,1,10,1:2:0:0:
107,237,29704,6,0,B|146:223|194:253|194:253|232:237|243:195,1,158.239994687988,6|2,1:2|1:2,0:0:0:0:
386,335,30221,1,10,0:2:0:0:
338,221,30393,1,2,0:0:0:0:
462,168,30566,1,2,1:2:0:0:
462,168,30738,2,0,P|448:207|437:248,1,79.1199973439942,2|8,1:2|1:2,0:0:0:0:
393,75,31083,6,0,P|429:66|475:53,1,79.1199973439942,2|0,0:2|1:0,0:0:0:0:
345,176,31428,2,0,B|261:152|277:222|171:190,1,158.239994687988,2|2,1:2|1:2,0:0:0:0:
58,99,31945,1,2,1:2:0:0:
134,274,32117,1,2,1:2:0:0:
27,191,32290,1,8,0:0:0:0:
82,355,32462,6,0,P|139:308|233:329,1,158.239994687988,6|2,1:2|1:2,0:0:0:0:
349,384,32979,1,10,0:0:0:0:
218,318,33152,1,2,0:2:0:0:
375,205,33324,1,2,1:2:0:0:
310,296,33497,2,0,P|297:258|283:221,1,79.1199973439942,2|8,1:2|0:0,0:0:0:0:
158,89,33842,6,0,P|234:109|317:130,1,158.239994687988,2|2,0:2|1:2,0:0:0:0:
449,44,34359,2,0,P|433:79|415:123,1,79.1199973439942,10|2,1:2|1:2,0:0:0:0:
502,195,34704,1,2,1:2:0:0:
320,234,34876,1,2,1:2:0:0:
429,306,35048,1,8,0:0:0:0:
248,361,35221,6,0,P|170:362|112:311,1,158.239994687988,6|2,1:2|1:2,0:0:0:0:
42,161,35738,1,10,0:0:0:0:
202,261,35911,1,2,0:2:0:0:
149,143,36083,1,2,1:2:0:0:
271,93,36255,2,0,P|256:135|236:191,1,79.1199973439942,2|8,1:2|0:0,0:0:0:0:
360,310,36600,6,0,B|399:296|447:326|447:326|485:310|496:268,1,158.239994687988,2|2,0:2|1:2,0:0:0:0:
512,136,37117,2,0,P|473:144|428:156,1,79.1199973439942,10|0,1:2|1:0,0:0:0:0:
370,30,37462,1,2,1:2:0:0:
334,118,37635,1,2,1:2:0:0:
301,207,37807,1,8,0:0:0:0:
184,58,37979,6,0,P|122:76|12:103,1,158.239994687988,6|2,1:2|1:2,0:0:0:0:
127,179,38497,1,10,0:0:0:0:
127,179,38669,1,2,0:2:0:0:
62,258,38842,1,2,1:2:0:0:
220,213,39014,2,0,P|207:247|191:295,1,79.1199973439942,2|8,1:2|0:0,0:0:0:0:
303,375,39359,5,2,1:2:0:0:
303,375,39445,1,0,0:0:0:0:
303,375,39531,2,0,P|315:337|329:300,1,79.1199973439942,2|2,1:2|1:2,0:0:0:0:
473,349,39876,1,6,1:2:0:0:
379,206,40048,1,2,1:2:0:0:
503,146,40221,6,0,P|492:172|477:210,2,52.7466648959962,8|8|8,0:0|0:0|1:3,0:0:0:0:
434,66,40566,5,8,1:3:0:0:
392,98,40681,5,0,1:3:0:0:
339,101,40796,5,0,1:3:0:0:
291,78,40911,6,0,P|211:59|150:121,1,159.959993653931,6|0,1:2|1:0,0:0:0:0:
222,208,41600,2,0,P|231:178|241:147,1,53.3199978846436,10|0,0:0|0:0,0:0:0:0:
111,260,41945,2,0,P|120:230|130:199,1,53.3199978846436,2|0,1:2|1:0,0:0:0:0:
149,359,42290,6,0,P|193:342|256:320,1,106.639995769287,2|2,1:2|0:0,0:0:0:0:
348,250,42807,1,2,1:2:0:0:
326,374,42979,2,0,P|353:363|384:353,1,53.3199978846436,8|0,0:0|0:0,0:0:0:0:
494,276,43324,2,0,P|485:301|478:326,1,53.3199978846436,2|0,1:2|0:0,0:0:0:0:
412,198,43669,6,0,P|425:150|458:39,1,159.959993653931,2|2,1:2|1:2,0:0:0:0:
329,71,44359,2,0,P|302:79|269:89,1,53.3199978846436,8|0,0:0|0:0,0:0:0:0:
229,180,44704,2,0,P|202:188|169:198,1,53.3199978846436,2|0,1:2|1:0,0:0:0:0:
73,158,45048,5,2,0:0:0:0:
35,87,45221,1,2,0:0:0:0:
82,23,45393,1,2,1:2:0:0:
159,45,45566,1,2,0:0:0:0:
159,45,45652,1,0,0:0:0:0:
159,45,45738,2,0,P|149:74|135:112,1,53.3199978846436,10|2,0:0|1:3,0:0:0:0:
175,198,46083,2,0,P|165:227|151:265,1,53.3199978846436,2|2,1:3|1:3,0:0:0:0:
62,330,46428,6,0,B|154:307|132:373|235:345,1,159.959993653931,6|0,1:2|1:0,0:0:0:0:
330,281,47117,2,0,P|321:304|312:333,1,53.3199978846436,10|0,0:0|0:0,0:0:0:0:
430,263,47462,2,0,P|421:286|412:315,1,53.3199978846436,2|0,1:2|1:0,0:0:0:0:
351,177,47807,6,0,P|400:179|450:142,1,106.639995769287,2|2,1:2|0:0,0:0:0:0:
429,42,48324,1,2,1:2:0:0:
293,98,48497,2,0,P|267:92|234:84,1,53.3199978846436,8|0,0:0|0:0,0:0:0:0:
124,44,48842,2,0,P|132:68|141:99,1,53.3199978846436,2|2,0:0|0:0,0:0:0:0:
66,192,49186,6,0,P|116:208|179:229,1,106.639995769287,2|2,1:2|0:0,0:0:0:0:
220,308,49704,2,0,P|245:301|271:295,1,53.3199978846436,2|8,1:2|0:0,0:0:0:0:
424,179,50048,1,2,0:2:0:0:
361,326,50221,1,2,1:2:0:0:
361,326,50393,1,2,1:2:0:0:
467,293,50566,1,2,0:0:0:0:
317,220,50738,1,10,0:2:0:0:
408,88,50911,6,0,P|382:96|354:105,1,53.3199978846436,2|0,0:2|1:0,0:0:0:0:
213,35,51255,1,10,1:2:0:0:
266,127,51428,1,0,1:0:0:0:
160,197,51600,2,0,P|167:168|178:133,1,53.3199978846436,8|0,0:2|0:0,0:0:0:0:
69,286,51945,5,6,1:2:0:0:
69,286,52290,2,0,P|145:281|203:333,1,158.239994687988,10|2,0:0|1:2,0:0:0:0:
372,237,52807,1,0,1:0:0:0:
262,146,52979,1,10,0:0:0:0:
309,333,53152,6,0,B|348:319|396:349|396:349|434:333|445:291,1,158.239994687988,6|0,1:2|1:0,0:0:0:0:
407,67,53669,2,0,P|396:106|385:148,1,79.1199973439942,10|0,0:0|0:0,0:0:0:0:
178,237,54014,1,2,1:2:0:0:
297,113,54186,1,0,1:0:0:0:
151,10,54359,2,0,P|162:49|173:91,1,79.1199973439942,10|0,0:0|0:0,0:0:0:0:
21,160,54704,5,6,1:2:0:0:
58,150,54790,1,0,1:0:0:0:
96,156,54876,1,0,1:0:0:0:
130,176,54962,1,0,1:0:0:0:
154,206,55048,1,0,1:0:0:0:
178,237,55135,1,0,1:0:0:0:
212,258,55221,1,10,1:2:0:0:
251,263,55307,1,0,1:0:0:0:
289,255,55393,1,0,1:0:0:0:
320,230,55480,1,0,1:0:0:0:
336,194,55566,1,0,1:0:0:0:
334,155,55652,1,0,1:0:0:0:
315,120,55738,1,2,1:2:0:0:
283,98,55825,1,0,1:0:0:0:
245,93,55911,1,0,1:0:0:0:
207,105,55997,1,0,1:0:0:0:
177,134,56083,5,2,1:2:0:0:
191,179,56169,1,0,1:0:0:0:
225,210,56255,1,10,1:2:0:0:
263,219,56342,1,0,1:0:0:0:
301,212,56428,1,2,1:2:0:0:
333,189,56514,1,0,1:0:0:0:
352,154,56600,1,2,1:2:0:0:
355,115,56686,1,0,1:0:0:0:
342,78,56773,1,8,1:2:0:0:
313,50,56859,1,0,1:0:0:0:
276,38,56945,1,2,1:2:0:0:
237,42,57031,1,0,1:0:0:0:
204,63,57117,1,2,1:2:0:0:
170,85,57204,1,0,1:0:0:0:
131,90,57290,1,0,1:0:0:0:
94,78,57376,1,0,1:0:0:0:
66,50,57462,5,6,1:2:0:0:
120,43,57549,1,0,1:0:0:0:
165,76,57635,1,2,1:2:0:0:
175,131,57721,1,0,1:0:0:0:
145,177,57807,1,2,1:2:0:0:
120,225,57893,1,0,1:0:0:0:
140,276,57979,1,2,1:2:0:0:
192,295,58065,1,0,1:0:0:0:
238,266,58152,1,8,1:2:0:0:
285,238,58238,1,0,1:0:0:0:
338,251,58324,1,2,1:3:0:0:
366,299,58410,1,0,1:3:0:0:
353,352,58496,1,2,1:3:0:0:
305,380,58583,1,0,1:0:0:0:
252,367,58669,2,0,P|247:338|240:299,1,39.5599986719971,6|0,1:2|0:0,0:0:0:0:
160,174,58842,6,0,P|141:179|120:186,3,39.5599986719971,2|0|0|0,1:2|1:3|1:3|1:3,0:0:0:0:
232,77,59186,2,0,P|213:82|192:89,3,39.5599986719971,2|0|2|0,1:2|1:3|1:2|1:3,0:0:0:0:
317,154,59531,1,0,1:3:0:0:
323,135,59617,1,0,1:3:0:0:
328,116,59703,1,8,1:3:0:0:
334,97,59789,1,8,1:3:0:0:
339,78,59876,6,0,B|379:62|424:49|424:49|433:95|471:140,1,170.279999480347,10|0,0:0|0:0,0:0:0:0:
488,213,60221,6,0,P|441:199|373:179,1,96.3200011757813,6|0,1:2|0:0,0:0:0:0:
125,264,60566,2,0,P|171:277|217:291,1,96.3200011757813,10|0,0:2|0:0,0:0:0:0:
217,291,60824,1,0,0:0:0:0:
217,291,60911,1,2,0:2:0:0:
79,152,61083,1,0,1:0:0:0:
215,29,61255,2,0,P|259:72|352:72,1,144.480001763672,10|0,0:2|0:0,0:0:0:0:
376,75,61600,6,0,P|359:119|338:173,1,96.3200011757813,2|0,1:2|0:0,0:0:0:0:
407,384,61945,2,0,P|424:339|441:294,1,96.3200011757813,10|0,0:2|0:0,0:0:0:0:
239,161,62290,1,2,1:2:0:0:
293,344,62462,1,0,1:0:0:0:
97,293,62635,2,0,P|144:272|201:254,1,96.3200011757813,10|0,0:2|0:0,0:0:0:0:
31,69,62979,6,0,P|74:110|165:102,1,144.480001763672,6|0,1:2|0:0,0:0:0:0:
184,87,63324,2,0,P|228:68|288:48,1,96.3200011757813,10|0,0:2|0:0,0:0:0:0:
435,260,63669,1,2,1:2:0:0:
265,155,63842,1,0,1:0:0:0:
434,39,64014,2,0,P|414:81|390:141,1,96.3200011757813,10|0,0:2|0:0,0:0:0:0:
363,324,64359,5,2,1:2:0:0:
265,155,64531,1,2,0:0:0:0:
159,368,64704,1,10,0:0:0:0:
5,195,64876,2,0,B|56:185|109:232|109:232|149:221|166:160,1,192.640002351563,2|0,0:0|1:0,0:0:0:0:
97,19,65393,1,10,0:2:0:0:
160,177,65566,1,2,0:2:0:0:
330,59,65738,6,0,P|387:113|521:85,1,192.640002351563,6|10,1:2|0:2,0:0:0:0:
337,278,66255,2,0,P|383:262|449:243,1,96.3200011757813,2|0,0:2|1:0,0:0:0:0:
255,184,66600,1,2,1:2:0:0:
382,384,66773,1,10,0:0:0:0:
255,184,66945,6,0,B|204:174|151:221|151:221|111:210|94:149,1,192.640002351563,6|0,1:2|1:0,0:0:0:0:
148,11,67462,2,0,P|161:51|178:112,1,96.3200011757813,10|0,0:2|0:0,0:0:0:0:
105,304,67807,1,2,1:2:0:0:
33,110,67979,1,0,1:0:0:0:
105,304,68152,2,0,P|162:347|252:314,1,144.480001763672,10|0,0:2|0:0,0:0:0:0:
261,316,68497,6,0,P|305:331|358:347,1,96.3200011757813,6|0,1:2|0:0,0:0:0:0:
497,156,68842,2,0,P|450:142|405:126,1,96.3200011757813,10|0,0:2|0:0,0:0:0:0:
246,12,69186,1,2,1:2:0:0:
344,211,69359,1,0,1:0:0:0:
168,94,69531,1,10,0:2:0:0:
387,24,69704,1,6,1:2:0:0:
387,24,70048,5,2,1:2:0:0:
206,162,70221,1,8,0:0:0:0:
414,272,70393,2,0,P|331:238|257:306,1,192.640002351563,6|10,1:2|0:0,0:0:0:0:
251,343,70824,1,8,0:0:0:0:
212,370,70910,1,8,0:0:0:0:
165,372,70996,1,8,3:0:0:0:
124,347,71082,1,8,3:0:0:0:
106,303,71168,1,8,3:0:0:0:
102,255,71255,6,0,P|53:240|-23:217,1,96.3200011757813,6|0,1:2|0:0,0:0:0:0:
254,144,71600,2,0,P|300:156|346:171,1,96.3200011757813,10|0,0:2|0:0,0:0:0:0:
375,183,71859,1,0,0:0:0:0:
375,183,71945,1,2,1:2:0:0:
241,27,72117,1,0,1:0:0:0:
70,171,72290,2,0,P|118:221|188:221,1,144.480001763672,10|0,0:2|0:0,0:0:0:0:
226,219,72635,6,0,P|213:261|195:323,1,96.3200011757813,2|0,1:2|0:0,0:0:0:0:
379,384,72979,2,0,P|392:337|406:291,1,96.3200011757813,10|0,0:2|0:0,0:0:0:0:
479,128,73324,1,2,1:2:0:0:
314,258,73497,1,0,1:0:0:0:
336,39,73669,2,0,P|350:85|363:131,1,96.3200011757813,10|0,0:2|0:0,0:0:0:0:
150,232,74014,6,0,P|99:236|25:155,1,144.480001763672,6|0,1:2|0:0,0:0:0:0:
31,142,74359,2,0,P|77:127|136:111,1,96.3200011757813,10|0,0:2|0:0,0:0:0:0:
332,252,74704,1,2,1:2:0:0:
221,113,74876,1,0,1:0:0:0:
410,47,75048,2,0,P|395:93|382:139,1,96.3200011757813,10|0,0:2|0:0,0:0:0:0:
254,353,75393,5,2,1:2:0:0:
454,250,75566,1,2,0:0:0:0:
270,117,75738,1,8,0:0:0:0:
171,240,75911,2,0,P|262:257|332:196,1,192.640002351563,2|2,0:0|1:2,0:0:0:0:
369,63,76428,2,0,P|317:76|267:89,1,96.3200011757813,8|0,0:0|0:0,0:0:0:0:
93,47,76773,5,6,1:2:0:0:
239,165,76945,1,2,0:2:0:0:
44,263,77117,1,10,0:2:0:0:
157,119,77290,1,2,0:2:0:0:
266,276,77462,2,0,P|251:318|233:369,1,96.3200011757813,2|0,1:2|1:0,0:0:0:0:
165,235,77807,5,10,0:2:0:0:
418,175,77979,1,6,1:2:0:0:
296,70,78152,1,2,0:2:0:0:
382,274,78324,1,0,1:2:0:0:
512,115,78497,2,0,P|497:65|483:22,1,96.3200011757813,8|0,0:2|0:0,0:0:0:0:
210,122,78842,2,0,P|257:170|351:160,1,144.480001763672,2|0,1:2|0:0,0:0:0:0:
366,159,79186,2,0,P|351:204|337:250,1,96.3200011757813,8|0,0:0|0:0,0:0:0:0:
187,313,79531,6,0,B|140:301|80:350|80:350|38:331|23:271,1,192.640002351563,6|10,1:2|0:2,0:0:0:0:
97,124,80048,1,2,0:2:0:0:
250,220,80221,1,8,0:0:0:0:
289,247,80307,1,8,0:0:0:0:
337,250,80393,1,8,3:2:0:0:
368,231,80479,1,8,3:0:0:0:
403,187,80566,2,0,P|398:162|391:131,1,48.1600005878906,0|0,3:0|3:0,0:0:0:0:
114,37,80738,6,0,P|131:114|158:236,1,192.640002351563,6|0,1:2|1:0,0:0:0:0:
71,355,81255,2,0,P|120:337|177:319,1,96.3200011757813,10|0,0:2|0:0,0:0:0:0:
289,247,81600,1,8,0:0:0:0:
326,229,81686,1,8,0:0:0:0:
368,231,81772,1,8,0:0:0:0:
403,250,81858,1,8,0:0:0:0:
427,283,81945,2,0,P|374:300|322:319,1,96.3200011757813,8|2,0:0|1:2,0:0:0:0:
91,190,82290,5,6,1:2:0:0:
267,101,82462,1,2,1:2:0:0:
48,95,82635,5,10,0:0:0:0:
308,197,82807,1,2,1:2:0:0:
48,275,82979,5,10,0:0:0:0:
143,51,83152,1,2,1:2:0:0:
143,51,83238,1,0,1:0:0:0:
143,51,83324,5,10,0:0:0:0:
207,251,83497,1,2,1:2:0:0:
331,72,83669,6,0,P|377:59|424:51,1,96.3200011757813,10|2,0:0|1:2,0:0:0:0:
466,311,84014,2,0,P|418:320|371:331,1,96.3200011757813,10|2,0:0|1:2,0:0:0:0:
182,135,84359,1,10,0:0:0:0:
389,216,84531,1,2,1:2:0:0:
389,216,84617,1,0,1:0:0:0:
389,216,84704,1,10,0:0:0:0:
181,366,84876,6,0,P|127:312|-13:333,1,192.640002351563,6|2,1:2|1:2,0:0:0:0:
133,139,85393,5,10,0:0:0:0:
254,296,85566,1,2,1:2:0:0:
357,57,85738,5,10,0:0:0:0:
210,213,85911,1,2,1:2:0:0:
452,123,86083,5,10,0:0:0:0:
477,247,86255,1,2,1:2:0:0:
277,104,86428,5,10,0:0:0:0:
391,306,86600,1,2,1:2:0:0:
188,362,86773,5,2,1:3:0:0:
140,369,86859,1,0,1:3:0:0:
96,351,86945,1,0,1:3:0:0:
67,314,87031,1,0,0:0:0:0:
60,267,87117,1,2,1:3:0:0:
79,223,87204,1,0,1:3:0:0:
117,194,87290,2,0,P|141:202|174:215,1,48.1600005878906,2|0,1:3|0:0,0:0:0:0:
376,179,87462,2,0,P|353:170|330:162,1,48.1600005878906,10|0,0:0|0:0,0:0:0:0:
202,19,87635,6,0,P|227:104|259:217,1,192.640002351563,6|2,1:2|1:2,0:0:0:0:
265,236,88066,1,0,1:0:0:0:
265,236,88152,5,14,0:0:0:0:
372,89,88324,1,2,1:2:0:0:
294,318,88497,5,10,0:0:0:0:
466,234,88669,1,2,1:2:0:0:
194,292,88842,5,10,0:0:0:0:
402,361,89014,1,2,1:2:0:0:
322,168,89186,5,10,0:0:0:0:
220,376,89359,1,2,1:2:0:0:
155,125,89531,5,10,0:0:0:0:
351,261,89704,1,2,1:2:0:0:
96,369,89876,1,8,0:0:0:0:
44,339,89962,1,8,0:0:0:0:
19,285,90048,1,0,1:3:0:0:
29,227,90134,1,0,1:3:0:0:
71,185,90221,2,0,P|94:193|124:203,1,48.1600005878906,0|0,1:0|1:0,0:0:0:0:
262,309,90393,6,0,B|308:302|351:261|351:261|332:391|492:433|561:340|563:259|505:176|401:240|438:296,1,537.5,6|0,1:2|0:0,0:0:0:0:
435,291,92635,1,8,0:0:0:0:
499,135,92807,1,0,1:0:0:0:
388,59,92979,1,0,1:0:0:0:
268,113,93152,6,0,P|303:155|395:155,1,141.0400021521,6|2,1:2|1:2,0:0:0:0:
473,259,93669,2,0,P|441:265|389:276,1,70.5200010760498,10|2,0:2|0:0,0:0:0:0:
320,354,94014,1,2,1:2:0:0:
253,308,94186,2,0,P|221:314|169:325,1,70.5200010760498,2|0,1:2|0:0,0:0:0:0:
156,328,94445,5,0,1:0:0:0:
156,328,94531,2,0,P|168:279|190:208,1,105.780001614075,10|0,0:2|1:0,0:0:0:0:
193,196,94876,1,2,1:2:0:0:
141,129,95048,1,8,0:0:0:0:
188,61,95221,1,0,0:0:0:0:
188,61,95307,1,8,0:0:0:0:
188,61,95393,2,0,P|221:51|265:39,1,70.5200010760498,2|2,1:2|1:2,0:0:0:0:
400,158,95738,1,2,0:0:0:0:
430,77,95911,6,0,P|380:70|312:130,1,141.0400021521,8|2,0:0|1:2,0:0:0:0:
348,250,96428,2,0,P|357:278|369:319,1,70.5200010760498,10|2,0:2|0:0,0:0:0:0:
286,340,96686,1,0,1:0:0:0:
286,340,96773,2,0,P|276:306|265:272,1,70.5200010760498,2|2,1:2|1:2,0:0:0:0:
145,181,97117,1,0,0:0:0:0:
65,219,97290,6,0,P|112:268|181:266,1,141.0400021521,10|2,0:2|1:2,0:0:0:0:
263,164,97807,1,10,0:2:0:0:
211,88,97979,1,2,0:0:0:0:
318,10,98152,2,0,P|308:42|294:89,1,70.5200010760498,2|2,1:2|1:2,0:0:0:0:
349,180,98497,2,0,P|355:160|364:136,1,35.2600005380249,2|2,0:0|0:0,0:0:0:0:
433,203,98669,6,0,P|369:217|285:240,1,141.0400021521,8|2,0:0|1:2,0:0:0:0:
153,145,99186,2,0,P|162:177|176:227,1,70.5200010760498,10|2,0:2|0:0,0:0:0:0:
233,309,99531,1,2,1:2:0:0:
93,261,99704,2,0,P|102:294|112:328,1,70.5200010760498,2|0,1:2|1:2,0:0:0:0:
124,357,99962,5,0,1:2:0:0:
124,357,100048,2,0,P|174:364|229:317,1,105.780001614075,10|0,1:2|0:0,0:0:0:0:
233,309,100393,1,2,1:2:0:0:
254,219,100566,1,10,0:2:0:0:
277,130,100738,1,2,0:0:0:0:
336,275,100911,2,0,P|372:265|410:254,1,70.5200010760498,2|2,1:2|1:2,0:0:0:0:
441,74,101255,1,2,0:0:0:0:
481,158,101428,6,0,P|412:164|363:116,1,141.0400021521,8|2,0:0|1:2,0:0:0:0:
251,25,101945,2,0,P|259:60|271:107,1,70.5200010760498,8|2,0:0|0:0,0:0:0:0:
70,101,102290,1,2,1:2:0:0:
159,41,102462,2,0,P|167:76|179:123,1,70.5200010760498,2|0,1:2|0:0,0:0:0:0:
91,218,102807,6,0,P|58:204|19:189,1,70.5200010760498,10|0,0:2|0:0,0:0:0:0:
181,192,103152,1,2,1:2:0:0:
97,321,103324,2,0,P|64:307|25:292,1,70.5200010760498,10|2,0:2|0:0,0:0:0:0:
184,281,103669,1,2,1:2:0:0:
270,312,103842,1,0,1:2:0:0:
355,344,104014,1,2,0:0:0:0:
265,156,104186,6,0,P|334:164|390:120,1,141.0400021521,6|2,1:2|1:2,0:0:0:0:
283,0,104704,2,0,P|292:30|306:76,1,70.5200010760498,10|2,0:2|0:0,0:0:0:0:
195,42,105048,1,2,1:2:0:0:
265,156,105221,2,0,P|233:142|183:122,1,70.5200010760498,2|0,1:2|1:2,0:0:0:0:
167,121,105479,5,0,1:2:0:0:
167,121,105566,2,0,P|179:167|198:236,1,105.780001614075,10|0,0:2|0:0,0:0:0:0:
202,254,105911,1,2,1:2:0:0:
56,138,106083,1,8,0:0:0:0:
107,232,106255,1,2,1:2:0:0:
0,299,106428,2,0,P|10:264|20:225,1,70.5200010760498,2|2,1:2|1:2,0:0:0:0:
121,350,106773,2,0,L|164:338,1,35.2600005380249,2|0,1:2|0:0,0:0:0:0:
267,284,106945,6,0,P|305:327|392:324,1,141.0400021521,10|2,0:0|1:2,0:0:0:0:
506,286,107462,2,0,P|472:276|423:262,1,70.5200010760498,10|2,0:0|0:0,0:0:0:0:
397,195,107721,1,0,1:0:0:0:
397,195,107807,2,0,P|363:185|315:170,1,70.5200010760498,2|2,1:2|1:2,0:0:0:0:
425,91,108152,1,0,0:0:0:0:
292,13,108324,6,0,P|251:53|151:44,1,141.0400021521,10|2,0:0|1:2,0:0:0:0:
210,163,108842,1,8,0:0:0:0:
130,134,109014,1,2,0:0:0:0:
50,105,109186,1,2,1:2:0:0:
162,265,109359,1,2,1:2:0:0:
57,200,109531,2,0,L|73:252,1,35.2600005380249,2|2,1:2|0:0,0:0:0:0:
119,345,109704,6,0,P|166:305|264:318,1,141.0400021521,8|2,0:0|1:2,0:0:0:0:
356,384,110221,2,0,P|347:344|338:300,1,70.5200010760498,8|2,0:0|0:0,0:0:0:0:
428,228,110566,2,0,P|420:250|412:279,1,35.2600005380249,2|8,1:2|0:0,0:0:0:0:
293,195,110738,1,2,1:2:0:0:
375,153,110911,1,2,0:0:0:0:
375,153,110997,1,0,1:0:0:0:
375,153,111083,6,0,P|365:107|351:41,1,105.780001614075,10|8,0:0|0:0,0:0:0:0:
346,25,111428,1,2,1:2:0:0:
177,88,111600,2,0,P|212:101|264:117,1,70.5200010760498,10|2,0:0|0:0,0:0:0:0:
271,122,111859,1,8,0:0:0:0:
271,122,111945,1,2,1:2:0:0:
162,254,112117,1,2,1:2:0:0:
285,213,112290,1,2,1:2:0:0:
167,359,112462,1,8,0:0:0:0:
285,213,112635,6,0,P|296:245|310:290,1,70.5200010760498,2|2,0:0|1:2,0:0:0:0:
476,278,112979,2,0,P|465:244|453:211,1,70.5200010760498,8|2,0:0|0:0,0:0:0:0:
446,186,113238,1,8,0:0:0:0:
446,186,113324,1,2,1:2:0:0:
464,35,113497,2,0,P|430:47|391:60,1,70.5200010760498,2|0,1:2|0:0,0:0:0:0:
299,160,113842,6,0,P|265:123|160:132,1,141.0400021521,10|2,0:0|1:2,0:0:0:0:
248,277,114359,1,10,0:0:0:0:
89,179,114531,1,2,0:0:0:0:
95,204,114617,1,8,0:0:0:0:
101,230,114703,1,8,0:0:0:0:
108,255,114789,1,8,0:0:0:0:
114,281,114876,2,0,P|97:272|77:262,1,35.2600005380249,0|0,1:3|1:3,0:0:0:0:
72,360,115048,2,0,P|56:351|40:343,1,35.2600005380249,0|0,1:3|1:3,0:0:0:0:
209,309,115221,5,0,3:3:0:0:
209,309,115307,1,0,3:3:0:0:
209,309,115393,2,0,B|251:306|290:329|290:329|332:305|322:247,1,159.959993653931,6|0,1:2|1:0,0:0:0:0:
226,158,116083,2,0,P|234:183|244:218,1,53.3199978846436,6|0,0:0|0:0,0:0:0:0:
125,130,116428,2,0,P|133:155|143:190,1,53.3199978846436,2|0,1:2|1:0,0:0:0:0:
101,27,116773,6,0,P|151:45|201:63,1,106.639995769287,2|2,1:2|0:0,0:0:0:0:
296,115,117290,1,2,1:2:0:0:
388,24,117462,2,0,P|396:49|406:84,1,53.3199978846436,8|0,0:0|0:0,0:0:0:0:
369,179,117807,2,0,P|377:204|384:229,1,53.3199978846436,2|0,1:2|0:0,0:0:0:0:
477,328,118152,6,0,B|385:305|407:371|304:343,1,159.959993653931,2|2,1:2|1:2,0:0:0:0:
190,280,118842,2,0,P|215:273|246:264,1,53.3199978846436,8|0,0:0|0:0,0:0:0:0:
157,377,119186,2,0,P|182:370|213:361,1,53.3199978846436,2|0,1:2|1:0,0:0:0:0:
81,306,119531,5,2,0:0:0:0:
40,242,119704,1,2,0:0:0:0:
53,168,119876,1,2,1:2:0:0:
108,118,120048,1,8,0:0:0:0:
108,118,120135,1,8,0:0:0:0:
108,118,120221,2,0,L|154:135,2,35.5466652564291,8|0|0,0:0|1:3|1:3,0:0:0:0:
224,69,120566,5,0,1:3:0:0:
232,95,120681,5,0,1:3:0:0:
240,122,120796,5,0,1:3:0:0:
246,149,120911,6,0,P|277:117|392:126,1,159.959993653931,6|0,1:2|1:0,0:0:0:0:
443,232,121600,2,0,P|420:224|384:212,1,53.3199978846436,10|0,0:0|0:0,0:0:0:0:
317,276,121945,2,0,P|294:268|258:256,1,53.3199978846436,2|0,1:2|1:0,0:0:0:0:
168,336,122290,6,0,P|153:284|137:233,1,106.639995769287,2|2,1:2|0:0,0:0:0:0:
39,289,122807,1,2,1:2:0:0:
73,168,122979,2,0,P|63:142|53:113,1,53.3199978846436,8|0,0:0|0:0,0:0:0:0:
124,34,123324,2,0,P|152:43|188:56,1,53.3199978846436,2|2,1:2|0:0,0:0:0:0:
261,118,123669,6,0,P|287:97|362:96,1,106.639995769287,2|2,1:2|0:0,0:0:0:0:
418,192,124186,2,0,P|390:184|357:174,1,53.3199978846436,2|8,1:2|0:0,0:0:0:0:
510,153,124531,1,2,0:0:0:0:
397,283,124704,1,2,1:2:0:0:
397,283,124876,1,2,1:2:0:0:
512,247,125048,1,2,0:0:0:0:
422,382,125221,1,2,1:2:0:0:
300,286,125393,6,0,P|292:260|283:235,1,53.3199978846436,6|0,1:2|0:0,0:0:0:0:
164,310,125738,2,0,P|173:335|181:361,1,53.3199978846436,2|0,1:3|0:0,0:0:0:0:
46,259,126083,1,2,1:3:0:0:
51,239,126169,1,0,1:3:0:0:
56,220,126255,1,0,1:3:0:0:
61,201,126341,1,0,1:3:0:0:
70,184,126427,1,6,1:2:0:0:
70,184,126773,6,0,B|113:180|162:207|162:207|199:188|210:145,1,158.239994687988,10|2,0:0|1:2,0:0:0:0:
242,0,127290,1,0,1:0:0:0:
120,100,127462,1,10,0:0:0:0:
279,231,127635,6,0,P|317:189|433:206,1,158.239994687988,6|0,1:2|1:0,0:0:0:0:
408,335,128152,2,0,P|371:323|319:306,1,79.1199973439942,10|0,0:0|0:0,0:0:0:0:
188,188,128497,1,2,1:2:0:0:
242,366,128669,1,0,1:0:0:0:
44,288,128842,2,0,P|81:276|133:259,1,79.1199973439942,10|0,0:0|0:0,0:0:0:0:
215,100,129186,5,6,1:2:0:0:
250,84,129272,1,0,1:0:0:0:
290,85,129358,1,0,1:0:0:0:
325,102,129444,1,0,1:0:0:0:
350,132,129531,1,0,1:0:0:0:
373,164,129617,1,0,1:0:0:0:
408,180,129703,1,10,1:2:0:0:
447,175,129789,1,0,1:0:0:0:
478,152,129875,1,0,1:0:0:0:
493,115,129962,1,0,1:0:0:0:
488,77,130048,1,0,1:0:0:0:
464,46,130134,1,0,1:0:0:0:
428,31,130220,5,2,1:2:0:0:
402,62,130306,1,0,1:0:0:0:
392,100,130392,1,0,1:0:0:0:
400,139,130478,1,0,1:0:0:0:
424,169,130565,1,2,1:2:0:0:
448,200,130652,1,0,1:0:0:0:
456,239,130738,1,10,1:2:0:0:
446,277,130824,1,0,1:0:0:0:
420,307,130911,1,2,1:2:0:0:
384,323,130997,1,0,1:0:0:0:
344,322,131083,1,2,1:2:0:0:
310,303,131169,1,0,1:0:0:0:
287,271,131255,1,8,1:2:0:0:
264,240,131342,1,0,1:0:0:0:
229,221,131428,1,2,1:2:0:0:
190,219,131514,1,0,1:0:0:0:
154,235,131600,1,2,1:2:0:0:
137,271,131686,1,0,1:0:0:0:
143,309,131772,1,0,1:0:0:0:
169,338,131858,1,0,1:0:0:0:
207,347,131945,5,6,1:2:0:0:
248,311,132031,1,0,1:0:0:0:
257,256,132117,1,2,1:2:0:0:
229,207,132203,1,0,1:0:0:0:
180,178,132290,1,2,1:2:0:0:
127,146,132376,1,0,1:0:0:0:
110,88,132462,1,2,1:2:0:0:
136,33,132548,1,0,1:0:0:0:
192,11,132634,1,8,1:2:0:0:
249,32,132721,1,0,1:0:0:0:
277,86,132807,1,2,1:3:0:0:
258,142,132893,1,0,1:3:0:0:
206,171,132979,1,2,1:3:0:0:
152,145,133066,1,0,1:0:0:0:
144,86,133152,2,0,P|166:77|198:63,1,39.5599986719971,6|0,1:2|0:0,0:0:0:0:
377,65,133324,6,0,L|354:119,3,39.5599986719971,2|0|0|0,1:2|1:3|1:3|1:3,0:0:0:0:
409,186,133669,2,0,L|386:240,3,39.5599986719971,2|0|2|0,1:2|1:3|1:2|1:3,0:0:0:0:
462,308,134014,1,0,1:3:0:0:
442,311,134100,1,0,1:3:0:0:
423,315,134186,1,0,1:2:0:0:
403,319,134272,1,0,1:0:0:0:
384,323,134359,2,0,B|337:294|339:232|339:232|392:212|430:282,1,170.279999480347,10|0,0:0|0:0,0:0:0:0:
310,290,134704,6,0,P|270:277|213:260,1,96.3200011757813,6|0,1:2|0:0,0:0:0:0:
377,103,135048,2,0,P|423:116|468:131,1,96.3200011757813,10|0,0:2|0:0,0:0:0:0:
492,144,135307,1,0,0:0:0:0:
492,144,135393,1,2,0:2:0:0:
336,0,135566,1,0,1:0:0:0:
254,188,135738,2,0,P|302:229|393:203,1,144.480001763672,10|0,0:2|0:0,0:0:0:0:
399,196,136083,6,0,P|389:151|375:96,1,96.3200011757813,2|0,1:2|0:0,0:0:0:0:
212,277,136428,2,0,P|223:323|234:370,1,96.3200011757813,10|0,0:2|0:0,0:0:0:0:
86,271,136773,1,2,1:2:0:0:
230,111,136945,1,0,1:0:0:0:
46,129,137117,2,0,P|88:152|145:186,1,96.3200011757813,10|0,0:2|0:0,0:0:0:0:
276,343,137462,6,0,P|340:360|409:297,1,144.480001763672,6|0,1:2|0:0,0:0:0:0:
419,286,137807,2,0,P|411:239|400:189,1,96.3200011757813,10|0,0:2|0:0,0:0:0:0:
219,99,138152,1,2,1:2:0:0:
322,253,138324,1,0,1:0:0:0:
142,332,138497,2,0,P|133:284|123:237,1,96.3200011757813,10|0,0:2|0:0,0:0:0:0:
59,96,138842,5,2,1:2:0:0:
224,213,139014,1,2,0:0:0:0:
21,322,139186,1,10,0:0:0:0:
224,213,139359,6,0,B|280:210|333:249|333:249|375:234|397:193,1,192.640002351563,2|0,0:0|1:0,0:0:0:0:
233,322,139876,1,10,0:2:0:0:
305,131,140048,1,2,0:2:0:0:
233,322,140221,6,0,B|132:291|151:377|31:339,1,192.640002351563,6|10,1:2|0:2,0:0:0:0:
88,119,140738,2,0,P|103:163|122:225,1,96.3200011757813,2|0,0:2|1:0,0:0:0:0:
310,266,141083,1,2,1:2:0:0:
195,129,141255,1,10,0:0:0:0:
342,6,141428,6,0,P|381:60|517:60,1,192.640002351563,6|0,1:2|1:0,0:0:0:0:
434,268,141945,2,0,P|419:222|404:176,1,96.3200011757813,10|0,0:2|0:0,0:0:0:0:
195,129,142290,1,2,1:2:0:0:
290,292,142462,1,0,1:0:0:0:
82,206,142635,2,0,P|105:274|126:343,1,144.480001763672,10|0,0:2|0:0,0:0:0:0:
130,376,142979,6,0,P|86:360|29:339,1,96.3200011757813,6|0,1:2|0:0,0:0:0:0:
298,192,143324,2,0,P|252:208|207:225,1,96.3200011757813,10|0,0:2|0:0,0:0:0:0:
91,108,143669,1,2,1:2:0:0:
214,320,143842,1,0,1:0:0:0:
91,108,144014,1,10,0:2:0:0:
42,353,144186,1,6,1:2:0:0:
42,353,144531,5,2,1:2:0:0:
183,82,144704,1,8,0:0:0:0:
368,325,144876,2,0,B|432:319|471:364|471:364|502:341|496:290,1,192.640002351563,6|10,1:2|0:0,0:0:0:0:
496,294,145307,1,8,0:0:0:0:
496,294,145393,2,0,P|485:250|469:191,1,96.3200011757813,8|8,0:0|3:0,0:0:0:0:
402,48,145738,6,0,P|357:58|301:73,1,96.3200011757813,6|0,1:2|0:0,0:0:0:0:
206,260,146083,2,0,P|159:247|112:237,1,96.3200011757813,10|0,0:2|0:0,0:0:0:0:
85,233,146342,1,0,0:0:0:0:
85,233,146428,1,2,1:2:0:0:
307,170,146600,1,0,1:0:0:0:
229,19,146773,2,0,P|189:58|99:46,1,144.480001763672,10|0,0:2|0:0,0:0:0:0:
72,43,147117,6,0,P|87:88|104:145,1,96.3200011757813,2|0,1:2|0:0,0:0:0:0:
29,340,147462,2,0,P|15:293|0:248,1,96.3200011757813,10|0,0:2|0:0,0:0:0:0:
193,127,147807,1,2,1:2:0:0:
134,302,147979,1,0,1:0:0:0:
353,284,148152,2,0,P|312:263|259:238,1,96.3200011757813,10|0,0:2|0:0,0:0:0:0:
484,110,148497,6,0,P|426:160|348:144,1,144.480001763672,6|0,1:2|0:0,0:0:0:0:
334,137,148842,2,0,P|349:85|363:38,1,96.3200011757813,10|0,0:2|0:0,0:0:0:0:
192,139,149186,1,2,1:2:0:0:
329,315,149359,1,0,1:0:0:0:
134,302,149531,2,0,P|174:281|227:256,1,96.3200011757813,10|0,0:2|0:0,0:0:0:0:
97,146,149876,5,2,1:2:0:0:
229,369,150048,1,2,0:0:0:0:
23,244,150221,1,8,0:0:0:0:
188,93,150393,2,0,B|239:85|294:132|294:132|345:118|360:73,1,192.640002351563,2|2,0:0|1:2,0:0:0:0:
64,56,150911,2,0,P|82:103|102:160,1,96.3200011757813,8|0,0:0|0:0,0:0:0:0:
81,329,151255,5,6,1:2:0:0:
208,178,151428,1,2,0:2:0:0:
322,384,151600,1,10,0:2:0:0:
445,238,151773,1,2,0:2:0:0:
195,269,151945,2,0,P|151:251|98:232,1,96.3200011757813,2|0,1:2|1:0,0:0:0:0:
332,166,152290,5,10,0:2:0:0:
372,341,152462,1,6,1:2:0:0:
208,178,152635,1,2,0:2:0:0:
408,72,152807,1,0,1:2:0:0:
208,178,152979,2,0,P|196:131|182:85,1,96.3200011757813,8|0,0:2|0:0,0:0:0:0:
43,264,153324,2,0,P|77:313|172:320,1,144.480001763672,2|0,1:2|0:0,0:0:0:0:
182,303,153669,2,0,P|231:288|278:274,1,96.3200011757813,8|0,0:0|0:0,0:0:0:0:
465,164,154014,6,0,P|401:176|308:88,1,192.640002351563,6|10,1:2|0:2,0:0:0:0:
122,20,154531,2,0,P|137:65|155:129,1,96.3200011757813,2|0,0:2|1:0,0:0:0:0:
156,313,154876,1,0,1:2:0:0:
5,152,155048,1,8,0:0:0:0:
259,312,155221,6,0,P|168:344|78:380,1,192.640002351563,6|0,1:2|1:0,0:0:0:0:
339,232,155738,2,0,P|354:278|366:324,1,96.3200011757813,6|0,0:2|0:0,0:0:0:0:
219,217,156083,5,8,0:2:0:0:
193,172,156198,5,8,0:0:0:0:
207,122,156313,5,8,0:0:0:0:
243,86,156428,6,0,L|254:162,2,64.2133341171875,8|8|8,3:2|3:0|3:0,0:0:0:0:
284,0,156773,6,0,P|204:64|104:44,1,211.560003228149,6|0,1:2|1:0,0:0:0:0:
0,143,157462,2,0,P|42:135|118:201,1,141.0400021521,4|0,1:2|1:0,0:0:0:0:
21,302,157979,5,0,1:0:0:0:
91,269,158152,1,0,0:0:0:0:
165,291,158324,1,8,0:0:0:0:
221,345,158497,2,0,P|258:337|314:325,1,70.5200010760498,2|0,0:2|1:0,0:0:0:0:
418,323,158842,2,0,P|392:294|354:252,1,70.5200010760498,10|0,0:2|0:0,0:0:0:0:
303,175,159186,2,0,P|291:211|273:265,1,70.5200010760498,2|0,0:2|1:0,0:0:0:0:
383,135,159531,6,0,P|312:138|254:85,1,141.0400021521,6|2,1:2|0:0,0:0:0:0:
142,30,160048,2,0,P|153:60|165:96,1,70.5200010760498,0|0,1:2|0:0,0:0:0:0:
109,190,160393,1,2,0:2:0:0:
44,141,160566,1,0,1:0:0:0:
185,205,160738,6,0,P|128:221|43:250,1,141.0400021521,2|8,1:2|0:0,0:0:0:0:
35,354,161255,2,0,P|67:344|104:333,1,70.5200010760498,2|0,0:2|1:0,0:0:0:0:
212,308,161600,2,0,P|198:341|183:381,1,70.5200010760498,8|0,0:2|0:0,0:0:0:0:
319,293,161945,2,0,P|305:326|290:366,1,70.5200010760498,2|0,0:2|1:0,0:0:0:0:
267,203,162290,6,0,P|257:158|234:63,1,141.0400021521,2|0,1:2|0:0,0:0:0:0:
234,65,162807,1,2,1:2:0:0:
381,30,162979,2,0,P|370:62|356:107,1,70.5200010760498,10|0,0:2|0:0,0:0:0:0:
411,173,163324,1,0,1:0:0:0:
495,157,163497,1,0,1:0:0:0:
452,258,163669,6,0,P|425:225|322:215,1,141.0400021521,2|0,0:2|0:0,0:0:0:0:
332,210,164186,1,2,1:2:0:0:
246,328,164359,2,0,P|280:318|319:310,1,70.5200010760498,10|0,0:2|0:0,0:0:0:0:
149,259,164704,2,0,P|138:292|116:355,1,70.5200010760498,0|0,0:0|1:0,0:0:0:0:
240,210,165048,5,2,0:2:0:0:
162,131,165221,2,0,P|193:120|229:106,1,70.5200010760498,2|0,0:2|0:0,0:0:0:0:
366,33,165566,1,2,1:2:0:0:
321,101,165738,1,10,0:2:0:0:
377,169,165911,2,0,P|408:158|444:144,1,70.5200010760498,2|0,0:2|0:0,0:0:0:0:
317,248,166255,1,2,1:2:0:0:
384,338,166428,6,0,P|394:300|409:254,1,70.5200010760498,2|0,1:2|1:0,0:0:0:0:
238,168,166773,2,0,P|227:201|218:235,1,70.5200010760498,4|2,1:2|0:0,0:0:0:0:
135,327,167117,1,8,0:0:0:0:
96,346,167203,1,8,0:0:0:0:
52,343,167289,1,8,0:0:0:0:
17,317,167375,1,8,0:0:0:0:
0,277,167462,2,0,P|21:268|52:257,1,35.2600005380249,0|0,1:3|1:3,0:0:0:0:
48,168,167635,2,0,P|69:159|100:148,1,35.2600005380249,0|0,1:3|1:3,0:0:0:0:
198,54,167807,6,0,P|181:124|157:224,1,157.379993516144,6|0,1:2|0:0,0:0:0:0:
161,206,168152,1,8,0:0:0:0:
282,118,168324,6,0,P|265:188|241:288,1,157.379993516144,6|0,1:2|0:0,0:0:0:0:
245,270,168669,1,0,1:0:0:0:
363,175,168842,6,0,P|346:245|322:345,1,157.379993516144,6|0,1:2|0:0,0:0:0:0:
326,327,169187,1,2,1:2:0:0:
232,366,169359,1,2,1:2:0:0:
152,302,169531,1,2,0:2:0:0:
152,302,169617,1,0,1:0:0:0:
152,302,169704,2,0,P|111:312|61:325,1,79.1199973439942,8|0,0:2|0:0,0:0:0:0:
180,199,170048,1,6,1:2:0:0:
80,102,170221,2,0,P|89:126|100:159,3,39.5599986719971,10|2|2|2,0:0|0:0|0:0|0:0,0:0:0:0:
147,47,170566,6,0,P|190:95|308:82,1,170.279999480347,6|0,1:2|0:0,0:0:0:0:
315,76,170911,1,8,0:0:0:0:
235,255,171083,6,0,P|299:258|373:165,1,170.279999480347,6|0,1:2|0:0,0:0:0:0:
374,156,171428,1,0,1:0:0:0:
449,362,171600,6,0,P|496:319|483:201,1,170.279999480347,6|0,1:2|0:0,0:0:0:0:
477,195,171945,5,10,0:0:0:0:
463,211,172031,1,8,0:0:0:0:
444,223,172117,1,0,1:0:0:0:
423,228,172203,1,0,1:0:0:0:
401,226,172290,2,0,L|389:183,3,43.8600002677002,2|0|0|0,1:2|1:0|1:0|1:0,0:0:0:0:
318,292,172635,2,0,L|306:249,3,43.8600002677002,2|0|0|0,1:2|1:0|1:0|1:0,0:0:0:0:
229,336,172979,1,8,0:0:0:0:
301,124,173152,2,0,P|287:141|256:160,1,43.8600002677002,2|0,1:2|0:0,0:0:0:0:
26,255,173324,6,0,B|60:253|123:294|123:294|176:282|179:223,1,192.640002351563,6|8,1:2|0:0,0:0:0:0:
32,356,173842,1,0,1:0:0:0:
131,130,174014,1,8,0:0:0:0:
267,314,174186,1,0,1:0:0:0:
189,50,174359,1,10,0:0:0:0:
267,314,174531,6,0,P|358:333|431:275,1,192.640002351563,2|2,1:2|1:2,0:0:0:0:
253,87,175048,1,10,0:0:0:0:
447,173,175221,1,2,1:2:0:0:
181,236,175393,1,8,0:0:0:0:
403,91,175566,1,0,1:0:0:0:
185,4,175738,1,10,0:0:0:0:
112,157,175911,2,0,L|171:134,1,48.1600005878906,2|0,1:2|0:0,0:0:0:0:
354,12,176083,5,10,0:0:0:0:
400,0,176169,1,2,0:0:0:0:
446,13,176255,1,2,0:0:0:0:
479,47,176341,1,2,0:0:0:0:
492,93,176427,1,10,0:0:0:0:
480,139,176514,1,2,0:0:0:0:
447,173,176600,1,2,0:0:0:0:
401,187,176686,1,2,0:0:0:0:
355,176,176772,1,10,0:0:0:0:
309,165,176859,1,2,0:0:0:0:
263,179,176945,1,2,0:0:0:0:
230,213,177031,1,2,0:0:0:0:
218,259,177118,1,10,0:0:0:0:
231,305,177204,1,2,0:0:0:0:
264,339,177290,1,2,0:0:0:0:
310,352,177376,1,2,0:0:0:0:
356,340,177462,6,0,P|349:318|341:291,1,48.1600005878906,10|2,0:0|0:0,0:0:0:0:
129,242,177635,2,0,P|135:265|143:288,1,48.1600005878906,2|2,0:0|0:0,0:0:0:0:
377,209,177807,2,0,P|370:187|362:160,1,48.1600005878906,10|2,0:0|0:0,0:0:0:0:
125,97,177979,2,0,P|131:120|139:143,1,48.1600005878906,2|2,0:0|0:0,0:0:0:0:
303,69,178152,1,10,0:0:0:0:
303,69,178238,1,2,0:0:0:0:
303,69,178324,1,2,0:0:0:0:
49,187,178497,1,10,0:0:0:0:
244,296,178669,1,2,1:2:0:0:
377,209,178842,6,0,P|421:228|470:250,1,96.3200011757813,6|2,1:2|1:2,0:0:0:0:
494,265,179100,1,2,0:0:0:0:
494,265,179186,1,10,0:0:0:0:
390,60,179359,2,0,P|346:105|202:92,1,192.640002351563,2|0,1:2|1:0,0:0:0:0:
2,188,179876,1,8,0:0:0:0:
223,253,180048,1,0,1:0:0:0:
107,90,180221,1,8,0:0:0:0:
65,367,180393,5,2,1:2:0:0:
289,309,180566,2,0,P|339:294|392:280,1,96.3200011757813,10|2,0:0|1:2,0:0:0:0:
411,276,180824,1,2,0:0:0:0:
411,276,180911,1,10,0:0:0:0:
284,163,181083,1,2,1:2:0:0:
160,365,181255,1,8,0:0:0:0:
45,123,181428,1,2,1:2:0:0:
17,271,181600,5,6,1:2:0:0:
52,263,181686,1,8,0:0:0:0:
87,256,181772,1,10,0:0:0:0:
123,249,181858,1,10,0:0:0:0:
158,242,181944,1,10,0:0:0:0:
348,73,182117,1,6,1:2:0:0:
504,274,182290,1,14,0:0:0:0:
477,297,182376,1,8,0:0:0:0:
443,309,182462,1,8,0:0:0:0:
407,308,182548,1,8,0:0:0:0:
375,292,182634,1,10,0:0:0:0:
461,58,182807,6,0,P|443:101|424:156,1,96.3200011757813,4|2,0:0|0:0,0:0:0:0:
168,73,183152,2,0,P|217:55|271:38,1,96.3200011757813,2|0,1:3|0:0,0:0:0:0:
207,252,183497,1,2,1:3:0:0:
59,117,183669,1,2,0:0:0:0:
319,189,183842,1,2,1:3:0:0:
77,305,184014,1,2,1:3:0:0:
261,36,184186,1,2,1:3:0:0:
348,371,184359,1,6,1:2:0:0:
451,235,185738,5,2,0:2:0:0:
427,102,187117,5,2,1:2:0:0:
265,35,188497,5,2,0:0:0:0:
301,121,188842,1,2,0:0:0:0:
282,212,189186,1,2,0:0:0:0:
210,272,189531,1,2,0:0:0:0:
122,306,189876,6,0,P|69:309|27:275,2,108.359996693115,2|2|2,0:0|0:0|0:0,0:0:0:0:
299,260,191428,1,2,0:0:0:0:
402,298,191945,1,2,0:0:0:0:
492,133,192635,6,0,P|479:80|465:27,2,108.359996693115,2|2|2,0:0|0:0|0:0,0:0:0:0:
422,209,194186,1,2,0:0:0:0:
298,154,194704,2,0,L|304:184,3,18.0599994488526,2|0|0|0,0:0|0:0|0:0|0:0,0:0:0:0:
224,180,195048,2,0,P|191:173|172:158,1,54.1799983465577,2|0,0:0|0:0,0:0:0:0:
121,109,195393,6,0,P|188:119|242:75,2,141.0400021521,2|2|2,1:2|0:2|0:2,0:0:0:0:
89,86,196169,1,0,0:0:0:0:
89,86,196255,2,0,L|105:27,1,35.2600005380249
122,204,196428,2,0,P|111:235|95:286,1,70.5200010760498,2|0,0:2|0:0,0:0:0:0:
228,335,196773,6,0,P|160:356|94:379,2,141.0400021521,2|2|2,0:2|0:2|0:2,0:0:0:0:
268,332,197548,1,0,0:0:0:0:
268,332,197635,2,0,L|254:377,1,35.2600005380249
384,290,197807,2,0,P|373:321|357:372,1,70.5200010760498,2|0,0:2|0:0,0:0:0:0:
323,200,198152,5,2,1:2:0:0:
323,200,198497,2,0,P|358:190|395:183,1,70.5200010760498,2|0,0:2|0:0,0:0:0:0:
501,79,198842,2,0,P|494:96|486:120,3,35.2600005380249,2|0|0|0,0:2|0:0|0:0|0:0,0:0:0:0:
427,44,199186,2,0,P|392:50|358:60,1,70.5200010760498,2|0,0:2|0:0,0:0:0:0:
227,58,199531,6,0,P|220:41|215:24,3,35.2600005380249,2|0|0|0,1:2|0:0|0:0|0:0,0:0:0:0:
199,130,199876,2,0,P|162:119|111:105,1,70.5200010760498,2|0,0:2|0:0,0:0:0:0:
96,104,200135,1,0,0:0:0:0:
96,104,200221,2,0,L|107:144,1,35.2600005380249,2|0,0:2|0:0,0:0:0:0:
0,68,200393,2,0,L|9:101,1,35.2600005380249
1,202,200566,1,6,1:2:0:0:
1,202,200911,5,6,1:2:0:0:
33,191,200997,1,0,1:0:0:0:
70,193,201083,1,0,1:0:0:0:
103,211,201169,1,0,1:0:0:0:
129,239,201255,1,0,1:0:0:0:
155,266,201342,1,0,1:0:0:0:
189,284,201428,1,10,1:2:0:0:
226,286,201514,1,0,1:0:0:0:
261,274,201600,1,0,1:0:0:0:
291,253,201686,1,0,1:0:0:0:
312,222,201772,1,0,1:0:0:0:
317,185,201858,1,0,1:0:0:0:
308,149,201944,1,10,1:2:0:0:
283,119,202031,1,0,1:0:0:0:
250,103,202117,1,0,1:0:0:0:
212,102,202203,1,0,1:0:0:0:
178,114,202289,5,2,1:2:0:0:
208,146,202376,1,0,1:0:0:0:
249,166,202462,1,10,1:2:0:0:
295,166,202548,1,0,1:0:0:0:
336,149,202634,1,2,1:2:0:0:
378,132,202721,1,0,1:0:0:0:
422,132,202807,1,2,1:2:0:0:
463,151,202893,1,0,1:0:0:0:
492,182,202980,1,8,1:2:0:0:
504,218,203065,1,0,1:0:0:0:
500,263,203151,1,2,1:2:0:0:
474,299,203237,1,0,1:0:0:0:
434,319,203323,1,10,1:2:0:0:
389,316,203410,1,0,1:0:0:0:
352,290,203496,1,0,1:0:0:0:
342,250,203583,1,0,1:0:0:0:
368,209,203669,5,6,1:2:0:0:
397,263,203755,1,0,1:0:0:0:
389,326,203841,1,2,1:2:0:0:
346,372,203927,1,0,1:0:0:0:
285,384,204013,1,2,1:2:0:0:
227,359,204100,1,0,1:0:0:0:
194,305,204186,1,2,1:2:0:0:
205,246,204272,1,0,1:0:0:0:
229,192,204359,1,8,1:2:0:0:
239,129,204445,1,0,1:0:0:0:
204,79,204531,1,2,1:3:0:0:
142,65,204617,1,0,1:3:0:0:
91,99,204703,1,2,1:3:0:0:
77,160,204790,1,0,1:0:0:0:
108,213,204876,2,0,P|129:203|159:196,1,35.2600005380249,6|0,1:2|0:0,0:0:0:0:
320,231,205048,6,0,P|314:252|306:282,3,35.2600005380249,2|0|0|0,1:2|1:3|1:3|1:3,0:0:0:0:
487,211,205393,2,0,P|481:232|473:262,3,35.2600005380249,2|0|2|0,1:2|1:3|1:2|1:3,0:0:0:0:
419,121,205738,1,0,1:3:0:0:
405,98,205824,1,0,1:3:0:0:
404,72,205910,1,0,1:2:0:0:
415,48,205996,1,0,1:0:0:0:
436,32,206083,2,0,P|414:95|298:85,1,170.279999480347,10|0,0:0|0:0,0:0:0:0:
283,88,206428,6,0,P|297:141|320:220,1,96.3200011757813,6|0,1:2|0:0,0:0:0:0:
137,384,206773,2,0,P|124:337|110:291,1,96.3200011757813,10|0,0:2|0:0,0:0:0:0:
103,262,207031,1,0,0:0:0:0:
103,262,207117,1,2,0:2:0:0:
260,320,207290,1,0,1:0:0:0:
42,149,207462,2,0,P|104:164|188:95,1,144.480001763672,10|0,0:2|0:0,0:0:0:0:
182,100,207807,6,0,P|137:81|92:63,1,96.3200011757813,2|0,1:2|0:0,0:0:0:0:
368,29,208152,2,0,P|412:46|457:65,1,96.3200011757813,10|0,0:2|0:0,0:0:0:0:
335,151,208497,1,2,1:2:0:0:
228,0,208669,1,0,1:0:0:0:
124,193,208842,2,0,P|139:241|155:299,1,96.3200011757813,10|0,0:2|0:0,0:0:0:0:
310,361,209186,6,0,P|373:317|450:334,1,144.480001763672,6|0,1:2|0:0,0:0:0:0:
466,340,209531,2,0,P|482:294|502:243,1,96.3200011757813,10|0,0:2|0:0,0:0:0:0:
342,79,209876,1,2,1:2:0:0:
400,246,210048,1,0,1:0:0:0:
207,289,210221,2,0,P|223:243|243:192,1,96.3200011757813,10|0,0:2|0:0,0:0:0:0:
316,366,210566,5,2,1:2:0:0:
103,222,210738,1,2,0:0:0:0:
339,169,210911,1,10,0:0:0:0:
105,50,211083,2,0,P|160:69|277:-13,1,192.640002351563,2|0,0:0|1:0,0:0:0:0:
454,124,211600,1,10,0:2:0:0:
249,224,211773,1,2,0:2:0:0:
454,124,211945,6,0,P|437:176|390:318,1,192.640002351563,6|10,1:2|0:2,0:0:0:0:
299,152,212462,2,0,P|313:106|330:60,1,96.3200011757813,2|0,0:2|1:0,0:0:0:0:
178,126,212807,1,2,1:2:0:0:
304,312,212979,1,10,0:0:0:0:
27,250,213152,6,0,B|83:242|140:287|140:287|182:268|192:213,1,192.640002351563,6|0,1:2|1:0,0:0:0:0:
57,38,213669,2,0,P|73:84|95:155,1,96.3200011757813,10|0,0:2|0:0,0:0:0:0:
262,39,214014,1,2,1:2:0:0:
185,236,214186,1,0,1:0:0:0:
340,126,214359,2,0,P|376:162|491:152,1,144.480001763672,10|0,0:2|0:0,0:0:0:0:
497,144,214704,6,0,P|482:98|466:52,1,96.3200011757813,6|0,1:2|0:0,0:0:0:0:
347,261,215048,2,0,P|362:306|377:352,1,96.3200011757813,10|0,0:2|0:0,0:0:0:0:
177,277,215393,1,2,1:3:0:0:
149,238,215479,1,0,1:3:0:0:
145,190,215565,1,0,1:3:0:0:
164,147,215651,1,0,1:3:0:0:
203,119,215738,2,0,P|210:143|221:192,1,48.1600005878906,0|0,1:3|1:3,0:0:0:0:
101,341,215911,1,6,1:2:0:0:
101,341,216255,5,2,1:2:0:0:
299,222,216428,1,8,0:0:0:0:
57,77,216600,2,0,P|126:92|225:4,1,192.640002351563,6|10,1:2|0:0,0:0:0:0:
465,147,217117,1,8,0:0:0:0:
443,104,217203,1,8,3:0:0:0:
405,76,217289,1,8,3:0:0:0:
357,70,217375,1,8,3:0:0:0:
313,86,217462,6,0,P|328:128|346:191,1,96.3200011757813,6|0,1:2|1:0,0:0:0:0:
478,343,217807,2,0,P|433:325|387:309,1,96.3200011757813,10|0,0:2|0:0,0:0:0:0:
201,141,218152,1,10,0:2:0:0:
296,361,218324,1,0,1:0:0:0:
93,211,218497,1,10,0:2:0:0:
313,86,218669,1,0,1:0:0:0:
91,330,218842,6,0,P|77:275|61:214,1,96.3200011757813,10|0,0:2|1:0,0:0:0:0:
163,20,219186,2,0,P|175:66|186:113,1,96.3200011757813,10|0,0:2|0:0,0:0:0:0:
250,262,219531,1,10,0:2:0:0:
385,88,219704,1,0,1:0:0:0:
488,368,219876,1,10,0:2:0:0:
479,165,220048,1,0,1:0:0:0:
288,358,220221,6,0,P|230:370|154:304,1,144.480001763672,10|0,0:2|0:0,0:0:0:0:
158,290,220566,2,0,P|208:275|261:260,1,96.3200011757813,10|0,0:2|0:0,0:0:0:0:
134,105,220911,1,10,0:2:0:0:
29,289,221083,1,0,1:0:0:0:
231,145,221255,1,10,0:2:0:0:
41,47,221428,1,0,1:0:0:0:
136,206,221600,5,10,0:2:0:0:
287,51,221773,2,0,P|334:65|383:80,1,96.3200011757813,2|8,1:2|0:0,0:0:0:0:
490,290,222117,2,0,P|443:275|397:262,1,96.3200011757813,2|8,1:2|0:0,0:0:0:0:
196,335,222462,1,2,1:2:0:0:
331,165,222635,2,0,P|283:203|198:187,1,144.480001763672,8|0,0:0|0:0,0:0:0:0:
177,171,222979,5,6,1:2:0:0:
314,81,223152,1,2,1:2:0:0:
169,286,223324,1,10,0:2:0:0:
65,104,223497,1,2,1:2:0:0:
290,248,223669,1,10,0:2:0:0:
69,347,223842,1,0,1:0:0:0:
169,63,224014,5,10,0:2:0:0:
255,331,224186,1,2,0:2:0:0:
322,50,224359,1,10,0:2:0:0:
159,266,224531,1,0,1:2:0:0:
88,19,224704,1,8,0:2:0:0:
251,229,224876,1,0,1:0:0:0:
0,131,225048,2,0,P|45:116|91:101,1,96.3200011757813,10|0,0:0|1:0,0:0:0:0:
280,314,225393,2,0,P|202:312|155:252,1,144.480001763672,8|0,0:0|0:0,0:0:0:0:
156,235,225738,6,0,P|171:189|187:144,1,96.3200011757813,2|8,1:2|0:0,0:0:0:0:
197,119,225997,1,8,0:0:0:0:
197,119,226083,1,10,0:2:0:0:
412,63,226255,2,0,P|396:107|375:171,1,96.3200011757813,6|8,1:2|0:0,0:0:0:0:
375,187,226514,1,8,0:0:0:0:
375,187,226600,1,2,0:2:0:0:
319,39,226773,1,4,1:2:0:0:
468,268,226945,2,0,P|427:282|369:302,1,96.3200011757813,6|0,1:2|0:0,0:0:0:0:
142,343,227290,5,8,0:0:0:0:
96,356,227376,1,8,0:0:0:0:
54,336,227462,1,10,0:2:0:0:
36,292,227548,1,8,0:0:0:0:
53,248,227634,1,8,0:0:0:0:
94,226,227721,1,8,0:0:0:0:
140,238,227807,1,10,0:2:0:0:
183,258,227893,1,8,0:0:0:0:
230,251,227979,1,8,0:0:0:0:
267,221,228065,1,8,0:0:0:0:
281,176,228151,1,10,0:2:0:0:
269,130,228238,1,8,0:0:0:0:
235,97,228324,1,10,0:2:0:0:
188,88,228410,1,8,0:0:0:0:
144,104,228497,6,0,P|160:151|176:205,1,96.3200011757813,6|2,1:2|1:2,0:0:0:0:
368,71,228842,1,10,0:0:0:0:
484,257,229014,2,0,P|442:241|378:219,1,96.3200011757813,2|8,1:2|0:0,0:0:0:0:
163,313,229359,2,0,P|118:295|73:280,1,96.3200011757813,2|8,1:2|0:0,0:0:0:0:
274,164,229704,5,2,1:2:0:0:
343,365,229876,1,8,0:0:0:0:
178,213,230048,1,2,1:2:0:0:
390,119,230221,1,8,0:0:0:0:
178,213,230393,2,0,P|136:197|72:175,1,96.3200011757813,2|8,1:2|0:0,0:0:0:0:
287,0,230738,2,0,P|298:44|314:107,1,96.3200011757813,2|8,1:2|0:0,0:0:0:0:
239,284,231083,1,2,0:0:0:0:
474,222,231255,6,0,B|424:210|368:247|368:247|339:209|358:164,1,192.640002351563,6|10,1:2|0:2,0:0:0:0:
482,88,231773,1,2,0:2:0:0:
436,319,231945,1,8,1:3:0:0:
436,319,232031,1,8,1:3:0:0:
436,319,232117,2,0,L|418:372,1,48.1600005878906,8|0,1:2|1:3,0:0:0:0:
290,374,232290,2,0,L|305:328,1,48.1600005878906,0|0,1:3|1:3,0:0:0:0:
318,153,232462,6,0,B|389:114|463:140|522:284|338:392|185:254|271:194|195:32|19:98|-21:201|-22:294|87:375|168:303,1,780.450023817445,6|0,1:2|0:0,0:0:0:0:
182,293,235393,6,0,L|177:255,3,23.6500007217407,0|0|2|0,1:3|1:3|1:3|1:3,0:0:0:0:
238,355,235738,2,0,P|280:343|333:329,1,94.600002886963,6|0,1:2|1:3,0:0:0:0:
362,318,236169,1,0,1:3:0:0:
395,308,236255,1,8,3:0:0:0:
429,299,236342,1,8,3:0:0:0:
464,290,236428,2,0,P|395:296|349:223,1,157.379993516144,8|0,0:0|1:3,0:0:0:0:
359,189,236773,6,0,P|407:176|464:162,1,96.3200011757813,6|2,1:2|0:0,0:0:0:0:
246,15,237117,2,0,P|292:26|339:39,1,96.3200011757813,10|2,0:0|0:0,0:0:0:0:
369,48,237376,1,0,0:0:0:0:
369,48,237462,1,2,0:0:0:0:
243,168,237635,1,2,1:2:0:0:
144,30,237807,1,8,0:0:0:0:
0,145,237979,6,0,P|69:125|148:206,1,192.640002351563,2|2,1:2|1:2,0:0:0:0:
233,338,238497,2,0,B|183:326|123:365|123:365|89:320|109:277,1,192.640002351563,10|0,0:0|1:0,0:0:0:0:
242,168,239014,1,0,1:0:0:0:
402,289,239186,2,0,P|386:335|368:392,1,96.3200011757813,8|0,0:0|0:0,0:0:0:0:
334,181,239531,6,0,P|381:168|430:156,1,96.3200011757813,2|2,1:2|0:0,0:0:0:0:
161,91,239876,2,0,P|114:102|67:115,1,96.3200011757813,10|2,0:0|0:0,0:0:0:0:
44,126,240135,1,0,0:0:0:0:
44,126,240221,1,2,1:2:0:0:
238,16,240393,1,2,1:2:0:0:
141,207,240566,1,8,0:0:0:0:
289,298,240738,6,0,P|363:241|456:255,1,192.640002351563,2|0,1:2|1:0,0:0:0:0:
327,384,241255,1,10,0:0:0:0:
239,196,241428,1,2,0:0:0:0:
138,303,241600,1,2,1:2:0:0:
138,303,241773,1,2,1:2:0:0:
341,216,241945,1,10,0:0:0:0:
166,113,242117,1,2,0:0:0:0:
341,216,242290,6,0,P|386:206|450:195,1,96.3200011757813,6|0,1:2|0:0,0:0:0:0:
252,151,242635,2,0,P|241:192|225:258,1,96.3200011757813,8|0,0:0|0:0,0:0:0:0:
339,98,242979,1,0,1:0:0:0:
143,208,243152,1,2,1:2:0:0:
313,349,243324,1,10,0:0:0:0:
166,113,243497,6,0,B|110:109|66:149|66:149|26:121|26:72,1,192.640002351563,6|0,1:2|1:0,0:0:0:0:
315,4,244014,2,0,P|326:45|342:111,1,96.3200011757813,8|0,0:0|0:0,0:0:0:0:
243,253,244359,1,2,1:2:0:0:
338,97,244531,1,0,1:0:0:0:
480,248,244704,2,0,P|435:227|364:197,1,96.3200011757813,8|0,0:0|0:0,0:0:0:0:
183,350,245048,6,0,P|254:362|350:275,1,192.640002351563,2|10,1:2|0:0,0:0:0:0:
187,68,245566,2,0,P|217:163|245:263,1,192.640002351563,2|0,0:0|1:0,0:0:0:0:
119,175,246083,1,8,0:0:0:0:
310,59,246255,6,0,P|344:104|439:103,1,144.480001763672,6|8,1:2|0:0,0:0:0:0:
453,82,246600,1,10,0:0:0:0:
453,82,246686,2,0,L|436:20,1,48.1600005878906,2|0,1:2|0:0,0:0:0:0:
277,173,246859,2,0,L|289:219,1,48.1600005878906,0|2,0:0|1:2,0:0:0:0:
465,285,247031,1,8,2:0:0:0:
418,275,247117,1,8,0:0:0:0:
379,292,247203,1,0,1:0:0:0:
347,331,247290,2,0,P|368:339|397:348,1,48.1600005878906,8|0,0:0|1:3,0:0:0:0:
511,205,247462,1,8,0:0:0:0:
511,205,247548,1,0,1:3:0:0:
511,205,247635,2,0,P|488:196|465:189,1,48.1600005878906,0|0,1:3|1:3,0:0:0:0:
209,260,247807,5,6,1:2:0:0:
365,158,247979,1,2,0:0:0:0:
147,24,248152,1,10,0:0:0:0:
282,187,248324,1,2,1:2:0:0:
83,291,248497,1,10,0:0:0:0:
163,133,248669,6,0,P|175:176|192:249,1,96.3200011757813,2|8,1:2|0:0,0:0:0:0:
470,108,249014,6,0,P|392:105|313:10,1,192.640002351563,2|2,1:2|1:2,0:0:0:0:
69,156,249531,2,0,P|112:145|165:132,1,96.3200011757813,10|0,0:0|1:0,0:0:0:0:
330,332,249876,1,8,0:0:0:0:
145,230,250048,1,0,1:0:0:0:
324,87,250221,1,8,0:0:0:0:
269,247,250393,1,0,1:0:0:0:
269,247,250479,1,0,0:0:0:0:
269,247,250566,5,10,0:0:0:0:
191,17,250738,1,2,1:2:0:0:
62,278,250911,1,10,0:0:0:0:
230,107,251083,1,2,1:2:0:0:
293,369,251255,1,10,0:0:0:0:
475,232,251428,2,0,P|463:184|446:124,1,96.3200011757813,2|8,1:2|0:0,0:0:0:0:
161,240,251773,6,0,P|223:257|360:299,1,192.640002351563,2|2,1:2|1:2,0:0:0:0:
202,129,252290,1,10,0:0:0:0:
345,294,252462,1,2,1:2:0:0:
163,353,252635,1,10,0:0:0:0:
306,184,252807,1,2,1:2:0:0:
117,85,252979,1,10,0:0:0:0:
64,211,253152,1,2,1:2:0:0:
276,76,253324,6,0,B|339:70|386:109|386:109|418:84|411:37,1,192.640002351563,6|8,1:2|0:0,0:0:0:0:
203,16,253842,1,2,1:2:0:0:
344,196,254014,1,10,0:0:0:0:
114,272,254186,1,2,1:2:0:0:
344,196,254359,1,8,0:0:0:0:
128,73,254531,5,2,1:2:0:0:
128,73,254617,1,2,0:0:0:0:
128,73,254704,2,0,P|144:112|167:180,1,96.3200011757813,10|0,0:0|1:0,0:0:0:0:
368,326,255048,2,0,P|325:304|264:280,1,96.3200011757813,8|0,0:0|1:0,0:0:0:0:
116,359,255393,1,10,0:0:0:0:
246,171,255566,1,0,1:0:0:0:
52,267,255738,1,8,0:0:0:0:
239,366,255911,1,0,1:0:0:0:
239,366,255997,1,0,0:0:0:0:
239,366,256083,5,2,1:2:0:0:
159,57,256255,1,2,1:2:0:0:
444,195,256428,1,10,0:0:0:0:
137,342,256600,1,2,0:0:0:0:
336,16,256773,6,0,P|312:48|301:102,1,69.6600017006836,8|0,0:0|1:3,0:0:0:0:
375,355,256945,2,0,P|359:318|318:281,1,69.6600017006836,0|0,1:3|1:3,0:0:0:0:
61,217,257117,2,0,P|100:221|152:204,1,69.6600017006836,0|0,1:3|1:3,0:0:0:0:
256,192,257290,5,6,1:2:0:0:
256,192,257376,12,0,264359,0:0:0:0:
