osu file format v14

[General]
AudioFilename: audio.mp3
AudioLeadIn: 0
PreviewTime: 59758
Countdown: 0
SampleSet: Soft
StackLeniency: 0.5
Mode: 0
LetterboxInBreaks: 0
WidescreenStoryboard: 1

[Editor]
Bookmarks: 40215,51594
DistanceSpacing: 0.9
BeatDivisor: 4
GridSize: 4
TimelineZoom: 2

[Metadata]
Title:Harumodoki (TV Size)
TitleUnicode:春擬き (TV Size)
Artist:yanaginagi
ArtistUnicode:やなぎなぎ
Creator:NexusQI
Version:Normal
Source:やはり俺の青春ラブコメはまちがっている。続
Tags:oregairu yahari ore no seishun love comedy wa machigatteiru zoku my teen romantic snafu 2 anime japanese
BeatmapID:2292747
BeatmapSetID:1097231

[Difficulty]
HPDrainRate:3.5
CircleSize:3.5
OverallDifficulty:4.8
ApproachRate:5.5
SliderMultiplier:1.8
SliderTickRate:1

[Events]
//Background and Video events
0,0,"bg.png",0,0
//Break Periods
//Storyboard Layer 0 (Background)
//Storyboard Layer 1 (Fail)
//Storyboard Layer 2 (Pass)
//Storyboard Layer 3 (Foreground)
//Storyboard Layer 4 (Overlay)
//Storyboard Sound Samples

[TimingPoints]
448,344.827586206897,4,2,1,100,1,0
448,-166.666666666667,4,2,3,40,0,0
5965,-166.666666666667,4,2,1,50,0,0
7172,-166.666666666667,4,2,1,50,0,0
18206,-166.666666666667,4,2,1,50,0,0
29241,-166.666666666667,4,2,1,60,0,0
40448,-166.666666666667,4,2,1,55,0,0
51482,-166.666666666667,4,2,1,60,0,0
59758,-166.666666666667,4,2,1,70,0,1
70792,-166.666666666667,4,2,1,75,0,1
85792,-166.666666666667,4,2,1,100,0,0
86310,-166.666666666667,4,2,1,100,0,0

[Colours]
Combo1 : 206,95,239
Combo2 : 252,171,218
Combo3 : 33,211,243

[HitObjects]
88,94,448,5,2,0:0:0:0:
152,239,1827,1,2,0:0:0:0:
231,103,3206,1,2,0:0:0:0:
280,236,4585,1,2,0:0:0:0:
256,192,4672,12,0,5965,0:0:0:0:
142,160,6654,6,0,P|134:195|135:219,1,53.9999983520508,8|8,0:0|3:0,0:0:0:0:
165,250,6999,1,8,3:0:0:0:
165,250,7172,2,0,P|218:236|292:251,1,107.999996704102,6|8,3:2|0:0,0:0:0:0:
306,274,7689,1,8,3:2:0:0:
385,218,8034,2,0,B|400:177|400:177|385:96,1,107.999996704102,8|8,3:2|3:2,0:0:0:0:
326,39,8723,2,0,P|271:23|204:30,1,107.999996704102,8|8,3:2|3:2,0:0:0:0:
133,69,9413,2,0,L|136:129,1,53.9999983520508,8|8,3:2|0:0,0:0:0:0:
115,167,9758,1,0,3:0:0:0:
115,167,9930,6,0,B|102:201|102:201|118:294,1,107.999996704102,12|8,0:0|0:0,0:0:0:0:
148,306,10448,1,8,3:2:0:0:
237,343,10792,2,0,B|266:327|298:333|285:348|321:359|355:342,1,107.999996704102,8|8,3:2|3:2,0:0:0:0:
425,298,11482,2,0,L|422:183,1,107.999996704102,8|8,3:2|3:2,0:0:0:0:
340,136,12172,2,0,P|305:122|271:125,1,53.9999983520508,8|8,3:2|0:0,0:0:0:0:
255,156,12516,1,0,3:0:0:0:
255,156,12689,6,0,L|133:150,1,107.999996704102,12|8,0:0|0:0,0:0:0:0:
102,170,13206,1,8,3:2:0:0:
64,80,13551,2,0,B|99:62|99:62|175:65,1,107.999996704102,8|8,3:2|3:2,0:0:0:0:
259,31,14241,2,0,P|318:9|372:21,1,107.999996704102,8|8,3:2|3:2,0:0:0:0:
445,63,14930,2,0,L|431:126,1,53.9999983520508,8|8,3:2|0:0,0:0:0:0:
401,152,15275,2,0,L|415:215,1,53.9999983520508,8|4,0:0|3:2,0:0:0:0:
256,192,15620,12,0,17344,0:0:0:0:
485,184,18206,5,4,3:2:0:0:
421,262,18551,1,0,3:0:0:0:
421,262,18723,2,0,P|364:248|303:261,1,107.999996704102,10|2,0:0|3:2,0:0:0:0:
304,303,19241,2,0,P|247:317|186:304,1,107.999996704102,2|8,3:2|0:0,0:0:0:0:
110,283,19930,1,2,3:2:0:0:
110,283,20103,2,0,B|98:240|98:240|109:158,1,107.999996704102,8|2,0:0|3:2,0:0:0:0:
92,130,20620,2,0,P|132:113|202:115,1,107.999996704102,2|8,3:2|0:0,0:0:0:0:
283,147,21310,5,2,3:2:0:0:
283,147,21482,2,0,B|331:145|331:145|356:158|356:158|397:157,1,107.999996704102,10|0,0:0|3:2,0:0:0:0:
436,155,21999,2,0,B|419:232|419:232|430:279,1,107.999996704102,0|8,3:0|0:0,0:0:0:0:
481,346,22689,1,0,3:0:0:0:
481,346,22861,2,0,P|424:363|367:339,1,107.999996704102,10|2,0:0|3:2,0:0:0:0:
341,317,23379,2,0,P|284:300|227:324,1,107.999996704102,2|8,3:2|0:0,0:0:0:0:
147,336,24068,1,0,3:0:0:0:
147,336,24241,6,0,L|146:217,1,107.999996704102,8|2,0:0|3:2,0:0:0:0:
176,189,24758,2,0,P|226:172|283:184,1,107.999996704102,0|8,3:0|0:0,0:0:0:0:
374,220,25448,1,2,3:2:0:0:
374,220,25620,2,0,L|381:106,1,107.999996704102,8|0,0:0|3:0,0:0:0:0:
353,71,26137,2,0,P|294:55|239:69,1,107.999996704102,2|8,3:2|0:0,0:0:0:0:
83,81,28723,2,0,P|77:109|87:148,1,53.9999983520508,8|8,0:0|0:0,0:0:0:0:
175,110,29241,6,0,B|212:99|212:99|292:117,1,107.999996704102,4|0,3:2|3:0,0:0:0:0:
316,145,29758,1,10,0:0:0:0:
411,125,30103,2,0,P|417:152|406:187,1,53.9999983520508,2|0,3:2|3:0,0:0:0:0:
383,210,30448,1,10,0:0:0:0:
316,280,30792,2,0,B|261:266|261:266|191:275,1,107.999996704102,2|10,3:2|0:0,0:0:0:0:
132,331,31482,2,0,P|113:272|130:210,1,107.999996704102,2|10,3:2|0:0,0:0:0:0:
141,183,31999,6,0,L|137:51,1,107.999996704102,4|0,3:2|3:0,0:0:0:0:
168,37,32516,1,10,0:0:0:0:
249,90,32861,2,0,P|284:96|323:87,1,53.9999983520508,2|0,3:2|3:0,0:0:0:0:
337,60,33206,1,10,0:0:0:0:
380,146,33551,2,0,L|387:276,1,107.999996704102,2|10,3:2|0:0,0:0:0:0:
333,335,34240,2,0,P|382:353|452:323,1,107.999996704102,2|10,3:2|0:0,0:0:0:0:
467,303,34758,6,0,L|468:173,1,107.999996704102,4|0,3:2|3:0,0:0:0:0:
445,145,35275,1,10,0:2:0:0:
400,61,35620,2,0,P|355:51|337:58,1,53.9999983520508,2|0,3:2|3:0,0:0:0:0:
309,82,35965,1,10,0:2:0:0:
222,126,36310,2,0,P|164:136|109:123,1,107.999996704102,2|10,3:2|0:0,0:0:0:0:
27,87,36999,2,0,B|15:117|15:117|25:194,1,107.999996704102,2|10,3:2|0:0,0:0:0:0:
65,218,37516,6,0,P|115:233|172:224,1,107.999996704102,4|0,3:2|3:0,0:0:0:0:
209,196,38034,1,10,0:2:0:0:
252,282,38379,2,0,L|325:281,1,53.9999983520508,2|0,3:2|3:0,0:0:0:0:
350,301,38723,1,10,0:2:0:0:
350,301,38896,2,0,P|403:317|461:303,1,107.999996704102,0|0,3:0|3:0,0:0:0:0:
488,272,39413,1,14,0:2:0:0:
504,176,39758,1,8,0:0:0:0:
451,94,40103,1,8,3:0:0:0:
363,30,40448,6,0,B|330:19|330:19|237:40,1,107.999996704102,4|2,3:2|0:0,0:0:0:0:
192,106,41137,1,10,0:0:0:0:
105,62,41482,1,2,3:2:0:0:
27,120,41827,2,0,P|23:129|45:241,1,107.999996704102,2|2,0:0|0:0,0:0:0:0:
84,230,42344,1,0,3:0:0:0:
84,230,42516,2,0,L|214:217,1,107.999996704102,10|2,0:0|0:0,0:0:0:0:
246,139,43206,2,0,P|283:203|244:300,2,161.999995056153,2|0|2,3:2|3:0|3:2,0:0:0:0:
295,54,44585,6,0,L|402:43,1,107.999996704102,2|2,0:0|3:2,0:0:0:0:
452,126,45275,2,0,L|447:186,1,53.9999983520508,10|8,0:0|3:0,0:0:0:0:
404,202,45620,2,0,L|411:265,1,53.9999983520508,8|8,3:3|3:0,0:0:0:0:
421,303,45965,6,0,P|361:286|293:299,1,107.999996704102,6|2,3:2|0:0,0:0:0:0:
237,347,46654,1,10,0:0:0:0:
139,349,46999,1,2,3:2:0:0:
61,289,47344,2,0,B|46:245|46:245|58:173,1,107.999996704102,2|2,0:0|0:0,0:0:0:0:
52,140,47861,1,0,3:0:0:0:
52,140,48034,2,0,P|104:125|164:140,1,107.999996704102,10|2,0:0|0:0,0:0:0:0:
211,215,48723,6,0,L|383:224,1,161.999995056153,2|0,3:2|3:0,0:0:0:0:
415,199,49413,2,0,P|428:147|415:82,1,107.999996704102,10|2,0:0|3:2,0:0:0:0:
396,51,49930,1,0,3:0:0:0:
396,51,50103,2,0,P|336:41|282:55,1,107.999996704102,2|2,0:0|0:0,0:0:0:0:
198,82,50792,1,10,0:0:0:0:
161,171,51137,1,10,0:0:0:0:
192,262,51482,5,4,3:2:0:0:
258,332,51827,2,0,B|300:346|300:346|387:327,1,107.999996704102,10|2,0:0|3:2,0:0:0:0:
376,285,52344,1,0,3:0:0:0:
376,285,52516,2,0,P|354:224|362:182,1,107.999996704102,10|2,0:0|0:0,0:0:0:0:
432,115,53206,2,0,P|388:88|311:101,1,107.999996704102,10|2,0:0|3:2,0:0:0:0:
250,142,53896,1,10,0:0:0:0:
256,192,54241,12,4,58206,3:2:0:0:
50,114,59241,6,0,P|42:144|44:175,1,53.9999983520508,0|12,3:0|0:2,0:0:0:0:
86,253,59758,2,0,P|135:244|207:266,1,107.999996704102,6|10,3:2|0:2,0:0:0:0:
251,333,60448,2,0,P|283:343|316:342,1,53.9999983520508,2|0,0:0|3:0,0:0:0:0:
333,305,60792,1,8,0:0:0:0:
416,355,61137,2,0,B|432:313|432:313|410:233,1,107.999996704102,2|10,3:2|0:2,0:0:0:0:
354,175,61827,2,0,P|379:160|427:160,2,53.9999983520508,2|0|10,3:2|3:0|0:2,0:0:0:0:
269,126,62516,5,2,3:2:0:0:
237,218,62861,2,0,L|108:237,2,107.999996704102,10|2|10,0:2|3:2|0:2,0:0:0:0:
269,126,63896,2,0,L|267:60,2,53.9999983520508,2|0|10,3:2|0:0|0:2,0:0:0:0:
301,162,64413,2,0,P|356:182|424:171,1,107.999996704102,0|0,0:0|3:0,0:0:0:0:
448,157,64930,1,10,0:2:0:0:
487,245,65275,6,0,B|500:326|500:326|482:370,1,107.999996704102,6|10,3:2|0:2,0:0:0:0:
441,357,65792,2,0,L|321:343,1,107.999996704102,0|0,0:0|3:0,0:0:0:0:
298,312,66310,1,10,0:0:0:0:
298,312,66482,2,0,P|236:301|175:321,1,107.999996704102,4|0,3:2|3:0,0:0:0:0:
152,338,66999,1,10,0:2:0:0:
70,284,67344,2,0,B|62:247|62:247|79:175,1,107.999996704102,2|10,3:2|0:2,0:0:0:0:
104,84,68034,5,6,3:2:0:0:
192,43,68379,1,10,0:2:0:0:
279,83,68723,2,0,L|277:205,1,107.999996704102,2|8,3:2|3:0,0:0:0:0:
311,226,69241,2,0,P|362:219|423:235,2,107.999996704102,4|0|4,3:2|3:0|3:2,0:0:0:0:
263,310,70275,2,0,L|141:322,1,107.999996704102,0|8,3:0|0:0,0:0:0:0:
115,297,70792,6,0,L|117:181,1,107.999996704102,6|10,3:2|0:2,0:0:0:0:
183,117,71482,2,0,P|194:144|190:186,2,53.9999983520508,10|2|10,0:2|3:2|0:2,0:0:0:0:
209,76,71999,1,2,3:2:0:0:
209,76,72172,6,0,P|263:66|336:79,1,107.999996704102,10|10,3:2|0:2,0:0:0:0:
358,159,72861,2,0,P|332:164|299:159,2,53.9999983520508,10|2|10,0:2|3:2|0:2,0:0:0:0:
398,183,73379,1,2,3:2:0:0:
398,183,73551,6,0,L|390:308,1,107.999996704102,10|10,3:2|0:2,0:0:0:0:
309,343,74241,1,10,0:2:0:0:
212,326,74585,1,10,0:2:0:0:
133,383,74930,2,0,B|118:347|118:347|129:262,1,107.999996704102,10|10,3:2|0:2,0:0:0:0:
141,231,75448,2,0,P|186:210|268:216,1,107.999996704102,2|2,0:0|3:2,0:0:0:0:
276,245,75965,1,10,0:2:0:0:
359,294,76310,6,0,P|371:241|349:182,1,107.999996704102,10|10,3:2|0:2,0:0:0:0:
282,126,76999,1,10,0:2:0:0:
348,55,77344,2,0,L|419:64,2,53.9999983520508,10|2|10,0:2|3:2|3:2,0:0:0:0:
253,30,78034,1,10,0:2:0:0:
168,78,78379,2,0,P|152:101|151:141,2,53.9999983520508,10|2|10,0:2|3:2|0:2,0:0:0:0:
234,148,79068,6,0,P|289:138|353:156,1,107.999996704102,12|8,0:0|0:0,0:0:0:0:
373,184,79585,2,0,B|387:216|387:216|364:309,1,107.999996704102,0|8,3:0|0:0,0:0:0:0:
303,359,80275,2,0,P|261:344|179:348,1,107.999996704102,0|8,3:0|0:0,0:0:0:0:
158,371,80792,2,0,B|140:291|140:291|148:266,1,107.999996704102,8|8,0:0|3:2,0:0:0:0:
165,170,81482,1,8,3:2:0:0:
115,86,81827,6,0,P|176:70|233:95,1,107.999996704102,4|10,3:2|0:2,0:0:0:0:
302,130,82516,2,0,P|313:98|311:72,2,53.9999983520508,10|2|10,0:2|3:2|0:2,0:0:0:0:
268,165,83034,1,2,3:2:0:0:
268,165,83206,6,0,L|382:179,1,107.999996704102,10|10,3:2|0:2,0:0:0:0:
458,228,83896,2,0,L|461:291,2,53.9999983520508,10|2|10,0:2|3:2|0:2,0:0:0:0:
494,195,84413,1,2,3:2:0:0:
494,195,84585,6,0,L|488:72,1,107.999996704102,0|8,3:0|0:0,0:0:0:0:
406,34,85275,2,0,B|368:26|368:26|294:44,1,107.999996704102,0|8,3:0|3:0,0:0:0:0:
271,81,85792,1,4,3:2:0:0:
