osu file format v14

[General]
AudioFilename: audio.ogg
AudioLeadIn: 0
PreviewTime: 60178
Countdown: 0
SampleSet: Soft
StackLeniency: 0.6
Mode: 0
LetterboxInBreaks: 0
WidescreenStoryboard: 1

[Editor]
Bookmarks: 954,7678,15954,18712,29747,40954,51988,54747,60264,86298,89229
DistanceSpacing: 1
BeatDivisor: 2
GridSize: 4
TimelineZoom: 1.6

[Metadata]
Title:Harumodoki (TV Size)
TitleUnicode:春擬き (TV Size)
Artist:yanaginagi
ArtistUnicode:やなぎなぎ
Creator:Nakano-
Version:Normal
Source:やはり俺の青春ラブコメはまちがっている。続
Tags:Yahari Ore no Seishun Love Comedy wa Machigatteiru. Zoku oregairu my teen romantic comedy snafu season 2 japanese anime opening op projectgreat dogerinoo pop j-pop jpop female vocals haru modoki Kinomi Tsukuyomi baldrace
BeatmapID:4466906
BeatmapSetID:2120835

[Difficulty]
HPDrainRate:4
CircleSize:3
OverallDifficulty:4
ApproachRate:5
SliderMultiplier:1.1
SliderTickRate:1

[Events]
//Background and Video events
Video,-36,"video.avi"
0,0,"normalbg.jpg",0,0
//Break Periods
//Storyboard Layer 0 (Background)
//Storyboard Layer 1 (Fail)
//Storyboard Layer 2 (Pass)
//Storyboard Layer 3 (Foreground)
//Storyboard Layer 4 (Overlay)
//Storyboard Sound Samples

[TimingPoints]
954,344.827586206897,4,2,1,40,1,0
954,-117.647058823529,4,2,1,40,0,0
7160,-117.647058823529,4,2,1,60,0,0
7678,-100,4,2,1,70,0,0
15954,-100,4,2,1,40,0,0
18712,-100,4,2,1,50,0,0
29747,-100,4,2,1,60,0,0
40954,-100,4,2,1,50,0,0
51988,-100,4,2,1,50,0,0
54747,-100,4,2,1,70,0,0
60264,-100,4,2,1,80,0,1
86298,-100,4,2,1,60,0,0
86471,-100,4,2,1,45,0,0
86816,-100,4,2,1,40,0,0
87160,-100,4,2,1,35,0,0
87505,-100,4,2,1,30,0,0
87850,-100,4,2,1,25,0,0
88195,-100,4,2,1,20,0,0
88540,-100,4,2,1,15,0,0
88885,-100,4,2,1,10,0,0
89229,-100,4,2,1,5,0,0

[Colours]
Combo1 : 255,165,121
Combo2 : 255,128,128
Combo3 : 74,113,131

[HitObjects]
69,245,954,6,0,P|61:290|69:336,1,93.500001783371,2|0,0:0|0:0,0:0:0:0:
151,290,1643,2,0,P|159:244|151:198,1,93.500001783371
109,114,2333,1,2,0:0:0:0:
166,40,2678,1,0,0:0:0:0:
258,48,3022,2,0,P|301:78|305:129,1,93.500001783371
283,206,3712,5,2,0:0:0:0:
359,260,4057,2,0,P|343:310|348:368,2,93.500001783371
436,207,5091,2,0,P|414:88|272:101,1,280.500005350113,2|2,0:0|0:0,0:0:0:0:
240,179,6471,6,0,P|249:244|252:331,1,140.250002675057,0|0,3:0|3:0,0:0:0:0:
218,350,7160,2,8,P|159:329|113:326,1,93.500001783371,8|0,0:0|3:0,0:0:0:0:
85,360,7678,6,0,L|90:233,1,110,6|2,0:0|3:2,0:0:0:0:
93,195,8195,1,10,0:0:0:0:
54,91,8540,2,0,P|26:95|0:91,2,55,10|0|10,0:0|3:0|0:0,0:0:0:0:
97,58,9057,1,0,3:0:0:0:
97,58,9229,2,0,B|147:55|147:55|166:63|166:63|224:61,1,110,10|10,0:0|0:0,0:0:0:0:
268,152,9919,2,0,P|273:186|267:222,1,55,10|0,0:0|3:0,0:0:0:0:
225,234,10264,1,10,0:0:0:0:
225,234,10436,6,0,P|215:287|224:341,1,110,14|2,0:0|3:2,0:0:0:0:
260,383,10953,1,10,0:0:0:0:
341,309,11298,2,0,P|364:303|395:302,1,55,10|0,0:0|3:0,0:0:0:0:
443,329,11643,2,0,P|466:335|497:336,1,55,10|0,0:0|3:0,0:0:0:0:
511,282,11988,2,0,L|507:164,1,110,10|10,0:0|0:0,0:0:0:0:
472,67,12678,2,0,P|446:78|413:81,1,55,10|0,0:0|3:0,0:0:0:0:
376,57,13022,1,10,0:0:0:0:
376,57,13195,6,0,B|380:103|380:103|371:128|371:128|375:188,1,110,14|2,0:0|3:2,0:0:0:0:
379,219,13712,1,10,0:0:0:0:
287,280,14057,2,0,B|261:275|261:275|232:279,1,55,10|0,0:0|3:0,0:0:0:0:
183,304,14402,1,10,0:0:0:0:
89,361,14747,1,10,0:0:0:0:
56,256,15091,2,0,P|46:219|50:177,1,55,10|0,0:0|3:0,0:0:0:0:
80,159,15436,2,0,L|143:165,2,55,2|0|0,3:2|3:0|3:0,0:0:0:0:
37,124,15953,6,0,P|44:58|130:24,1,165,14|2,0:0|0:0,0:0:0:0:
226,73,16815,2,0,L|220:188,1,110,2|2,0:0|0:0,0:0:0:0:
299,260,17505,1,2,0:0:0:0:
207,320,17850,1,2,0:0:0:0:
300,378,18195,2,0,P|325:366|361:362,1,55,8|8,0:0|0:0,0:0:0:0:
459,384,18712,6,0,P|444:320|449:256,1,110,4|2,3:2|0:0,0:0:0:0:
486,239,19229,2,0,L|367:246,1,110,10|2,0:0|3:2,0:0:0:0:
334,209,19746,1,2,3:2:0:0:
281,305,20091,2,0,B|228:317|228:317|174:305,1,110,10|2,0:0|0:0,0:0:0:0:
122,283,20609,1,8,0:0:0:0:
188,195,20953,2,0,P|191:167|187:140,1,55,8|8,0:0|0:0,0:0:0:0:
154,35,21471,6,0,L|17:43,1,110,8|2,0:0|0:0,0:0:0:0:
0,73,21988,1,10,0:0:0:0:
70,157,22333,2,0,L|132:153,2,55,2|2|0,3:2|3:2|0:0,0:0:0:0:
36,201,22850,2,0,P|21:260|47:328,1,110,10|2,0:0|3:2,0:0:0:0:
60,354,23367,1,10,0:0:0:0:
168,337,23712,2,0,L|165:252,1,55,0|0,3:0|3:0,0:0:0:0:
240,201,24229,6,0,B|217:129|261:153|233:70,1,110,8|2,0:0|0:0,0:0:0:0:
207,48,24746,2,0,L|137:57,2,55,10|2|2,0:0|0:0|3:2,0:0:0:0:
237,1,25264,1,2,3:2:0:0:
327,63,25609,2,0,P|379:76|442:52,1,110,10|2,0:0|3:2,0:0:0:0:
476,28,26126,1,10,0:0:0:0:
511,132,26471,2,0,L|507:205,1,55,8|8,0:0|0:0,0:0:0:0:
453,282,26988,5,12,0:0:0:0:
453,282,29057,6,0,B|448:310|448:310|452:336,2,55,0|8|8,3:3|0:0|0:0,3:0:0:0:
507,186,29746,6,0,B|476:153|476:153|401:162,1,110,4|2,3:2|0:0,0:0:0:0:
369,197,30264,2,0,L|252:190,1,110,10|2,0:0|3:2,0:0:0:0:
211,162,30781,1,2,3:2:0:0:
158,65,31126,2,0,P|118:55|49:95,1,110,2|2,0:0|0:0,0:0:0:0:
15,117,31643,1,8,0:0:0:0:
41,223,31988,2,0,L|110:215,1,55,0|0,3:0|3:0,0:0:0:0:
148,194,32333,1,8,0:0:0:0:
148,194,32505,6,0,P|139:246|139:323,1,110,4|2,3:2|0:0,0:0:0:0:
139,358,33022,1,10,0:0:0:0:
247,377,33367,2,0,P|290:350|349:355,1,110,2|8,3:2|0:0,0:0:0:0:
395,381,33884,2,0,L|390:256,1,110,2|2,0:0|0:0,0:0:0:0:
366,221,34402,1,10,0:0:0:0:
460,163,34747,2,0,P|463:130|458:103,1,55,0|0,3:0|3:0,0:0:0:0:
418,81,35091,1,8,0:0:0:0:
418,81,35264,6,0,B|377:91|377:91|309:81,1,110,4|2,3:2|0:0,0:0:0:0:
263,52,35781,2,0,P|269:103|270:182,1,110,10|2,0:0|3:2,0:0:0:0:
264,216,36298,1,2,3:2:0:0:
206,309,36643,2,0,B|158:306|158:306|141:311|141:311|89:308,1,110,2|2,0:0|0:0,0:0:0:0:
45,289,37160,1,10,0:0:0:0:
102,195,37505,2,0,B|107:167|107:167|103:141,1,55,0|0,3:0|3:0,0:0:0:0:
88,92,37850,1,8,0:0:0:0:
88,92,38022,6,0,P|133:58|191:65,1,110,4|2,3:2|0:0,0:0:0:0:
232,88,38540,1,10,0:0:0:0:
313,14,38884,2,0,B|341:9|341:9|367:13,1,55,2|2,3:2|3:2,0:0:0:0:
411,55,39229,1,8,0:0:0:0:
411,55,39402,2,0,P|403:133|403:181,1,110,2|2,3:2|3:2,0:0:0:0:
429,212,39919,1,14,0:0:0:0:
372,306,40264,2,0,P|305:270|202:282,1,165,0|0,3:0|0:0,0:0:0:0:
179,314,40953,6,0,L|185:147,1,165,6|0,3:2|3:0,0:0:0:0:
187,94,41642,1,10,0:0:0:0:
105,19,41987,1,2,3:2:0:0:
23,92,42332,2,0,P|8:134|13:203,1,110,2|2,0:0|0:0,0:0:0:0:
38,246,42849,2,0,B|97:226|97:226|197:246,1,165,2|2,3:2|0:0,0:0:0:0:
293,300,43711,6,0,L|287:133,1,165,2|2,3:2|3:2,0:0:0:0:
256,89,44402,2,0,P|209:111|133:113,2,110,8|0|0,0:0|3:0|3:0,0:0:0:0:
333,10,45435,1,0,3:0:0:0:
427,66,45780,2,0,P|434:102|433:125,1,55,8|0,0:0|3:0,0:0:0:0:
399,163,46125,2,0,P|392:189|392:217,1,55,0|0,3:0|3:0,0:0:0:0:
424,261,46470,6,0,B|335:235|347:296|258:266,1,165,4|0,3:2|3:0,0:0:0:0:
215,241,47159,1,10,0:0:0:0:
301,173,47504,1,2,3:2:0:0:
224,93,47849,2,0,P|177:115|101:117,1,110,2|2,0:0|0:0,0:0:0:0:
75,87,48366,2,0,L|80:253,1,165,2|0,3:2|0:0,0:0:0:0:
27,348,49228,6,0,P|66:361|150:335,1,110,2|2,3:2|0:0,0:0:0:0:
172,310,49746,2,0,P|211:297|295:323,1,110,2|2,3:2|0:0,0:0:0:0:
323,340,50263,2,0,L|316:213,1,110,2|0,3:2|0:0,0:0:0:0:
226,167,50953,2,0,B|173:178|173:178|118:167,2,110,2|10|10,0:0|0:0|0:0,0:0:0:0:
279,70,51987,6,0,P|325:41|399:49,1,110,4|10,3:2|0:0,0:0:0:0:
455,121,52677,2,0,L|452:198,1,55,2|0,3:2|3:0,0:0:0:0:
487,225,53021,1,10,0:0:0:0:
487,225,53194,2,0,B|444:210|444:210|381:225,1,110,4|0,3:2|3:0,0:0:0:0:
343,264,53711,2,0,L|348:373,2,110,10|2|10,0:0|3:2|0:0,0:0:0:0:
276,175,54746,6,0,B|138:183|191:111|50:130,1,220,4|8,3:2|3:2,0:0:0:0:
0,216,55780,1,8,3:2:0:0:
68,309,56125,1,8,3:2:0:0:
68,309,56298,2,0,P|115:282|190:281,1,110,0|0,3:0|3:0,0:0:0:0:
225,278,56816,1,8,3:2:0:0:
320,331,57159,1,8,3:2:0:0:
363,229,57504,6,0,L|432:233,2,55,8|0|8,3:2|3:0|3:2,0:0:0:0:
321,193,58021,2,0,P|307:140|317:82,1,110,0|0,3:0|3:0,0:0:0:0:
336,37,58540,1,0,3:0:0:0:
336,37,58711,1,4,3:2:0:0:
336,37,59746,6,0,B|364:43|364:43|389:37,1,55,0|12,3:0|0:0,3:0:0:0:
492,79,60264,6,0,P|483:144|484:198,1,110,6|10,3:2|0:0,0:0:0:0:
511,295,60954,2,0,L|456:290,1,55,2|0,0:0|3:0,0:0:0:0:
414,253,61298,2,0,L|359:258,1,55,10|0,0:0|0:0,0:0:0:0:
329,304,61643,2,0,P|274:311|218:281,1,110,2|10,3:2|0:0,0:0:0:0:
289,198,62333,2,0,L|291:138,1,55,2|0,3:2|3:0,0:0:0:0:
293,87,62678,1,10,0:0:0:0:
201,26,63021,6,0,P|152:0|98:0,1,110,0|10,3:0|0:0,0:0:0:0:
0,50,63712,2,0,L|2:110,1,55,2|0,3:2|3:0,0:0:0:0:
2,160,64057,1,10,0:0:0:0:
100,207,64401,2,0,P|105:261|90:314,1,110,2|10,3:2|0:0,0:0:0:0:
64,362,64918,2,0,P|99:347|177:358,1,110,2|0,0:0|3:0,0:0:0:0:
215,383,65435,1,10,0:0:0:0:
290,303,65780,6,0,L|283:173,1,110,6|10,3:2|0:0,0:0:0:0:
238,161,66298,2,0,P|223:106|239:46,1,110,2|2,0:0|3:2,0:0:0:0:
330,108,66987,2,0,B|371:120|371:120|438:109,1,110,6|0,3:2|3:0,0:0:0:0:
492,103,67504,2,0,P|488:48|511:0,2,110,10|2|10,0:0|3:2|0:0,0:0:0:0:
511,211,68539,6,0,B|508:259|508:259|513:278|513:278|510:340,1,110,6|10,3:2|0:0,0:0:0:0:
418,380,69229,1,2,3:2:0:0:
314,359,69574,1,2,3:2:0:0:
314,359,69746,2,0,L|319:231,1,110,4|0,3:2|3:0,0:0:0:0:
342,201,70263,1,8,0:0:0:0:
342,201,70435,2,0,P|290:226|211:222,1,110,4|0,3:2|3:0,0:0:0:0:
185,211,70953,1,8,0:0:0:0:
83,255,71297,6,0,L|88:141,1,110,6|10,3:2|0:0,0:0:0:0:
52,109,71816,1,0,3:0:0:0:
52,109,71988,2,0,P|47:82|52:55,1,55,10|0,0:0|3:0,0:0:0:0:
72,3,72333,1,10,0:0:0:0:
154,77,72678,2,0,L|209:72,1,55,14|0,0:0|3:0,0:0:0:0:
253,40,73021,1,10,0:0:0:0:
285,145,73366,2,0,B|263:204|307:180|284:252,1,110,10|10,0:0|0:0,0:0:0:0:
368,323,74057,6,0,L|490:331,2,110,12|10|10,0:0|0:0|0:0,0:0:0:0:
324,355,74919,1,0,3:0:0:0:
324,355,75090,1,10,0:0:0:0:
285,252,75435,2,0,P|230:276|164:269,1,110,12|8,0:0|0:0,0:0:0:0:
139,237,75953,2,0,L|141:159,1,55,0|8,3:0|0:0,0:0:0:0:
141,131,76298,1,0,3:0:0:0:
141,131,76471,1,8,0:0:0:0:
210,46,76816,6,0,P|243:53|273:52,1,55,14|2,0:0|3:2,0:0:0:0:
303,14,77160,2,0,P|336:7|366:8,1,55,10|2,0:0|3:2,0:0:0:0:
400,41,77504,1,10,0:0:0:0:
506,110,77849,2,0,L|503:173,1,55,10|2,0:0|3:2,0:0:0:0:
465,205,78195,2,0,L|468:268,1,55,10|2,0:0|3:2,0:0:0:0:
493,308,78540,2,0,P|448:287|382:289,1,110,10|8,0:0|0:0,0:0:0:0:
302,355,79228,1,8,0:0:0:0:
257,254,79574,6,0,L|259:189,1,55,14|8,0:0|0:0,0:0:0:0:
273,148,79919,1,10,0:0:0:0:
273,148,80091,2,0,B|218:158|218:158|155:142,1,110,6|2,3:2|3:2,0:0:0:0:
123,117,80609,1,0,3:0:0:0:
123,117,80780,1,6,3:2:0:0:
20,150,81126,1,8,0:0:0:0:
20,150,81298,2,0,L|26:281,1,110,10|10,3:2|3:2,0:0:0:0:
3,368,81988,2,0,L|71:374,1,55,10|8,3:2|0:0,0:0:0:0:
112,375,82332,6,0,B|153:365|153:365|221:374,1,110,4|8,3:2|0:0,0:0:0:0:
295,293,83021,1,8,0:0:0:0:
212,220,83366,1,8,0:0:0:0:
287,140,83711,2,0,P|330:108|385:102,1,110,8|8,0:0|0:0,0:0:0:0:
435,136,84229,1,0,3:0:0:0:
435,136,84402,2,0,L|438:82,2,55,8|0|8,0:0|3:0|0:0,0:0:0:0:
507,218,85090,6,0,L|512:332,1,110,14|10,0:0|0:0,0:0:0:0:
484,376,85608,1,2,3:2:0:0:
396,308,85953,2,0,P|356:300|332:302,1,55,2|0,3:2|3:0,0:0:0:0:
295,329,86298,1,6,3:2:0:0:
256,192,86471,12,0,89229,0:0:0:0:
