osu file format v14

[General]
AudioFilename: audio.ogg
AudioLeadIn: 0
PreviewTime: 60178
Countdown: 0
SampleSet: Soft
StackLeniency: 0.4
Mode: 0
LetterboxInBreaks: 0
WidescreenStoryboard: 1

[Editor]
Bookmarks: 954,7678,15954,18712,29747,40953,51987,54746,60264,86298,89228
DistanceSpacing: 1.1
BeatDivisor: 4
GridSize: 4
TimelineZoom: 3.099999

[Metadata]
Title:Harumodoki (TV Size)
TitleUnicode:春擬き (TV Size)
Artist:yanaginagi
ArtistUnicode:やなぎなぎ
Creator:Nakano-
Version:Genuine Memories
Source:やはり俺の青春ラブコメはまちがっている。続
Tags:Yahari Ore no Seishun Love Comedy wa Machigatteiru. Zoku oregairu my teen romantic comedy snafu season 2 japanese anime opening op projectgreat dogerinoo pop j-pop jpop female vocals haru modoki Kinomi Tsukuyomi baldrace
BeatmapID:4455929
BeatmapSetID:2120835

[Difficulty]
HPDrainRate:6
CircleSize:4
OverallDifficulty:8.5
ApproachRate:9
SliderMultiplier:1.7
SliderTickRate:1

[Events]
//Background and Video events
0,0,"bg.jpg",0,0
Video,-36,"video.avi"
//Break Periods
//Storyboard Layer 0 (Background)
//Storyboard Layer 1 (Fail)
//Storyboard Layer 2 (Pass)
//Storyboard Layer 3 (Foreground)
//Storyboard Layer 4 (Overlay)
//Storyboard Sound Samples

[TimingPoints]
954,344.827586206897,4,2,1,40,1,0
954,-133.333333333333,4,2,1,40,0,0
7160,-100,4,2,1,60,0,0
7678,-100,4,2,1,70,0,0
15954,-133.333333333333,4,2,1,40,0,0
18712,-111.111111111111,4,2,1,50,0,0
29747,-111.111111111111,4,2,1,60,0,0
40954,-133.333333333333,4,2,1,50,0,0
51988,-117.647058823529,4,2,1,50,0,0
54747,-100,4,2,1,70,0,0
60264,-90.9090909090909,4,2,1,80,0,1
74316,-90.9090909090909,4,2,1,5,0,1
74402,-90.9090909090909,4,2,1,80,0,1
86298,-90.9090909090909,4,2,1,60,0,0
86471,-90.9090909090909,4,2,1,45,0,0
86816,-90.9090909090909,4,2,1,40,0,0
87160,-90.9090909090909,4,2,1,35,0,0
87505,-90.9090909090909,4,2,1,30,0,0
87850,-90.9090909090909,4,2,1,25,0,0
88195,-90.9090909090909,4,2,1,20,0,0
88540,-90.9090909090909,4,2,1,15,0,0
88885,-90.9090909090909,4,2,1,10,0,0
89229,-90.9090909090909,4,2,1,5,0,0

[Colours]
Combo1 : 255,165,121
Combo2 : 255,128,128
Combo3 : 111,111,111

[HitObjects]
193,65,954,5,2,0:0:0:0:
89,352,2333,5,2,0:0:0:0:
358,207,3712,5,2,0:0:0:0:
63,131,5091,5,2,0:0:0:0:
63,131,5436,2,2,B|67:71|67:71|60:56|60:56|63:5,2,127.500004863739
0,300,6471,5,0,3:0:0:0:
29,289,6557,1,0,3:0:0:0:
61,293,6643,1,0,3:0:0:0:
88,309,6729,1,0,3:0:0:0:
109,333,6815,1,0,3:0:0:0:
129,357,6902,1,0,3:0:0:0:
156,374,6988,1,0,3:0:0:0:
188,381,7074,1,0,3:0:0:0:
218,378,7160,6,8,L|275:374,1,42.5
403,292,7333,2,0,L|346:288,1,42.5,0|0,3:0|3:0,3:0:0:0:
212,187,7505,2,0,L|269:183,1,42.5,0|0,3:0|3:0,3:0:0:0:
432,81,7678,6,0,P|405:8|315:8,1,170,6|2,0:0|3:2,0:0:0:0:
203,103,8195,2,0,P|211:151|211:205,1,85,10|0,0:0|3:0,0:0:0:0:
198,225,8454,1,0,3:0:0:0:
198,225,8540,1,10,0:0:0:0:
18,144,8712,1,0,3:0:0:0:
86,298,8884,1,10,0:0:0:0:
203,103,9057,1,0,3:0:0:0:
203,103,9143,1,0,3:0:0:0:
203,103,9229,6,0,L|305:109,1,85,10|0,0:0|3:0,0:0:0:0:
494,0,9574,2,0,L|392:6,1,85,10|0,0:0|3:0,0:0:0:0:
287,107,9919,1,10,0:0:0:0:
449,211,10091,1,0,3:0:0:0:
277,352,10264,1,10,0:0:0:0:
277,352,10350,1,0,3:0:0:0:
277,352,10436,6,0,B|313:256|243:276|280:182,1,170,14|2,0:0|3:2,0:0:0:0:
158,72,10953,2,0,P|203:89|252:85,1,85,10|0,0:0|3:0,0:0:0:0:
280,82,11212,1,0,3:0:0:0:
280,82,11298,1,10,0:0:0:0:
437,31,11471,1,0,3:0:0:0:
379,184,11643,1,10,0:0:0:0:
316,0,11815,1,0,3:0:0:0:
175,159,11988,6,0,P|185:207|187:263,1,85,10|0,0:0|3:0,0:0:0:0:
328,384,12333,2,0,P|331:342|340:301,1,85,10|0,0:0|3:0,0:0:0:0:
443,163,12678,1,10,0:0:0:0:
494,362,12850,1,0,3:0:0:0:
334,205,13022,1,10,0:0:0:0:
334,205,13109,1,0,3:0:0:0:
334,205,13195,6,0,B|276:191|276:191|166:203,1,170,14|2,0:0|3:2,0:0:0:0:
12,324,13712,2,0,P|28:278|22:219,1,85,10|0,0:0|3:0,0:0:0:0:
13,211,13971,1,0,3:0:0:0:
13,211,14057,1,10,0:0:0:0:
189,119,14229,1,0,3:0:0:0:
50,54,14402,1,10,0:0:0:0:
111,240,14574,1,0,3:0:0:0:
278,12,14746,5,10,0:0:0:0:
225,237,14919,1,0,3:0:0:0:
151,77,15091,1,10,0:0:0:0:
355,144,15264,1,0,3:0:0:0:
225,237,15436,1,2,3:2:0:0:
191,235,15522,1,0,3:0:0:0:
157,233,15608,1,0,3:0:0:0:
123,231,15694,1,0,3:0:0:0:
89,229,15780,1,0,3:0:0:0:
55,227,15867,1,0,3:0:0:0:
21,225,15954,6,0,P|-2:167|10:95,1,127.500004863739,14|2,0:0|0:0,0:0:0:0:
120,0,16471,2,0,L|115:84,1,63.7500024318696,2|0,0:0|0:0,0:0:0:0:
211,160,16815,2,0,L|206:76,1,63.7500024318696,2|0,0:0|0:0,0:0:0:0:
297,37,17160,2,0,B|329:31|329:31|359:37,1,63.7500024318696,2|0,0:0|0:0,0:0:0:0:
486,120,17505,6,0,L|482:160,1,31.8750012159348,2|0,0:0|0:0,0:0:0:0:
384,186,17678,1,0,0:0:0:0:
384,186,17764,1,0,0:0:0:0:
384,186,17850,2,0,L|388:226,1,31.8750012159348,2|0,0:0|0:0,0:0:0:0:
470,273,18022,6,0,L|466:308,1,21.2500008106232,0|0,3:0|3:0,3:0:0:0:
289,384,18195,1,8,0:0:0:0:
384,186,18367,1,8,0:0:0:0:
384,186,18712,6,0,B|309:182|309:182|293:190|293:190|215:185,1,152.999995330811,4|2,3:2|0:0,0:0:0:0:
157,256,19229,2,0,L|164:356,1,76.4999976654053,10|2,0:0|0:0,0:0:0:0:
68,384,19574,1,2,3:2:0:0:
0,230,19746,2,0,P|49:191|119:191,1,114.749996498108,2|0,3:2|3:0,0:0:0:0:
157,256,20091,6,0,P|131:201|147:107,1,152.999995330811,10|2,0:0|0:0,0:0:0:0:
235,8,20609,2,0,L|319:14,1,76.4999976654053,8|0,0:0|0:0,0:0:0:0:
452,107,20953,5,8,0:0:0:0:
209,178,21126,1,8,0:0:0:0:
209,178,21471,6,0,L|215:347,1,152.999995330811,8|2,0:0|0:0,0:0:0:0:
328,384,21988,2,0,L|331:296,1,76.4999976654053,10|2,0:0|0:0,0:0:0:0:
390,198,22333,1,2,3:2:0:0:
511,325,22505,2,0,P|469:307|416:309,1,76.4999976654053,2|0,3:2|0:0,0:0:0:0:
245,221,22850,6,0,P|320:228|402:187,1,152.999995330811,10|2,0:0|3:2,0:0:0:0:
512,90,23367,2,0,L|428:84,1,76.4999976654053,10|0,0:0|0:0,0:0:0:0:
389,197,23712,5,0,3:0:0:0:
256,0,23884,1,0,3:0:0:0:
256,0,24229,6,0,B|285:85|223:63|253:160,1,152.999995330811,8|2,0:0|0:0,0:0:0:0:
398,239,24747,1,10,0:0:0:0:
322,112,24919,1,2,0:0:0:0:
265,275,25091,1,2,3:2:0:0:
146,224,25264,2,0,B|107:216|107:216|71:224,1,76.4999976654053,2|0,3:2|0:0,0:0:0:0:
3,278,25522,1,0,3:0:0:0:
3,278,25609,6,0,P|38:224|35:133,1,152.999995330811,10|2,0:0|3:2,0:0:0:0:
0,34,26126,2,0,L|84:40,1,76.4999976654053,10|0,0:0|0:0,0:0:0:0:
207,0,26471,5,8,0:0:0:0:
256,267,26643,1,8,0:0:0:0:
256,267,26988,5,12,0:0:0:0:
256,267,29057,6,0,L|254:314,1,25.4999992218018,0|0,3:3|3:3,3:0:0:0:
159,202,29229,1,8,0:0:0:0:
318,126,29402,1,8,0:0:0:0:
318,126,29746,6,0,B|393:122|393:122|409:130|409:130|487:125,1,152.999995330811,4|2,3:2|0:0,0:0:0:0:
512,266,30264,2,0,P|474:250|427:252,1,76.4999976654053,10|2,0:0|0:0,0:0:0:0:
299,322,30609,1,2,3:2:0:0:
430,356,30781,1,2,3:2:0:0:
370,201,30954,1,8,0:0:0:0:
223,329,31126,6,0,L|323:321,1,76.4999976654053,2|0,0:0|3:0,0:0:0:0:
158,381,31471,2,0,P|145:346|145:300,1,76.4999976654053,2|8,0:0|0:0,0:0:0:0:
259,200,31815,1,0,0:0:0:0:
362,384,31988,1,0,3:0:0:0:
241,166,32160,2,0,P|204:177|144:177,1,76.4999976654053,0|8,3:0|0:0,0:0:0:0:
0,58,32505,6,0,P|55:5|142:8,1,152.999995330811,4|2,3:2|0:0,0:0:0:0:
194,144,33022,1,10,0:0:0:0:
236,0,33195,1,2,0:0:0:0:
90,81,33367,1,2,3:2:0:0:
194,144,33540,2,0,P|228:146|272:134,1,76.4999976654053,2|8,3:2|0:0,0:0:0:0:
414,0,33884,6,0,P|405:71|402:171,1,152.999995330811,2|2,0:0|0:0,0:0:0:0:
481,275,34402,2,0,P|449:261|405:258,1,76.4999976654053,10|2,0:0|0:0,0:0:0:0:
250,365,34746,1,0,3:0:0:0:
320,152,34919,1,0,3:0:0:0:
429,331,35091,1,8,0:0:0:0:
276,229,35264,6,0,B|201:225|201:225|185:233|185:233|107:228,1,152.999995330811,4|2,3:2|0:0,0:0:0:0:
0,281,35781,1,10,0:0:0:0:
41,139,35953,1,2,0:0:0:0:
125,229,36126,1,2,3:2:0:0:
229,98,36298,2,0,P|194:82|147:85,1,76.4999976654053,2|8,3:2|0:0,0:0:0:0:
41,139,36643,6,0,P|48:220|50:310,1,152.999995330811,2|2,0:0|0:0,0:0:0:0:
167,384,37160,2,0,P|168:345|172:307,1,76.4999976654053,10|0,0:0|0:0,0:0:0:0:
285,142,37505,1,0,3:0:0:0:
327,331,37678,1,0,3:0:0:0:
155,144,37850,1,8,0:0:0:0:
346,98,38022,6,0,P|356:170|302:218,1,152.999995330811,4|2,3:2|0:0,0:0:0:0:
155,144,38540,2,0,L|160:241,1,76.4999976654053,10|2,0:0|0:0,0:0:0:0:
285,142,38884,1,2,3:2:0:0:
197,4,39057,1,2,3:2:0:0:
155,144,39229,1,8,0:0:0:0:
298,45,39402,1,2,3:2:0:0:
379,168,39574,6,0,P|430:157|474:156,1,76.4999976654053,0|2,0:0|3:2,0:0:0:0:
318,297,39919,2,0,P|267:286|223:285,1,76.4999976654053,14|2,0:0|0:0,0:0:0:0:
84,370,40264,5,0,3:0:0:0:
89,324,40379,1,0,3:0:0:0:
94,278,40494,1,0,3:0:0:0:
133,254,40609,5,2,3:2:0:0:
128,208,40724,1,0,3:0:0:0:
123,162,40839,1,0,3:0:0:0:
158,129,40954,6,0,B|204:142|204:142|282:129,1,127.500004863739,6|0,3:2|0:0,0:0:0:0:
353,64,41470,1,0,3:0:0:0:
453,158,41642,2,0,P|447:208|447:247,1,63.7500024318696,10|0,0:0|0:0,0:0:0:0:
366,311,41987,2,0,P|364:279|359:247,1,63.7500024318696,2|0,3:2|3:0,0:0:0:0:
280,137,42332,5,2,0:0:0:0:
217,260,42505,2,0,P|184:247|134:244,1,63.7500024318696,8|2,0:0|0:0,0:0:0:0:
54,287,42850,1,2,3:2:0:0:
0,133,43021,1,8,0:0:0:0:
0,133,43366,2,0,P|27:147|62:146,1,63.7500024318696,2|0,0:0|3:0,0:0:0:0:
206,0,43711,6,0,L|202:128,1,127.500004863739,2|0,3:2|0:0,0:0:0:0:
293,194,44228,1,2,3:2:0:0:
410,101,44401,2,0,B|331:109|364:66|288:75,1,127.500004863739,8|0,0:0|3:0,0:0:0:0:
202,127,44918,1,0,3:0:0:0:
116,65,45091,2,0,L|114:1,2,63.7500024318696,0|0|0,3:0|3:0|3:0,0:0:0:0:
68,266,45781,2,0,P|35:268|1:258,1,63.7500024318696,8|0,0:0|3:0,0:0:0:0:
126,178,46126,1,0,3:0:0:0:
126,178,46298,1,0,3:0:0:0:
239,346,46470,6,0,B|293:341|293:341|316:347|316:347|368:343,1,127.500004863739,4|0,3:2|0:0,0:0:0:0:
438,276,46987,1,0,3:0:0:0:
336,176,47159,2,0,P|323:216|323:260,1,63.7500024318696,10|0,0:0|0:0,0:0:0:0:
239,346,47504,2,0,P|235:314|224:284,1,63.7500024318696,2|0,3:2|3:0,0:0:0:0:
172,192,47850,6,0,L|104:197,1,63.7500024318696,2|8,0:0|0:0,0:0:0:0:
4,82,48195,1,2,0:0:0:0:
4,82,48367,2,0,B|38:93|38:93|129:81,1,127.500004863739,2|0,3:2|0:0,0:0:0:0:
360,4,49056,1,2,3:2:0:0:
360,4,49228,6,0,P|353:70|353:152,1,127.500004863739,2|2,3:2|0:0,0:0:0:0:
423,198,49746,1,2,3:2:0:0:
512,83,49919,2,0,L|433:87,1,63.7500024318696,8|2,0:0|0:0,0:0:0:0:
352,131,50264,1,2,3:2:0:0:
352,131,50436,1,0,3:0:0:0:
254,49,50609,5,0,0:0:0:0:
231,218,50780,1,8,0:0:0:0:
154,105,50953,2,0,B|117:98|117:98|21:127,2,127.500004863739,2|10|10,0:0|0:0|0:0,0:0:0:0:
389,151,51988,5,4,3:2:0:0:
389,151,52333,2,0,L|470:155,1,72.2500013780594,10|0,0:0|0:0,0:0:0:0:
332,263,52677,1,2,3:2:0:0:
269,85,52849,1,0,3:0:0:0:
205,229,53021,1,10,0:0:0:0:
27,56,53194,6,0,P|66:0|136:0,1,144.500002756119,4|0,3:2|3:0,0:0:0:0:
269,85,53711,1,10,0:0:0:0:
163,175,53884,1,0,0:0:0:0:
163,175,54056,2,0,L|167:102,1,72.2500013780594,2|0,3:2|3:0,0:0:0:0:
338,192,54401,1,10,0:0:0:0:
220,291,54573,1,0,0:0:0:0:
269,85,54747,5,4,3:2:0:0:
279,57,54832,1,0,3:0:0:0:
296,33,54918,1,0,3:0:0:0:
320,16,55004,1,0,3:0:0:0:
348,7,55090,1,8,3:2:0:0:
381,4,55177,1,0,3:0:0:0:
410,9,55263,5,0,3:0:0:0:
434,43,55349,1,0,3:0:0:0:
443,84,55435,1,8,3:2:0:0:
431,124,55521,1,0,3:0:0:0:
403,156,55609,1,0,3:0:0:0:
362,170,55695,1,0,3:0:0:0:
319,163,55780,5,8,3:2:0:0:
278,151,55866,1,0,3:0:0:0:
239,168,55954,1,0,3:0:0:0:
220,206,56040,1,0,3:0:0:0:
214,248,56125,6,8,P|219:287|221:313,1,42.5,8|0,3:2|3:0,0:0:0:0:
305,384,56298,1,0,3:0:0:0:
305,384,56385,1,0,3:0:0:0:
305,384,56471,2,0,P|310:345|312:319,1,42.5,8|0,3:2|3:0,3:0:0:0:
382,236,56643,1,0,3:0:0:0:
382,236,56730,1,0,3:0:0:0:
382,236,56816,2,0,P|387:275|389:301,1,42.5,8|0,3:2|3:0,0:0:0:0:
470,364,56988,6,0,L|512:359,1,42.5,0|0,3:0|3:0,3:0:0:0:
387,278,57160,2,0,L|344:273,1,42.5,8|0,3:2|3:0,0:0:0:0:
470,191,57333,2,0,L|512:186,1,42.5,0|0,3:0|3:0,3:0:0:0:
386,41,57505,5,8,3:2:0:0:
348,69,57591,1,8,3:2:0:0:
302,77,57677,1,0,3:0:0:0:
257,61,57763,1,0,3:0:0:0:
221,29,57850,1,8,3:2:0:0:
174,23,57936,1,8,3:2:0:0:
128,33,58022,1,0,3:0:0:0:
94,65,58108,1,0,3:0:0:0:
80,110,58195,1,8,3:2:0:0:
93,153,58281,1,8,3:2:0:0:
123,188,58367,6,0,L|180:181,1,42.5,0|0,3:0|3:0,0:0:0:0:
45,291,58540,2,0,L|2:285,1,42.5,0|0,3:0|3:0,0:0:0:0:
168,358,58712,5,4,3:2:0:0:
168,358,59746,6,0,L|171:306,1,28.3333333333333,0|0,3:0|3:0,3:0:0:0:
76,175,59918,1,12,0:0:0:0:
76,175,60264,6,0,L|187:181,1,93.5000028533936,6|0,3:2|0:0,0:0:0:0:
387,80,60608,2,0,L|276:86,1,93.5000028533936,10|0,0:0|3:0,0:0:0:0:
170,181,60953,1,2,0:0:0:0:
219,0,61125,1,0,3:0:0:0:
345,161,61297,2,0,P|354:205|353:258,1,93.5000028533936,10|0,0:0|0:0,0:0:0:0:
185,374,61642,6,0,B|105:369|105:369|77:378|77:378|0:373,1,187.000005706787,2|10,3:2|0:0,0:0:0:0:
65,204,62159,1,0,0:0:0:0:
185,374,62332,2,0,P|229:354|278:351,1,93.5000028533936,2|0,3:2|3:0,0:0:0:0:
469,253,62677,2,0,P|422:249|380:229,1,93.5000028533936,10|0,0:0|0:0,0:0:0:0:
357,204,62936,1,0,3:0:0:0:
357,204,63021,6,0,L|360:105,1,93.5000028533936,0|0,3:0|0:0,0:0:0:0:
197,0,63367,2,0,L|199:93,1,93.5000028533936,10|0,0:0|3:0,0:0:0:0:
23,148,63712,1,2,3:2:0:0:
88,0,63884,1,0,3:0:0:0:
155,187,64056,2,0,P|204:197|268:173,1,93.5000028533936,10|0,0:0|0:0,0:0:0:0:
453,57,64401,5,2,3:2:0:0:
372,289,64573,1,2,0:0:0:0:
261,86,64746,1,10,0:0:0:0:
461,197,64919,2,0,P|412:176|356:183,1,93.5000028533936,2|0,0:0|3:0,0:0:0:0:
206,237,65263,1,0,3:0:0:0:
232,0,65435,2,0,P|257:45|260:93,1,93.5000028533936,10|2,0:0|0:0,0:0:0:0:
22,236,65780,6,0,B|84:219|84:219|205:236,1,187.000005706787,6|10,3:2|0:0,0:0:0:0:
349,384,66297,2,0,P|324:339|321:291,1,93.5000028533936,2|0,0:0|3:0,0:0:0:0:
481,187,66642,1,2,3:2:0:0:
398,316,66815,1,8,0:0:0:0:
327,89,66987,6,0,B|247:84|247:84|219:93|219:93|142:88,1,187.000005706787,6|0,3:2|3:0,0:0:0:0:
238,253,67504,2,0,P|256:207|258:157,1,93.5000028533936,10|0,0:0|0:0,0:0:0:0:
385,28,67849,2,0,P|403:74|405:124,1,93.5000028533936,2|0,3:2|3:0,0:0:0:0:
512,257,68194,2,0,P|466:239|416:237,1,93.5000028533936,10|0,0:0|0:0,0:0:0:0:
237,377,68539,6,0,B|159:370|159:370|130:378|130:378|46:373,1,187.000005706787,6|10,3:2|0:0,0:0:0:0:
0,262,69056,1,0,0:0:0:0:
168,181,69228,1,2,3:2:0:0:
168,181,69316,1,0,3:0:0:0:
168,181,69402,1,0,3:0:0:0:
29,115,69573,1,2,3:2:0:0:
294,0,69746,6,0,P|275:42|272:105,1,93.5000028533936,4|0,3:2|0:0,0:0:0:0:
457,201,70090,1,0,3:0:0:0:
414,39,70263,1,8,0:0:0:0:
262,189,70435,2,0,L|156:179,1,93.5000028533936,4|0,3:2|0:0,0:0:0:0:
51,253,70780,1,0,3:0:0:0:
200,384,70953,1,8,0:0:0:0:
238,354,71039,1,8,0:0:0:0:
283,340,71125,1,8,0:0:0:0:
329,349,71211,1,8,0:0:0:0:
366,378,71297,6,0,L|362:283,1,93.5000028533936,6|0,3:2|0:0,0:0:0:0:
512,155,71642,2,0,L|508:250,1,93.5000028533936,10|0,0:0|3:0,0:0:0:0:
278,87,71988,1,10,0:0:0:0:
363,284,72160,1,0,3:0:0:0:
460,67,72333,1,10,0:0:0:0:
278,217,72505,1,0,3:0:0:0:
116,0,72678,6,0,L|224:8,1,93.5000028533936,14|0,0:0|3:0,0:0:0:0:
94,176,73022,2,0,L|0:183,1,93.5000028533936,10|0,0:0|3:0,0:0:0:0:
193,310,73366,1,10,0:0:0:0:
368,117,73539,1,0,3:0:0:0:
315,368,73711,1,10,0:0:0:0:
185,106,73884,1,0,3:0:0:0:
452,32,74057,6,0,P|498:74|484:168,1,140.25000428009,12|0,0:0|0:0,0:0:0:0:
419,232,74402,2,0,L|512:226,1,93.5000028533936,10|0,0:0|3:0,0:0:0:0:
339,384,74746,2,0,P|325:340|321:277,1,93.5000028533936,10|0,0:0|3:0,0:0:0:0:
231,113,75090,2,0,P|227:160|213:204,1,93.5000028533936,10|0,0:0|3:0,0:0:0:0:
14,326,75435,6,0,L|129:334,1,93.5000028533936,12|0,0:0|3:0,0:0:0:0:
143,334,75695,1,0,3:0:0:0:
143,334,75780,1,8,0:0:0:0:
295,209,75953,1,0,3:0:0:0:
74,127,76125,1,8,0:0:0:0:
143,334,76297,1,0,3:0:0:0:
295,209,76470,2,0,P|287:162|285:116,1,93.5000028533936,8|0,0:0|3:0,0:0:0:0:
474,0,76815,5,14,0:0:0:0:
399,236,76987,1,2,3:2:0:0:
289,30,77159,1,10,0:0:0:0:
512,108,77332,1,2,3:2:0:0:
295,209,77504,2,0,L|189:205,1,93.5000028533936,10|0,0:0|3:0,0:0:0:0:
28,65,77849,5,10,0:0:0:0:
160,296,78021,1,2,3:2:0:0:
201,97,78194,1,10,0:0:0:0:
0,273,78366,1,2,3:2:0:0:
235,354,78540,2,0,P|243:307|244:254,1,93.5000028533936,10|0,0:0|3:0,0:0:0:0:
355,71,78884,2,0,P|357:118|365:164,1,93.5000028533936,8|0,0:0|3:0,0:0:0:0:
461,337,79228,1,8,0:0:0:0:
512,192,79401,1,0,3:0:0:0:
313,347,79573,5,14,0:0:0:0:
283,333,79659,1,8,0:0:0:0:
250,328,79747,1,8,0:0:0:0:
216,333,79833,1,8,0:0:0:0:
186,347,79918,2,0,P|160:358|123:364,1,46.7500014266968,10|8,0:0|0:0,0:0:0:0:
69,289,80090,6,0,P|77:242|78:189,1,93.5000028533936,6|8,3:2|0:0,0:0:0:0:
189,95,80435,1,2,3:2:0:0:
189,95,80521,1,0,3:0:0:0:
189,95,80608,1,0,3:0:0:0:
342,243,80781,6,0,P|411:244|459:196,1,140.25000428009,6|0,3:2|0:0,0:0:0:0:
445,97,81125,1,8,0:0:0:0:
445,97,81211,1,8,0:0:0:0:
445,97,81297,5,10,3:2:0:0:
426,69,81385,1,8,0:0:0:0:
398,50,81471,1,8,0:0:0:0:
365,42,81556,1,8,0:0:0:0:
331,47,81642,5,10,3:2:0:0:
296,69,81728,1,8,0:0:0:0:
255,77,81816,1,8,0:0:0:0:
215,68,81902,1,8,0:0:0:0:
182,43,81987,5,10,3:2:0:0:
143,11,82073,1,8,0:0:0:0:
94,0,82159,1,8,0:0:0:0:
45,15,82247,1,8,0:0:0:0:
8,48,82332,6,0,L|16:164,1,93.5000028533936,4|0,3:2|0:0,0:0:0:0:
143,280,82677,2,0,L|151:164,1,93.5000028533936,8|0,0:0|3:0,0:0:0:0:
343,70,83021,1,8,0:0:0:0:
256,265,83194,1,0,3:0:0:0:
161,32,83366,1,8,0:0:0:0:
360,172,83539,1,0,3:0:0:0:
143,280,83711,6,0,P|89:263|34:268,1,93.5000028533936,8|0,0:0|3:0,0:0:0:0:
238,377,84056,2,0,P|285:377|329:361,1,93.5000028533936,8|0,0:0|3:0,0:0:0:0:
413,159,84401,1,8,0:0:0:0:
269,299,84574,1,0,3:0:0:0:
469,370,84746,1,8,0:0:0:0:
286,192,84918,1,0,3:0:0:0:
512,14,85090,6,0,P|505:109|503:204,1,187.000005706787,14|10,0:0|0:0,0:0:0:0:
378,335,85608,2,0,P|377:289|372:242,1,93.5000028533936,2|8,3:2|0:0,0:0:0:0:
229,128,85953,1,2,3:2:0:0:
197,161,86039,1,0,3:0:0:0:
154,179,86125,1,0,3:0:0:0:
107,178,86211,1,0,3:0:0:0:
65,159,86297,5,6,3:2:0:0:
256,192,86384,12,0,89229,0:0:0:0:
