osu file format v14

[General]
AudioFilename: audio.mp3
AudioLeadIn: 0
PreviewTime: 58497
Countdown: 0
SampleSet: Soft
StackLeniency: 0.4
Mode: 0
LetterboxInBreaks: 0
WidescreenStoryboard: 1

[Editor]
Bookmarks: 556,7280,10038,12797,15556,17797,26073,26590,28487,33487,39866,40556,46762,51590,54349,58487,59866,70900,81935,84693,88142,89176
DistanceSpacing: 0.8
BeatDivisor: 4
GridSize: 8
TimelineZoom: 1.9

[Metadata]
Title:Harumodoki (TV Size)
TitleUnicode:春擬き (TV Size)
Artist:yanaginagi
ArtistUnicode:やなぎなぎ
Creator:In your heart
Version:Normal
Source:やはり俺の青春ラブコメはまちがっている。続
Tags:Yahari Ore no Seishun Rabu Kome wa Machigatteiru. Zoku My Teen Romantic Love Comedy SNAFU TV Size oregairu
BeatmapID:2163274
BeatmapSetID:545139

[Difficulty]
HPDrainRate:3
CircleSize:3.8
OverallDifficulty:4
ApproachRate:5
SliderMultiplier:1.2
SliderTickRate:1

[Events]
//Background and Video events
0,0,"HaruModokiBackgroundImage.jpg",0,0
//Break Periods
//Storyboard Layer 0 (Background)
//Storyboard Layer 1 (Fail)
//Storyboard Layer 2 (Pass)
//Storyboard Layer 3 (Foreground)
//Storyboard Layer 4 (Overlay)
//Storyboard Sound Samples

[TimingPoints]
999,344.827586206897,4,2,0,25,1,0
999,-125,4,2,0,25,0,0
3757,-125,4,2,0,40,0,0
6516,-125,4,2,1,50,0,0
7723,-125,4,2,1,50,0,0
15740,-125,4,2,1,60,0,0
15825,-125,4,2,1,50,0,0
15826,-125,4,2,1,50,0,0
15912,-125,4,2,1,60,0,0
15999,-125,4,2,1,50,0,0
18067,-125,4,2,1,60,0,0
18240,-125,4,2,1,50,0,0
18326,-125,4,2,1,60,0,0
18412,-125,4,2,1,50,0,0
18670,-125,4,2,1,5,0,0
18671,-125,4,2,1,5,0,0
18757,-125,4,2,1,50,0,0
21085,-125,4,2,1,5,0,0
21171,-125,4,2,1,50,0,0
21429,-125,4,2,1,5,0,0
21430,-125,4,2,1,5,0,0
21515,-125,4,2,1,50,0,0
21516,-125,4,2,1,50,0,0
23843,-125,4,2,1,5,0,0
23929,-125,4,2,1,50,0,0
24188,-125,4,2,1,5,0,0
24274,-125,4,2,1,50,0,0
26602,-100,4,2,1,5,0,0
26688,-100,4,2,1,50,0,0
26946,-100,4,2,1,5,0,0
26947,-100,4,2,1,5,0,0
27033,-100,4,2,1,50,0,0
29360,-100,4,2,1,5,0,0
29361,-100,4,2,1,5,0,0
29447,-100,4,2,1,50,0,0
29705,-100,4,2,1,5,0,0
29706,-100,4,2,1,5,0,0
29791,-100,4,2,1,50,0,0
29792,-100,4,2,1,50,0,0
32119,-100,4,2,1,5,0,0
32205,-100,4,2,1,50,0,0
32463,-100,4,2,1,5,0,0
32464,-100,4,2,1,5,0,0
32549,-100,4,2,1,50,0,0
32550,-100,4,2,1,50,0,0
34878,-100,4,2,1,5,0,0
34964,-100,4,2,1,50,0,0
35222,-100,4,2,1,5,0,0
35223,-100,4,2,1,5,0,0
35308,-100,4,2,1,50,0,0
35309,-100,4,2,1,50,0,0
37636,-100,4,2,1,5,0,0
37722,-100,4,2,1,50,0,0
37981,-100,4,2,1,5,0,0
38067,-100,4,2,1,50,0,0
40999,-125,4,2,1,50,0,0
43757,-125,4,2,1,50,0,0
44792,-125,4,2,1,50,0,0
46516,-125,4,2,1,50,0,0
51343,-125,4,2,1,35,0,0
51688,-125,4,2,1,42,0,0
52291,-125,4,2,1,50,0,0
52378,-125,4,2,1,42,0,0
53067,-125,4,2,1,42,0,0
53757,-111.111111111111,4,2,1,50,0,0
57550,-100,4,2,1,50,0,0
59964,-100,4,2,1,65,0,0
60223,-100,4,2,1,5,0,0
60309,-90.9090909090909,4,2,1,65,0,1
81343,-90.9090909090909,4,2,1,65,0,1
81688,-90.9090909090909,4,2,1,65,0,1
82033,-90.9090909090909,4,2,1,65,0,1
84446,-90.9090909090909,4,2,1,55,0,1
84619,-90.9090909090909,4,2,1,65,0,1
84791,-90.9090909090909,4,2,1,55,0,1
85136,-100,4,2,1,65,0,0
86861,-125,4,2,1,30,0,0

[Colours]
Combo1 : 255,255,106
Combo2 : 255,128,128
Combo3 : 128,255,255

[HitObjects]
107,251,999,6,0,P|204:284|248:358,1,192,2|0,0:0|0:0,0:0:0:0:
415,357,2378,2,0,P|478:288|462:187,1,192,2|0,0:0|0:0,0:0:0:0:
288,60,3757,6,0,P|394:53|469:2,1,192,2|0,0:0|0:0,0:0:0:0:
212,15,5136,2,0,P|175:61|323:114,1,288,2|0,0:0|0:0,0:0:0:0:
372,218,6516,6,0,P|328:230|274:251,1,96,2|2,0:3|0:3,0:0:0:0:
255,279,7033,1,2,3:3:0:0:
244,319,7205,2,0,P|198:357|152:354,1,96,8|2,2:0|2:0,0:0:0:0:
129,340,7723,5,4,1:0:0:0:
28,253,8240,2,0,P|7:214|1:154,1,96,8|2,0:0|0:0,0:0:0:0:
86,99,8930,2,0,P|106:51|110:2,1,96,8|10,0:0|0:0,0:0:0:0:
198,81,9619,2,0,P|199:133|215:189,1,96,10|10,0:0|0:0,0:0:0:0:
299,239,10309,2,0,L|286:297,1,48,2|4,0:0|1:2,0:0:0:0:
173,333,10826,6,0,P|163:356|155:384,2,48,2|8|0,0:0|0:0|3:0,0:0:0:0:
215,333,11343,2,0,P|294:351|325:354,1,96,10|8,0:0|0:0,0:0:0:0:
396,279,12033,2,0,P|457:247|499:231,1,96,2|10,0:0|0:0,0:0:0:0:
443,129,12723,2,0,P|420:122|392:110,2,48,8|8|8,0:0|0:0|0:0,0:0:0:0:
480,116,13240,6,0,P|488:56|426:8,1,144,4|8,1:2|0:0,0:0:0:0:
319,55,14102,2,0,P|262:69|214:75,1,96,10|8,0:0|0:0,0:0:0:0:
131,158,14792,2,0,P|90:137|22:126,1,96,2|8,0:0|0:0,0:0:0:0:
52,254,15481,2,0,P|34:273|5:288,2,48,8|0|2,3:0|3:2|3:2,0:0:0:0:
27,237,15999,5,4,0:0:0:0:
126,375,16516,1,0,0:0:0:0:
126,375,17205,1,0,0:0:0:0:
126,375,17895,1,0,0:0:0:0:
244,302,18240,6,0,P|252:326|265:350,1,48,10|8,0:0|0:0,0:0:0:0:
388,384,18757,2,0,P|406:339|353:251,1,144,4|8,0:0|0:0,0:0:0:0:
249,217,19619,2,0,P|217:212|191:186,1,48,0|0,3:0|3:0,0:0:0:0:
167,99,20136,1,8,0:0:0:0:
261,15,20481,1,0,3:0:0:0:
299,16,20654,2,0,P|364:43|389:82,1,96,8|10,0:0|0:0,0:0:0:0:
396,88,21171,6,0,L|479:38,1,96,2|8,3:2|0:0,0:0:0:0:
489,162,21861,2,0,P|465:174|450:200,1,48,0|8,3:0|0:0,0:0:0:0:
477,295,22378,2,0,P|501:307|516:333,1,48,0|2,3:0|3:2,0:0:0:0:
354,377,22895,2,0,P|300:314|272:245,1,144,8|8,0:0|0:0,0:0:0:0:
286,221,23585,1,0,0:0:0:0:
305,187,23757,2,0,P|304:153|298:138,1,48,10|2,0:0|3:2,0:0:0:0:
199,167,24274,6,0,P|145:231|152:300,1,144,8|8,0:0|0:0,0:0:0:0:
51,384,25136,2,0,P|42:357|20:335,1,48,0|2,3:0|3:2,0:0:0:0:
10,232,25654,1,8,0:0:0:0:
39,126,25999,2,0,P|53:107|60:84,1,48,0|8,3:0|0:0,0:0:0:0:
164,5,26516,6,0,L|215:23,1,48,10|2,0:0|3:2,0:0:0:0:
161,123,27033,1,12,0:0:0:0:
328,43,29274,5,8,0:0:0:0:
351,80,29447,2,0,P|386:113|469:149,1,120,8|4,0:0|0:0,0:0:0:0:
484,287,30136,1,0,3:0:0:0:
458,313,30309,2,0,P|408:342|324:358,1,120,8|0,0:0|3:0,0:0:0:0:
311,331,30826,2,0,P|253:307|180:308,1,120,2|0,3:2|0:0,0:0:0:0:
94,373,31516,2,0,P|63:381|28:384,1,60,0|8,3:0|0:0,0:0:0:0:
45,257,32033,5,2,3:2:0:0:
70,233,32205,2,0,P|79:186|77:104,1,120,2|12,3:2|0:0,0:0:0:0:
174,43,32895,1,0,3:0:0:0:
206,67,33067,2,0,P|224:108|238:186,1,120,8|0,0:0|3:0,0:0:0:0:
217,214,33585,2,0,P|228:305|254:344,1,120,2|0,3:2|0:0,0:0:0:0:
400,361,34274,2,0,P|412:333|431:301,2,60,0|8|0,3:0|0:0|0:0,0:0:0:0:
442,348,34792,5,2,3:2:0:0:
461,320,34964,2,0,P|466:250|453:186,1,120,2|12,3:2|0:0,0:0:0:0:
410,65,35654,1,0,3:0:0:0:
378,76,35826,2,0,P|316:57|266:18,1,120,8|0,0:0|3:0,0:0:0:0:
234,37,36343,2,0,P|174:52|121:87,1,120,2|0,3:2|0:0,0:0:0:0:
69,170,37033,2,0,P|26:185|2:190,1,60,0|8,3:0|0:0,0:0:0:0:
0,28,37550,5,2,3:2:0:0:
33,45,37723,2,0,P|68:86|93:168,1,120,2|12,3:2|0:0,0:0:0:0:
29,255,38412,2,0,P|14:283|0:333,2,60,0|8|0,3:0|0:0|0:0,0:0:0:0:
42,300,38930,1,2,3:2:0:0:
66,334,39102,2,0,P|116:367|193:376,1,120,0|6,3:0|0:0,0:0:0:0:
291,320,39792,2,0,P|318:304|346:297,1,60,0|8,3:0|0:0,0:0:0:0:
489,365,40309,6,0,L|459:235,1,120,8|8,0:0|3:0,0:0:0:0:
430,91,40999,1,4,3:2:0:0:
430,91,41688,6,0,P|444:48|494:17,1,96,8|0,0:0|3:0,0:0:0:0:
346,110,42378,2,0,P|308:79|289:32,1,96
260,24,42895,1,0,3:0:0:0:
224,32,43067,2,0,P|179:42|129:25,1,96,8|0,0:0|0:0,0:0:0:0:
35,92,43757,6,0,P|41:151|154:195,2,192,2|8|0,3:2|0:0|0:0,0:0:0:0:
6,195,45481,1,0,3:0:0:0:
67,278,45826,2,0,L|127:296,1,48,8|8,0:0|0:0,0:0:0:0:
123,333,46171,2,0,L|73:349,1,48,8|4,3:0|3:0,0:0:0:0:
39,367,46516,6,0,P|127:374|201:300,1,192,4|8,0:0|0:0,0:0:0:0:
296,249,47550,2,0,P|318:232|350:225,1,48,0|0,3:0|3:0,0:0:0:0:
413,269,48067,1,8,0:0:0:0:
359,199,48412,2,0,P|342:180|305:161,1,48,0|8,3:0|0:0,0:0:0:0:
261,54,48930,1,0,0:0:0:0:
407,8,49274,6,0,P|389:82|436:142,1,144,2|0,3:2|3:0,0:0:0:0:
462,155,49964,2,0,P|478:206|473:252,2,96,8|0|2,0:0|0:0|0:0,0:0:0:0:
361,168,50999,1,0,0:0:0:0:
318,250,51343,1,8,0:0:0:0:
346,340,51688,1,8,0:0:0:0:
447,359,52033,5,4,0:0:0:0:
447,359,52378,2,0,L|342:370,2,96,8|0|8,0:0|3:0|0:0,0:0:0:0:
498,241,53412,1,0,0:0:0:0:
498,241,53757,2,0,P|449:207|410:157,2,107.999996704102,8|2|10,0:0|3:2|0:0,0:0:0:0:
486,78,54792,5,8,0:0:0:0:
256,192,54964,12,0,58930,0:0:0:0:
352,116,59964,5,8,0:0:0:0:
352,116,60309,2,0,P|401:80|424:14,1,132.00000402832,4|8,1:0|0:0,0:0:0:0:
378,152,60999,2,0,P|431:182|504:184,1,132.00000402832,2|10,3:2|0:0,0:0:0:0:
339,182,61688,2,0,P|307:231|337:307,1,132.00000402832,2|8,3:2|0:0,0:0:0:0:
313,134,62378,2,0,P|285:109|275:71,1,66.0000020141602,2|0,3:2|3:0,0:0:0:0:
263,51,62723,1,10,0:2:0:0:
232,23,62895,1,2,3:2:0:0:
198,14,63067,6,0,P|148:55|135:118,1,132.00000402832,6|8,0:0|0:0,0:0:0:0:
165,259,63757,2,0,P|92:270|18:316,2,132.00000402832,2|8|2,3:2|0:0|3:2,0:0:0:0:
190,287,64619,2,0,P|242:327|319:345,1,132.00000402832,2|6,0:0|0:0,0:0:0:0:
472,234,65309,1,0,3:2:0:0:
445,207,65481,2,0,P|446:160|461:133,1,66.0000020141602,8|2,0:0|0:0,0:0:0:0:
485,116,65826,6,0,P|466:46|337:34,1,198.000006042481,4|2,0:0|0:0,0:0:0:0:
203,138,66688,2,0,P|165:179|140:194,1,66.0000020141602,0|8,3:0|0:0,0:0:0:0:
117,172,67033,2,0,P|92:94|202:50,1,198.000006042481,4|8,1:2|0:0,0:0:0:0:
276,165,67895,1,2,3:2:0:0:
183,295,68240,1,8,0:0:0:0:
24,230,68585,6,0,P|7:167|1:89,1,132.00000402832,2|8,3:2|0:0,0:0:0:0:
62,260,69274,1,2,0:0:0:0:
85,290,69447,2,0,P|61:326|36:345,1,66.0000020141602,8|4,3:0|3:0,0:0:0:0:
16,371,69792,6,0,P|87:378|169:358,1,132.00000402832,4|2,0:0|3:2,0:0:0:0:
173,343,70309,1,8,0:0:0:0:
199,320,70481,2,0,P|272:323|335:358,1,132.00000402832,4|2,0:0|3:2,0:0:0:0:
338,379,70999,1,8,0:0:0:0:
403,160,71343,6,0,P|341:118|305:55,1,132.00000402832,8|8,0:0|0:0,0:0:0:0:
423,192,72033,2,0,P|403:282|364:325,1,132.00000402832,8|8,0:0|0:0,0:0:0:0:
174,258,72723,6,0,P|94:335|81:366,1,132.00000402832,8|8,0:0|0:0,0:0:0:0:
169,222,73412,2,0,P|143:160|70:102,1,132.00000402832,8|8,0:0|0:0,0:0:0:0:
268,206,74102,1,12,0:0:0:0:
268,206,74447,2,0,P|363:165|394:125,2,132.00000402832,10|10|10,0:0|0:0|0:0,0:0:0:0:
420,133,75481,5,2,3:2:0:0:
462,148,75654,2,0,P|487:193|491:286,2,132.00000402832,2|2|0,0:0|0:0|3:0,0:0:0:0:
411,143,76516,1,8,0:0:0:0:
303,15,76861,6,0,P|283:47|271:84,1,66.0000020141602,4|2,1:0|0:0,0:0:0:0:
245,97,77205,2,0,P|228:64|200:29,1,66.0000020141602,8|2,0:0|0:0,0:0:0:0:
179,40,77550,1,8,0:0:0:0:
54,114,77895,6,0,P|96:130|125:149,1,66.0000020141602,8|2,0:0|0:0,0:0:0:0:
130,171,78240,2,0,P|79:187|63:199,1,66.0000020141602,8|2,0:0|0:0,0:0:0:0:
53,224,78585,1,8,0:0:0:0:
100,356,78930,6,0,P|65:373|25:380,2,66.0000020141602,8|0|8,0:0|3:0|0:0,0:0:0:0:
192,275,79619,6,0,P|235:219|239:146,1,132.00000402832,12|8,0:0|0:0,0:0:0:0:
263,117,80136,2,0,P|317:180|383:215,1,132.00000402832,12|8,0:0|0:0,0:0:0:0:
391,196,80654,2,0,P|427:211|454:238,1,66.0000020141602,4|4,3:0|0:0,0:0:0:0:
269,367,81343,6,0,B|264:314|253:291|210:252|210:252|254:238|291:220|311:176|311:176|259:157|227:137|203:95,1,396.000012084961,8|4,0:0|1:0,0:0:0:0:
326,30,82723,1,8,0:0:0:0:
483,98,83067,2,0,P|456:55|517:17,1,132.00000402832,8|8,0:0|0:0,0:0:0:0:
476,135,83757,2,0,P|429:145|435:226,1,132.00000402832,8|8,0:0|0:0,0:0:0:0:
486,364,84447,1,8,0:0:0:0:
329,380,84792,1,8,0:0:0:0:
188,257,85136,6,0,P|121:279|60:276,1,120,12|8,0:0|0:0,0:0:0:0:
26,145,85826,1,0,3:0:0:0:
54,129,85999,2,0,P|81:92|92:61,1,60,2|2,3:2|3:2,0:0:0:0:
79,47,86343,1,4,1:0:0:0:
79,47,86861,6,0,B|130:80|170:70|170:70|125:109|113:147|113:147|169:163|185:243|155:317|64:323|16:239|78:199,1,480,2|0,2:1|0:0,0:0:0:0:
