osu file format v14

[General]
AudioFilename: audio.mp3
AudioLeadIn: 0
PreviewTime: 59878
Countdown: 1
SampleSet: Soft
StackLeniency: 0.7
Mode: 0
LetterboxInBreaks: 0
WidescreenStoryboard: 0

[Editor]
Bookmarks: 29356,40563,55396,55482,56000,56517,56775,57120,58500,59873,70894,75045
DistanceSpacing: 1.1
BeatDivisor: 3
GridSize: 32
TimelineZoom: 2.599999

[Metadata]
Title:Haru Modoki
TitleUnicode:Haru Modoki
Artist:yanaginagi
ArtistUnicode:yanaginagi
Creator:moneybags
Version:Expert
Source:
Tags:
BeatmapID:1735098
BeatmapSetID:828102

[Difficulty]
HPDrainRate:4
CircleSize:4
OverallDifficulty:9
ApproachRate:9
SliderMultiplier:1.65
SliderTickRate:1

[Events]
//Background and Video events
0,0,"thumb-1920-599322.png",0,0
//Break Periods
//Storyboard Layer 0 (Background)
//Storyboard Layer 1 (Fail)
//Storyboard Layer 2 (Pass)
//Storyboard Layer 3 (Foreground)
//Storyboard Sound Samples

[TimingPoints]
558,344.827586206897,4,2,0,50,1,0
34514,-142.857142857143,4,2,0,40,0,0
34859,-100,4,2,0,40,0,0
54017,-142.857142857143,4,2,0,40,0,0
59859,-83.3333333333333,4,2,0,55,0,1
80385,-100,4,2,0,40,0,0
82114,-100,4,2,0,55,0,1
86769,-142.857142857143,4,2,0,40,0,0

[HitObjects]
117,255,558,6,0,P|163:272|235:264,1,82.5,0|0,3:0|3:0,3:0:0:0:
304,340,902,2,0,P|342:257|294:190,1,165,0|0,3:0|3:0,3:0:0:0:
220,133,1592,2,0,P|264:150|324:130,1,82.5,0|0,3:0|3:0,3:0:0:0:
410,47,1937,2,0,P|366:27|298:25,1,82.5,0|0,3:0|3:0,3:0:0:0:
380,247,2282,2,0,P|418:222|433:161,1,82.5,0|0,3:0|3:0,3:0:0:0:
255,223,2626,2,0,P|235:264|253:324,1,82.5,0|0,3:0|3:0,3:0:0:0:
339,339,2971,2,0,B|246:377|261:308|140:351,1,165,0|0,3:0|3:0,3:0:0:0:
44,252,3661,6,0,P|82:270|149:250,1,82.5,0|0,3:0|3:0,3:0:0:0:
242,90,4006,2,0,P|201:71|137:87,1,82.5,0|0,3:0|3:0,3:0:0:0:
232,200,4351,2,0,B|255:205|271:222|271:222|336:185|400:232,1,165,0|0,3:0|3:0,3:0:0:0:
256,192,4782,12,0,6420,3:0:0:0:
138,265,6764,5,0,3:0:0:0:
136,242,6850,1,0,3:0:0:0:
134,219,6936,1,0,3:0:0:0:
132,197,7022,1,0,3:0:0:0:
130,174,7108,1,0,3:0:0:0:
128,151,7195,1,0,3:0:0:0:
126,131,7282,6,0,P|190:112|276:146,1,123.75,0|0,3:0|3:0,3:0:0:0:
275,147,7626,1,0,3:0:0:0:
107,298,7799,2,0,P|89:254|94:209,1,82.5,0|0,3:0|3:0,3:0:0:0:
264,292,8144,2,0,P|276:338|259:387,1,82.5,0|0,3:0|3:0,3:0:0:0:
321,200,8489,1,0,3:0:0:0:
180,269,8661,1,0,3:0:0:0:
180,269,8747,1,0,3:0:0:0:
180,269,8833,1,0,3:0:0:0:
321,200,9006,1,0,3:0:0:0:
363,334,9178,1,0,3:0:0:0:
363,334,9264,1,0,3:0:0:0:
363,334,9351,1,0,3:0:0:0:
402,344,9437,5,0,3:0:0:0:
441,334,9523,1,0,3:0:0:0:
467,302,9609,1,0,3:0:0:0:
479,263,9695,1,0,3:0:0:0:
483,222,9782,1,0,3:0:0:0:
483,180,9868,1,0,3:0:0:0:
479,139,9954,1,0,3:0:0:0:
471,99,10040,2,0,P|403:91|319:124,1,123.75,0|0,3:0|3:0,3:0:0:0:
285,146,10385,6,0,P|270:89|275:55,1,82.5,0|0,3:0|3:0,3:0:0:0:
326,216,10730,1,0,3:0:0:0:
326,216,10902,6,0,P|343:265|330:308,1,82.5,0|0,3:0|3:0,3:0:0:0:
206,368,11247,2,0,P|200:336|203:304,1,41.25,0|0,3:0|3:0,3:0:0:0:
232,214,11420,2,0,P|235:235|234:268,1,41.25,0|0,3:0|3:0,3:0:0:0:
156,374,11592,2,0,P|140:343|148:309,1,41.25,0|0,3:0|3:0,3:0:0:0:
170,126,11764,2,0,P|158:156|155:190,1,41.25,0|0,3:0|3:0,3:0:0:0:
109,384,11937,2,0,P|91:357|95:321,1,41.25,0|0,3:0|3:0,3:0:0:0:
97,41,12109,2,0,P|88:62|88:94,1,41.25,0|0,3:0|3:0,3:0:0:0:
156,272,12282,1,0,3:0:0:0:
267,117,12454,1,0,3:0:0:0:
0,159,12626,1,0,3:0:0:0:
305,224,12799,6,0,B|404:202|389:256|490:219,1,165,0|0,3:0|3:0,3:0:0:0:
470,36,13316,2,0,P|422:20|362:26,1,82.5,0|0,3:0|3:0,3:0:0:0:
284,156,13661,2,0,P|326:167|385:159,1,82.5,0|0,3:0|3:0,3:0:0:0:
269,16,14006,2,0,P|220:19|174:44,1,82.5,0|0,3:0|3:0,3:0:0:0:
158,282,14351,2,0,P|188:240|198:186,1,82.5,0|0,3:0|3:0,3:0:0:0:
73,232,14695,5,0,3:0:0:0:
60,270,14781,1,0,3:0:0:0:
65,311,14867,1,0,3:0:0:0:
86,346,14953,1,0,3:0:0:0:
120,369,15039,1,0,3:0:0:0:
161,375,15126,1,0,3:0:0:0:
192,351,15213,6,0,L|248:345,1,41.25,0|0,3:0|3:0,3:0:0:0:
366,358,15385,2,0,L|294:366,1,41.25,0|0,3:0|3:0,3:0:0:0:
277,275,15558,2,0,B|246:192|302:177|263:99,1,165,0|0,3:0|3:0,3:0:0:0:
118,97,16075,2,0,P|193:133|288:97,1,165,0|0,3:0|3:0,3:0:0:0:
334,66,16764,5,0,3:0:0:0:
406,27,17109,1,0,3:0:0:0:
473,69,17454,1,0,3:0:0:0:
507,145,17799,5,0,3:0:0:0:
507,145,17971,2,0,L|356:161,1,123.75,0|0,3:0|3:0,3:0:0:0:
272,193,18316,2,0,P|333:179|413:228,1,123.75,0|0,3:0|3:0,3:0:0:0:
417,227,18661,1,0,3:0:0:0:
144,264,18833,2,0,P|132:217|156:153,1,82.5,0|0,3:0|3:0,3:0:0:0:
369,289,19178,1,0,3:0:0:0:
270,341,19351,2,0,L|129:353,1,123.75
106,353,19695,1,0,0:0:0:0:
88,179,20040,5,0,0:0:0:0:
170,129,20213,2,0,P|232:115|307:143,1,123.75,0|0,3:0|3:0,3:0:0:0:
386,182,20558,2,0,P|340:187|296:172,1,82.5,0|0,3:0|3:0,3:0:0:0:
429,93,20902,1,0,3:0:0:0:
429,252,21075,2,0,B|426:303|403:366|403:366|378:307,1,165,0|0,3:0|3:0,3:0:0:0:
251,241,21592,6,0,P|298:246|360:281,1,82.5,0|0,3:0|3:0,3:0:0:0:
196,373,21937,2,0,P|143:386|87:351,1,123.75,0|0,3:0|3:0,3:0:0:0:
65,196,22282,1,0,3:0:0:0:
165,209,22454,2,0,P|151:278|96:287,1,123.75,0|0,3:0|3:0,3:0:0:0:
73,283,22799,1,0,3:0:0:0:
100,66,22971,1,0,3:0:0:0:
286,138,23144,1,0,3:0:0:0:
286,138,23316,2,0,P|237:143|182:109,1,82.5,0|0,3:0|3:0,3:0:0:0:
330,28,23661,1,0,3:0:0:0:
411,88,23833,2,0,L|421:240,1,123.75,0|0,3:0|3:0,3:0:0:0:
421,245,24178,5,0,3:0:0:0:
220,234,24351,1,0,3:0:0:0:
376,175,24523,2,0,P|337:200|281:194,1,82.5,0|0,3:0|3:0,3:0:0:0:
129,133,24868,2,0,P|207:130|271:95,1,123.75,0|0,3:0|3:0,3:0:0:0:
296,69,25213,2,0,P|232:56|141:64,1,123.75,0|0,3:0|3:0,3:0:0:0:
136,65,25558,1,0,3:0:0:0:
59,139,25730,1,0,3:0:0:0:
181,241,25902,5,0,3:0:0:0:
181,241,25989,1,0,3:0:0:0:
181,241,26075,2,0,P|205:198|201:156,1,82.5,0|0,3:0|3:0,3:0:0:0:
62,274,26420,1,0,3:0:0:0:
372,337,26592,5,0,3:0:0:0:
342,93,28661,5,0,3:0:0:0:
342,93,28747,1,0,3:0:0:0:
342,93,28833,2,0,P|311:121|260:129,1,82.5,0|0,3:0|3:0,3:0:0:0:
132,70,29178,1,0,3:0:0:0:
132,70,29351,2,0,P|121:129|145:197,1,123.75,0|0,3:0|3:0,3:0:0:0:
235,232,29695,2,0,P|233:174|211:139,1,82.5,0|0,3:0|3:0,3:0:0:0:
138,264,30040,1,0,3:0:0:0:
198,340,30213,2,0,P|241:351|309:334,2,82.5,0|0|0,3:0|3:0|3:0,3:0:0:0:
87,289,30730,2,0,P|86:227|112:183,1,82.5,0|0,3:0|3:0,3:0:0:0:
260,232,31075,1,0,3:0:0:0:
229,328,31247,1,0,3:0:0:0:
154,251,31420,1,0,3:0:0:0:
243,144,31592,6,0,P|273:137|320:147,1,41.25,0|0,3:0|3:0,3:0:0:0:
363,170,31764,1,0,3:0:0:0:
438,246,31937,1,0,3:0:0:0:
438,246,32109,2,0,B|462:156|422:152|446:79,1,165,0|0,3:0|3:0,3:0:0:0:
194,112,32626,6,0,P|244:126|293:106,1,82.5,0|0,3:0|3:0,3:0:0:0:
339,74,32971,2,0,P|310:102|260:121,1,82.5,0|0,3:0|3:0,3:0:0:0:
107,57,33316,1,0,3:0:0:0:
259,185,33489,2,0,P|216:233|139:228,1,123.75,0|0,3:0|3:0,3:0:0:0:
90,211,33833,2,0,P|113:242|164:259,1,82.5,0|0,3:0|3:0,3:0:0:0:
270,256,34178,1,0,3:0:0:0:
71,321,34351,1,0,3:0:0:0:
326,337,34523,2,0,L|424:328,1,86.6249973564149,0|0,3:0|3:0,3:0:0:0:
488,281,34868,6,0,P|402:278|328:227,1,165,0|0,3:0|3:0,3:0:0:0:
277,149,35385,1,0,3:0:0:0:
406,160,35558,1,0,3:0:0:0:
336,234,35730,1,0,3:0:0:0:
347,62,35902,2,0,P|290:41|221:51,1,123.75,0|0,3:0|3:0,3:0:0:0:
149,127,36247,2,0,P|186:154|235:153,1,82.5,0|0,3:0|3:0,3:0:0:0:
338,158,36592,1,0,3:0:0:0:
381,237,36764,2,0,P|361:281|314:314,1,82.5,0|0,3:0|3:0,3:0:0:0:
171,272,37109,2,0,P|212:242|271:243,1,82.5,0|0,3:0|3:0,3:0:0:0:
336,303,37454,1,0,3:0:0:0:
71,285,37626,2,0,B|41:189|96:194|53:114,1,165,0|0,3:0|3:0,3:0:0:0:
241,163,38144,6,0,P|192:167|144:137,1,82.5,0|0,3:0|3:0,3:0:0:0:
301,17,38489,1,2,3:0:0:0:
398,77,38661,2,0,P|418:124|413:174,1,82.5,0|0,3:0|3:0,3:0:0:0:
227,292,39006,5,0,3:0:0:0:
227,292,39092,1,0,3:0:0:0:
227,292,39178,2,0,P|205:243|210:198,1,82.5,0|0,3:0|3:0,3:0:0:0:
336,320,39523,1,0,3:0:0:0:
147,371,39695,1,0,3:0:0:0:
96,184,39868,2,0,L|50:113,2,55
196,224,40213,1,0,0:0:0:0:
248,240,40327,1,0,0:0:0:0:
301,256,40442,1,0,0:0:0:0:
344,266,40558,2,4,B|356:218|339:188|339:188|361:170|361:170|339:138|359:89,1,165,4|4,3:0|3:0,3:0:0:0:
60,136,41075,5,0,3:0:0:0:
60,136,41247,2,0,P|116:160|194:145,1,123.75,0|0,3:0|3:0,3:0:0:0:
261,114,41592,2,0,P|271:156|240:224,1,82.5,0|0,3:0|3:0,3:0:0:0:
259,305,41937,1,0,3:0:0:0:
311,201,42109,1,0,3:0:0:0:
113,291,42282,1,4,3:0:0:0:
113,291,42454,1,4,3:0:0:0:
406,306,42626,2,8,P|427:242|409:182,1,123.75,8|8,3:0|3:0,3:0:0:0:
314,125,42971,2,0,P|318:169|351:222,1,82.5,0|0,3:0|3:0,3:0:0:0:
398,68,43316,2,0,P|329:28|258:47,1,123.75,0|0,3:0|3:0,3:0:0:0:
253,43,43661,5,0,3:0:0:0:
54,71,43833,1,0,3:0:0:0:
161,137,44006,1,8,3:0:0:0:
161,137,44351,6,0,P|176:182|172:236,1,82.5,0|0,3:0|3:0,3:0:0:0:
81,339,44695,2,8,P|121:324|190:343,1,82.5,8|8,3:0|3:0,3:0:0:0:
268,350,45213,1,4,3:0:0:0:
175,215,45385,1,4,3:0:0:0:
331,248,45558,5,0,3:0:0:0:
338,251,45644,1,0,3:0:0:0:
345,255,45730,1,0,3:0:0:0:
353,258,45816,1,0,3:0:0:0:
360,262,45902,1,0,3:0:0:0:
368,265,45989,1,0,3:0:0:0:
368,265,46075,2,2,B|404:279|404:279|392:211|389:170|405:125|405:125|455:169,1,247.5,2|2,3:0|3:0,3:0:0:0:
183,90,46764,6,0,P|172:46|198:-12,1,82.5,0|0,3:0|3:0,3:0:0:0:
320,131,47109,2,0,P|326:171|261:226,1,123.75,0|0,3:0|3:0,3:0:0:0:
240,233,47454,1,0,3:0:0:0:
65,152,47626,2,0,B|157:128|138:186|239:150,1,165,0|0,3:0|3:0,3:0:0:0:
109,307,48144,2,0,P|98:258|117:205,1,82.5,0|0,3:0|3:0,3:0:0:0:
43,360,48489,1,0,3:0:0:0:
274,305,48661,5,0,3:0:0:0:
274,305,48833,2,0,B|336:321|336:321|399:306,1,123.75,0|0,3:0|3:0,3:0:0:0:
465,296,49178,2,0,L|405:259,1,41.25,0|0,3:0|3:0,3:0:0:0:
323,165,49351,2,0,P|333:206|393:235,1,82.5,0|0,3:0|3:0,3:0:0:0:
445,106,49695,2,0,P|435:65|375:36,1,82.5,0|0,3:0|3:0,3:0:0:0:
243,199,50040,6,0,P|260:161|262:129,1,41.25,0|0,3:0|3:0,3:0:0:0:
190,20,50213,2,0,P|192:45|211:95,1,41.25,0|0,3:0|3:0,3:0:0:0:
190,134,50385,2,0,B|119:125|106:191|-3:118,1,165,0|0,3:0|3:0,3:0:0:0:
92,70,50902,5,0,3:0:0:0:
47,265,51075,1,0,3:0:0:0:
86,40,51247,5,0,3:0:0:0:
176,331,51420,1,0,3:0:0:0:
268,203,51592,2,0,B|306:190|352:210|352:210|362:183|410:162,1,123.75,0|0,3:0|3:0,3:0:0:0:
442,319,51937,2,0,P|411:344|348:338,1,82.5,0|0,3:0|3:0,3:0:0:0:
262,283,52282,1,0,3:0:0:0:
488,251,52454,1,0,3:0:0:0:
349,44,52626,1,0,3:0:0:0:
349,44,52799,2,0,P|341:111|381:192,1,123.75,0|0,3:0|3:0,3:0:0:0:
373,180,53144,1,0,3:0:0:0:
223,105,53316,6,0,P|183:88|118:93,1,82.5,0|0,3:0|3:0,3:0:0:0:
36,227,53661,2,0,P|68:255|130:258,1,82.5,0|0,3:0|3:0,3:0:0:0:
280,202,54006,2,0,P|236:213|206:265,1,82.5,0|0,3:0|3:0,3:0:0:0:
199,324,54351,5,0,3:0:0:0:
227,319,54437,1,0,3:0:0:0:
256,318,54523,1,0,3:0:0:0:
284,324,54609,1,0,3:0:0:0:
312,332,54695,1,0,3:0:0:0:
340,337,54782,1,0,3:0:0:0:
369,334,54868,1,0,3:0:0:0:
396,326,54954,1,0,3:0:0:0:
440,332,55040,5,0,3:0:0:0:
426,291,55126,1,0,3:0:0:0:
417,248,55212,1,0,3:0:0:0:
414,205,55298,1,0,3:0:0:0:
414,161,55385,2,0,L|369:168,5,28.874999118805,4|0|0|0|0|0,3:0|3:0|3:0|3:0|3:0|3:0,3:0:0:0:
302,199,55902,5,0,3:0:0:0:
273,195,55988,1,0,3:0:0:0:
250,178,56074,1,0,3:0:0:0:
233,154,56160,1,0,3:0:0:0:
219,130,56246,1,0,3:0:0:0:
202,106,56333,1,0,3:0:0:0:
182,86,56419,5,4,3:0:0:0:
156,73,56505,1,0,3:0:0:0:
128,68,56591,1,0,3:0:0:0:
99,72,56677,1,0,3:0:0:0:
72,83,56764,5,4,3:0:0:0:
49,100,56850,1,0,3:0:0:0:
32,123,56936,1,0,3:0:0:0:
20,149,57022,1,0,3:0:0:0:
16,178,57108,5,4,3:0:0:0:
18,206,57195,1,0,3:0:0:0:
27,234,57281,1,0,3:0:0:0:
42,259,57367,1,0,3:0:0:0:
63,279,57453,1,0,3:0:0:0:
87,294,57539,1,0,3:0:0:0:
114,303,57626,1,0,3:0:0:0:
143,305,57712,1,0,3:0:0:0:
172,300,57798,1,0,3:0:0:0:
199,291,57884,1,0,3:0:0:0:
226,282,57970,1,0,3:0:0:0:
255,276,58057,1,0,3:0:0:0:
283,276,58143,1,0,3:0:0:0:
312,282,58229,1,0,3:0:0:0:
339,291,58315,1,0,3:0:0:0:
406,97,59868,6,0,P|358:68|280:79,1,98.9999969787599,0|0,3:0|3:0,3:0:0:0:
173,115,60213,1,0,3:0:0:0:
253,299,60385,1,0,3:0:0:0:
330,144,60558,1,0,3:0:0:0:
97,203,60730,1,0,3:0:0:0:
93,242,60816,1,0,3:0:0:0:
109,284,60902,2,0,P|158:303|216:280,1,98.9999969787599,0|0,3:0|3:0,3:0:0:0:
366,142,61247,6,0,P|317:125|236:153,1,98.9999969787599,0|0,3:0|3:0,3:0:0:0:
115,371,61592,2,0,P|194:373|283:323,1,148.49999546814,0|0,3:0|3:0,3:0:0:0:
287,328,61937,1,0,3:0:0:0:
77,272,62109,1,0,3:0:0:0:
384,214,62282,1,0,3:0:0:0:
89,132,62454,1,0,3:0:0:0:
89,132,62540,1,0,3:0:0:0:
89,132,62626,2,0,B|76:60|102:12|102:12|119:27|132:71,1,148.49999546814,0|0,3:0|3:0,3:0:0:0:
218,251,62971,5,0,3:0:0:0:
117,32,63144,1,0,3:0:0:0:
338,46,63316,2,0,P|364:95|361:152,1,98.9999969787599,0|0,3:0|3:0,3:0:0:0:
218,251,63661,2,0,B|244:243|261:216|261:216|304:258|389:237,1,148.49999546814,0|0,3:0|3:0,3:0:0:0:
478,310,64006,2,0,P|452:317|399:327,1,49.4999984893799,0|0,3:0|3:0,3:0:0:0:
276,332,64178,2,0,P|302:326|344:308,1,49.4999984893799,0|0,3:0|3:0,3:0:0:0:
487,161,64351,2,0,P|466:179|428:193,1,49.4999984893799,0|0,3:0|3:0,3:0:0:0:
184,186,64523,2,0,P|110:209|14:187,1,148.49999546814,0|0,3:0|3:0,3:0:0:0:
2,172,64868,1,0,3:0:0:0:
328,52,65040,6,0,L|469:33,1,98.9999969787599,0|0,3:0|3:0,3:0:0:0:
282,175,65299,1,0,3:0:0:0:
282,175,65385,2,0,L|136:191,1,98.9999969787599,0|0,3:0|3:0,3:0:0:0:
17,100,65730,2,0,P|77:117|131:105,1,98.9999969787599,0|0,3:0|3:0,3:0:0:0:
159,28,66075,1,0,3:0:0:0:
51,246,66247,1,0,3:0:0:0:
268,78,66420,1,0,3:0:0:0:
284,285,66592,2,0,B|325:286|350:309|350:309|360:337|360:337|382:322|382:322|426:319|479:349,1,197.99999395752,0|0,3:0|3:0,3:0:0:0:
375,98,67109,6,0,P|309:104|229:171,1,148.49999546814,0|0,3:0|3:0,3:0:0:0:
235,192,67454,1,0,3:0:0:0:
74,47,67626,1,0,3:0:0:0:
27,301,67799,1,0,3:0:0:0:
109,171,67971,1,0,3:0:0:0:
267,261,68144,6,0,P|252:307|193:348,1,98.9999969787599,0|0,3:0|3:0,3:0:0:0:
175,117,68489,2,0,P|176:57|213:15,1,98.9999969787599,0|0,3:0|3:0,3:0:0:0:
403,119,68833,1,0,3:0:0:0:
220,185,69006,1,0,3:0:0:0:
424,265,69178,1,0,3:0:0:0:
201,313,69351,6,0,P|154:324|78:300,1,98.9999969787599,0|0,3:0|3:0,3:0:0:0:
12,216,69695,1,0,3:0:0:0:
257,29,69868,1,0,3:0:0:0:
257,29,70040,2,0,B|225:122|294:124|263:232,1,197.99999395752,0|0,3:0|3:0,3:0:0:0:
344,348,70558,1,0,3:0:0:0:
358,300,70644,1,0,3:0:0:0:
365,251,70730,1,0,3:0:0:0:
366,202,70816,1,0,3:0:0:0:
362,144,70902,5,0,3:0:0:0:
169,192,71075,1,0,3:0:0:0:
297,213,71247,5,0,3:0:0:0:
160,57,71420,1,0,3:0:0:0:
119,261,71592,5,0,3:0:0:0:
266,100,71764,1,0,3:0:0:0:
40,129,71937,5,0,3:0:0:0:
247,242,72109,1,0,3:0:0:0:
238,24,72282,5,0,3:0:0:0:
152,154,72454,1,0,3:0:0:0:
350,159,72626,5,0,3:0:0:0:
162,55,72799,1,0,3:0:0:0:
368,261,72971,5,0,3:0:0:0:
436,78,73144,1,0,3:0:0:0:
205,183,73316,5,0,3:0:0:0:
441,174,73489,1,0,3:0:0:0:
163,56,73661,5,0,3:0:0:0:
229,280,73833,1,0,3:0:0:0:
328,106,74006,5,0,3:0:0:0:
73,173,74178,1,0,3:0:0:0:
404,255,74351,5,0,3:0:0:0:
59,80,74523,1,0,3:0:0:0:
471,129,74695,5,0,3:0:0:0:
36,196,74868,1,0,3:0:0:0:
312,268,75040,6,0,P|366:275|413:243,1,98.9999969787599,0|0,3:0|3:0,3:0:0:0:
428,142,75385,1,0,3:0:0:0:
172,186,75558,2,0,P|158:263|201:348,1,148.49999546814,0|0,3:0|3:0,3:0:0:0:
277,338,75902,2,0,P|266:311|251:289,1,49.4999984893799,0|0,3:0|3:0,3:0:0:0:
61,225,76075,2,0,P|73:253|98:275,1,49.4999984893799,0|0,3:0|3:0,3:0:0:0:
382,276,76247,2,0,P|369:245|343:213,1,49.4999984893799,0|0,3:0|3:0,3:0:0:0:
96,129,76420,6,0,P|151:153|219:122,1,98.9999969787599,0|0,3:0|3:0,3:0:0:0:
341,47,76764,2,0,P|296:30|226:37,1,98.9999969787599,0|0,3:0|3:0,3:0:0:0:
318,274,77109,2,0,B|308:195|351:214|342:118,1,148.49999546814,0|0,3:0|3:0,3:0:0:0:
337,98,77454,1,0,3:0:0:0:
476,180,77626,1,0,3:0:0:0:
318,274,77799,2,0,P|273:295|185:273,1,98.9999969787599,0|0,3:0|3:0,3:0:0:0:
41,157,78144,2,0,P|90:131|166:152,1,98.9999969787599,0|0,3:0|3:0,3:0:0:0:
252,201,78489,1,0,3:0:0:0:
69,38,78661,1,0,3:0:0:0:
356,18,78833,1,0,3:0:0:0:
224,98,79006,1,0,3:0:0:0:
107,237,79178,6,0,L|49:256,2,49.4999984893799,0|0|0,3:0|3:0|3:0,3:0:0:0:
207,278,79437,1,0,3:0:0:0:
256,273,79523,1,0,3:0:0:0:
304,283,79609,1,0,3:0:0:0:
353,283,79695,2,0,B|386:233|371:184|371:184,1,98.9999969787599,0|0,3:0|3:0,3:0:0:0:
224,50,79954,1,0,3:0:0:0:
224,50,80040,2,0,P|216:122|242:173,1,98.9999969787599,0|0,3:0|3:0,3:0:0:0:
460,111,80385,2,0,P|387:67|301:101,1,165,0|0,3:0|3:0,3:0:0:0:
286,225,80902,5,0,3:0:0:0:
286,225,80989,1,0,3:0:0:0:
286,225,81075,1,0,3:0:0:0:
244,220,81161,1,0,3:0:0:0:
203,216,81247,1,0,3:0:0:0:
162,212,81333,1,0,3:0:0:0:
121,208,81419,1,0,3:0:0:0:
80,204,81506,1,0,3:0:0:0:
40,197,81592,5,0,3:0:0:0:
87,163,81678,1,0,3:0:0:0:
146,165,81764,1,0,3:0:0:0:
191,202,81850,1,0,3:0:0:0:
209,257,81937,6,0,L|228:371,1,82.5,0|0,3:0|3:0,3:0:0:0:
371,193,82282,2,0,L|354:90,1,82.5,0|0,3:0|3:0,3:0:0:0:
415,31,82626,1,0,3:0:0:0:
428,285,82799,1,0,3:0:0:0:
272,64,82971,2,0,P|226:50|166:54,1,82.5,0|0,3:0|3:0,3:0:0:0:
47,188,83316,2,0,P|109:203|154:194,1,82.5,0|0,3:0|3:0,3:0:0:0:
335,165,83661,6,0,L|329:272,1,82.5,0|0,3:0|3:0,3:0:0:0:
318,354,84006,1,0,3:0:0:0:
204,177,84178,1,0,3:0:0:0:
451,185,84351,1,0,3:0:0:0:
155,227,84523,1,0,3:0:0:0:
335,165,84695,6,0,P|352:103|318:38,1,123.75,0|0,3:0|3:0,3:0:0:0:
313,32,85040,1,0,3:0:0:0:
180,137,85213,2,0,P|211:139|235:132,1,41.25,0|0,3:0|3:0,3:0:0:0:
127,28,85385,2,0,P|100:35|73:53,1,41.25,0|0,3:0|3:0,3:0:0:0:
45,136,85558,1,0,3:0:0:0:
51,180,85644,1,0,3:0:0:0:
58,225,85730,1,0,3:0:0:0:
65,270,85816,1,0,3:0:0:0:
74,314,85902,2,0,P|150:353|248:318,1,165,0|0,3:0|3:0,3:0:0:0:
411,220,86420,5,0,3:0:0:0:
411,220,86764,2,0,P|328:156|240:216,1,206.25,0|0,3:0|3:0,3:0:0:0:
256,192,87282,12,0,88920,3:0:0:0:
