osu file format v14

[General]
AudioFilename: audio.mp3
AudioLeadIn: 0
PreviewTime: 58871
Countdown: 0
SampleSet: Soft
StackLeniency: 0.2
Mode: 0
LetterboxInBreaks: 0
WidescreenStoryboard: 1

[Editor]
DistanceSpacing: 2.2
BeatDivisor: 4
GridSize: 4
TimelineZoom: 2.4

[Metadata]
Title:Haru Modoki
TitleUnicode:春擬き
Artist:yanaginagi
ArtistUnicode:やなぎなぎ
Creator:alanrocks243
Version:Nihilism
Source:やはり俺の青春ラブコメはまちがっている。続
Tags:oregairu tv size opening 2nd season Yahari Ore no Seishun Love Comedy wa Machigatteiru. Zoku
BeatmapID:1368822
BeatmapSetID:486170

[Difficulty]
HPDrainRate:7
CircleSize:4
OverallDifficulty:8.3
ApproachRate:9.3
SliderMultiplier:1.4
SliderTickRate:1

[Events]
//Background and Video events
0,0,"13833376_823903991043941_1426492335_o.jpg",0,0
Video,0,"Oregairu Zoku Opening - Harumodoki (Eng Subs).mp4"
//Break Periods
2,27174,28443
//Storyboard Layer 0 (Background)
//Storyboard Layer 1 (Fail)
//Storyboard Layer 2 (Pass)
//Storyboard Layer 3 (Foreground)
//Storyboard Sound Samples

[TimingPoints]
940,344.827586206897,4,2,0,30,1,0
940,-142.857142857143,4,2,0,30,0,0
7146,-142.857142857143,4,3,0,50,0,0
7664,-100,4,2,0,70,0,0
15940,-111.111111111111,4,2,0,50,0,0
18698,-100,4,2,0,60,0,0
26974,-100,4,2,0,60,0,0
29733,-100,4,2,0,70,0,0
40940,-111.111111111111,4,2,0,60,0,0
51974,-100,4,2,0,70,0,0
54733,-100,4,3,0,70,0,0
57491,-100,4,2,0,70,0,0
58871,-66.6666666666667,4,3,0,70,0,0
60250,-100,4,2,0,80,0,1
79560,-100,4,3,0,80,0,1
82319,-100,4,2,0,70,0,0
85077,-100,4,3,0,70,0,0
86457,-100,4,2,0,30,0,0
89215,-100,4,2,0,5,0,0

[HitObjects]
256,112,940,5,2,0:0:0:0:
337,64,1284,1,0,0:0:0:0:
256,112,1629,2,0,P|296:76|348:64,1,97.9999970092774
256,272,2319,1,2,0:0:0:0:
174,319,2663,1,0,0:0:0:0:
256,272,3008,2,0,P|216:308|164:320,1,97.9999970092774
176,192,3698,5,2,0:0:0:0:
128,110,4043,2,0,P|142:156|176:192,2,97.9999970092774
336,192,5077,5,2,0:0:0:0:
383,273,5422,2,0,P|369:227|336:192,2,97.9999970092774
336,192,6457,5,0,0:0:0:0:
292,212,6543,1,0,0:0:0:0:
244,216,6629,1,0,0:0:0:0:
196,204,6715,1,0,0:0:0:0:
160,172,6802,1,0,0:0:0:0:
144,128,6888,1,0,0:0:0:0:
152,80,6974,1,0,0:0:0:0:
172,36,7060,1,0,0:0:0:0:
208,75,7146,5,0,0:0:0:0:
230,125,7233,1,0,0:0:0:0:
233,178,7319,1,0,0:0:0:0:
226,231,7405,1,0,0:0:0:0:
195,275,7491,1,0,0:0:0:0:
155,311,7577,1,0,0:0:0:0:
108,332,7664,6,6,B|64:364|4:372|4:372|29:344|48:336,1,140,6|2,0:0|0:0,0:0:0:0:
196,204,8181,2,0,P|256:200|288:216,1,70,8|0,0:0|0:0,0:0:0:0:
471,324,8526,1,4,0:0:0:0:
340,196,8698,1,0,0:0:0:0:
295,374,8871,1,8,0:0:0:0:
196,204,9043,1,0,0:0:0:0:
471,324,9215,5,4,0:0:0:0:
340,196,9388,1,0,0:0:0:0:
484,328,9560,1,8,0:0:0:0:
295,374,9733,1,0,0:0:0:0:
496,332,9905,1,4,0:0:0:0:
293,278,10077,1,0,0:0:0:0:
508,336,10250,1,8,0:0:0:0:
196,204,10422,6,6,B|136:188|92:152|92:152|108:136|128:128,1,140,6|2,0:0|0:0,0:0:0:0:
280,20,10940,2,0,P|324:0|356:0,1,70,8|0,0:0|0:0,0:0:0:0:
512,0,11284,1,4,0:0:0:0:
413,210,11457,1,0,0:0:0:0:
280,20,11629,1,8,0:0:0:0:
491,119,11802,1,0,0:0:0:0:
272,16,11974,5,4,0:0:0:0:
512,0,12146,1,0,0:0:0:0:
264,12,12319,1,8,0:0:0:0:
413,210,12491,1,0,0:0:0:0:
256,8,12664,1,4,0:0:0:0:
491,119,12836,1,0,0:0:0:0:
248,4,13008,1,8,0:0:0:0:
512,208,13181,6,4,B|496:264|508:312|508:312|480:296|452:300,1,140,6|0,0:0|0:0,0:0:0:0:
264,328,13698,2,0,P|204:324|172:300,1,70,8|0,0:0|0:0,0:0:0:0:
47,265,14043,1,4,0:0:0:0:
209,108,14215,1,0,0:0:0:0:
264,328,14388,1,8,0:0:0:0:
209,108,14560,1,0,0:0:0:0:
40,272,14733,5,4,0:0:0:0:
264,328,14905,1,0,0:0:0:0:
32,280,15077,1,8,0:0:0:0:
209,108,15250,1,0,0:0:0:0:
24,288,15422,1,4,0:0:0:0:
255,214,15595,1,0,0:0:0:0:
16,296,15767,1,8,0:0:0:0:
300,132,15940,6,4,B|344:140|392:176|392:176|396:140,1,125.999996154785,6|0,0:0|0:0,0:0:0:0:
452,76,16457,2,2,P|445:24|425:-1,1,62.9999980773926,2|0,0:0|0:0,0:0:0:0:
352,32,16802,2,2,P|304:12|272:16,1,62.9999980773926,2|0,0:0|0:0,0:0:0:0:
260,92,17146,2,2,P|232:107|213:132,1,62.9999980773926,2|0,0:0|0:0,0:0:0:0:
440,15,17491,2,2,P|452:44|452:76,1,62.9999980773926,2|0,0:0|0:0,0:0:0:0:
293,11,17836,2,2,P|324:16|352:32,1,62.9999980773926,2|0,0:0|0:0,0:0:0:0:
213,131,18181,2,4,P|232:106|260:92,2,62.9999980773926,4|0|0,0:0|0:0|0:0,0:0:0:0:
452,76,18698,6,6,B|484:128|488:176|488:176|464:160|456:144,1,140,6|0,0:0|0:0,0:0:0:0:
300,132,19215,2,0,P|276:88|240:56,1,70,8|0,0:0|0:0,0:0:0:0:
213,131,19560,2,2,P|157:139|129:155,1,70
52,152,19905,1,0,2:0:0:0:
52,152,19991,1,0,2:0:0:0:
52,152,20077,2,0,B|32:208|32:248|32:248|52:236|68:220,1,140,8|0,0:0|0:0,0:0:0:0:
63,119,20595,2,0,P|80:72|100:32,1,70
262,73,20940,5,4,0:0:0:0:
32,248,21112,1,8,0:0:0:0:
144,144,21457,6,6,B|164:96|200:56|200:56|208:96|204:120,1,140,6|0,0:0|0:0,0:0:0:0:
168,252,21974,2,0,P|212:236|252:200,1,70,8|0,0:0|0:0,0:0:0:0:
276,284,22319,2,2,P|308:248|324:208,1,70
331,161,22664,1,0,2:0:0:0:
327,81,22836,2,0,B|271:101|219:73|219:73|223:97|239:113,1,140,8|0,0:0|0:0,0:0:0:0:
331,161,23353,2,0,P|327:209|303:245,1,70
168,252,23698,5,4,0:0:0:0:
327,81,23871,1,8,0:0:0:0:
316,228,24215,6,2,B|368:208|416:228|416:228|408:200|388:176,1,140,6|2,0:0|0:0,0:0:0:0:
480,48,24733,2,0,P|432:52|408:68,1,70,8|0,0:0|0:0,0:0:0:0:
344,8,25077,2,2,P|328:64|332:100,1,70
281,226,25422,1,0,2:0:0:0:
281,226,25508,1,0,2:0:0:0:
281,226,25595,2,0,B|224:216|188:192|188:192|212:184|240:180,1,140,8|0,0:0|0:0,0:0:0:0:
316,228,26112,2,0,B|372:240|416:228|416:228,1,70
344,8,26457,5,4,0:0:0:0:
188,192,26629,1,8,0:0:0:0:
328,76,26974,5,6,0:0:0:0:
328,96,29043,5,0,0:0:0:0:
328,96,29129,1,0,0:0:0:0:
328,96,29215,1,4,0:0:0:0:
112,148,29388,1,8,0:0:0:0:
328,96,29733,6,2,B|384:80|416:60|416:60|408:92|392:104,1,140,6|2,0:0|0:0,0:0:0:0:
260,288,30250,1,8,0:0:0:0:
112,148,30422,1,0,0:0:0:0:
260,288,30595,1,2,0:0:0:0:
328,96,30767,1,2,0:0:0:0:
112,148,30940,5,0,2:0:0:0:
112,148,31026,1,0,2:0:0:0:
112,148,31112,2,0,B|104:216|88:248|88:248|120:248|128:236,1,140,8|0,0:0|0:0,0:0:0:0:
328,96,31629,1,0,0:0:0:0:
256,288,31802,1,0,0:0:0:0:
112,148,31974,5,6,0:0:0:0:
256,288,32146,1,8,0:0:0:0:
92,244,32319,5,0,0:0:0:0:
328,96,32491,2,2,B|384:68|416:28|416:28|416:48|424:68,1,140,6|2,0:0|0:0,0:0:0:0:
458,254,33008,5,8,0:0:0:0:
256,288,33181,1,0,0:0:0:0:
458,254,33353,1,2,0:0:0:0:
328,96,33526,1,2,0:0:0:0:
256,288,33698,5,0,0:0:0:0:
256,288,33784,1,0,0:0:0:0:
256,288,33871,2,0,B|320:296|360:316|360:316|368:288|360:260,1,140,8|0,0:0|0:0,0:0:0:0:
328,96,34388,1,0,0:3:0:0:
458,254,34561,1,0,0:0:0:0:
256,288,34733,5,6,0:0:0:0:
458,254,34905,1,8,0:0:0:0:
360,312,35077,5,0,0:0:0:0:
328,96,35250,2,2,B|280:44|232:32|232:32|236:60|248:84,1,140,6|2,0:0|0:0,0:0:0:0:
360,312,35767,5,8,0:0:0:0:
328,96,35940,1,0,0:0:0:0:
360,312,36112,1,2,0:0:0:0:
156,231,36284,1,2,0:0:0:0:
328,96,36457,5,0,2:0:0:0:
328,96,36543,1,0,2:0:0:0:
328,96,36629,2,0,B|344:152|388:196|388:196|368:204|336:208,1,140,8|0,0:0|0:0,0:0:0:0:
156,231,37146,1,0,0:0:0:0:
360,312,37318,1,0,0:0:0:0:
328,96,37491,5,6,0:0:0:0:
360,312,37664,1,8,0:0:0:0:
388,196,37836,5,0,0:0:0:0:
156,231,38008,2,2,B|88:260|68:304|68:304|96:300|116:292,1,140,6|2,0:0|0:0,0:0:0:0:
388,196,38526,5,8,0:0:0:0:
156,231,38698,1,0,0:0:0:0:
388,196,38871,1,2,0:0:0:0:
241,12,39043,1,2,0:0:0:0:
156,231,39215,5,0,2:0:0:0:
156,231,39302,1,0,2:0:0:0:
156,231,39388,2,0,P|176:280|196:300,1,70,8|0,0:0|0:0,0:0:0:0:
388,196,39733,2,0,P|380:248|368:268,1,70
241,12,40077,1,0,0:0:0:0:
367,61,40250,6,2,P|352:28|328:0,2,46.6666666666667,10|2|2,3:0|3:0|3:0,3:0:0:0:
135,96,40595,2,2,P|143:44|152:24,2,46.6666666666667,10|2|2,3:0|3:0|3:0,3:0:0:0:
261,124,40940,6,0,B|253:172|229:204|229:204|213:184|197:168,1,125.999996154785,6|0,0:0|0:0,0:0:0:0:
368,60,41457,1,0,0:0:0:0:
136,96,41629,2,0,B|176:136|192:188|192:188|208:172|220:156,1,125.999996154785,8|0,0:0|0:0,0:0:0:0:
241,12,42146,1,0,0:0:0:0:
368,60,42319,6,0,L|384:124,2,62.9999980773926,6|0|0,0:0|0:0|0:0,0:0:0:0:
271,12,42836,1,0,0:0:0:0:
144,60,43008,2,0,L|128:124,2,62.9999980773926,8|0|0,0:0|0:0|0:0,0:0:0:0:
241,12,43525,1,0,0:0:0:0:
368,60,43698,2,0,P|396:96|408:132,1,62.9999980773926,4|0,0:0|0:0,0:0:0:0:
200,144,44043,2,0,P|192:174|194:205,1,62.9999980773926
312,144,44388,2,0,P|319:174|317:205,1,62.9999980773926,8|0,0:0|0:0,0:0:0:0:
144,60,44732,2,0,P|116:96|104:132,1,62.9999980773926
368,60,45077,5,6,0:0:0:0:
200,144,45250,1,0,0:0:0:0:
312,144,45422,1,0,0:0:0:0:
144,60,45594,1,0,0:0:0:0:
402,111,45767,5,8,0:0:0:0:
194,205,45939,1,0,0:0:0:0:
316,205,46112,1,0,0:0:0:0:
109,111,46284,1,0,0:0:0:0:
436,162,46457,6,0,B|456:216|456:256|456:256|436:240|420:236,1,125.999996154785,6|0,0:0|0:0,0:0:0:0:
76,162,46974,1,0,0:0:0:0:
76,162,47146,2,0,B|56:216|56:256|56:256|76:240|92:236,1,125.999996154785,8|0,0:0|0:0,0:0:0:0:
144,60,47664,1,0,0:0:0:0:
256,244,47836,5,4,0:0:0:0:
402,111,48008,2,0,P|450:99|486:107,2,62.9999980773926
256,244,48525,1,8,0:0:0:0:
109,111,48698,2,0,P|61:99|25:107,2,62.9999980773926
256,244,49215,5,6,0:0:0:0:
402,111,49388,1,0,0:0:0:0:
400,272,49560,2,0,P|416:312|416:336,1,62.9999980773926
256,244,49905,5,10,0:0:0:0:
109,111,50078,1,0,0:0:0:0:
112,272,50250,2,0,P|96:312|96:336,1,62.9999980773926
256,244,50595,6,0,P|292:156|296:128,1,94.499997116089,6|0,0:0|0:0,0:0:0:0:
306,124,50940,2,0,P|344:104|377:96,1,62.9999980773926,2|0,0:0|0:0,0:0:0:0:
189,263,51285,2,0,P|186:306|177:338,1,62.9999980773926,10|0,0:0|0:0,0:0:0:0:
128,92,51630,2,0,P|91:68|67:44,1,62.9999980773926,2|0,0:0|0:0,0:0:0:0:
306,124,51974,5,6,0:0:0:0:
109,195,52319,2,0,B|71:215|0:208|0:208|6:229|24:240,1,140,10|0,0:0|0:0,0:0:0:0:
192,264,52836,5,0,0:0:0:0:
260,204,53008,1,8,0:0:0:0:
306,124,53181,2,0,B|356:84|380:36|380:36|382:67|376:88,1,140,4|0,0:0|0:0,0:0:0:0:
260,204,53698,5,8,0:0:0:0:
192,144,53870,1,0,0:0:0:0:
146,64,54043,2,0,P|96:24|80:0,1,70,4|0,0:0|0:0,0:0:0:0:
306,124,54388,2,0,P|356:164|372:188,1,70,8|0,0:0|0:0,0:0:0:0:
174,232,54733,5,8,1:0:0:0:
146,64,54905,1,0,0:0:0:0:
192,44,54991,1,0,0:0:0:0:
240,36,55077,1,0,0:0:0:0:
288,40,55164,1,0,0:0:0:0:
332,56,55250,1,0,0:0:0:0:
372,84,55336,1,0,0:0:0:0:
412,116,55422,2,0,L|452:168,3,35
468,232,55767,6,0,L|480:276,3,35
434,192,56112,1,0,0:0:0:0:
391,160,56198,1,0,0:0:0:0:
338,136,56284,1,0,0:0:0:0:
280,128,56371,1,0,0:0:0:0:
223,136,56457,1,0,0:0:0:0:
170,152,56543,1,0,0:0:0:0:
122,180,56629,1,0,0:0:0:0:
83,216,56715,1,0,0:0:0:0:
48,252,56802,6,0,L|36:316,1,35
223,136,56974,2,0,L|243:92,1,35
197,308,57146,2,0,L|185:372,1,35
372,192,57318,2,0,L|392:148,1,35
303,379,57491,5,6,0:0:0:0:
499,345,57664,1,0,0:0:0:0:
372,192,57836,1,0,0:0:0:0:
313,277,58008,5,6,0:0:0:0:
499,345,58181,1,0,0:0:0:0:
466,149,58353,1,0,0:0:0:0:
499,345,58526,2,2,P|448:312|428:288,1,70,6|2,0:0|0:0,0:0:0:0:
372,192,58871,6,0,L|304:200,1,52.5000020027161
256,40,59044,2,0,L|316:36,1,52.5000020027161
390,58,59216,2,0,L|396:116,1,52.5000020027161
238,174,59389,2,0,L|232:116,1,52.5000020027161
203,43,59560,2,0,L|263:39,1,52.5000020027161
76,108,59733,2,0,L|8:112,1,52.5000020027161
238,174,59905,2,0,L|300:172,1,52.5000020027161
58,242,60078,2,0,L|-4:248,1,52.5000020027161
220,308,60250,6,0,P|264:308|296:288,1,70,4|0,0:0|0:0,0:0:0:0:
76,108,60595,2,0,L|56:40,1,70,8|0,0:0|0:0,0:0:0:0:
256,40,60940,1,2,0:0:0:0:
238,174,61112,1,0,0:0:0:0:
125,249,61284,2,0,P|93:253|57:241,1,70,2|0,0:0|0:0,0:0:0:0:
256,40,61629,6,0,P|308:28|348:40,1,70,4|0,0:0|0:0,0:0:0:0:
372,192,61974,2,0,L|348:264,1,70,8|0,0:0|0:0,0:0:0:0:
238,174,62319,1,2,0:0:0:0:
390,58,62491,1,0,0:0:0:0:
506,210,62664,2,0,P|480:276|468:292,1,70,2|0,0:0|0:0,0:0:0:0:
286,296,63008,6,0,P|238:260|218:228,1,70,4|0,0:0|0:0,0:0:0:0:
390,58,63353,2,0,L|428:152,1,70,8|0,0:0|0:0,0:0:0:0:
480,274,63698,1,2,0:0:0:0:
372,192,63871,1,0,0:0:0:0:
390,58,64043,2,0,P|416:35|446:17,1,70,8|0,0:0|0:0,0:0:0:0:
372,192,64388,5,4,0:0:0:0:
390,58,64560,1,0,0:0:0:0:
368,220,64733,1,8,0:0:0:0:
393,29,64905,1,0,0:0:0:0:
480,274,65077,5,4,0:0:0:0:
247,245,65249,1,0,0:0:0:0:
492,288,65422,1,8,0:0:0:0:
230,254,65594,1,0,0:0:0:0:
400,0,65767,6,0,P|312:4|260:32,1,140,6|0,0:0|0:0,0:0:0:0:
292,208,66284,1,0,0:0:0:0:
450,158,66457,1,0,0:0:0:0:
400,0,66629,1,8,0:0:0:0:
242,50,66802,1,0,0:0:0:0:
292,208,66974,6,0,B|344:232|400:224|400:224|392:240|368:260,1,140,6|0,0:0|0:0,0:0:0:0:
228,356,67492,1,0,0:0:0:0:
271,199,67664,1,0,0:0:0:0:
249,365,67836,1,8,0:0:0:0:
250,190,68008,1,0,0:0:0:0:
271,375,68181,1,0,0:0:0:0:
228,180,68353,1,0,0:0:0:0:
292,380,68526,6,0,L|392:356,1,70,6|0,0:0|0:0,0:0:0:0:
204,172,68871,2,0,L|174:270,1,70,8|0,0:0|0:0,0:0:0:0:
428,199,69215,2,0,L|357:124,1,70,4|0,0:0|0:0,0:0:0:0:
204,172,69560,5,0,0:0:0:0:
204,172,69646,1,0,0:0:0:0:
204,172,69733,2,2,B|144:192|100:224|100:224|124:232|144:232,1,140,6|2,0:0|0:0,0:0:0:0:
292,380,70250,5,0,0:0:0:0:
292,380,70336,1,0,0:0:0:0:
292,380,70422,2,2,B|352:360|396:328|396:328|372:320|352:320,1,140,6|2,0:0|0:0,0:0:0:0:
424,196,70940,2,4,L|400:136,1,35,4|4,3:0|3:0,3:0:0:0:
264,40,71112,2,4,L|288:100,1,35,4|4,3:0|3:0,3:0:0:0:
209,257,71284,5,6,0:0:0:0:
424,196,71457,1,0,0:0:0:0:
192,272,71629,1,8,0:0:0:0:
264,40,71802,1,0,0:0:0:0:
175,287,71974,1,4,0:0:0:0:
424,196,72146,1,0,0:0:0:0:
158,302,72319,1,8,0:0:0:0:
264,40,72491,1,0,0:0:0:0:
373,322,72664,5,6,0:0:0:0:
158,302,72836,1,0,0:0:0:0:
388,296,73008,1,8,0:0:0:0:
211,171,73180,1,0,0:0:0:0:
404,268,73353,1,4,0:0:0:0:
313,71,73525,1,0,0:0:0:0:
420,240,73698,1,8,0:0:0:0:
439,24,73870,1,0,0:0:0:0:
223,5,74043,5,6,0:0:0:0:
439,24,74215,1,0,0:0:0:0:
192,64,74388,1,8,0:0:0:0:
426,104,74560,1,0,0:0:0:0:
152,124,74733,1,4,0:0:0:0:
404,190,74905,1,0,0:0:0:0:
104,184,75077,1,8,0:0:0:0:
374,281,75249,1,0,0:0:0:0:
239,232,75422,5,6,0:0:0:0:
152,124,75595,1,0,0:0:0:0:
228,264,75767,1,8,0:0:0:0:
404,190,75940,1,0,0:0:0:0:
216,296,76112,1,4,0:0:0:0:
192,64,76284,1,0,0:0:0:0:
204,328,76457,1,8,0:0:0:0:
426,104,76629,1,0,0:0:0:0:
192,364,76802,6,0,P|124:364|96:356,2,70,6|0|0,0:0|0:0|0:0,0:0:0:0:
334,189,77319,2,0,P|402:189|430:197,2,70,2|0|0,0:0|0:0|0:0,0:0:0:0:
239,232,77836,5,4,0:0:0:0:
283,67,78008,1,0,0:0:0:0:
404,188,78181,1,0,0:0:0:0:
213,136,78353,5,0,0:0:0:0:
334,257,78526,1,0,0:0:0:0:
378,92,78698,1,0,0:0:0:0:
239,232,78871,6,0,P|168:236|140:232,1,70,4|0,0:0|0:0,0:0:0:0:
378,92,79215,2,0,P|449:88|477:92,1,70
378,231,79560,5,6,0:0:0:0:
238,92,79733,1,0,0:0:0:0:
200,76,79819,1,0,0:0:0:0:
160,60,79905,1,0,0:0:0:0:
378,92,80077,6,2,P|418:142|426:165,1,70,6|2,0:0|0:0,0:0:0:0:
378,231,80422,1,0,0:0:0:0:
342,255,80508,1,0,0:0:0:0:
302,271,80594,1,0,0:0:0:0:
88,232,80767,6,0,P|52:132|59:96,1,140
160,60,81284,1,0,0:0:0:0:
208,44,81371,1,0,0:0:0:0:
256,36,81457,1,0,0:0:0:0:
304,36,81543,1,0,0:0:0:0:
352,44,81629,2,0,L|404:80,1,35,8|0,0:0|0:0,0:0:0:0:
372,208,81802,2,0,L|343:188,1,35,0|0,0:0|0:0,0:0:0:0:
400,32,81974,2,0,L|452:68,1,35,8|0,0:0|0:0,0:0:0:0:
324,220,82147,2,0,L|295:200,1,35,0|0,0:0|0:0,0:0:0:0:
448,20,82319,6,0,P|472:44|512:60,1,70,4|0,0:0|0:0,0:0:0:0:
276,232,82664,2,0,P|251:207|212:192,1,70,8|0,0:0|0:0,0:0:0:0:
468,212,83008,2,0,P|444:188|404:172,1,70
256,40,83353,2,0,P|281:65|320:80,1,70,8|0,0:0|0:0,0:0:0:0:
411,173,83698,5,0,0:0:0:0:
276,232,83871,1,0,0:0:0:0:
141,173,84043,2,0,L|56:128,1,70,8|0,0:0|0:0,0:0:0:0:
335,367,84388,5,0,0:0:0:0:
276,232,84561,1,0,0:0:0:0:
335,97,84733,2,0,L|380:12,1,70,8|0,0:0|0:0,0:0:0:0:
141,291,85077,5,8,0:0:0:0:
92,260,85164,1,0,0:0:0:0:
64,212,85250,1,0,0:0:0:0:
68,156,85336,1,0,0:0:0:0:
112,112,85422,1,0,0:0:0:0:
176,108,85508,1,0,0:0:0:0:
232,140,85595,1,0,0:0:0:0:
260,196,85681,1,0,0:0:0:0:
296,256,85767,1,8,0:0:0:0:
356,288,85853,1,0,0:0:0:0:
432,284,85940,1,0,0:0:0:0:
492,236,86026,1,0,0:0:0:0:
504,160,86112,1,8,0:0:0:0:
480,88,86198,1,8,0:0:0:0:
420,40,86284,6,0,P|292:52|268:72,1,140,8|0,0:0|0:0,0:0:0:0:
141,291,86802,2,0,P|88:256|68:224,1,70
112,112,87146,2,0,P|152:108|204:124,1,70
296,256,87491,6,0,B|370:239|423:239|484:173|502:94|396:41|339:85|339:85|304:19|207:32|176:85|190:169|234:204|294:257,1,700
