osu file format v14

[General]
AudioFilename: audio.mp3
AudioLeadIn: 0
PreviewTime: 58871
Countdown: 0
SampleSet: Soft
StackLeniency: 0.8
Mode: 0
LetterboxInBreaks: 0
WidescreenStoryboard: 0

[Editor]
DistanceSpacing: 1.7
BeatDivisor: 4
GridSize: 4
TimelineZoom: 1.4

[Metadata]
Title:Haru Modoki
TitleUnicode:春擬き
Artist:yanaginagi
ArtistUnicode:やなぎなぎ
Creator:alanrocks243
Version:Insane
Source:やはり俺の青春ラブコメはまちがっている。続
Tags:oregairu tv size opening 2nd season Yahari Ore no Seishun Love Comedy wa Machigatteiru. Zoku
BeatmapID:1036718
BeatmapSetID:486170

[Difficulty]
HPDrainRate:6
CircleSize:4
OverallDifficulty:7
ApproachRate:9
SliderMultiplier:1
SliderTickRate:1

[Events]
//Background and Video events
0,0,"13833376_823903991043941_1426492335_o.jpg",0,0
Video,0,"Oregairu Zoku Opening - Harumodoki (Eng Subs).mp4"
//Break Periods
2,27174,28443
//Storyboard Layer 0 (Background)
//Storyboard Layer 1 (Fail)
//Storyboard Layer 2 (Pass)
//Storyboard Layer 3 (Foreground)
//Storyboard Sound Samples

[TimingPoints]
940,344.827586206897,4,2,0,30,1,0
940,-142.857142857143,4,2,0,30,0,0
7146,-142.857142857143,4,3,0,50,0,0
7664,-100,4,2,0,70,0,0
18698,-100,4,2,0,70,0,0
29733,-100,4,2,0,70,0,0
40940,-111.111111111111,4,2,0,60,0,0
51974,-100,4,2,0,70,0,0
54733,-100,4,3,0,70,0,0
57491,-100,4,3,0,70,0,0
60250,-100,4,2,0,80,0,1
79560,-100,4,3,0,80,0,1
82319,-100,4,2,0,70,0,0
85077,-100,4,3,0,70,0,0
86457,-100,4,2,0,30,0,0
89215,-100,4,2,0,5,0,0

[HitObjects]
196,140,940,6,0,P|176:104|172:64,1,69.9999978637696,2|0,0:0|0:0,0:0:0:0:
308,132,1629,2,0,P|344:112|384:108,1,69.9999978637696
316,244,2319,2,0,P|336:280|340:320,1,69.9999978637696,2|0,0:0|0:0,0:0:0:0:
204,252,3008,2,0,P|168:272|128:276,1,69.9999978637696
196,140,3698,5,2,0:0:0:0:
316,244,4043,2,0,P|336:280|340:320,2,69.9999978637696
308,132,5077,5,2,0:0:0:0:
204,252,5422,2,0,P|168:272|128:276,2,69.9999978637696
256,192,6457,2,0,L|232:176,3,17.4999994659424
274,161,6802,2,0,L|246:157,3,17.4999994659424
276,125,7146,2,8,L|248:129,3,17.4999994659424
277,93,7491,1,8,0:0:0:0:
276,54,7577,1,8,0:0:0:0:
268,20,7664,6,0,P|215:11|155:19,1,100,6|0,0:0|0:0,0:0:0:0:
55,40,8181,2,0,P|57:64|64:88,1,50,8|0,0:0|0:0,0:0:0:0:
88,175,8526,2,0,P|108:162|126:144,1,50,4|0,0:0|0:0,0:0:0:0:
188,79,8871,2,0,P|166:68|142:62,1,50,8|0,0:0|0:0,0:0:0:0:
55,40,9215,5,4,0:0:0:0:
88,175,9388,1,0,0:0:0:0:
188,79,9560,1,8,0:0:0:0:
88,175,9733,1,0,0:0:0:0:
221,214,9905,1,4,0:0:0:0:
188,79,10078,1,0,0:0:0:0:
164,154,10250,1,8,0:0:0:0:
197,289,10422,6,0,B|184:319|152:355|152:355|172:363|192:359,1,100,6|0,0:0|0:0,0:0:0:0:
300,332,10940,2,0,P|272:312|260:280,1,50,8|0,0:0|0:0,0:0:0:0:
221,214,11284,2,0,P|252:199|286:205,1,50,4|0,0:0|0:0,0:0:0:0:
364,208,11629,2,0,P|360:242|338:268,1,50,8|0,0:0|0:0,0:0:0:0:
296,332,11974,5,4,0:0:0:0:
221,214,12146,1,0,0:0:0:0:
364,208,12319,1,8,0:0:0:0:
221,214,12491,1,0,0:0:0:0:
289,90,12664,1,4,0:0:0:0:
365,210,12836,1,0,0:0:0:0:
289,166,13008,1,8,0:0:0:0:
213,46,13181,6,0,B|168:40|136:44|136:44|136:64|152:80,1,100,6|0,0:0|0:0,0:0:0:0:
184,192,13698,2,0,P|148:180|132:164,1,50,8|0,0:0|0:0,0:0:0:0:
79,105,14043,2,0,P|107:79|129:73,1,50,4|0,0:0|0:0,0:0:0:0:
207,58,14388,2,0,P|214:95|208:117,1,50,8|0,0:0|0:0,0:0:0:0:
184,192,14733,5,4,0:0:0:0:
79,105,14905,1,0,0:0:0:0:
207,58,15077,1,8,0:0:0:0:
184,192,15250,1,0,0:0:0:0:
56,239,15422,1,0,0:0:0:0:
79,105,15594,1,8,0:0:0:0:
103,177,15767,1,8,0:0:0:0:
199,269,15940,6,0,P|263:265|307:269,1,100,6|0,0:0|0:0,0:0:0:0:
400,280,16457,2,0,P|404:324|412:344,1,50
280,284,16802,2,0,P|280:324|280:348,1,50
160,288,17146,2,0,P|156:332|148:352,1,50
280,284,17491,6,0,P|284:240|292:220,1,50
160,288,17836,2,0,P|160:248|160:224,1,50
39,292,18181,1,0,0:0:0:0:
280,284,18354,2,0,P|255:285|230:288,1,50
160,288,18698,6,0,P|180:208|188:184,1,100,4|0,0:0|0:0,0:0:0:0:
215,52,19215,2,0,P|239:92|248:112,1,50,8|0,0:0|0:0,0:0:0:0:
309,275,19560,2,2,P|272:264|248:252,1,50
101,150,19905,5,0,0:0:0:0:
101,150,20077,2,0,P|180:136|216:136,1,100,8|0,0:0|0:0,0:0:0:0:
343,129,20595,2,0,P|320:160|304:176,1,50,2|0,0:0|0:0,0:0:0:0:
160,288,20940,5,4,0:0:0:0:
215,52,21112,1,8,0:0:0:0:
308,276,21457,6,0,P|332:224|344:180,1,100,6|0,0:0|0:0,0:0:0:0:
365,39,21974,2,0,P|324:72|312:84,1,50,8|0,0:0|0:0,0:0:0:0:
180,195,22319,2,2,B|204:188|244:188,1,50
422,177,22664,5,0,0:0:0:0:
422,177,22836,2,0,P|368:132|328:112,1,100,8|0,0:0|0:0,0:0:0:0:
215,52,23353,2,0,P|231:107|240:120,1,50,2|0,0:0|0:0,0:0:0:0:
308,276,23698,5,4,0:0:0:0:
365,39,23871,1,8,0:0:0:0:
180,195,24215,6,0,P|244:184|296:184,1,100,6|0,0:0|0:0,0:0:0:0:
393,195,24733,2,0,P|385:227|361:255,1,50,8|0,0:0|0:0,0:0:0:0:
287,302,25077,2,2,P|280:276|272:236,1,50
261,85,25422,5,0,0:0:0:0:
393,195,25595,2,0,P|344:220|288:216,1,100,8|0,0:0|0:0,0:0:0:0:
180,196,26112,1,0,0:0:0:0:
261,85,26284,1,2,0:0:0:0:
287,302,26457,5,4,0:0:0:0:
261,85,26630,1,8,0:0:0:0:
254,51,26974,5,6,0:0:0:0:
393,195,29043,6,0,L|420:164,2,25,0|0|0,3:0|3:0|3:0,3:0:0:0:
287,302,29388,1,4,3:0:0:0:
287,302,29733,6,0,B|232:296|204:308|204:308|186:300|168:300,1,100,6|0,0:0|0:0,0:0:0:0:
168,371,30250,2,0,P|116:368|100:360,1,50,8|0,0:0|0:0,0:0:0:0:
27,282,30595,2,2,P|30:230|38:214,1,50
218,183,30940,5,0,0:0:0:0:
218,183,31112,2,0,B|264:200|295:184|295:184|292:200|288:216,1,100,8|0,0:0|0:0,0:0:0:0:
288,304,31629,2,0,P|248:316|232:312,1,50,2|0,0:0|0:0,0:0:0:0:
168,371,31974,5,6,0:0:0:0:
30,233,32146,1,8,0:0:0:0:
218,183,32319,1,0,0:0:0:0:
81,318,32491,6,0,P|36:249|24:213,1,100,6|0,0:0|0:0,0:0:0:0:
31,133,33008,2,0,P|81:137|95:147,1,50,8|0,0:0|0:0,0:0:0:0:
218,183,33353,2,2,P|172:208|152:208,1,50
32,236,33698,5,0,0:0:0:0:
32,236,33871,2,0,P|84:176|108:152,1,100,8|0,0:0|0:0,0:0:0:0:
170,93,34388,2,0,P|200:76|236:64,1,50,2|0,0:0|0:0,0:0:0:0:
305,3,34733,5,6,0:0:0:0:
451,37,34905,1,8,0:0:0:0:
418,183,35077,1,0,0:0:0:0:
272,150,35250,6,0,P|232:102|208:58,1,100,6|0,0:0|0:0,0:0:0:0:
305,3,35767,2,0,P|360:4|376:8,1,50,8|0,0:0|0:0,0:0:0:0:
451,37,36112,2,2,P|450:92|446:108,1,50
416,184,36457,1,0,0:0:0:0:
416,184,36629,2,0,P|376:144|352:104,1,100,8|0,0:0|0:0,0:0:0:0:
305,3,37146,2,0,P|288:40|288:64,1,50,2|0,0:0|0:0,0:0:0:0:
271,152,37491,5,6,0:0:0:0:
238,298,37663,1,8,0:0:0:0:
384,332,37835,1,0,0:0:0:0:
238,298,38008,6,0,P|164:296|128:276,1,100,6|0,0:0|0:0,0:0:0:0:
93,203,38526,2,0,P|128:184|156:176,1,50,8|0,0:0|0:0,0:0:0:0:
271,152,38871,2,2,P|251:192|247:216,1,50
238,298,39215,5,0,0:0:0:0:
238,298,39388,2,0,B|272:312|308:312|308:312|312:324|316:348,1,100,8|0,0:0|0:0,0:0:0:0:
384,332,39905,2,0,P|372:280|364:264,1,50,2|0,0:0|0:0,0:0:0:0:
271,152,40250,6,2,P|252:116|240:104,2,33.3333333333333,2|2|2,3:0|3:0|3:0,3:0:0:0:
220,172,40595,6,2,P|185:150|169:145,2,33.3333333333333,2|2|2,3:0|3:0|3:0,3:0:0:0:
184,204,40940,6,0,P|116:204|80:220,1,89.9999972534181,6|0,0:0|0:0,0:0:0:0:
64,232,41457,1,0,0:0:0:0:
64,232,41629,2,0,P|44:184|40:144,1,89.9999972534181,8|0,0:0|0:0,0:0:0:0:
40,100,42146,1,0,0:0:0:0:
64,232,42319,6,0,P|52:264|36:280,2,44.999998626709,4|0|0,0:0|0:0|0:0,0:0:0:0:
160,72,42836,1,0,0:0:0:0:
184,204,43008,2,0,P|196:236|212:252,2,44.999998626709,8|0|0,0:0|0:0|0:0,0:0:0:0:
40,100,43526,1,0,0:0:0:0:
160,72,43698,6,0,P|140:48|132:24,1,44.999998626709,4|0,0:0|0:0,0:0:0:0:
202,243,44043,2,0,P|222:267|230:291,1,44.999998626709
95,178,44388,2,0,P|71:198|47:206,1,44.999998626709,8|0,0:0|0:0,0:0:0:0:
266,136,44733,2,0,P|290:116|314:108,1,44.999998626709
180,156,45077,6,0,P|182:124|194:102,1,44.999998626709,4|0,0:0|0:0,0:0:0:0:
88,306,45422,2,0,P|85:337|73:359,1,44.999998626709
59,184,45767,1,8,0:0:0:0:
209,276,45940,1,0,0:0:0:0:
180,156,46112,1,0,0:0:0:0:
88,306,46284,1,0,0:0:0:0:
128,232,46457,6,0,P|196:232|232:248,1,89.9999972534181,6|0,0:0|0:0,0:0:0:0:
248,260,46974,1,0,0:0:0:0:
248,260,47146,2,0,P|268:212|272:172,1,89.9999972534181,8|0,0:0|0:0,0:0:0:0:
272,128,47663,1,0,0:0:0:0:
308,8,47836,6,0,P|352:16|368:24,1,44.999998626709,4|0,0:0|0:0,0:0:0:0:
428,44,48181,2,0,P|420:88|412:104,1,44.999998626709
392,164,48526,2,0,P|348:156|332:148,1,44.999998626709,8|0,0:0|0:0,0:0:0:0:
272,128,48871,2,0,P|264:172|256:188,1,44.999998626709
236,248,49215,6,0,P|192:256|176:256,2,44.999998626709,4|0|0,0:0|0:0|0:0,0:0:0:0:
308,8,49733,1,0,0:0:0:0:
392,164,49905,2,0,P|400:208|400:224,2,44.999998626709,8|0|0,0:0|0:0|0:0,0:0:0:0:
152,92,50422,1,0,0:0:0:0:
308,8,50595,6,0,P|268:4|248:8,1,44.999998626709,6|0,0:0|0:0,0:0:0:0:
210,26,50940,2,0,B|191:75|133:101,2,89.9999972534181,0|8|0,0:0|0:0|0:0,0:0:0:0:
152,92,51974,5,4,0:0:0:0:
236,248,52319,2,0,P|292:228|324:196,1,100,8|0,0:0|0:0,0:0:0:0:
152,92,52836,2,0,L|144:152,1,50,0|8,0:0|0:0,0:0:0:0:
138,246,53181,2,0,P|196:256|240:244,1,100
320,200,53698,6,0,P|312:144|312:128,1,50
145,141,54043,2,0,P|153:84|153:68,1,50
320,82,54388,2,0,P|312:25|312:9,1,50
152,92,54733,5,4,0:0:0:0:
212,36,55077,1,0,0:0:0:0:
228,80,55164,1,0,0:0:0:0:
256,112,55250,1,0,0:0:0:0:
292,136,55336,1,0,0:0:0:0:
336,152,55422,1,0,0:0:0:0:
380,156,55508,1,0,0:0:0:0:
420,136,55595,1,0,0:0:0:0:
436,92,55681,1,0,0:0:0:0:
416,52,55767,6,0,L|380:32,3,25
348,39,56112,5,0,0:0:0:0:
322,73,56198,1,0,0:0:0:0:
321,115,56284,1,0,0:0:0:0:
331,157,56370,1,0,0:0:0:0:
355,193,56457,1,0,0:0:0:0:
359,237,56542,1,0,0:0:0:0:
339,277,56629,1,0,0:0:0:0:
305,306,56715,1,0,0:0:0:0:
268,332,56802,2,0,L|244:360,3,25
220,324,57146,2,0,L|180:336,3,25
172,292,57491,5,2,0:0:0:0:
111,143,57664,1,0,0:0:0:0:
13,270,57836,1,0,0:0:0:0:
184,199,58008,5,2,0:0:0:0:
86,326,58180,1,0,0:0:0:0:
25,177,58353,1,0,0:0:0:0:
184,199,58526,5,2,0:0:0:0:
13,270,58698,1,4,0:0:0:0:
37,86,58871,6,0,L|72:96,7,25
100,88,59560,1,0,0:0:0:0:
136,76,59646,1,0,0:0:0:0:
176,68,59733,1,0,0:0:0:0:
216,68,59819,1,0,0:0:0:0:
256,72,59905,1,0,0:0:0:0:
296,80,59991,1,0,0:0:0:0:
332,96,60077,1,0,0:0:0:0:
364,120,60164,1,0,0:0:0:0:
392,152,60250,6,0,B|420:192|428:216|428:216|408:216|396:208,1,100,6|0,0:0|0:0,0:0:0:0:
392,152,60767,1,0,0:0:0:0:
296,80,60940,2,0,P|256:72|232:68,1,50,8|0,0:0|0:0,0:0:0:0:
176,68,61284,2,0,P|136:76|112:84,1,50
54,109,61629,5,4,0:0:0:0:
246,70,61802,1,0,0:0:0:0:
183,255,61974,2,0,P|154:274|126:278,1,50
54,109,62319,5,8,0:0:0:0:
176,68,62491,1,0,0:0:0:0:
296,80,62664,1,0,0:0:0:0:
392,152,62836,1,0,0:0:0:0:
212,296,63008,6,0,P|280:312|320:304,1,100,6|0,0:0|0:0,0:0:0:0:
392,312,63526,1,0,0:0:0:0:
392,312,63698,2,0,P|380:272|368:256,1,50,8|0,0:0|0:0,0:0:0:0:
315,148,64043,2,0,P|286:178|278:196,1,50
212,296,64388,5,4,0:0:0:0:
392,312,64560,1,0,0:0:0:0:
315,148,64733,1,0,0:0:0:0:
300,327,64905,1,0,0:0:0:0:
400,216,65077,5,8,0:0:0:0:
323,52,65249,1,0,0:0:0:0:
221,203,65422,1,0,0:0:0:0:
382,124,65594,1,0,0:0:0:0:
256,116,65767,6,0,P|176:120|152:148,1,100,6|0,0:0|0:0,0:0:0:0:
100,188,66284,1,0,0:0:0:0:
324,276,66457,1,8,0:0:0:0:
256,116,66629,1,0,0:0:0:0:
168,348,66801,5,0,0:0:0:0:
168,348,66888,1,0,0:0:0:0:
168,348,66974,2,0,P|80:320|64:304,1,100,4|0,0:0|0:0,0:0:0:0:
48,296,67491,1,8,0:0:0:0:
220,228,67664,1,0,0:0:0:0:
24,272,67836,2,0,L|12:200,1,50,4|0,0:0|0:0,0:0:0:0:
244,252,68181,2,0,L|256:324,1,50,8|0,0:0|0:0,0:0:0:0:
42,248,68526,6,0,P|26:275|1:293,1,50,4|0,0:0|0:0,0:0:0:0:
113,84,68870,2,0,P|97:56|93:26,1,50,8|0,0:0|0:0,0:0:0:0:
220,228,69215,2,0,P|252:228|280:240,1,50,4|0,0:0|0:0,0:0:0:0:
40,248,69560,5,8,0:0:0:0:
40,248,69646,1,0,0:0:0:0:
40,248,69733,2,0,P|16:160|16:136,1,100,4|0,0:0|0:0,0:0:0:0:
207,124,70250,5,8,0:0:0:0:
207,124,70336,1,0,0:0:0:0:
207,124,70423,2,0,P|231:212|231:236,1,100,4|0,0:0|0:0,0:0:0:0:
252,328,70940,5,2,3:0:0:0:
280,356,71026,1,2,3:0:0:0:
316,372,71112,1,2,3:0:0:0:
356,376,71198,1,2,3:0:0:0:
396,368,71284,6,0,P|436:348|456:328,1,50,6|0,0:0|0:0,0:0:0:0:
412,184,71629,2,0,P|372:204|352:224,1,50,8|0,0:0|0:0,0:0:0:0:
396,368,71974,1,4,0:0:0:0:
496,284,72146,1,0,0:0:0:0:
412,184,72319,1,8,0:0:0:0:
312,268,72491,1,0,0:0:0:0:
412,184,72664,6,0,L|428:116,1,50,6|0,0:0|0:0,0:0:0:0:
264,108,73008,2,0,L|248:176,1,50,8|0,0:0|0:0,0:0:0:0:
412,184,73353,1,4,0:0:0:0:
376,72,73526,1,0,0:0:0:0:
264,108,73698,1,8,0:0:0:0:
304,220,73870,1,0,0:0:0:0:
264,108,74043,6,0,L|240:40,1,50,6|0,0:0|0:0,0:0:0:0:
128,172,74388,2,0,L|152:240,1,50,8|0,0:0|0:0,0:0:0:0:
264,108,74733,1,4,0:0:0:0:
140,22,74905,1,0,0:0:0:0:
128,172,75077,1,8,0:0:0:0:
264,108,75250,1,0,0:0:0:0:
128,172,75422,6,0,P|116:210|112:242,1,50,6|0,0:0|0:0,0:0:0:0:
240,116,75767,2,0,P|252:78|256:46,1,50,8|0,0:0|0:0,0:0:0:0:
114,219,76112,1,4,0:0:0:0:
217,345,76284,1,0,0:0:0:0:
343,242,76457,1,8,0:0:0:0:
240,116,76629,1,0,0:0:0:0:
114,219,76802,6,0,L|52:208,2,50,6|0|8,0:0|0:0|0:0,0:0:0:0:
343,242,77319,2,0,L|405:253,2,50,0|4|0,0:0|0:0|0:0,0:0:0:0:
240,116,77836,6,0,L|232:184,1,50,8|0,0:0|0:0,0:0:0:0:
114,219,78181,1,4,0:0:0:0:
217,345,78353,2,0,L|225:277,1,50,0|8,0:0|0:0,0:0:0:0:
343,242,78698,1,0,0:0:0:0:
114,219,78871,6,0,L|104:272,1,50,4|0,0:0|0:0,0:0:0:0:
343,242,79215,2,0,L|353:189,1,50,8|0,0:0|0:0,0:0:0:0:
240,116,79560,5,4,0:0:0:0:
114,219,79733,1,2,0:0:0:0:
114,219,79819,1,2,0:0:0:0:
114,219,79905,1,2,0:0:0:0:
217,345,80077,6,0,L|260:312,1,50,8|0,0:0|0:0,0:0:0:0:
343,242,80422,1,2,0:0:0:0:
343,242,80508,1,2,0:0:0:0:
343,242,80594,1,2,0:0:0:0:
216,344,80767,6,0,P|144:344|96:324,1,125,4|0,3:0|0:0,0:0:0:0:
68,296,81284,1,0,0:0:0:0:
48,260,81371,1,0,0:0:0:0:
36,220,81457,1,0,0:0:0:0:
32,180,81543,1,0,0:0:0:0:
40,140,81629,1,0,0:0:0:0:
56,104,81715,1,0,0:0:0:0:
80,72,81802,1,0,0:0:0:0:
108,44,81888,1,0,0:0:0:0:
144,28,81974,2,0,L|192:24,3,25
209,25,82319,6,0,P|251:49|254:52,1,50,4|0,0:0|0:0,0:0:0:0:
278,160,82664,2,0,P|254:202|250:205,1,50
143,229,83008,2,0,P|100:205|97:201,1,50,8|0,0:0|0:0,0:0:0:0:
74,94,83353,2,0,P|98:51|100:48,1,50
253,202,83698,6,0,P|265:248|265:252,1,50,4|0,0:0|0:0,0:0:0:0:
206,346,84043,2,0,P|159:358|155:358,1,50
62,299,84388,2,0,P|49:252|49:248,1,50,8|0,0:0|0:0,0:0:0:0:
108,155,84732,2,0,P|154:142|158:142,1,50
260,160,85077,5,4,0:0:0:0:
461,101,85250,1,0,0:0:0:0:
411,304,85422,2,0,L|403:334,3,25
420,267,85767,1,0,0:0:0:0:
461,101,85940,1,0,0:0:0:0:
295,60,86112,5,0,0:0:0:0:
258,50,86198,1,0,0:0:0:0:
220,50,86284,2,0,B|175:54|151:81|151:81|167:86|191:86,1,100
295,60,86802,2,0,P|324:96|332:120,1,50
460,100,87146,2,0,P|464:144|460:168,1,50
420,267,87491,6,0,B|471:231|495:168|447:100|384:104|348:148|348:148|293:136|239:177|255:249|303:292|378:284,1,500
