osu file format v14

[General]
AudioFilename: audio.mp3
AudioLeadIn: 0
PreviewTime: 58421
Countdown: 0
SampleSet: Soft
StackLeniency: 0.7
Mode: 2
LetterboxInBreaks: 0
WidescreenStoryboard: 0

[Editor]
Bookmarks: 490,7214,18248,29283,40490,51524,59800,81869
DistanceSpacing: 1.7
BeatDivisor: 4
GridSize: 4
TimelineZoom: 2.2

[Metadata]
Title:Haru Modoki
TitleUnicode:春擬き
Artist:yanaginagi
ArtistUnicode:やなぎなぎ
Creator:Yumeno Himiko
Version:Rain
Source:やはり俺の青春ラブコメはまちがっている。続
Tags:Yahari Ore no Seishun Love Come wa machigatteiru. zoku opening op tv size Atrue Ascendance Xinely
BeatmapID:1189319
BeatmapSetID:562564

[Difficulty]
HPDrainRate:6
CircleSize:4
OverallDifficulty:9
ApproachRate:9
SliderMultiplier:1.9
SliderTickRate:2

[Events]
//Background and Video events
0,0,"Yukino.jpg",0,0
//Break Periods
2,26724,27993
//Storyboard Layer 0 (Background)
//Storyboard Layer 1 (Fail)
//Storyboard Layer 2 (Pass)
//Storyboard Layer 3 (Foreground)
//Storyboard Sound Samples

[TimingPoints]
490,344.827586206897,4,2,0,50,1,0
490,-166.666666666667,4,2,0,50,0,0
6007,-100,4,2,0,50,0,0
7214,-100,4,2,0,70,0,0
18248,-100,4,2,0,60,0,0
29283,-100,4,2,0,70,0,0
59800,-100,4,2,0,80,0,1
81869,-100,4,2,0,80,0,0

[HitObjects]
124,76,490,6,0,P|88:140|112:188,1,113.999996520996,2|0,0:0|0:0,0:0:0:0:
260,184,1179,1,0,0:0:0:0:
420,200,1524,1,0,0:0:0:0:
176,292,1869,1,2,0:0:0:0:
332,264,2214,2,0,P|368:208|368:152,1,113.999996520996
216,128,2903,2,0,L|88:120,1,113.999996520996,0|2,0:0|0:0,0:0:0:0:
348,80,3593,5,0,0:0:0:0:
504,56,3938,1,0,0:0:0:0:
348,80,4283,1,0,0:0:0:0:
92,124,4627,1,2,0:0:0:0:
248,160,4972,1,0,0:0:0:0:
136,276,5317,1,0,0:0:0:0:
332,260,5662,1,0,0:0:0:0:
128,252,6007,6,0,L|112:152,1,95,2|0,3:0|0:0,0:0:0:0:
244,140,6352,1,2,3:0:0:0:
120,96,6524,1,0,0:0:0:0:
384,92,6696,1,8,3:0:0:0:
425,113,6782,1,8,3:0:0:0:
452,152,6868,1,8,3:0:0:0:
458,198,6954,1,8,3:0:0:0:
441,242,7040,1,8,3:0:0:0:
406,274,7127,1,8,3:0:0:0:
232,288,7214,6,0,L|28:264,1,190,4|0,0:0|0:0,0:0:0:0:
160,204,7731,1,8,3:0:0:0:
284,156,7903,1,0,0:0:0:0:
44,112,8076,1,8,3:0:0:0:
160,100,8248,2,0,L|268:92,2,95,0|8|0,0:0|3:0|0:0,0:0:0:0:
396,88,8765,6,0,L|428:188,1,95,8|0,3:0|0:0,0:0:0:0:
292,184,9110,2,0,L|160:184,1,95,8|0,3:0|0:0,0:0:0:0:
332,272,9455,1,8,3:0:0:0:
440,272,9627,2,0,L|492:272,2,47.5,0|0|8,0:0|0:0|3:0,0:0:0:0:
192,272,9972,6,0,P|152:248|212:144,1,190,4|0,0:0|0:0,0:0:0:0:
336,144,10490,1,8,3:0:0:0:
212,92,10662,1,0,0:0:0:0:
452,92,10834,2,0,P|464:144|456:192,1,95,8|0,3:0|0:0,0:0:0:0:
216,304,11179,2,0,P|192:240|208:204,1,95,8|0,3:0|0:0,0:0:0:0:
240,164,11438,1,0,0:0:0:0:
452,168,11524,6,0,L|352:152,1,95,8|0,3:0|0:0,0:0:0:0:
60,168,11869,2,0,L|160:152,1,95,8|0,3:0|0:0,0:0:0:0:
396,84,12214,1,8,3:0:0:0:
264,104,12386,1,0,0:0:0:0:
217,112,12472,1,0,0:0:0:0:
170,121,12558,1,8,3:0:0:0:
412,152,12731,6,0,P|444:204|368:300,1,190,4|0,0:0|0:0,0:0:0:0:
248,276,13248,1,8,3:0:0:0:
120,236,13421,1,0,0:0:0:0:
108,190,13507,1,0,0:0:0:0:
96,144,13593,1,8,3:0:0:0:
256,136,13765,1,0,0:0:0:0:
303,131,13851,1,0,0:0:0:0:
350,126,13937,1,8,3:0:0:0:
236,56,14110,1,0,0:0:0:0:
0,96,14283,6,0,L|32:204,1,95,8|0,3:0|0:0,0:0:0:0:
88,216,14541,1,0,0:0:0:0:
260,264,14627,2,0,L|376:244,1,95,8|0,3:0|0:0,0:0:0:0:
308,196,14886,1,0,0:0:0:0:
152,132,14972,2,0,L|104:172,1,47.5,8|0,3:0|0:0,0:0:0:0:
180,184,15145,2,0,L|200:240,1,47.5,2|0,0:0|0:0,0:0:0:0:
148,276,15317,2,0,L|80:260,1,47.5,2|0,0:0|0:0,0:0:0:0:
352,288,15490,6,0,P|424:224|400:128,1,190,4|0,0:0|0:0,0:0:0:0:
256,136,16007,1,2,0:0:0:0:
420,260,16352,1,2,0:0:0:0:
120,304,16696,1,2,0:0:0:0:
412,212,17041,6,0,L|360:200,1,47.5,2|0,0:0|0:0,0:0:0:0:
424,144,17214,2,0,L|428:92,1,47.5,0|0,3:0|0:0,0:0:0:0:
340,100,17386,2,0,L|284:120,1,47.5,2|0,0:0|0:0,0:0:0:0:
244,172,17558,2,0,L|300:212,1,47.5,0|0,3:0|0:0,0:0:0:0:
376,256,17731,5,8,3:0:0:0:
96,292,17903,1,8,3:0:0:0:
12,192,18248,6,0,L|228:168,1,190,4|0,0:0|0:0,0:0:0:0:
444,140,18765,2,0,L|340:120,1,95,4|0,3:0|0:0,0:0:0:0:
236,128,19110,1,0,0:0:0:0:
340,172,19283,2,0,L|380:272,1,95
128,136,19627,6,0,L|88:340,1,190,0|0,3:0|0:0,0:0:0:0:
256,316,20145,1,0,3:0:0:0:
416,288,20317,1,0,0:0:0:0:
384,252,20403,1,0,0:0:0:0:
352,212,20490,1,8,3:0:0:0:
76,288,20662,2,0,L|56:188,1,95,8|0,3:0|0:0,0:0:0:0:
304,112,21007,6,0,L|496:96,1,190,4|0,3:0|0:0,0:0:0:0:
400,164,21524,1,4,3:0:0:0:
308,232,21696,1,0,0:0:0:0:
456,292,21869,1,0,0:0:0:0:
288,328,22041,1,0,0:0:0:0:
92,212,22386,6,0,L|288:196,1,190,0|0,3:0|0:0,0:0:0:0:
184,132,22903,1,2,3:0:0:0:
320,124,23076,1,0,0:0:0:0:
76,104,23248,2,0,L|180:120,1,95,8|8,3:0|3:0,0:0:0:0:
84,196,23593,1,0,0:0:0:0:
392,108,23765,6,0,L|424:296,1,190,4|0,3:0|0:0,0:0:0:0:
308,284,24283,1,0,3:0:0:0:
196,264,24455,2,0,L|304:240,1,95
444,212,24800,2,0,L|492:16,1,190,0|4,0:0|3:0,0:0:0:0:
268,88,25490,5,0,0:0:0:0:
164,132,25662,1,0,3:0:0:0:
268,176,25834,1,0,0:0:0:0:
104,268,26007,1,8,3:0:0:0:
364,276,26179,1,8,3:0:0:0:
464,220,26352,1,0,0:0:0:0:
208,192,26524,1,4,0:0:0:0:
120,124,28593,6,0,L|100:184,1,47.5
88,224,28765,1,8,3:0:0:0:
380,148,28938,2,0,L|412:268,1,95,8|0,3:0|0:0,0:0:0:0:
84,152,29283,6,0,P|44:200|120:304,1,190,4|0,0:0|0:0,0:0:0:0:
256,276,29800,1,0,3:0:0:0:
128,180,29972,1,0,0:0:0:0:
288,156,30145,2,0,L|408:140,1,95
228,92,30490,1,0,3:0:0:0:
116,64,30662,1,0,0:0:0:0:
384,64,30834,6,0,L|456:148,1,95
288,176,31179,1,0,3:0:0:0:
448,204,31352,2,0,L|472:272,1,47.5
304,288,31524,2,0,L|192:276,2,95,2|2|0,0:0|0:0|3:0,0:0:0:0:
60,164,32041,6,0,L|260:144,1,190,4|0,0:0|0:0,0:0:0:0:
100,84,32558,1,0,3:0:0:0:
260,72,32731,1,0,0:0:0:0:
140,180,32903,1,0,0:0:0:0:
300,172,33076,2,0,L|408:160,1,95,0|0,0:0|3:0,0:0:0:0:
152,188,33421,6,0,P|96:240|152:336,1,190
296,296,33938,1,0,3:0:0:0:
144,240,34110,2,0,L|120:176,1,47.5
276,140,34283,2,0,L|392:128,2,95,2|2|0,0:0|0:0|3:0,0:0:0:0:
512,80,34800,6,0,P|496:144|392:224,1,190,4|0,0:0|0:0,0:0:0:0:
240,228,35317,1,0,3:0:0:0:
76,228,35490,1,0,0:0:0:0:
216,148,35662,1,0,3:0:0:0:
368,96,35834,1,0,0:0:0:0:
216,40,36007,1,0,3:0:0:0:
452,56,36179,6,0,P|472:112|432:240,1,190
276,220,36696,1,0,3:0:0:0:
116,200,36869,2,0,L|52:188,1,47.5
216,144,37041,2,0,L|328:128,1,95,2|2,0:0|0:0,0:0:0:0:
436,104,37386,1,0,3:0:0:0:
144,64,37558,6,0,P|96:128|168:208,1,190,4|0,0:0|0:0,0:0:0:0:
316,200,38076,2,0,L|336:292,1,95,0|0,3:0|0:0,0:0:0:0:
152,320,38421,2,0,L|76:228,1,95,0|0,3:0|0:0,0:0:0:0:
292,256,38765,2,0,L|392:240,1,95,0|0,3:0|0:0,0:0:0:0:
332,180,39024,1,0,0:0:0:0:
112,104,39110,6,0,L|80:200,1,95,2|0,0:0|0:0,0:0:0:0:
400,104,39455,2,0,L|432:200,1,95,0|0,3:0|0:0,0:0:0:0:
272,224,39800,2,0,L|216:224,1,47.5,2|0,3:0|0:0,0:0:0:0:
288,172,39972,2,0,L|304:124,1,47.5,0|0,3:0|0:0,0:0:0:0:
192,128,40145,2,0,L|136:128,1,47.5,2|0,3:0|0:0,0:0:0:0:
104,176,40317,2,0,L|128:228,1,47.5,0|0,3:0|0:0,0:0:0:0:
388,132,40490,6,0,P|444:164|416:276,1,190,4|0,0:0|0:0,0:0:0:0:
264,312,41007,1,0,0:0:0:0:
120,240,41179,2,0,L|240:216,1,95,4|0,3:0|0:0,0:0:0:0:
372,192,41524,2,0,L|260:176,1,95
92,172,41869,6,0,P|60:216|128:328,1,190,0|0,3:0|0:0,0:0:0:0:
244,328,42386,1,0,0:0:0:0:
400,292,42558,1,4,3:0:0:0:
488,216,42731,1,0,0:0:0:0:
448,116,42903,1,0,0:0:0:0:
324,88,43076,1,0,0:0:0:0:
84,100,43248,6,0,P|56:144|148:240,1,190,0|0,3:0|0:0,0:0:0:0:
288,228,43765,1,0,0:0:0:0:
156,136,43938,1,8,3:0:0:0:
60,184,44110,1,0,0:0:0:0:
40,288,44283,1,0,0:0:0:0:
144,336,44455,1,0,0:0:0:0:
388,328,44627,6,0,L|472:272,1,95
308,240,44972,2,0,L|276:132,1,95
440,124,45317,1,8,3:0:0:0:
284,84,45490,1,0,0:0:0:0:
152,176,45662,1,0,0:0:0:0:
308,212,45834,1,0,0:0:0:0:
64,156,46007,6,0,P|32:216|104:308,1,190,4|0,0:0|0:0,0:0:0:0:
388,248,46696,2,0,L|288:224,1,95,4|0,3:0|0:0,0:0:0:0:
140,188,47041,2,0,L|248:160,1,95
412,148,47386,6,0,P|464:208|452:336,1,190,0|0,3:0|3:0,0:0:0:0:
304,304,47903,1,0,0:0:0:0:
112,272,48076,1,8,3:0:0:0:
392,188,48421,2,0,L|408:88,1,95
160,108,48765,6,0,P|124:144|188:264,1,190,0|0,3:0|0:0,0:0:0:0:
352,108,49283,2,0,P|388:144|324:264,1,190
184,260,49800,1,0,0:0:0:0:
344,260,49972,1,0,0:0:0:0:
104,112,50145,5,0,3:0:0:0:
36,192,50317,1,0,0:0:0:0:
96,288,50490,1,0,0:0:0:0:
224,300,50662,1,0,0:0:0:0:
408,112,50834,1,8,3:0:0:0:
476,192,51006,1,0,0:0:0:0:
416,288,51179,1,8,3:0:0:0:
288,300,51351,1,0,0:0:0:0:
44,300,51524,6,0,L|32:192,1,95,4|0,0:0|0:0,0:0:0:0:
184,144,51869,1,0,3:0:0:0:
340,108,52041,1,0,0:0:0:0:
196,72,52214,2,0,L|100:32,1,95
392,72,52558,5,0,3:0:0:0:
480,148,52731,2,0,P|476:208|372:292,1,190
224,276,53248,2,0,L|120:256,1,95,0|0,3:0|0:0,0:0:0:0:
376,160,53593,2,0,L|472:136,1,95
136,160,53938,2,0,L|40:136,1,95,0|0,3:0|0:0,0:0:0:0:
328,120,54283,6,0,L|408:144,1,47.5,4|0,0:0|0:0,0:0:0:0:
308,176,54455,2,0,L|260:240,1,47.5,0|0,3:0|0:0,0:0:0:0:
360,212,54627,2,0,L|432:200,1,47.5,0|0,3:0|0:0,0:0:0:0:
464,224,54800,2,0,L|480:296,1,47.5,0|0,3:0|0:0,0:0:0:0:
308,304,54972,6,0,L|248:296,1,47.5,0|0,3:0|0:0,0:0:0:0:
328,252,55145,2,0,L|392:216,1,47.5,0|0,3:0|0:0,0:0:0:0:
296,200,55317,2,0,L|216:184,1,47.5,0|0,3:0|0:0,0:0:0:0:
196,208,55490,2,0,L|240:144,1,47.5,0|0,3:0|0:0,0:0:0:0:
376,104,55662,6,0,L|308:96,1,47.5,0|0,3:0|0:0,0:0:0:0:
268,152,55834,2,0,L|332:136,1,47.5,0|0,3:0|0:0,0:0:0:0:
360,192,56007,2,0,L|360:272,1,47.5,0|0,3:0|0:0,0:0:0:0:
292,248,56179,2,0,L|228:240,1,47.5,0|0,3:0|0:0,0:0:0:0:
92,232,56352,6,0,L|68:180,1,47.5,0|0,3:0|0:0,0:0:0:0:
132,164,56524,2,0,L|208:148,1,47.5,0|0,3:0|0:0,0:0:0:0:
360,144,56696,2,0,L|424:128,1,47.5,0|0,3:0|0:0,0:0:0:0:
344,92,56869,2,0,L|284:72,1,47.5,0|0,3:0|0:0,0:0:0:0:
80,104,57041,6,0,L|56:164,1,47.5,0|0,3:0|0:0,0:0:0:0:
144,156,57214,2,0,L|216:168,1,47.5,0|0,3:0|0:0,0:0:0:0:
264,200,57386,2,0,L|216:248,1,47.5,0|0,3:0|0:0,0:0:0:0:
152,252,57558,2,0,L|80:264,1,47.5,0|0,3:0|0:0,0:0:0:0:
332,280,57731,6,0,L|420:280,1,47.5,0|0,3:0|0:0,0:0:0:0:
452,244,57903,2,0,L|420:184,1,47.5,0|0,3:0|0:0,0:0:0:0:
348,196,58076,2,0,L|272:196,1,47.5,0|0,3:0|0:0,0:0:0:0:
80,188,58248,1,4,0:0:0:0:
256,192,58421,12,0,59283,0:0:0:0:
344,136,59455,5,0,3:0:0:0:
296,140,59541,1,0,3:0:0:0:
249,145,59627,1,0,3:0:0:0:
202,150,59713,1,0,3:0:0:0:
432,124,59800,6,0,L|456:216,1,95,4|0,0:0|0:0,0:0:0:0:
168,216,60145,2,0,L|136:320,1,95,0|0,3:0|0:0,0:0:0:0:
344,216,60490,2,0,L|371:306,1,95
80,124,60834,2,0,L|56:216,1,95,0|0,3:0|0:0,0:0:0:0:
328,104,61179,6,0,L|440:92,1,95
308,164,61524,1,0,3:0:0:0:
428,208,61696,1,0,0:0:0:0:
184,104,61869,2,0,L|72:92,1,95
204,164,62214,1,0,3:0:0:0:
84,208,62386,1,0,0:0:0:0:
420,308,62558,5,0,0:0:0:0:
160,308,62903,2,0,L|368:308,1,190,0|0,3:0|0:0,0:0:0:0:
92,308,63593,2,0,L|76:196,1,95,0|0,3:0|0:0,0:0:0:0:
376,104,63938,5,2,0:0:0:0:
500,188,64110,1,2,0:0:0:0:
336,192,64283,1,0,3:0:0:0:
88,192,64455,2,0,P|48:232|112:344,1,190,2|0,0:0|0:0,0:0:0:0:
244,280,64972,1,0,3:0:0:0:
84,276,65145,1,0,0:0:0:0:
368,128,65317,6,0,L|464:128,2,95,4|0|0,0:0|0:0|3:0,0:0:0:0:
204,128,65834,2,0,P|156:160|216:260,1,190
368,252,66352,1,0,3:0:0:0:
96,132,66524,6,0,L|296:132,1,190,4|0,0:0|0:0,0:0:0:0:
160,232,67041,2,0,L|44:232,1,95,0|0,3:0|0:0,0:0:0:0:
224,232,67386,2,0,L|288:304,1,95
447,232,67731,2,0,L|352:232,1,95,0|0,3:0|0:0,0:0:0:0:
88,232,68076,5,0,0:0:0:0:
64,152,68248,1,0,0:0:0:0:
312,148,68421,1,0,3:0:0:0:
200,148,68593,1,0,0:0:0:0:
448,152,68765,1,4,3:0:0:0:
424,232,68937,1,0,0:0:0:0:
168,232,69110,1,0,3:0:0:0:
404,232,69283,6,0,P|456:268|360:324,1,190,4|2,0:0|0:0,0:0:0:0:
116,340,69800,1,2,0:0:0:0:
400,160,69972,2,0,P|472:196|396:224,1,190,4|2,0:0|0:0,0:0:0:0:
88,244,70490,1,0,3:0:0:0:
74,198,70576,1,0,3:0:0:0:
61,152,70662,1,0,3:0:0:0:
48,107,70748,1,0,3:0:0:0:
328,104,70834,6,0,L|432:120,1,95,4|0,0:0|0:0,0:0:0:0:
184,104,71179,2,0,L|80:120,1,95,0|0,3:0|0:0,0:0:0:0:
360,196,71524,2,0,L|464:212,1,95,0|0,3:0|0:0,0:0:0:0:
152,196,71869,2,0,L|48:212,1,95,0|0,3:0|0:1,0:1:0:0:
412,196,72214,6,0,L|440:312,1,95,0|0,3:0|0:0,0:0:0:0:
320,264,72558,1,0,3:0:0:0:
432,144,72731,1,0,0:0:0:0:
100,196,72903,2,0,L|72:312,1,95,0|0,3:0|0:0,0:0:0:0:
192,264,73247,1,0,3:0:0:0:
80,144,73420,1,0,0:0:0:0:
444,88,73593,6,0,L|460:208,1,95,0|0,3:0|0:0,0:0:0:0:
168,192,73938,1,0,3:0:0:0:
328,160,74110,1,0,0:0:0:0:
176,108,74283,2,0,L|72:80,1,95,0|0,3:0|0:0,0:0:0:0:
336,108,74627,2,0,L|440:80,1,95,0|0,3:0|0:0,0:0:0:0:
112,196,74972,6,0,L|4:232,2,95,2|2|0,0:0|0:0|3:0,0:0:0:0:
356,136,75490,2,0,P|408:156|388:272,1,190,2|2,0:0|0:0,0:0:0:0:
148,288,76007,1,0,3:0:0:0:
122,249,76093,1,0,3:0:0:0:
93,211,76179,1,0,3:0:0:0:
66,172,76265,1,0,3:0:0:0:
272,132,76352,6,0,L|376:132,1,95,4|0,0:0|0:0,0:0:0:0:
212,192,76696,2,0,L|108:192,1,95,0|0,3:0|0:0,0:0:0:0:
368,192,77041,2,0,P|424:232|352:308,1,190,0|0,3:0|3:0,0:0:0:0:
200,308,77558,1,0,0:0:0:0:
364,308,77731,6,0,L|428:228,1,95,0|0,3:0|0:0,0:0:0:0:
268,192,78076,2,0,L|172:192,1,95,0|0,3:0|0:0,0:0:0:0:
344,72,78421,1,0,3:0:0:0:
452,140,78593,1,0,0:0:0:0:
432,252,78765,1,0,3:0:0:0:
312,308,78938,1,0,0:0:0:0:
76,296,79110,6,0,L|60:180,1,95,4|0,0:0|3:0,0:0:0:0:
116,140,79369,1,0,3:0:0:0:
168,80,79455,1,0,3:0:0:0:
332,184,79627,1,4,0:0:0:0:
268,236,79714,1,0,3:0:0:0:
208,288,79800,1,0,3:0:0:0:
388,96,79972,1,0,3:0:0:0:
448,76,80058,1,0,3:0:0:0:
388,96,80145,1,0,3:0:0:0:
152,108,80317,6,0,P|88:164|156:224,1,190,4|0,0:0|0:0,0:0:0:0:
324,280,80834,2,0,L|392:280,1,47.5,0|0,3:0|0:0,0:0:0:0:
440,240,81007,2,0,L|404:200,1,47.5,0|0,3:0|0:0,0:0:0:0:
256,176,81179,2,0,L|188:168,1,47.5,0|0,3:0|0:0,0:0:0:0:
168,100,81352,2,0,L|220:80,1,47.5,0|0,3:0|0:0,0:0:0:0:
392,88,81524,2,0,L|448:100,1,47.5,0|0,3:0|0:0,0:0:0:0:
492,156,81696,2,0,L|420:168,1,47.5,0|0,3:0|0:0,0:0:0:0:
184,232,81869,6,0,L|56:232,2,95,4|0|0,0:0|0:0|3:0,0:0:0:0:
424,232,82386,2,0,P|480:200|416:124,1,190,2|2,0:0|0:0,0:0:0:0:
176,120,82903,1,0,3:0:0:0:
340,120,83076,6,0,L|372:212,1,95,2|0,0:0|3:0,0:0:0:0:
128,280,83421,2,0,L|32:264,1,95,2|0,0:0|3:0,0:0:0:0:
384,280,83765,2,0,L|480:264,1,95,2|0,0:0|3:0,0:0:0:0:
172,120,84110,2,0,L|140:212,1,95,2|0,0:0|3:0,0:0:0:0:
304,212,84455,1,0,0:0:0:0:
68,124,84627,6,0,P|28:172|72:280,1,190,2|2,0:0|0:0,0:0:0:0:
360,272,85145,1,0,0:0:0:0:
204,228,85317,1,0,3:0:0:0:
352,192,85490,1,0,3:0:0:0:
363,145,85576,1,0,3:0:0:0:
374,99,85662,1,0,3:0:0:0:
385,53,85748,1,0,3:0:0:0:
164,52,85834,1,4,0:0:0:0:
256,192,86007,12,0,88765,0:0:0:0:
