osu file format v14

[General]
AudioFilename: audio.mp3
AudioLeadIn: 0
PreviewTime: 58501
Countdown: 1
SampleSet: Soft
StackLeniency: 0.7
Mode: 0
LetterboxInBreaks: 0
WidescreenStoryboard: 0

[Editor]
Bookmarks: 12121
DistanceSpacing: 2.5
BeatDivisor: 4
GridSize: 32
TimelineZoom: 1.6

[Metadata]
Title:Haru Modoki (TV Size)
TitleUnicode:春擬き (TV Size)
Artist:yanaginagi
ArtistUnicode:やなぎなぎ
Creator:Masternolen
Version:Genuine
Source:やはり俺の青春ラブコメはまちがっている。続
Tags:yahari ore no seishun love comedy wa machigatteiru zoku Oregairu my teen romantic snafu opening 2nd season Masternolen
BeatmapID:1695369
BeatmapSetID:807844

[Difficulty]
HPDrainRate:5
CircleSize:3.5
OverallDifficulty:8.5
ApproachRate:9.3
SliderMultiplier:1.4
SliderTickRate:1

[Events]
//Background and Video events
Video,0,"snafu2^2.avi"
0,0,"yahari 1.jpg",0,0
//Break Periods
//Storyboard Layer 0 (Background)
//Storyboard Layer 1 (Fail)
//Storyboard Layer 2 (Pass)
//Storyboard Layer 3 (Foreground)
//Storyboard Sound Samples

[TimingPoints]
570,344.827586206897,4,2,1,50,1,0
6776,-100,4,2,1,60,0,0
7294,-90.9090909090909,4,2,1,70,0,0
7638,-76.9230769230769,4,2,1,70,0,0
12811,-66.6666666666667,4,2,1,70,0,0
15914,-133.333333333333,4,2,2,70,0,0
17121,-100,4,2,1,50,0,0
18328,-66.6666666666667,4,2,1,50,0,0
18845,-80,4,2,1,50,0,0
22466,-66.6666666666667,4,2,1,50,0,0
24363,-80,4,2,1,50,0,0
26776,-133.333333333333,4,2,2,50,0,0
29363,-66.6666666666667,4,2,1,50,0,0
40570,-100,4,2,1,50,0,0
51604,-80,4,2,1,50,0,0
59535,-66.6666666666667,4,2,1,50,0,0
59880,-66.6666666666667,4,2,1,70,0,1
70570,-66.6666666666667,4,2,1,50,0,0
70914,-66.6666666666667,4,2,1,70,0,1
79190,-66.6666666666667,4,2,1,50,0,0
80742,-80,4,2,1,50,0,0
81949,-80,4,2,1,70,0,1
84707,-66.6666666666667,4,2,1,70,0,1
85914,-133.333333333333,4,2,1,50,0,0
88845,-133.333333333333,4,2,1,5,0,0

[Colours]
Combo1 : 255,255,147
Combo2 : 255,128,128
Combo3 : 255,147,255
Combo4 : 149,187,251

[HitObjects]
67,321,570,6,2,L|230:310,1,140,0|0,0:0|0:0,0:0:0:0:
422,286,1259,2,2,L|265:268,1,140,0|0,0:0|0:0,0:0:0:0:
69,184,1949,1,2,0:0:0:0:
344,105,2294,2,2,B|417:63|490:82,2,140,0|0|0,0:0|0:0|0:0,0:0:0:0:
302,226,3328,5,2,0:0:0:0:
167,104,3673,2,2,B|94:62|21:81,2,140,0|0|0,0:0|0:0|0:0,0:0:0:0:
256,193,4707,1,2,0:0:0:0:
190,299,5052,2,2,P|256:320|339:283,2,140,0|0|0,0:0|0:0|0:0,0:0:0:0:
217,65,6087,6,0,L|156:69,1,35
90,135,6259,2,0,L|151:131,1,35
232,183,6432,2,0,L|171:187,1,35
110,256,6604,2,0,L|171:252,1,35
314,271,6776,5,8,0:0:0:0:
322,225,6863,1,8,0:0:0:0:
317,179,6949,1,8,0:0:0:0:
309,137,7035,5,2,0:0:0:0:
308,107,7121,1,2,0:0:0:0:
317,80,7207,1,2,0:0:0:0:
330,45,7294,6,0,P|403:84|422:142,1,115.50000352478
422,130,7638,1,2,0:0:0:0:
400,301,7811,1,8,0:0:0:0:
284,124,7983,1,2,0:0:0:0:
240,278,8156,6,0,P|182:247|143:194,1,90.9999958343508,8|2,0:0|0:0,0:0:0:0:
195,46,8501,1,8,0:0:0:0:
244,283,8673,1,2,0:0:0:0:
279,67,8845,5,8,0:0:0:0:
333,241,9018,1,2,0:0:0:0:
393,136,9190,1,8,0:0:0:0:
200,190,9363,1,2,0:0:0:0:
279,67,9535,5,8,0:0:0:0:
348,254,9707,1,0,0:0:0:0:
172,181,9880,1,0,0:0:0:0:
262,355,10052,6,0,P|299:308|324:232,1,136.499993751526,6|0,0:0|0:0,3:0:0:0:
406,148,10397,1,2,0:0:0:0:
275,25,10570,1,8,0:0:0:0:
170,258,10742,1,2,0:0:0:0:
226,93,10914,5,8,0:0:0:0:
332,241,11087,1,2,0:0:0:0:
316,127,11259,5,8,0:0:0:0:
227,300,11432,1,2,0:0:0:0:
414,159,11604,5,8,0:0:0:0:
363,320,11776,1,2,0:0:0:0:
250,108,11949,1,8,0:0:0:0:
204,257,12121,1,2,0:0:0:0:
95,101,12294,5,8,0:0:0:0:
136,337,12466,1,2,0:0:0:0:
271,32,12638,1,8,0:0:0:0:
399,253,12811,6,8,P|364:300|271:339,1,157.500006008148,4|0,0:0|0:0,0:0:0:0:
157,348,13156,5,2,0:0:0:0:
214,117,13328,1,8,0:0:0:0:
242,253,13501,1,2,0:0:0:0:
142,166,13673,5,8,0:0:0:0:
228,331,13845,1,2,0:0:0:0:
256,158,14018,5,8,0:0:0:0:
149,254,14190,1,2,0:0:0:0:
186,71,14363,5,8,0:0:0:0:
242,253,14535,1,2,0:0:0:0:
302,92,14707,5,8,0:0:0:0:
331,214,14880,1,2,0:0:0:0:
191,141,15052,1,8,0:0:0:0:
324,298,15225,1,2,0:0:0:0:
444,111,15397,5,8,0:0:0:0:
98,244,15570,1,2,0:0:0:0:
44,248,15914,5,2,0:0:0:0:
44,248,16087,2,0,L|117:253,1,52.5000020027161,2|2,0:0|0:0,0:0:0:0:
161,179,16432,2,0,L|88:174,1,52.5000020027161,2|2,0:0|0:0,0:0:0:0:
56,94,16776,2,0,L|129:99,1,52.5000020027161,2|2,0:0|0:0,0:0:0:0:
243,269,17121,6,0,L|287:255,3,35,2|2|2|2,0:0|0:0|0:0|0:0,0:0:0:0:
374,221,17466,1,2,0:0:0:0:
240,177,17638,2,0,L|175:154,1,35
121,318,17811,5,8,0:0:0:0:
393,124,17983,1,8,0:0:0:0:
291,274,18328,6,0,B|367:296|436:256|436:256|370:210,1,210.000008010865
263,138,18845,2,2,P|215:125|165:123,1,87.5,8|2,0:0|0:0,0:0:0:0:
73,235,19190,1,0,0:0:0:0:
189,370,19363,2,2,P|237:367|287:355,1,87.5,0|0,0:0|0:0,0:0:0:0:
312,343,19621,1,2,0:0:0:0:
350,317,19707,6,0,P|340:261|242:308,1,175,8|0,0:0|0:0,0:0:0:0:
203,143,20225,1,8,0:0:0:0:
245,276,20397,1,0,0:0:0:0:
390,102,20570,5,0,0:0:0:0:
136,256,20742,1,0,0:0:0:0:
136,256,21087,6,0,B|133:129|133:129|184:202|184:202,1,175,8|0,0:0|0:0,0:0:0:0:
337,66,21604,2,2,P|386:58|436:61,1,87.5,8|0,0:0|0:0,0:0:0:0:
364,197,21949,2,2,P|314:189|264:192,1,87.5
456,118,22294,1,0,0:0:0:0:
178,95,22466,2,2,B|41:83|41:83|126:164,1,210.000008010865,8|0,0:0|0:0,0:0:0:0:
221,173,22983,2,0,P|260:123|260:62,1,105.000004005432,8|0,0:0|0:0,0:0:0:0:
351,50,23328,5,0,0:0:0:0:
388,302,23501,1,2,0:0:0:0:
388,302,23845,6,0,B|429:240|415:182|415:182|362:208,1,157.500006008148,8|0,0:0|0:0,0:0:0:0:
306,238,24190,1,2,0:0:0:0:
101,183,24363,1,8,0:0:0:0:
244,100,24535,1,0,0:0:0:0:
208,256,24707,6,2,L|306:250,1,87.5
375,155,25138,1,2,0:0:0:0:
375,155,25225,2,2,B|306:167|306:167|273:147|273:147|203:157,1,175,8|2,0:0|0:0,0:0:0:0:
94,195,25742,2,2,B|55:103|55:103|54:39,1,131.25,8|2,0:0|0:0,0:0:0:0:
134,47,26087,5,0,0:0:0:0:
191,323,26259,1,2,0:0:0:0:
456,62,26604,5,12,0:0:0:0:
367,270,26949,5,2,0:0:0:0:
367,270,27121,2,0,L|307:260,1,52.5000020027161,2|2,0:0|0:0,0:0:0:0:
250,343,27466,2,0,L|310:333,1,52.5000020027161,2|2,0:0|0:0,0:0:0:0:
144,208,27983,6,0,P|141:151|184:159,1,105.000004005432,2|2,0:0|0:0,0:0:0:0:
100,73,28501,1,2,0:0:0:0:
211,45,28673,1,8,0:0:0:0:
244,39,28759,1,8,0:0:0:0:
277,30,28845,5,8,0:0:0:0:
330,346,29018,1,8,0:0:0:0:
420,174,29363,6,4,L|279:153,1,105.000004005432,4|0,0:0|0:0,0:0:0:0:
365,46,29707,1,0,0:0:0:0:
330,272,29880,1,8,0:0:0:0:
233,144,30052,1,0,0:0:0:0:
214,362,30225,5,2,0:0:0:0:
116,276,30398,2,2,P|164:296|215:290,1,105.000004005432,0|8,0:0|0:0,0:0:0:0:
316,177,30742,2,2,P|265:162|215:172,1,105.000004005432
7,168,31086,5,0,0:0:0:0:
172,68,31259,2,0,P|238:60|274:75,1,105.000004005432,8|0,0:0|0:0,0:0:0:0:
327,271,31604,5,2,0:0:0:0:
397,57,31776,1,0,0:0:0:0:
482,210,31949,1,8,0:0:0:0:
226,67,32121,6,0,B|149:67|104:95|104:95|153:142,1,157.500006008148,4|0,0:0|0:0,0:0:0:0:
126,116,32466,1,0,0:0:0:0:
197,215,32638,1,8,0:0:0:0:
304,130,32811,1,0,0:0:0:0:
127,80,32983,5,0,0:0:0:0:
337,224,33156,1,2,0:0:0:0:
197,215,33328,1,8,0:0:0:0:
363,55,33501,6,2,B|497:68|497:68|427:165,1,210.000008010865,0|0,0:0|0:0,0:0:0:0:
357,279,34018,1,8,0:0:0:0:
231,77,34190,1,0,0:0:0:0:
223,282,34363,5,2,0:0:0:0:
290,28,34535,1,0,0:0:0:0:
361,168,34707,1,8,0:0:0:0:
61,61,34880,6,0,B|27:107|43:154|43:154|137:107,1,157.500006008148,4|0,0:0|0:0,0:0:0:0:
95,127,35225,1,2,0:0:0:0:
223,2,35397,1,8,0:0:0:0:
247,220,35570,1,0,0:0:0:0:
286,60,35742,5,2,0:0:0:0:
202,308,35914,1,0,0:0:0:0:
169,186,36087,1,8,0:0:0:0:
369,291,36259,6,2,L|399:167,1,105.000004005432,0|2,0:0|0:0,0:0:0:0:
422,71,36604,1,0,0:0:0:0:
502,221,36776,1,8,0:0:0:0:
174,163,36949,1,0,0:0:0:0:
369,291,37121,5,2,0:0:0:0:
309,33,37294,1,0,0:0:0:0:
250,243,37466,1,8,0:0:0:0:
496,169,37638,2,0,B|429:76|429:76|395:113|379:140,1,157.500006008148
401,108,37983,1,0,0:0:0:0:
430,256,38156,6,2,L|321:285,1,105.000004005432,8|0,0:0|0:0,0:0:0:0:
374,369,38501,1,2,0:0:0:0:
235,154,38673,1,0,0:0:0:0:
178,280,38845,1,8,0:0:0:0:
434,196,39018,6,2,B|396:133|337:107|337:107|312:141|336:182,1,210.000008010865,0|0,0:0|0:0,0:0:0:0:
308,344,39535,1,4,0:0:0:0:
235,154,39707,1,0,0:0:0:0:
348,111,39880,6,0,L|419:97,2,70.0000026702882,2|2|2,0:0|0:0|0:0,0:0:0:0:
111,170,40225,2,0,L|22:150,2,70.0000026702882,2|2|2,0:0|0:0|0:0,0:0:0:0:
273,280,40570,6,0,L|412:258,1,140,4|0,0:0|0:0,0:0:0:0:
449,170,41087,1,2,0:0:0:0:
355,151,41259,2,0,P|330:101|307:72,1,70,8|0,0:0|0:0,0:0:0:0:
266,22,41604,1,2,0:0:0:0:
176,94,41776,2,0,P|186:137|210:185,1,70,2|0,0:0|0:0,0:0:0:0:
103,174,42121,2,0,P|123:212|159:253,1,70,8|0,0:0|0:0,0:0:0:0:
236,294,42466,1,2,0:0:0:0:
407,256,42638,2,0,L|332:247,1,70,8|0,0:0|0:0,0:0:0:0:
235,183,42983,6,2,B|298:130|373:130|373:130,2,140,0|2|0,0:0|0:0|0:0,0:0:0:0:
118,54,43845,1,2,0:0:0:0:
107,252,44018,2,0,P|177:261|189:261,1,70,8|0,0:0|0:0,0:0:0:0:
287,171,44363,2,0,P|217:162|205:162,1,70,2|2,0:0|0:0,0:0:0:0:
319,247,44707,5,2,0:0:0:0:
229,65,44880,1,8,0:0:0:0:
154,158,45052,2,0,L|236:151,1,70,2|0,0:0|0:0,0:0:0:0:
445,81,45397,5,10,0:0:0:0:
306,131,45570,1,2,0:0:0:0:
466,167,45742,1,2,0:0:0:0:
327,217,45915,1,2,0:0:0:0:
412,233,46087,6,4,P|382:279|297:297,1,140,4|0,0:0|0:0,0:0:0:0:
192,272,46604,1,2,0:0:0:0:
99,189,46776,2,0,P|141:186|175:180,1,70,8|0,0:0|0:0,0:0:0:0:
274,155,47121,1,2,0:0:0:0:
352,83,47294,2,0,P|354:122|359:160,1,70,2|0,0:0|0:0,0:0:0:0:
446,147,47638,2,0,P|444:186|439:224,1,70,8|0,0:0|0:0,0:0:0:0:
375,296,47983,1,2,0:0:0:0:
270,323,48156,2,0,P|226:317|192:301,1,70,8|0,0:0|0:0,0:0:0:0:
132,366,48501,2,0,P|115:324|112:287,1,70
208,209,48845,6,2,B|321:202|321:202|368:229,1,140,2|0,0:0|0:0,0:0:0:0:
295,293,49363,2,2,B|182:300|182:300|135:273,1,140,2|0,0:0|0:0,0:0:0:0:
84,207,49880,2,2,P|85:168|109:127,1,70
206,65,50225,5,2,0:0:0:0:
181,218,50397,1,8,0:0:0:0:
278,135,50570,6,2,P|375:113|398:127,1,105,2|0,0:0|0:0,0:0:0:0:
414,137,50914,2,2,P|436:234|422:257,1,105,8|0,0:0|0:0,0:0:0:0:
407,275,51259,2,2,P|310:297|287:283,1,105,8|0,0:0|0:0,0:0:0:0:
345,216,51604,6,0,P|327:158|220:105,1,175,4|8,0:0|0:0,0:0:0:0:
227,222,52121,1,0,0:0:0:0:
44,135,52294,1,2,0:0:0:0:
188,51,52466,5,0,0:0:0:0:
139,217,52638,2,0,L|228:222,1,87.5,8|0,0:0|0:0,0:0:0:0:
185,325,52983,1,2,0:0:0:0:
245,113,53156,1,0,0:0:0:0:
334,264,53328,1,8,0:0:0:0:
260,199,53501,1,0,0:0:0:0:
333,121,53673,6,2,L|241:113,1,87.5,2|0,0:0|0:0,0:0:0:0:
161,40,54018,2,2,L|253:32,1,87.5,8|0,0:0|0:0,0:0:0:0:
366,212,54363,6,0,L|309:225,3,43.75,2|2|2|2,0:0|0:0|0:0|0:0,0:0:0:0:
289,231,54707,1,2,0:0:0:0:
255,241,54794,1,2,0:0:0:0:
221,251,54880,1,2,0:0:0:0:
187,261,54966,1,2,0:0:0:0:
154,273,55052,6,8,L|93:258,1,43.75
32,200,55225,2,8,L|93:185,1,43.75
218,159,55397,2,8,L|157:144,1,43.75
73,68,55570,2,8,L|134:53,1,43.75
225,33,55742,5,2,0:0:0:0:
272,27,55828,1,2,0:0:0:0:
318,40,55914,1,2,0:0:0:0:
357,68,56001,1,2,0:0:0:0:
380,109,56087,2,0,P|390:130|402:155,3,43.75,2|2|2|2,0:0|0:0|0:0|0:0,0:0:0:0:
467,247,56432,6,8,L|405:233,1,43.75
398,148,56604,2,8,L|344:165,1,43.75
332,246,56776,2,8,L|278:228,1,43.75
270,135,56949,2,8,L|216:152,1,43.75
105,291,57121,6,0,L|177:269,1,43.75
300,307,57294,2,8,L|246:324,1,43.75
95,285,57466,2,0,L|149:268,1,43.75
309,315,57638,2,8,L|255:332,1,43.75
84,280,57811,2,0,L|139:257,1,43.75
238,139,57983,6,2,L|180:162,1,43.75
202,236,58156,2,2,L|243:220,1,43.75
329,185,58328,1,12,0:0:0:0:
152,36,58501,6,2,L|200:40,1,43.75
373,189,58673,2,2,L|329:185,1,43.75
177,121,58845,2,2,L|225:125,1,43.75
344,100,59018,2,2,L|300:96,1,43.75
206,210,59190,2,2,L|254:214,1,43.75
153,353,59363,5,2,0:0:0:0:
202,349,59449,1,0,0:0:0:0:
249,344,59535,2,0,B|295:283|289:248|289:248|248:271|204:245,1,157.500006008148,8|0,0:0|0:0,0:0:0:0:
132,173,59880,6,2,L|284:157,1,105.000004005432,2|0,0:0|0:0,0:0:0:0:
404,83,60225,2,2,L|252:67,1,105.000004005432,8|0,0:0|0:0,0:0:0:0:
136,144,60570,5,2,0:0:0:0:
280,291,60742,1,0,0:0:0:0:
90,268,60914,1,8,0:0:0:0:
299,108,61087,1,0,0:0:0:0:
208,261,61259,6,2,L|339:248,1,105.000004005432,2|0,0:0|0:0,0:0:0:0:
430,172,61604,2,2,L|314:160,1,105.000004005432,8|0,0:0|0:0,0:0:0:0:
368,298,61949,5,2,0:0:0:0:
296,29,62121,1,0,0:0:0:0:
205,245,62294,1,8,0:0:0:0:
366,180,62466,1,2,0:0:0:0:
383,130,62552,1,2,0:0:0:0:
397,79,62638,2,0,B|312:78|312:78|249:115|249:115|170:115,1,210.000008010865,0|8,0:0|0:0,0:0:0:0:
66,116,63156,5,0,0:0:0:0:
145,312,63328,2,2,P|211:319|269:316,1,105.000004005432,2|0,0:0|0:0,0:0:0:0:
207,107,63673,2,2,P|273:104|330:111,1,105.000004005432,8|0,0:0|0:0,0:0:0:0:
464,220,64018,5,2,0:0:0:0:
351,43,64190,1,0,0:0:0:0:
249,317,64363,1,8,0:0:0:0:
273,117,64535,2,8,B|210:145|210:145|163:285,1,210.000008010865,0|2,0:0|0:0,0:0:0:0:
278,320,65052,5,2,0:0:0:0:
175,45,65225,1,2,0:0:0:0:
417,157,65397,2,2,B|301:76|301:76|229:99,1,210.000008010865,2|8,0:0|0:0,0:0:0:0:
341,284,65914,6,0,P|312:231|270:169,1,105.000004005432
212,65,66259,1,0,0:0:0:0:
186,287,66432,1,8,0:0:0:0:
490,143,66604,6,2,P|456:99|271:95,1,210.000008010865,6|0,0:0|0:0,0:0:0:0:
372,302,67121,2,2,P|323:320|256:322,1,105.000004005432,8|0,0:0|0:0,0:0:0:0:
164,163,67466,2,2,P|213:145|280:143,1,105.000004005432,2|0,0:0|0:0,0:0:0:0:
452,230,67811,2,0,P|401:221|347:218,1,105.000004005432
229,230,68156,5,0,0:0:0:0:
137,51,68328,1,0,0:0:0:0:
104,292,68501,2,0,P|162:312|208:321,1,105.000004005432
268,37,68845,5,2,0:0:0:0:
249,293,69018,1,2,0:0:0:0:
205,321,69104,1,2,0:0:0:0:
154,332,69190,1,10,0:0:0:0:
103,321,69276,1,2,0:0:0:0:
53,303,69363,6,0,P|22:254|47:95,1,210.000008010865,6|0,0:0|0:0,0:0:0:0:
144,197,69880,1,8,0:0:0:0:
239,105,70052,6,0,P|270:154|245:313,1,210.000008010865,6|0,0:0|0:0,0:0:0:0:
129,72,70570,5,8,0:0:0:0:
135,124,70656,1,8,0:0:0:0:
142,176,70742,1,8,0:0:0:0:
149,228,70828,1,8,0:0:0:0:
154,280,70914,6,2,P|210:298|299:292,1,105.000004005432,4|2,0:0|0:0,0:0:0:0:
219,119,71259,2,2,P|275:101|364:107,1,105.000004005432,8|2,0:0|0:0,0:0:0:0:
305,233,71604,5,8,0:0:0:0:
446,40,71776,1,2,0:0:0:0:
454,331,71949,1,8,0:0:0:0:
322,80,72121,1,2,0:0:0:0:
481,211,72294,6,2,P|428:220|357:224,1,105.000004005432,8|2,0:0|0:0,0:0:0:0:
205,113,72638,2,2,P|258:104|329:100,1,105.000004005432,8|2,0:0|0:0,0:0:0:0:
403,105,72983,1,8,0:0:0:0:
155,198,73156,1,2,0:0:0:0:
404,263,73328,2,2,P|400:173|405:90,1,157.500006008148,8|0,0:0|0:0,0:0:0:0:
404,106,73673,1,8,0:0:0:0:
416,360,74018,5,8,0:0:0:0:
410,90,74190,1,2,0:0:0:0:
284,331,74363,5,8,0:0:0:0:
409,69,74535,1,2,0:0:0:0:
134,227,74707,5,8,0:0:0:0:
408,47,74880,1,2,0:0:0:0:
122,70,75052,6,0,L|240:52,1,105.000004005432,8|2,0:0|0:0,0:0:0:0:
297,151,75397,2,0,L|172:134,1,105.000004005432,8|2,0:0|0:0,0:0:0:0:
190,288,75742,5,8,0:0:0:0:
286,18,75914,1,2,0:0:0:0:
409,225,76087,5,8,0:0:0:0:
123,85,76259,1,2,0:0:0:0:
78,308,76432,5,8,0:0:0:0:
221,80,76604,1,2,0:0:0:0:
81,162,76776,1,8,0:0:0:0:
315,187,76949,1,2,0:0:0:0:
182,270,77121,2,0,P|247:288|290:292,1,105.000004005432,8|2,0:0|0:0,0:0:0:0:
433,250,77466,5,8,0:0:0:0:
331,39,77638,1,2,0:0:0:0:
226,197,77811,1,8,0:0:0:0:
441,83,77983,1,2,0:0:0:0:
366,273,78156,2,0,P|299:289|251:286,1,105.000004005432,8|2,0:0|0:0,0:0:0:0:
151,256,78501,1,8,0:0:0:0:
241,91,78673,1,2,0:0:0:0:
318,343,78845,1,8,0:0:0:0:
138,108,79018,1,2,0:0:0:0:
203,247,79190,5,12,0:0:0:0:
198,212,79276,1,8,0:0:0:0:
206,178,79363,1,8,0:0:0:0:
224,148,79449,1,8,0:0:0:0:
251,126,79535,1,8,0:0:0:0:
384,145,79707,5,12,0:0:0:0:
390,178,79794,1,8,0:0:0:0:
382,213,79880,1,8,0:0:0:0:
367,244,79966,1,8,0:0:0:0:
340,266,80052,1,8,0:0:0:0:
237,321,80225,5,8,0:0:0:0:
206,178,80397,2,2,L|316:169,1,105.000004005432,0|4,0:0|0:0,0:0:0:0:
143,260,80742,5,8,0:0:0:0:
120,222,80828,1,8,0:0:0:0:
111,179,80914,1,8,0:0:0:0:
120,137,81000,1,8,0:0:0:0:
142,99,81086,1,8,0:0:0:0:
177,65,81173,2,8,L|233:41,1,43.75
326,132,81345,2,8,L|274:113,1,43.75
188,233,81518,2,8,L|234:220,1,43.75
335,320,81690,2,8,L|285:297,1,43.75
360,0,81949,5,8,0:0:0:0:
430,262,82121,1,2,0:0:0:0:
255,28,82294,5,8,0:0:0:0:
339,315,82466,1,2,0:0:0:0:
162,63,82638,5,8,0:0:0:0:
247,364,82811,1,2,0:0:0:0:
274,57,82983,5,8,0:0:0:0:
151,330,83156,1,2,0:0:0:0:
361,131,83328,5,8,0:0:0:0:
63,263,83501,1,2,0:0:0:0:
387,234,83673,5,8,0:0:0:0:
25,155,83845,1,2,0:0:0:0:
267,357,84018,5,8,0:0:0:0:
85,27,84190,1,2,0:0:0:0:
186,374,84363,5,8,0:0:0:0:
187,0,84535,1,2,0:0:0:0:
306,268,84707,6,2,B|274:157|348:157|292:62,1,210.000008010865,8|0,0:0|0:0,0:0:0:0:
211,201,85225,1,2,0:0:0:0:
437,281,85397,2,8,L|370:248,1,52.5000020027161
263,217,85570,2,8,L|312:184,1,52.5000020027161
431,148,85742,2,8,L|377:108,1,52.5000020027161
242,123,85914,6,2,B|148:167|176:259|176:259,1,157.500006008148,14|0,0:0|0:0,0:0:0:0:
303,310,86776,2,2,P|320:248|329:199,1,105.000004005432,0|0,0:0|0:0,0:0:0:0:
256,192,87207,12,0,88845,0:0:0:0:
