osu file format v14

[General]
AudioFilename: Harumodoki.mp3
AudioLeadIn: 0
PreviewTime: 59784
Countdown: 0
SampleSet: Soft
StackLeniency: 0.7
Mode: 3
LetterboxInBreaks: 0
SpecialStyle: 0
WidescreenStoryboard: 1

[Editor]
DistanceSpacing: 1.1
BeatDivisor: 4
GridSize: 32
TimelineZoom: 4.299998

[Metadata]
Title:Haru Modoki
TitleUnicode:春擬き
Artist:yanaginagi
ArtistUnicode:やなぎなぎ
Creator:Niima
Version:Haru Haru
Source:やはり俺の青春ラブコメはまちがっている。続
Tags:Yahari Ore no Seishun Love Comedy wa Machigatteiru Zoku My Teen Romantic SNAFU 2 oregairu
BeatmapID:999973
BeatmapSetID:467358

[Difficulty]
HPDrainRate:8
CircleSize:4
OverallDifficulty:6
ApproachRate:5
SliderMultiplier:1.4
SliderTickRate:1

[Events]
//Background and Video events
0,0,"799821-anime-anime-girls-black-hair-foliage-pink-hair-scarfs-school-uniforms-yahari-ore-no-seishun-love-come-wa-machigatteiru-yuigahama-yui-yukinoshita-yukino.jpg",0,0
//Break Periods
//Storyboard Layer 0 (Background)
//Storyboard Layer 1 (Fail)
//Storyboard Layer 2 (Pass)
//Storyboard Layer 3 (Foreground)
//Storyboard Sound Samples

[TimingPoints]
560,344.827586206897,4,2,0,0,1,0
3663,-100,4,2,0,0,0,0
6766,-66.6666666666667,4,2,0,0,0,0
6810,-133.333333333333,4,2,0,0,0,0
6853,-66.6666666666667,4,2,0,0,0,0
6896,-133.333333333333,4,2,0,0,0,0
6939,-66.6666666666667,4,2,0,0,0,0
6982,-133.333333333333,4,2,0,0,0,0
7025,-66.6666666666667,4,2,0,0,0,0
7068,-133.333333333333,4,2,0,0,0,0
7111,-66.6666666666667,4,2,0,0,0,0
7284,-100,4,2,0,0,0,0
15646,-133.333333333333,4,2,0,0,0,0
15904,-66.6666666666667,4,2,0,0,0,0
15991,-133.333333333333,4,2,0,0,0,0
16077,-66.6666666666667,4,2,0,0,0,0
16163,-133.333333333333,4,2,0,0,0,0
16422,-66.6666666666667,4,2,0,0,0,0
16508,-133.333333333333,4,2,0,0,0,0
16766,-66.6666666666667,4,2,0,0,0,0
16853,-133.333333333333,4,2,0,0,0,0
17111,-100,4,2,0,0,0,0
17801,-80,4,2,0,0,0,0
17887,-133.333333333333,4,2,0,0,0,0
17973,-80,4,2,0,0,0,0
18060,-133.333333333333,4,2,0,0,0,0
18318,-100,4,2,0,0,0,0
26680,-125,4,2,0,0,0,0
28663,-100,4,2,0,0,0,0
28835,-80,4,2,0,0,0,0
28922,-200,4,2,0,0,0,0
29008,-80,4,2,0,0,0,0
29094,-200,4,2,0,0,0,0
29353,-100,4,2,0,0,0,0
40646,-111.111111111111,4,2,0,0,0,0
51594,-100,4,2,0,0,0,0
58491,-100,4,2,0,0,0,0
59353,-90.9090909090909,4,2,0,0,0,0
59439,-83.3333333333333,4,2,0,0,0,0
59525,-76.9230769230769,4,2,0,0,0,0
59611,-71.4285714285714,4,2,0,0,0,0
59697,-66.6666666666667,4,2,0,0,0,0
59784,-50,4,2,0,0,0,0
59870,-100,4,2,0,0,0,1
66594,-100,4,2,0,0,0,1
69353,-200,4,2,0,0,0,1
69439,-80,4,2,0,0,0,1
69697,-200,4,2,0,0,0,1
69784,-80,4,2,0,0,0,1
70042,-200,4,2,0,0,0,1
70128,-80,4,2,0,0,0,1
70387,-133.333333333333,4,2,0,0,0,1
70560,-90.9090909090909,4,2,0,0,0,1
70904,-100,4,2,0,0,0,1
76422,-66.6666666666667,4,2,0,0,0,1
76508,-200,4,2,0,0,0,1
76766,-66.6666666666667,4,2,0,0,0,1
76853,-200,4,2,0,0,0,1
77111,-66.6666666666667,4,2,0,0,0,1
77197,-200,4,2,0,0,0,1
77456,-66.6666666666667,4,2,0,0,0,1
77542,-200,4,2,0,0,0,1
77801,-66.6666666666667,4,2,0,0,0,1
77887,-200,4,2,0,0,0,1
78146,-66.6666666666667,4,2,0,0,0,1
78232,-200,4,2,0,0,0,1
78491,-66.6666666666667,4,2,0,0,0,1
78577,-200,4,2,0,0,0,1
78835,-66.6666666666667,4,2,0,0,0,1
78922,-200,4,2,0,0,0,1
79180,-100,4,2,0,0,0,1
79784,-100,4,2,0,0,0,1
80215,-66.6666666666667,4,2,0,0,0,1
80301,-133.333333333333,4,2,0,0,0,1
80387,-90.9090909090909,4,2,0,0,0,1
81939,-100,4,2,0,0,0,0
85904,-333.333333333333,4,2,0,0,0,0
88922,-100,4,2,0,0,0,0

[HitObjects]
192,192,560,5,0,0:0:0:0:
64,192,560,128,0,1939:0:0:0:0:
320,192,581,1,0,0:0:0:0:
448,192,603,1,0,0:0:0:0:
320,192,1939,1,0,0:0:0:0:
448,192,1939,128,0,3318:0:0:0:0:
192,192,1960,1,0,0:0:0:0:
64,192,1982,1,0,0:0:0:0:
192,192,3318,1,0,0:0:0:0:
64,192,3318,128,0,4353:0:0:0:0:
320,192,3340,1,0,0:0:0:0:
448,192,3361,1,0,0:0:0:0:
192,192,3663,128,0,4008:0:0:0:0:
320,192,4008,128,0,4353:0:0:0:0:
448,192,4353,128,0,4697:0:0:0:0:
64,192,4697,128,0,6077:0:0:0:0:
192,192,5042,128,0,5387:0:0:0:0:
320,192,5387,128,0,5732:0:0:0:0:
448,192,5732,128,0,6077:0:0:0:0:
320,192,6077,1,0,0:0:0:0:
192,192,6077,1,0,0:0:0:0:
192,192,6249,1,0,0:0:0:0:
448,192,6249,1,0,0:0:0:0:
320,192,6335,1,0,0:0:0:0:
64,192,6422,1,0,0:0:0:0:
448,192,6422,1,0,0:0:0:0:
192,192,6508,1,0,0:0:0:0:
320,192,6594,1,0,0:0:0:0:
448,192,6594,1,0,0:0:0:0:
192,192,6680,1,0,0:0:0:0:
64,192,6680,1,0,0:0:0:0:
320,192,6766,1,0,0:0:0:0:
448,192,6766,1,0,0:0:0:0:
64,192,6766,128,0,6939:0:0:0:0:
192,192,6853,128,0,7025:0:0:0:0:
320,192,6939,128,0,7111:0:0:0:0:
448,192,7025,128,0,7197:0:0:0:0:
64,192,7111,1,0,0:0:0:0:
192,192,7197,1,0,0:0:0:0:
64,192,7284,128,0,7628:0:0:0:0:
448,192,7284,128,0,7628:0:0:0:0:
320,192,7284,1,0,0:0:0:0:
192,192,7628,1,0,0:0:0:0:
320,192,7715,1,0,0:0:0:0:
448,192,7801,1,0,0:0:0:0:
64,192,7801,1,0,0:0:0:0:
192,192,7801,1,0,0:0:0:0:
320,192,7887,1,0,0:0:0:0:
448,192,7973,1,0,0:0:0:0:
64,192,7973,1,0,0:0:0:0:
192,192,8060,1,0,0:0:0:0:
320,192,8146,1,0,0:0:0:0:
448,192,8146,1,0,0:0:0:0:
192,192,8232,1,0,0:0:0:0:
448,192,8318,1,0,0:0:0:0:
64,192,8318,1,0,0:0:0:0:
320,192,8404,1,0,0:0:0:0:
64,192,8491,1,0,0:0:0:0:
192,192,8491,1,0,0:0:0:0:
448,192,8491,1,0,0:0:0:0:
320,192,8577,1,0,0:0:0:0:
64,192,8663,1,0,0:0:0:0:
192,192,8749,1,0,0:0:0:0:
320,192,8835,1,0,0:0:0:0:
448,192,8835,1,0,0:0:0:0:
192,192,8922,1,0,0:0:0:0:
448,192,9008,1,0,0:0:0:0:
64,192,9008,1,0,0:0:0:0:
320,192,9094,1,0,0:0:0:0:
64,192,9180,1,0,0:0:0:0:
192,192,9180,1,0,0:0:0:0:
320,192,9266,1,0,0:0:0:0:
64,192,9353,1,0,0:0:0:0:
448,192,9353,1,0,0:0:0:0:
192,192,9439,1,0,0:0:0:0:
448,192,9525,1,0,0:0:0:0:
320,192,9525,1,0,0:0:0:0:
64,192,9611,1,0,0:0:0:0:
192,192,9611,1,0,0:0:0:0:
320,192,9697,1,0,0:0:0:0:
448,192,9697,1,0,0:0:0:0:
192,192,9784,1,0,0:0:0:0:
64,192,9870,1,0,0:0:0:0:
448,192,9870,1,0,0:0:0:0:
320,192,9870,128,0,10042:0:0:0:0:
192,192,10042,128,0,10258:0:0:0:0:
448,192,10042,128,0,10258:0:0:0:0:
64,192,10042,128,0,10258:0:0:0:0:
448,192,10387,1,0,0:0:0:0:
320,192,10473,1,0,0:0:0:0:
192,192,10560,1,0,0:0:0:0:
448,192,10560,128,0,10646:0:0:0:0:
64,192,10560,128,0,10732:0:0:0:0:
320,192,10646,1,0,0:0:0:0:
448,192,10732,1,0,0:0:0:0:
192,192,10818,1,0,0:0:0:0:
448,192,10904,128,0,11077:0:0:0:0:
320,192,10904,1,0,0:0:0:0:
64,192,10904,128,0,10991:0:0:0:0:
192,192,10991,1,0,0:0:0:0:
64,192,11077,1,0,0:0:0:0:
192,192,11163,1,0,0:0:0:0:
64,192,11249,128,0,11422:0:0:0:0:
448,192,11249,1,0,0:0:0:0:
320,192,11249,128,0,11335:0:0:0:0:
192,192,11335,1,0,0:0:0:0:
448,192,11422,128,0,11594:0:0:0:0:
320,192,11422,1,0,0:0:0:0:
192,192,11508,1,0,0:0:0:0:
320,192,11594,128,0,11766:0:0:0:0:
64,192,11594,1,0,0:0:0:0:
192,192,11680,1,0,0:0:0:0:
448,192,11766,128,0,11939:0:0:0:0:
64,192,11766,1,0,0:0:0:0:
192,192,11853,1,0,0:0:0:0:
320,192,11939,1,0,0:0:0:0:
64,192,11939,128,0,12111:0:0:0:0:
448,192,12025,1,0,0:0:0:0:
192,192,12111,128,0,12284:0:0:0:0:
320,192,12111,1,0,0:0:0:0:
448,192,12197,1,0,0:0:0:0:
320,192,12284,1,0,0:0:0:0:
64,192,12284,128,0,12456:0:0:0:0:
448,192,12370,1,0,0:0:0:0:
192,192,12456,128,0,12628:0:0:0:0:
320,192,12456,1,0,0:0:0:0:
64,192,12542,1,0,0:0:0:0:
320,192,12628,1,0,0:0:0:0:
448,192,12628,128,0,12973:0:0:0:0:
64,192,12801,128,0,12973:0:0:0:0:
192,192,12801,128,0,12973:0:0:0:0:
320,192,12801,128,0,12973:0:0:0:0:
448,192,13146,128,0,13922:0:0:0:0:
320,192,13146,1,0,0:0:0:0:
192,192,13232,1,0,0:0:0:0:
320,192,13318,128,0,13749:0:0:0:0:
64,192,13318,1,0,0:0:0:0:
192,192,13491,128,0,14094:0:0:0:0:
64,192,13491,1,0,0:0:0:0:
64,192,13663,128,0,13922:0:0:0:0:
320,192,13835,128,0,14266:0:0:0:0:
448,192,14008,128,0,14439:0:0:0:0:
64,192,14008,128,0,14266:0:0:0:0:
192,192,14180,128,0,14439:0:0:0:0:
64,192,14353,128,0,14611:0:0:0:0:
320,192,14353,128,0,14611:0:0:0:0:
192,192,14525,128,0,14784:0:0:0:0:
448,192,14525,128,0,14784:0:0:0:0:
64,192,14697,128,0,15128:0:0:0:0:
320,192,14697,128,0,15042:0:0:0:0:
448,192,14870,128,0,15128:0:0:0:0:
192,192,14870,128,0,14956:0:0:0:0:
192,192,15042,128,0,15215:0:0:0:0:
320,192,15128,128,0,15301:0:0:0:0:
448,192,15215,128,0,15387:0:0:0:0:
64,192,15215,128,0,15473:0:0:0:0:
192,192,15301,128,0,15473:0:0:0:0:
320,192,15387,128,0,15473:0:0:0:0:
448,192,15473,1,0,0:0:0:0:
64,192,15560,1,0,0:0:0:0:
320,192,15560,1,0,0:0:0:0:
448,192,15560,1,0,0:0:0:0:
192,192,15560,1,0,0:0:0:0:
64,192,15904,128,0,15947:0:0:0:0:
320,192,16077,128,0,16120:0:0:0:0:
192,192,16422,128,0,16465:0:0:0:0:
448,192,16766,128,0,16810:0:0:0:0:
64,192,17111,1,0,0:0:0:0:
448,192,17111,1,0,0:0:0:0:
320,192,17197,1,0,0:0:0:0:
192,192,17284,1,0,0:0:0:0:
64,192,17370,1,0,0:0:0:0:
448,192,17370,1,0,0:0:0:0:
320,192,17456,1,0,0:0:0:0:
448,192,17542,1,0,0:0:0:0:
64,192,17628,1,0,0:0:0:0:
192,192,17628,1,0,0:0:0:0:
320,192,17715,1,0,0:0:0:0:
448,192,17715,1,0,0:0:0:0:
192,192,17801,1,0,0:0:0:0:
64,192,17801,1,0,0:0:0:0:
64,192,17973,1,0,0:0:0:0:
320,192,17973,1,0,0:0:0:0:
448,192,17973,1,0,0:0:0:0:
448,192,18318,1,0,0:0:0:0:
192,192,18318,1,0,0:0:0:0:
64,192,18318,128,0,18663:0:0:0:0:
320,192,18340,1,0,0:0:0:0:
320,192,18663,1,0,0:0:0:0:
448,192,18663,1,0,0:0:0:0:
192,192,18835,1,0,0:0:0:0:
64,192,18835,1,0,0:0:0:0:
448,192,19180,1,0,0:0:0:0:
192,192,19180,1,0,0:0:0:0:
64,192,19353,1,0,0:0:0:0:
320,192,19353,1,0,0:0:0:0:
320,192,19611,1,0,0:0:0:0:
64,192,19697,1,0,0:0:0:0:
192,192,19697,1,0,0:0:0:0:
192,192,19956,1,0,0:0:0:0:
320,192,20042,1,0,0:0:0:0:
64,192,20042,1,0,0:0:0:0:
192,192,20215,1,0,0:0:0:0:
448,192,20215,1,0,0:0:0:0:
64,192,20560,1,0,0:0:0:0:
320,192,20560,1,0,0:0:0:0:
192,192,20581,1,0,0:0:0:0:
192,192,20732,1,0,0:0:0:0:
448,192,20732,1,0,0:0:0:0:
320,192,20753,1,0,0:0:0:0:
64,192,21077,1,0,0:0:0:0:
448,192,21077,128,0,21422:0:0:0:0:
320,192,21077,1,0,0:0:0:0:
192,192,21098,1,0,0:0:0:0:
320,192,21422,1,0,0:0:0:0:
192,192,21422,1,0,0:0:0:0:
192,192,21594,1,0,0:0:0:0:
64,192,21594,1,0,0:0:0:0:
192,192,21939,1,0,0:0:0:0:
448,192,21939,1,0,0:0:0:0:
64,192,22111,1,0,0:0:0:0:
320,192,22111,1,0,0:0:0:0:
64,192,22456,1,0,0:0:0:0:
320,192,22456,1,0,0:0:0:0:
64,192,22801,1,0,0:0:0:0:
448,192,22801,1,0,0:0:0:0:
320,192,22973,1,0,0:0:0:0:
192,192,22973,1,0,0:0:0:0:
64,192,23318,128,0,23404:0:0:0:0:
320,192,23318,128,0,23404:0:0:0:0:
448,192,23318,128,0,23404:0:0:0:0:
64,192,23491,128,0,23577:0:0:0:0:
192,192,23491,128,0,23577:0:0:0:0:
320,192,23491,128,0,23577:0:0:0:0:
448,192,23835,1,0,0:0:0:0:
64,192,23835,1,0,0:0:0:0:
320,192,23835,128,0,24180:0:0:0:0:
192,192,23857,1,0,0:0:0:0:
64,192,24180,1,0,0:0:0:0:
448,192,24180,1,0,0:0:0:0:
192,192,24353,1,0,0:0:0:0:
64,192,24353,1,0,0:0:0:0:
448,192,24353,1,0,0:0:0:0:
320,192,24697,1,0,0:0:0:0:
448,192,24697,1,0,0:0:0:0:
64,192,24697,1,0,0:0:0:0:
64,192,24870,128,0,24956:0:0:0:0:
192,192,25042,128,0,25128:0:0:0:0:
448,192,25128,1,0,0:0:0:0:
320,192,25215,128,0,25301:0:0:0:0:
192,192,25215,1,0,0:0:0:0:
64,192,25215,1,0,0:0:0:0:
448,192,25387,128,0,25473:0:0:0:0:
192,192,25473,1,0,0:0:0:0:
320,192,25560,128,0,25646:0:0:0:0:
64,192,25560,1,0,0:0:0:0:
448,192,25560,1,0,0:0:0:0:
192,192,25732,128,0,25818:0:0:0:0:
64,192,25904,128,0,26077:0:0:0:0:
448,192,25904,1,0,0:0:0:0:
192,192,25991,1,0,0:0:0:0:
448,192,26077,1,0,0:0:0:0:
320,192,26077,128,0,26163:0:0:0:0:
192,192,26249,1,0,0:0:0:0:
64,192,26249,1,0,0:0:0:0:
448,192,26249,128,0,26335:0:0:0:0:
64,192,26594,1,0,0:0:0:0:
320,192,26594,1,0,0:0:0:0:
192,192,26594,1,0,0:0:0:0:
448,192,26594,1,0,0:0:0:0:
320,192,28835,1,0,0:0:0:0:
64,192,28835,1,0,0:0:0:0:
192,192,28835,1,0,0:0:0:0:
192,192,29008,1,0,0:0:0:0:
320,192,29008,1,0,0:0:0:0:
448,192,29008,1,0,0:0:0:0:
64,192,29353,128,0,29697:0:0:0:0:
320,192,29353,128,0,29697:0:0:0:0:
192,192,29374,1,0,0:0:0:0:
448,192,29374,1,0,0:0:0:0:
448,192,29697,1,0,0:0:0:0:
64,192,29870,1,0,0:0:0:0:
192,192,29870,1,0,0:0:0:0:
448,192,30042,1,0,0:0:0:0:
192,192,30215,1,0,0:0:0:0:
64,192,30215,1,0,0:0:0:0:
448,192,30387,128,0,30473:0:0:0:0:
192,192,30387,1,0,0:0:0:0:
320,192,30560,128,0,30646:0:0:0:0:
64,192,30560,1,0,0:0:0:0:
192,192,30732,128,0,30818:0:0:0:0:
448,192,30732,1,0,0:0:0:0:
64,192,30904,128,0,30991:0:0:0:0:
320,192,30904,1,0,0:0:0:0:
448,192,31077,1,0,0:0:0:0:
192,192,31077,1,0,0:0:0:0:
64,192,31249,1,0,0:0:0:0:
320,192,31249,1,0,0:0:0:0:
448,192,31249,1,0,0:0:0:0:
192,192,31422,1,0,0:0:0:0:
448,192,31422,1,0,0:0:0:0:
320,192,31594,1,0,0:0:0:0:
448,192,31594,1,0,0:0:0:0:
64,192,31594,1,0,0:0:0:0:
320,192,31766,1,0,0:0:0:0:
64,192,31766,1,0,0:0:0:0:
192,192,31766,1,0,0:0:0:0:
448,192,31939,1,0,0:0:0:0:
192,192,32111,1,0,0:0:0:0:
448,192,32111,128,0,32456:0:0:0:0:
320,192,32133,1,0,0:0:0:0:
64,192,32133,1,0,0:0:0:0:
64,192,32456,1,0,0:0:0:0:
320,192,32456,1,0,0:0:0:0:
320,192,32628,1,0,0:0:0:0:
192,192,32628,1,0,0:0:0:0:
64,192,32801,1,0,0:0:0:0:
448,192,32801,1,0,0:0:0:0:
448,192,32973,1,0,0:0:0:0:
320,192,32973,1,0,0:0:0:0:
448,192,33146,1,0,0:0:0:0:
320,192,33232,1,0,0:0:0:0:
192,192,33318,1,0,0:0:0:0:
64,192,33318,128,0,33491:0:0:0:0:
448,192,33318,1,0,0:0:0:0:
192,192,33491,128,0,33663:0:0:0:0:
448,192,33491,1,0,0:0:0:0:
320,192,33663,128,0,33835:0:0:0:0:
64,192,33663,1,0,0:0:0:0:
448,192,33663,1,0,0:0:0:0:
192,192,33835,1,0,0:0:0:0:
448,192,33835,128,0,34008:0:0:0:0:
64,192,34008,1,0,0:0:0:0:
320,192,34008,1,0,0:0:0:0:
448,192,34180,1,0,0:0:0:0:
192,192,34180,1,0,0:0:0:0:
320,192,34353,1,0,0:0:0:0:
192,192,34525,1,0,0:0:0:0:
448,192,34525,1,0,0:0:0:0:
64,192,34697,1,0,0:0:0:0:
320,192,34697,1,0,0:0:0:0:
320,192,34870,1,0,0:0:0:0:
64,192,34870,128,0,35215:0:0:0:0:
192,192,34891,1,0,0:0:0:0:
448,192,34891,1,0,0:0:0:0:
192,192,35215,1,0,0:0:0:0:
448,192,35215,1,0,0:0:0:0:
448,192,35387,1,0,0:0:0:0:
64,192,35387,1,0,0:0:0:0:
320,192,35387,1,0,0:0:0:0:
192,192,35560,1,0,0:0:0:0:
448,192,35560,1,0,0:0:0:0:
64,192,35732,1,0,0:0:0:0:
320,192,35732,1,0,0:0:0:0:
448,192,35732,1,0,0:0:0:0:
192,192,35904,1,0,0:0:0:0:
320,192,36077,1,0,0:0:0:0:
448,192,36249,1,0,0:0:0:0:
320,192,36422,1,0,0:0:0:0:
64,192,36422,1,0,0:0:0:0:
192,192,36594,1,0,0:0:0:0:
448,192,36766,1,0,0:0:0:0:
320,192,36766,1,0,0:0:0:0:
64,192,36766,1,0,0:0:0:0:
192,192,36939,1,0,0:0:0:0:
448,192,36939,1,0,0:0:0:0:
64,192,37111,1,0,0:0:0:0:
320,192,37111,1,0,0:0:0:0:
448,192,37284,1,0,0:0:0:0:
192,192,37284,1,0,0:0:0:0:
320,192,37456,1,0,0:0:0:0:
64,192,37456,1,0,0:0:0:0:
448,192,37628,1,0,0:0:0:0:
64,192,37628,128,0,37973:0:0:0:0:
192,192,37650,1,0,0:0:0:0:
320,192,37672,1,0,0:0:0:0:
448,192,37801,1,0,0:0:0:0:
320,192,37973,1,0,0:0:0:0:
192,192,37973,1,0,0:0:0:0:
64,192,38146,1,0,0:0:0:0:
448,192,38146,1,0,0:0:0:0:
192,192,38318,1,0,0:0:0:0:
320,192,38491,1,0,0:0:0:0:
448,192,38491,1,0,0:0:0:0:
64,192,38663,1,0,0:0:0:0:
192,192,38835,1,0,0:0:0:0:
448,192,38835,1,0,0:0:0:0:
320,192,39008,1,0,0:0:0:0:
64,192,39094,1,0,0:0:0:0:
192,192,39137,1,0,0:0:0:0:
320,192,39180,1,0,0:0:0:0:
448,192,39223,1,0,0:0:0:0:
320,192,39353,1,0,0:0:0:0:
64,192,39525,1,0,0:0:0:0:
192,192,39525,1,0,0:0:0:0:
448,192,39525,1,0,0:0:0:0:
448,192,39870,1,0,0:0:0:0:
320,192,39913,1,0,0:0:0:0:
192,192,39956,1,0,0:0:0:0:
64,192,39985,1,0,0:0:0:0:
320,192,40100,1,0,0:0:0:0:
448,192,40215,1,0,0:0:0:0:
64,192,40215,1,0,0:0:0:0:
192,192,40330,1,0,0:0:0:0:
320,192,40445,1,0,0:0:0:0:
192,192,40560,1,0,0:0:0:0:
64,192,40560,1,0,0:0:0:0:
448,192,40560,128,0,41077:0:0:0:0:
64,192,40904,1,0,0:0:0:0:
192,192,41077,1,0,0:0:0:0:
320,192,41249,1,0,0:0:0:0:
448,192,41249,1,0,0:0:0:0:
448,192,41594,1,0,0:0:0:0:
64,192,41594,128,0,41766:0:0:0:0:
320,192,41766,1,0,0:0:0:0:
64,192,41939,1,0,0:0:0:0:
448,192,41939,128,0,42284:0:0:0:0:
192,192,42111,1,0,0:0:0:0:
320,192,42284,1,0,0:0:0:0:
448,192,42456,1,0,0:0:0:0:
320,192,42628,1,0,0:0:0:0:
192,192,42628,1,0,0:0:0:0:
64,192,42628,128,0,42973:0:0:0:0:
320,192,42973,1,0,0:0:0:0:
448,192,42973,1,0,0:0:0:0:
192,192,43146,1,0,0:0:0:0:
448,192,43318,1,0,0:0:0:0:
64,192,43318,1,0,0:0:0:0:
320,192,43318,128,0,43663:0:0:0:0:
448,192,43663,1,0,0:0:0:0:
64,192,43663,1,0,0:0:0:0:
320,192,43835,1,0,0:0:0:0:
64,192,44008,1,0,0:0:0:0:
192,192,44008,1,0,0:0:0:0:
448,192,44008,1,0,0:0:0:0:
320,192,44180,1,0,0:0:0:0:
64,192,44353,1,0,0:0:0:0:
448,192,44353,1,0,0:0:0:0:
192,192,44353,1,0,0:0:0:0:
320,192,44525,1,0,0:0:0:0:
64,192,44525,1,0,0:0:0:0:
64,192,44697,1,0,0:0:0:0:
320,192,44697,128,0,45042:0:0:0:0:
448,192,45042,128,0,45215:0:0:0:0:
64,192,45042,128,0,45215:0:0:0:0:
192,192,45215,128,0,45387:0:0:0:0:
64,192,45387,1,0,0:0:0:0:
320,192,45387,128,0,45560:0:0:0:0:
448,192,45409,1,0,0:0:0:0:
192,192,45560,1,0,0:0:0:0:
448,192,45560,128,0,45732:0:0:0:0:
64,192,45581,1,0,0:0:0:0:
320,192,45732,1,0,0:0:0:0:
64,192,45732,1,0,0:0:0:0:
192,192,45904,1,0,0:0:0:0:
448,192,46077,128,0,47456:0:0:0:0:
64,192,46077,1,0,0:0:0:0:
320,192,46077,1,0,0:0:0:0:
64,192,46422,1,0,0:0:0:0:
192,192,46594,1,0,0:0:0:0:
320,192,46766,1,0,0:0:0:0:
64,192,46766,1,0,0:0:0:0:
320,192,47111,1,0,0:0:0:0:
192,192,47284,1,0,0:0:0:0:
320,192,47456,1,0,0:0:0:0:
64,192,47456,1,0,0:0:0:0:
192,192,47456,128,0,47628:0:0:0:0:
64,192,47801,1,0,0:0:0:0:
448,192,47801,1,0,0:0:0:0:
192,192,47973,1,0,0:0:0:0:
448,192,48146,1,0,0:0:0:0:
320,192,48146,1,0,0:0:0:0:
64,192,48146,128,0,48318:0:0:0:0:
448,192,48491,128,0,48663:0:0:0:0:
64,192,48491,128,0,48663:0:0:0:0:
192,192,48663,1,0,0:0:0:0:
320,192,48663,1,0,0:0:0:0:
64,192,48835,1,0,0:0:0:0:
320,192,48835,1,0,0:0:0:0:
192,192,48835,128,0,49180:0:0:0:0:
448,192,49180,1,0,0:0:0:0:
64,192,49180,1,0,0:0:0:0:
192,192,49353,1,0,0:0:0:0:
448,192,49525,1,0,0:0:0:0:
64,192,49525,1,0,0:0:0:0:
320,192,49525,128,0,49870:0:0:0:0:
192,192,49697,1,0,0:0:0:0:
448,192,49870,128,0,50042:0:0:0:0:
64,192,49870,1,0,0:0:0:0:
320,192,50042,128,0,50215:0:0:0:0:
192,192,50042,1,0,0:0:0:0:
448,192,50215,1,0,0:0:0:0:
64,192,50215,128,0,50387:0:0:0:0:
320,192,50387,1,0,0:0:0:0:
192,192,50387,128,0,50560:0:0:0:0:
448,192,50560,128,0,50904:0:0:0:0:
192,192,50732,1,0,0:0:0:0:
64,192,50904,1,0,0:0:0:0:
192,192,50904,128,0,50991:0:0:0:0:
320,192,50904,1,0,0:0:0:0:
192,192,51077,1,0,0:0:0:0:
320,192,51077,128,0,51163:0:0:0:0:
448,192,51077,1,0,0:0:0:0:
320,192,51249,1,0,0:0:0:0:
448,192,51249,1,0,0:0:0:0:
64,192,51249,128,0,51422:0:0:0:0:
192,192,51249,128,0,51422:0:0:0:0:
64,192,51594,1,0,0:0:0:0:
448,192,51594,128,0,52801:0:0:0:0:
192,192,51594,128,0,51766:0:0:0:0:
320,192,51594,128,0,51766:0:0:0:0:
320,192,51939,1,0,0:0:0:0:
64,192,51939,1,0,0:0:0:0:
192,192,52111,1,0,0:0:0:0:
64,192,52284,1,0,0:0:0:0:
64,192,52456,1,0,0:0:0:0:
192,192,52628,1,0,0:0:0:0:
320,192,52628,1,0,0:0:0:0:
64,192,52801,128,0,53318:0:0:0:0:
192,192,52801,128,0,52973:0:0:0:0:
320,192,52801,128,0,52973:0:0:0:0:
448,192,52973,1,0,0:0:0:0:
320,192,53146,1,0,0:0:0:0:
448,192,53318,1,0,0:0:0:0:
192,192,53318,128,0,53663:0:0:0:0:
320,192,53318,1,0,0:0:0:0:
320,192,53491,1,0,0:0:0:0:
64,192,53491,1,0,0:0:0:0:
448,192,53663,1,0,0:0:0:0:
64,192,53663,128,0,54008:0:0:0:0:
192,192,53835,1,0,0:0:0:0:
320,192,54008,128,0,54094:0:0:0:0:
448,192,54008,1,0,0:0:0:0:
192,192,54094,128,0,54180:0:0:0:0:
448,192,54180,128,0,54266:0:0:0:0:
64,192,54180,128,0,54266:0:0:0:0:
320,192,54266,128,0,54353:0:0:0:0:
192,192,54353,1,0,0:0:0:0:
64,192,54353,1,0,0:0:0:0:
448,192,54439,1,0,0:0:0:0:
320,192,54525,1,0,0:0:0:0:
192,192,54611,1,0,0:0:0:0:
448,192,54697,1,0,0:0:0:0:
64,192,54697,1,0,0:0:0:0:
320,192,54784,1,0,0:0:0:0:
192,192,54870,1,0,0:0:0:0:
64,192,54956,1,0,0:0:0:0:
448,192,55042,1,0,0:0:0:0:
192,192,55042,1,0,0:0:0:0:
320,192,55128,1,0,0:0:0:0:
448,192,55215,1,0,0:0:0:0:
64,192,55215,1,0,0:0:0:0:
192,192,55301,1,0,0:0:0:0:
448,192,55387,1,0,0:0:0:0:
320,192,55387,1,0,0:0:0:0:
64,192,55473,1,0,0:0:0:0:
448,192,55560,1,0,0:0:0:0:
192,192,55560,1,0,0:0:0:0:
320,192,55646,1,0,0:0:0:0:
448,192,55732,1,0,0:0:0:0:
192,192,55732,1,0,0:0:0:0:
64,192,55732,1,0,0:0:0:0:
320,192,55818,1,0,0:0:0:0:
64,192,55904,1,0,0:0:0:0:
192,192,55991,1,0,0:0:0:0:
320,192,56077,1,0,0:0:0:0:
448,192,56077,1,0,0:0:0:0:
64,192,56163,1,0,0:0:0:0:
192,192,56249,1,0,0:0:0:0:
320,192,56335,1,0,0:0:0:0:
448,192,56422,1,0,0:0:0:0:
192,192,56422,1,0,0:0:0:0:
64,192,56422,1,0,0:0:0:0:
320,192,56508,1,0,0:0:0:0:
448,192,56594,1,0,0:0:0:0:
64,192,56594,1,0,0:0:0:0:
192,192,56680,1,0,0:0:0:0:
320,192,56766,1,0,0:0:0:0:
448,192,56766,1,0,0:0:0:0:
192,192,56853,1,0,0:0:0:0:
448,192,56939,1,0,0:0:0:0:
64,192,56939,1,0,0:0:0:0:
320,192,57025,1,0,0:0:0:0:
64,192,57111,128,0,57284:0:0:0:0:
192,192,57111,1,0,0:0:0:0:
448,192,57111,1,0,0:0:0:0:
192,192,57284,128,0,57456:0:0:0:0:
320,192,57284,1,0,0:0:0:0:
320,192,57456,128,0,57628:0:0:0:0:
448,192,57456,1,0,0:0:0:0:
64,192,57456,128,0,57542:0:0:0:0:
448,192,57628,128,0,57801:0:0:0:0:
192,192,57628,128,0,57715:0:0:0:0:
320,192,57801,128,0,57887:0:0:0:0:
64,192,57801,1,0,0:0:0:0:
192,192,57887,128,0,57973:0:0:0:0:
448,192,57887,1,0,0:0:0:0:
64,192,57973,128,0,58060:0:0:0:0:
320,192,57973,1,0,0:0:0:0:
192,192,58060,1,0,0:0:0:0:
448,192,58060,128,0,58146:0:0:0:0:
64,192,58146,1,0,0:0:0:0:
320,192,58146,128,0,58232:0:0:0:0:
192,192,58232,128,0,58318:0:0:0:0:
320,192,58318,1,0,0:0:0:0:
448,192,58318,128,0,58663:0:0:0:0:
64,192,58318,128,0,58577:0:0:0:0:
320,192,58491,1,0,0:0:0:0:
192,192,58577,1,0,0:0:0:0:
320,192,58663,1,0,0:0:0:0:
64,192,58749,1,0,0:0:0:0:
192,192,58749,1,0,0:0:0:0:
64,192,58922,1,0,0:0:0:0:
192,192,59008,1,0,0:0:0:0:
320,192,59094,1,0,0:0:0:0:
448,192,59180,1,0,0:0:0:0:
192,192,59266,1,0,0:0:0:0:
320,192,59266,1,0,0:0:0:0:
64,192,59353,128,0,59784:0:0:0:0:
192,192,59439,128,0,59784:0:0:0:0:
448,192,59525,1,0,0:0:0:0:
320,192,59525,1,0,0:0:0:0:
64,192,59870,128,0,61249:0:0:0:0:
192,192,59870,128,0,59956:0:0:0:0:
320,192,59870,128,0,60042:0:0:0:0:
448,192,59870,128,0,60128:0:0:0:0:
192,192,60042,1,0,0:0:0:0:
320,192,60128,1,0,0:0:0:0:
448,192,60215,1,0,0:0:0:0:
192,192,60215,128,0,60387:0:0:0:0:
320,192,60301,128,0,60473:0:0:0:0:
448,192,60387,128,0,60560:0:0:0:0:
192,192,60473,1,0,0:0:0:0:
320,192,60560,1,0,0:0:0:0:
448,192,60646,1,0,0:0:0:0:
192,192,60732,128,0,60818:0:0:0:0:
320,192,60732,1,0,0:0:0:0:
448,192,60818,128,0,60904:0:0:0:0:
320,192,60904,128,0,60991:0:0:0:0:
192,192,60991,128,0,61077:0:0:0:0:
448,192,60991,1,0,0:0:0:0:
320,192,61077,1,0,0:0:0:0:
192,192,61163,1,0,0:0:0:0:
192,192,61249,128,0,62284:0:0:0:0:
448,192,61249,128,0,61422:0:0:0:0:
320,192,61249,128,0,61335:0:0:0:0:
64,192,61335,1,0,0:0:0:0:
320,192,61422,1,0,0:0:0:0:
448,192,61508,1,0,0:0:0:0:
320,192,61594,128,0,61680:0:0:0:0:
64,192,61594,128,0,61766:0:0:0:0:
448,192,61680,1,0,0:0:0:0:
320,192,61766,1,0,0:0:0:0:
64,192,61853,1,0,0:0:0:0:
320,192,61939,128,0,62025:0:0:0:0:
448,192,61939,128,0,62111:0:0:0:0:
64,192,62025,1,0,0:0:0:0:
320,192,62111,1,0,0:0:0:0:
448,192,62197,1,0,0:0:0:0:
320,192,62284,1,0,0:0:0:0:
64,192,62284,128,0,62456:0:0:0:0:
192,192,62370,128,0,62542:0:0:0:0:
448,192,62370,1,0,0:0:0:0:
320,192,62456,128,0,62628:0:0:0:0:
448,192,62542,1,0,0:0:0:0:
448,192,62628,128,0,63922:0:0:0:0:
192,192,62628,128,0,62715:0:0:0:0:
64,192,62628,1,0,0:0:0:0:
64,192,62715,128,0,62801:0:0:0:0:
320,192,62801,128,0,62887:0:0:0:0:
192,192,62887,128,0,62973:0:0:0:0:
64,192,62973,128,0,63146:0:0:0:0:
320,192,62973,1,0,0:0:0:0:
192,192,63060,128,0,63146:0:0:0:0:
320,192,63146,128,0,63232:0:0:0:0:
64,192,63232,128,0,63318:0:0:0:0:
192,192,63318,128,0,63577:0:0:0:0:
320,192,63318,128,0,63404:0:0:0:0:
64,192,63404,128,0,63491:0:0:0:0:
320,192,63491,128,0,63577:0:0:0:0:
320,192,63663,1,0,0:0:0:0:
192,192,63663,1,0,0:0:0:0:
64,192,63663,128,0,63835:0:0:0:0:
192,192,63749,128,0,63922:0:0:0:0:
320,192,63835,128,0,64008:0:0:0:0:
448,192,64008,128,0,64439:0:0:0:0:
64,192,64008,128,0,64439:0:0:0:0:
192,192,64008,1,0,0:0:0:0:
192,192,64180,128,0,64439:0:0:0:0:
320,192,64353,128,0,64439:0:0:0:0:
64,192,64525,128,0,64784:0:0:0:0:
192,192,64525,128,0,64697:0:0:0:0:
320,192,64525,128,0,64611:0:0:0:0:
448,192,64525,128,0,65215:0:0:0:0:
320,192,64697,128,0,64784:0:0:0:0:
192,192,64784,128,0,64870:0:0:0:0:
64,192,64870,128,0,64956:0:0:0:0:
320,192,64870,128,0,64956:0:0:0:0:
64,192,65042,128,0,65215:0:0:0:0:
320,192,65042,1,0,0:0:0:0:
192,192,65042,1,0,0:0:0:0:
192,192,65128,128,0,65301:0:0:0:0:
320,192,65215,128,0,65387:0:0:0:0:
448,192,65301,128,0,65473:0:0:0:0:
64,192,65387,128,0,65646:0:0:0:0:
192,192,65387,1,0,0:0:0:0:
192,192,65473,128,0,65646:0:0:0:0:
320,192,65560,128,0,65818:0:0:0:0:
448,192,65646,128,0,66077:0:0:0:0:
192,192,65732,128,0,65991:0:0:0:0:
64,192,65732,128,0,66335:0:0:0:0:
320,192,65904,128,0,66163:0:0:0:0:
192,192,66077,128,0,66249:0:0:0:0:
448,192,66163,128,0,66335:0:0:0:0:
320,192,66249,128,0,66508:0:0:0:0:
192,192,66335,128,0,66508:0:0:0:0:
64,192,66422,128,0,66508:0:0:0:0:
448,192,66422,128,0,66853:0:0:0:0:
64,192,66594,128,0,66853:0:0:0:0:
192,192,66594,128,0,67370:0:0:0:0:
320,192,66594,128,0,66766:0:0:0:0:
320,192,66853,128,0,66939:0:0:0:0:
64,192,66939,128,0,67197:0:0:0:0:
448,192,66939,128,0,67025:0:0:0:0:
320,192,67025,128,0,67111:0:0:0:0:
448,192,67111,128,0,67284:0:0:0:0:
320,192,67197,128,0,67370:0:0:0:0:
64,192,67284,128,0,67456:0:0:0:0:
448,192,67370,128,0,67801:0:0:0:0:
320,192,67456,128,0,67715:0:0:0:0:
192,192,67456,128,0,67628:0:0:0:0:
64,192,67542,128,0,67801:0:0:0:0:
192,192,67715,128,0,68060:0:0:0:0:
320,192,67801,128,0,68060:0:0:0:0:
64,192,67887,128,0,68060:0:0:0:0:
448,192,67887,128,0,68404:0:0:0:0:
320,192,68146,128,0,68835:0:0:0:0:
64,192,68146,128,0,68318:0:0:0:0:
192,192,68146,128,0,68232:0:0:0:0:
192,192,68318,128,0,68404:0:0:0:0:
64,192,68404,128,0,68491:0:0:0:0:
448,192,68491,128,0,68749:0:0:0:0:
192,192,68491,128,0,68577:0:0:0:0:
64,192,68577,128,0,69008:0:0:0:0:
192,192,68663,128,0,68922:0:0:0:0:
448,192,68835,128,0,69094:0:0:0:0:
320,192,68922,128,0,69094:0:0:0:0:
192,192,69008,128,0,69266:0:0:0:0:
64,192,69094,128,0,69266:0:0:0:0:
448,192,69180,128,0,69266:0:0:0:0:
320,192,69180,128,0,69266:0:0:0:0:
64,192,69353,128,0,69525:0:0:0:0:
448,192,69353,128,0,69525:0:0:0:0:
320,192,69353,128,0,69525:0:0:0:0:
192,192,69697,128,0,69870:0:0:0:0:
448,192,69697,128,0,69870:0:0:0:0:
64,192,69697,128,0,69870:0:0:0:0:
192,192,70042,128,0,70215:0:0:0:0:
320,192,70042,128,0,70215:0:0:0:0:
64,192,70042,128,0,70215:0:0:0:0:
192,192,70387,128,0,70560:0:0:0:0:
320,192,70387,128,0,70560:0:0:0:0:
448,192,70387,128,0,70560:0:0:0:0:
64,192,70560,1,0,0:0:0:0:
192,192,70646,1,0,0:0:0:0:
320,192,70732,1,0,0:0:0:0:
448,192,70818,1,0,0:0:0:0:
64,192,70904,128,0,71077:0:0:0:0:
320,192,70904,1,0,0:0:0:0:
192,192,70991,1,0,0:0:0:0:
448,192,71077,1,0,0:0:0:0:
64,192,71163,1,0,0:0:0:0:
320,192,71163,1,0,0:0:0:0:
192,192,71249,1,0,0:0:0:0:
448,192,71249,128,0,71422:0:0:0:0:
64,192,71335,1,0,0:0:0:0:
192,192,71422,1,0,0:0:0:0:
320,192,71508,1,0,0:0:0:0:
192,192,71594,1,0,0:0:0:0:
448,192,71594,1,0,0:0:0:0:
64,192,71594,128,0,71766:0:0:0:0:
320,192,71680,1,0,0:0:0:0:
448,192,71766,1,0,0:0:0:0:
192,192,71766,1,0,0:0:0:0:
64,192,71853,1,0,0:0:0:0:
192,192,71939,1,0,0:0:0:0:
448,192,71939,128,0,72111:0:0:0:0:
320,192,71939,1,0,0:0:0:0:
64,192,72025,1,0,0:0:0:0:
192,192,72111,1,0,0:0:0:0:
320,192,72197,1,0,0:0:0:0:
192,192,72284,1,0,0:0:0:0:
448,192,72284,1,0,0:0:0:0:
64,192,72284,128,0,72456:0:0:0:0:
320,192,72370,1,0,0:0:0:0:
192,192,72456,1,0,0:0:0:0:
448,192,72456,1,0,0:0:0:0:
64,192,72542,1,0,0:0:0:0:
192,192,72628,1,0,0:0:0:0:
448,192,72628,1,0,0:0:0:0:
320,192,72628,128,0,72801:0:0:0:0:
64,192,72715,1,0,0:0:0:0:
192,192,72801,1,0,0:0:0:0:
448,192,72801,1,0,0:0:0:0:
320,192,72887,1,0,0:0:0:0:
192,192,72973,1,0,0:0:0:0:
448,192,72973,1,0,0:0:0:0:
64,192,72973,128,0,73146:0:0:0:0:
320,192,73060,1,0,0:0:0:0:
192,192,73146,1,0,0:0:0:0:
448,192,73146,1,0,0:0:0:0:
320,192,73232,1,0,0:0:0:0:
192,192,73318,1,0,0:0:0:0:
448,192,73318,128,0,73491:0:0:0:0:
64,192,73318,128,0,73491:0:0:0:0:
320,192,73404,1,0,0:0:0:0:
192,192,73491,1,0,0:0:0:0:
64,192,73663,128,0,73922:0:0:0:0:
192,192,73663,128,0,73922:0:0:0:0:
320,192,73663,128,0,73922:0:0:0:0:
448,192,73663,128,0,73922:0:0:0:0:
64,192,74008,128,0,74266:0:0:0:0:
448,192,74008,128,0,74180:0:0:0:0:
320,192,74094,128,0,74266:0:0:0:0:
192,192,74180,128,0,74353:0:0:0:0:
448,192,74266,128,0,74611:0:0:0:0:
64,192,74353,128,0,74611:0:0:0:0:
320,192,74353,128,0,74611:0:0:0:0:
192,192,74439,128,0,74611:0:0:0:0:
64,192,74697,128,0,74956:0:0:0:0:
192,192,74697,1,0,0:0:0:0:
448,192,74697,1,0,0:0:0:0:
320,192,74697,128,0,74956:0:0:0:0:
448,192,74870,1,0,0:0:0:0:
192,192,74870,1,0,0:0:0:0:
64,192,75042,1,0,0:0:0:0:
320,192,75042,128,0,75301:0:0:0:0:
192,192,75042,128,0,75128:0:0:0:0:
448,192,75042,128,0,75128:0:0:0:0:
64,192,75128,128,0,75301:0:0:0:0:
192,192,75215,128,0,75301:0:0:0:0:
448,192,75215,128,0,75301:0:0:0:0:
192,192,75387,128,0,75646:0:0:0:0:
64,192,75387,128,0,75473:0:0:0:0:
448,192,75387,1,0,0:0:0:0:
320,192,75387,128,0,75473:0:0:0:0:
448,192,75473,128,0,75646:0:0:0:0:
64,192,75560,128,0,75646:0:0:0:0:
320,192,75560,128,0,75646:0:0:0:0:
448,192,75732,128,0,75991:0:0:0:0:
64,192,75732,128,0,75818:0:0:0:0:
192,192,75732,1,0,0:0:0:0:
320,192,75732,128,0,75818:0:0:0:0:
192,192,75818,128,0,75991:0:0:0:0:
64,192,75904,128,0,75991:0:0:0:0:
320,192,75904,128,0,75991:0:0:0:0:
320,192,76077,1,0,0:0:0:0:
448,192,76077,1,0,0:0:0:0:
64,192,76077,1,0,0:0:0:0:
192,192,76422,1,0,0:0:0:0:
320,192,76422,1,0,0:0:0:0:
448,192,76422,1,0,0:0:0:0:
64,192,76766,1,0,0:0:0:0:
192,192,76766,1,0,0:0:0:0:
192,192,77111,1,0,0:0:0:0:
320,192,77111,1,0,0:0:0:0:
320,192,77456,1,0,0:0:0:0:
448,192,77456,1,0,0:0:0:0:
192,192,77801,1,0,0:0:0:0:
64,192,77801,1,0,0:0:0:0:
192,192,78146,1,0,0:0:0:0:
320,192,78146,1,0,0:0:0:0:
320,192,78491,1,0,0:0:0:0:
448,192,78491,1,0,0:0:0:0:
192,192,78835,1,0,0:0:0:0:
320,192,78835,1,0,0:0:0:0:
64,192,79180,128,0,79525:0:0:0:0:
192,192,79180,1,0,0:0:0:0:
320,192,79223,1,0,0:0:0:0:
448,192,79266,1,0,0:0:0:0:
320,192,79353,1,0,0:0:0:0:
192,192,79439,1,0,0:0:0:0:
320,192,79525,1,0,0:0:0:0:
448,192,79525,1,0,0:0:0:0:
448,192,79697,128,0,80042:0:0:0:0:
320,192,79697,1,0,0:0:0:0:
192,192,79697,1,0,0:0:0:0:
64,192,79697,1,0,0:0:0:0:
320,192,79870,1,0,0:0:0:0:
192,192,79913,1,0,0:0:0:0:
64,192,79956,1,0,0:0:0:0:
320,192,80042,1,0,0:0:0:0:
192,192,80085,1,0,0:0:0:0:
64,192,80128,1,0,0:0:0:0:
448,192,80215,1,0,0:0:0:0:
192,192,80215,1,0,0:0:0:0:
320,192,80215,1,0,0:0:0:0:
192,192,80387,1,0,0:0:0:0:
320,192,80387,1,0,0:0:0:0:
448,192,80387,128,0,80904:0:0:0:0:
64,192,80387,128,0,80904:0:0:0:0:
192,192,80732,1,0,0:0:0:0:
320,192,80818,1,0,0:0:0:0:
192,192,80904,1,0,0:0:0:0:
320,192,80991,1,0,0:0:0:0:
448,192,80991,1,0,0:0:0:0:
64,192,81077,1,0,0:0:0:0:
192,192,81163,1,0,0:0:0:0:
320,192,81249,1,0,0:0:0:0:
448,192,81335,1,0,0:0:0:0:
64,192,81422,1,0,0:0:0:0:
192,192,81422,1,0,0:0:0:0:
320,192,81508,1,0,0:0:0:0:
448,192,81508,1,0,0:0:0:0:
192,192,81594,1,0,0:0:0:0:
64,192,81594,1,0,0:0:0:0:
320,192,81680,1,0,0:0:0:0:
448,192,81680,1,0,0:0:0:0:
64,192,81766,1,0,0:0:0:0:
192,192,81766,1,0,0:0:0:0:
320,192,81853,1,0,0:0:0:0:
448,192,81853,1,0,0:0:0:0:
64,192,81939,128,0,82370:0:0:0:0:
192,192,81939,128,0,82197:0:0:0:0:
448,192,81939,128,0,82197:0:0:0:0:
320,192,82111,128,0,83060:0:0:0:0:
192,192,82284,128,0,82715:0:0:0:0:
448,192,82284,128,0,82715:0:0:0:0:
64,192,82456,128,0,83404:0:0:0:0:
192,192,82801,128,0,83404:0:0:0:0:
448,192,82801,128,0,83404:0:0:0:0:
320,192,83146,128,0,84094:0:0:0:0:
64,192,83491,128,0,83749:0:0:0:0:
448,192,83491,128,0,84094:0:0:0:0:
192,192,83491,128,0,84611:0:0:0:0:
64,192,83835,128,0,84611:0:0:0:0:
320,192,84180,128,0,84611:0:0:0:0:
448,192,84180,128,0,84611:0:0:0:0:
64,192,84697,1,0,0:0:0:0:
192,192,84697,1,0,0:0:0:0:
448,192,84697,1,0,0:0:0:0:
320,192,84697,1,0,0:0:0:0:
192,192,85042,1,0,0:0:0:0:
320,192,85042,1,0,0:0:0:0:
64,192,85387,1,0,0:0:0:0:
192,192,85387,1,0,0:0:0:0:
320,192,85473,1,0,0:0:0:0:
448,192,85473,1,0,0:0:0:0:
64,192,85560,1,0,0:0:0:0:
192,192,85560,1,0,0:0:0:0:
320,192,85646,1,0,0:0:0:0:
448,192,85646,1,0,0:0:0:0:
64,192,85732,1,0,0:0:0:0:
192,192,85732,1,0,0:0:0:0:
448,192,85818,1,0,0:0:0:0:
320,192,85818,1,0,0:0:0:0:
64,192,85904,128,0,88835:0:0:0:0:
192,192,85904,128,0,88835:0:0:0:0:
320,192,85904,128,0,88835:0:0:0:0:
448,192,85904,128,0,88835:0:0:0:0:
