osu file format v14

[General]
AudioFilename: HaruModoki.mp3
AudioLeadIn: 1000
PreviewTime: 134534
Countdown: 0
SampleSet: Soft
StackLeniency: 0.5
Mode: 0
LetterboxInBreaks: 0
WidescreenStoryboard: 0

[Editor]
Bookmarks: 921,18679,29714,40921,60231,84886,93162,115403,134714,156783,167817,173334,184369,200921,206438,247817,257300,262989
DistanceSpacing: 0.95
BeatDivisor: 2
GridSize: 8
TimelineZoom: 1.5

[Metadata]
Title:Haru Modoki
TitleUnicode:春擬き
Artist:yanaginagi
ArtistUnicode:やなぎなぎ
Creator:Meg
Version:Meyrink's Normal
Source:やはり俺の青春ラブコメはまちがっている。続
Tags:iMage-- IamKwaN Meyrink yahari ore no seishun love come wa machigatteiru. zoku opening oregairu my teen romantic comedy snafu
BeatmapID:719632
BeatmapSetID:321203

[Difficulty]
HPDrainRate:3.5
CircleSize:3.5
OverallDifficulty:3.5
ApproachRate:4.5
SliderMultiplier:1.1
SliderTickRate:1

[Events]
//Background and Video events
0,0,"BG.jpg",0,0
//Break Periods
2,85086,91385
2,184568,199661
2,232672,234143
//Storyboard Layer 0 (Background)
//Storyboard Layer 1 (Fail)
//Storyboard Layer 2 (Pass)
//Storyboard Layer 3 (Foreground)
//Storyboard Sound Samples

[TimingPoints]
921,344.827586206897,4,2,2,50,1,0
7127,-100,4,2,1,60,0,0
16438,-100,4,2,1,50,0,0
18162,-100,4,2,1,60,0,0
51955,-100,4,2,1,65,0,0
60231,-100,4,2,1,70,0,1
82300,-100,4,2,1,70,0,0
84886,-100,4,2,1,65,0,0
93162,-100,4,2,1,60,0,0
126438,-100,4,2,1,65,0,0
134714,-100,4,2,1,70,0,1
156783,-100,4,2,1,60,0,0
173334,-100,4,2,1,70,0,0
200921,-100,4,2,1,50,0,0
206438,-100,4,2,1,80,0,1
232472,-100,4,2,1,60,0,0
236783,-100,4,2,1,70,0,0
247817,-100,4,2,1,80,0,0
258162,-100,4,2,1,70,0,0
258852,-100,4,2,1,60,0,0
259541,-100,4,2,1,50,0,0
260231,-100,4,2,1,40,0,0
260921,-100,4,2,1,30,0,0
261610,-100,4,2,1,20,0,0
262300,-100,4,2,1,10,0,0
262989,-100,4,2,1,5,0,0

[Colours]
Combo1 : 128,255,128
Combo2 : 128,255,255
Combo3 : 255,128,128
Combo4 : 255,255,128

[HitObjects]
8,185,921,6,0,B|37:206|37:206|67:214|112:185,1,110,2|0,0:0|0:0,0:0:0:0:
153,94,1610,2,0,B|182:73|182:73|212:65|257:94,1,110
312,176,2300,1,2,0:0:0:0:
248,258,2645,2,0,P|215:212|211:160,1,110
277,79,3334,1,0,0:0:0:0:
312,176,3679,5,2,0:0:0:0:
395,112,4024,2,0,P|451:103|505:97,2,110
312,176,5058,2,0,B|271:242|315:313|315:313|216:356|136:276,1,330,2|0,0:0|0:0,0:0:0:0:
50,331,6438,6,0,B|25:280|50:234|50:234|49:201|27:176,1,165,2|2,0:0|0:0,0:0:0:0:
2,130,7127,2,0,P|70:132|104:111,1,110,8|8,0:0|0:0,0:0:0:0:
142,74,7645,6,0,L|260:80,1,110,12|0,0:0|0:0,0:0:0:0:
304,83,8162,1,8,0:0:0:0:
326,186,8507,2,0,P|295:192|265:185,2,55,8|2|8,0:0|0:0|0:0,0:0:0:0:
420,141,9196,2,0,P|432:199|410:249,2,110,8|8|8,0:0|0:0|0:0,0:0:0:0:
326,186,10231,1,8,0:0:0:0:
326,186,10403,6,0,L|322:305,1,110,12|0,0:0|0:0,0:0:0:0:
322,348,10921,1,8,0:0:0:0:
224,310,11265,2,0,P|194:306|170:313,1,55,8|2,0:0|0:0,0:0:0:0:
124,337,11610,1,8,0:0:0:0:
45,268,11955,2,0,P|33:238|37:208,1,55,8|0,0:0|0:0,0:0:0:0:
34,163,12300,2,0,L|156:160,1,110,8|8,0:0|0:0,0:0:0:0:
193,142,12817,2,0,P|204:112|201:82,1,55,2|8,0:0|0:0,0:0:0:0:
240,53,13162,6,0,P|317:51|364:120,1,165,12|8,0:0|0:0,0:0:0:0:
345,220,14024,2,0,P|339:257|342:284,1,55,8|2,0:0|0:0,0:0:0:0:
368,318,14369,2,0,P|418:328|465:293,2,110,8|8|8,0:0|0:0|0:0,0:0:0:0:
275,367,15403,2,0,P|218:363|164:359,1,110,10|0,0:0|3:0,0:0:0:0:
129,320,15921,6,0,B|102:260|126:202|126:202|171:223,1,165,4|2,0:0|3:0,0:0:0:0:
259,265,16783,2,0,P|310:279|365:261,1,110,2|2,3:0|3:0,0:0:0:0:
363,157,17472,2,0,P|312:143|257:161,1,110,4|4,3:0|3:0,0:0:0:0:
157,133,18162,2,0,P|159:104|152:69,1,55,8|8,0:0|0:0,0:0:0:0:
57,114,18679,6,0,L|65:232,1,110,6|0,0:0|0:0,0:0:0:0:
30,263,19196,2,0,P|83:247|137:263,1,110,8|2,0:0|0:0,0:0:0:0:
181,284,19714,1,2,0:0:0:0:
265,222,20058,2,0,L|389:212,1,110,8|0,0:0|3:0,0:0:0:0:
427,207,20576,1,8,0:0:0:0:
471,303,20921,2,0,P|444:311|409:309,1,55,0|0,1:0|1:0,0:0:0:0:
427,207,21438,6,0,P|451:154|441:92,1,110,8|0,0:0|3:0,0:0:0:0:
428,54,21955,1,8,0:0:0:0:
325,73,22300,1,2,0:0:0:0:
325,73,22472,2,0,P|295:78|268:72,1,55,2|0,0:0|3:0,0:0:0:0:
228,43,22817,2,0,B|190:43|190:43|165:32|165:32|120:32,1,110,8|2,0:0|0:0,0:0:0:0:
68,33,23334,1,8,0:0:0:0:
23,127,23679,2,0,L|88:131,1,55,0|0,1:0|1:0,0:0:0:0:
177,161,24196,6,0,P|194:215|172:264,1,110,8|0,0:0|3:0,0:0:0:0:
149,308,24713,2,0,L|272:299,1,110,8|2,0:0|0:0,0:0:0:0:
311,295,25231,1,2,0:0:0:0:
349,198,25576,2,0,P|400:180|458:203,1,110,8|0,0:0|3:0,0:0:0:0:
491,230,26093,1,8,0:0:0:0:
463,330,26438,2,0,L|405:335,1,55,0|0,1:0|1:0,0:0:0:0:
312,296,26955,5,12,0:0:0:0:
312,296,29024,2,0,P|337:290|367:292,2,55,2|8|8,0:0|0:0|0:0,0:0:0:0:
229,360,29714,6,0,L|114:352,1,110,6|0,0:0|0:0,0:0:0:0:
67,347,30231,1,8,0:0:0:0:
118,255,30576,2,0,B|144:219|137:181|137:181|119:154,1,110,2|8,0:0|0:0,0:0:0:0:
61,67,31265,2,0,L|174:59,1,110,2|8,0:0|0:0,0:0:0:0:
272,84,31955,2,0,P|278:53|266:21,2,55,2|2|8,1:2|1:2|0:0,0:0:0:0:
242,127,32472,6,0,P|228:177|250:236,1,110,6|0,1:2|0:0,0:0:0:0:
286,263,32989,2,0,B|327:257|327:257|357:265|357:265|398:258,1,110,8|2,0:0|0:0,0:0:0:0:
467,183,33679,1,8,0:0:0:0:
496,283,34024,2,0,B|503:323|490:355|490:355|457:372,1,110,2|8,0:0|0:0,0:0:0:0:
363,324,34714,2,0,P|334:315|308:316,1,55,2|2,1:2|1:2,0:0:0:0:
259,328,35058,1,8,0:0:0:0:
259,328,35231,6,0,L|258:210,1,110,6|0,1:2|0:0,0:0:0:0:
258,165,35748,1,8,0:0:0:0:
362,155,36093,2,0,P|413:168|472:146,1,110,2|8,0:0|0:0,0:0:0:0:
459,46,36783,2,0,P|407:32|349:55,1,110,2|8,0:0|0:0,0:0:0:0:
271,112,37472,1,0,1:2:0:0:
271,112,37645,2,0,P|242:117|212:109,1,55,0|8,1:2|0:0,0:0:0:0:
178,77,37989,6,0,B|157:61|134:61|134:61|113:85|68:82,1,110,6|2,1:2|0:0,0:0:0:0:
24,83,38507,1,8,0:0:0:0:
44,184,38852,2,0,P|50:216|42:245,1,55,2|2,3:2|3:2,0:0:0:0:
33,288,39196,1,8,0:0:0:0:
33,288,39369,2,0,P|86:269|149:278,1,110,2|0,0:0|0:0,0:0:0:0:
187,292,39886,1,8,0:0:0:0:
270,355,40231,2,0,P|352:367|413:309,1,165,8|0,0:0|0:0,0:0:0:0:
431,268,40921,6,0,B|447:213|444:157|444:157|385:181,1,165,6|2,0:0|0:0,0:0:0:0:
346,192,41610,2,0,P|287:196|234:168,1,110,8|0,0:0|3:0,0:0:0:0:
173,97,42300,1,0,3:0:0:0:
173,97,42472,2,0,B|147:108|138:146|138:146|89:169|34:125,1,165,8|8,0:0|0:0,0:0:0:0:
89,38,43334,1,0,3:0:0:0:
191,15,43679,6,0,P|250:63|241:146,1,165,2|0,0:0|0:0,0:0:0:0:
216,190,44369,1,8,0:0:0:0:
320,191,44714,2,0,P|376:192|432:193,2,110,0|0|0,3:0|3:0|3:0,0:0:0:0:
216,190,45748,2,0,P|204:222|204:254,1,55,8|2,0:0|0:0,0:0:0:0:
207,294,46093,2,0,P|209:321|220:346,1,55,2|0,3:0|0:0,0:0:0:0:
265,372,46438,6,0,B|319:374|348:329|348:329|386:345|416:332,1,165,4|0,0:0|0:0,0:0:0:0:
454,301,47127,2,0,P|470:249|453:192,1,110,8|0,0:0|3:0,0:0:0:0:
493,98,47817,1,2,0:0:0:0:
493,98,47989,2,0,B|440:87|440:87|390:103|390:103|329:90,1,165,8|8,0:0|0:0,0:0:0:0:
183,41,49024,1,0,0:0:0:0:
183,41,49196,6,0,B|161:93|178:150|178:150|228:187,1,165,4|0,0:0|0:0,0:0:0:0:
263,212,49886,2,0,L|153:226,1,110,8|0,0:0|3:0,0:0:0:0:
102,234,50403,1,0,3:0:0:0:
102,234,50576,1,0,3:0:0:0:
71,334,50921,2,0,P|125:339|174:313,2,110,0|8|8,3:0|0:0|3:2,0:0:0:0:
12,247,51955,6,0,P|18:188|24:132,1,110,6|8,0:0|0:0,0:0:0:0:
111,83,52645,2,0,P|106:118|114:147,1,55,0|0,3:0|0:0,0:0:0:0:
130,185,52989,1,8,0:0:0:0:
130,185,53162,2,0,L|258:176,1,110,2|0,0:0|0:0,0:0:0:0:
292,174,53679,1,8,0:0:0:0:
300,69,54024,2,0,L|409:76,1,110,0|8,3:0|0:0,0:0:0:0:
480,153,54714,6,0,P|496:242|456:304,2,165,6|2|10,0:0|0:0|0:0,0:0:0:0:
409,76,56093,2,0,L|349:72,1,55,2|10,0:0|0:0,0:0:0:0:
301,69,56438,1,2,0:0:0:0:
292,174,56783,2,0,L|183:181,1,110,10|10,0:0|0:0,0:0:0:0:
93,125,57472,6,0,B|63:177|91:232|91:232|79:266|46:280,1,165,10|2,0:0|0:0,0:0:0:0:
22,310,58162,2,0,L|142:317,1,110,10|6,0:0|0:0,0:0:0:0:
184,319,58679,1,14,0:0:0:0:
184,319,59714,6,0,P|217:323|243:318,1,55,2|8,0:0|0:0,0:0:0:0:
317,251,60231,6,0,B|347:229|347:229|393:227|430:256,2,110,6|8|2,0:0|0:0|0:0,0:0:0:0:
378,335,61265,1,8,0:0:0:0:
479,308,61610,2,0,P|503:259|494:203,1,110,2|8,0:0|0:0,0:0:0:0:
503,101,62300,2,0,L|440:96,1,55,2|2,0:0|0:0,0:0:0:0:
396,91,62645,1,8,0:0:0:0:
301,46,62989,6,0,P|251:32|194:55,1,110,2|8,0:0|0:0,0:0:0:0:
129,130,63679,2,0,L|132:189,1,55,2|2,0:0|0:0,0:0:0:0:
134,237,64024,1,8,0:0:0:0:
38,279,64369,2,0,B|12:254|12:254|6:220|25:172,2,110,2|8|2,0:0|0:0|0:0,0:0:0:0:
134,237,65403,1,8,0:0:0:0:
184,328,65748,6,0,P|240:324|296:322,1,110,6|8,0:0|0:0,0:0:0:0:
394,294,66438,2,0,P|399:325|393:348,2,55,2|2|8,0:0|0:0|0:0,0:0:0:0:
364,250,66955,2,0,P|352:195|369:143,1,110,6|0,0:0|0:0,0:0:0:0:
395,100,67472,2,0,P|451:95|508:89,2,110,8|2|8,0:0|0:0|0:0,0:0:0:0:
290,104,68507,6,0,P|230:82|218:38,1,110,6|8,0:0|0:0,0:0:0:0:
120,82,69196,2,0,P|87:84|58:75,2,55,2|2|8,0:0|0:0|0:0,0:0:0:0:
145,129,69714,2,0,P|153:183|144:236,1,110,6|2,0:0|0:0,0:0:0:0:
101,265,70231,1,8,0:0:0:0:
101,265,70403,2,0,P|159:248|207:272,1,110,6|2,0:0|0:0,0:0:0:0:
243,300,70921,1,8,0:0:0:0:
154,353,71265,6,0,B|117:359|117:359|87:351|87:351|43:355,2,110,6|8|2,0:0|0:0|0:0,0:0:0:0:
243,299,72300,1,8,0:0:0:0:
326,361,72645,2,0,P|386:366|428:333,1,110,2|8,0:0|0:0,0:0:0:0:
459,239,73334,2,0,P|431:230|394:235,1,55,2|2,0:0|0:0,0:0:0:0:
357,252,73679,1,8,0:0:0:0:
260,212,74024,6,0,P|208:226|158:204,2,110,2|8|2,0:0|0:0|0:0,0:0:0:0:
297,174,74886,2,0,P|307:143|303:117,1,55,2|8,0:0|0:0,0:0:0:0:
380,50,75403,2,0,B|412:27|450:29|450:29|485:48,1,110,6|8,0:0|0:0,0:0:0:0:
507,147,76093,2,0,P|455:143|398:142,1,110,2|8,0:0|0:0,0:0:0:0:
297,174,76783,6,0,B|255:170|255:170|225:178|225:178|188:172,1,110,6|8,0:0|0:0,0:0:0:0:
110,102,77472,2,0,P|115:73|105:38,2,55,2|2|8,0:0|0:0|0:0,0:0:0:0:
73,139,77989,2,0,P|56:195|83:253,1,110,6|0,0:0|0:0,0:0:0:0:
100,286,78507,1,8,0:0:0:0:
196,245,78852,2,0,P|212:193|195:142,1,110,2|8,0:0|0:0,0:0:0:0:
284,86,79541,6,0,L|393:95,1,110,6|8,0:0|0:0,0:0:0:0:
442,114,80058,2,0,B|471:167|452:231|452:231|413:212,1,165,0|2,0:0|0:0,0:0:0:0:
360,202,80748,2,0,P|289:233|293:317,1,165,6|8,0:0|0:0,0:0:0:0:
373,372,81610,2,0,L|487:354,1,110,2|8,0:0|0:0,0:0:0:0:
256,192,82300,12,12,84886,0:0:0:0:
57,165,92645,6,0,P|22:161|1:146,1,55,8|2,0:0|0:0,0:0:0:0:
58,60,93162,6,0,B|87:50|123:69|123:69|157:29|210:36,1,165,6|8,0:0|0:0,0:0:0:0:
260,128,94024,2,0,P|233:135|206:135,2,55,2|0|0,0:0|3:0|0:0,0:0:0:0:
302,159,94541,2,0,P|281:215|293:270,1,110,8|0,0:0|3:0,0:0:0:0:
309,311,95058,1,8,0:0:0:0:
404,354,95403,1,2,0:0:0:0:
482,284,95748,1,2,0:0:0:0:
482,284,95921,6,0,B|496:261|496:241|496:241|475:208|483:161,1,110,8|0,0:0|3:0,0:0:0:0:
488,127,96438,1,8,0:0:0:0:
395,78,96783,2,0,P|401:46|406:17,2,55,0|2|0,3:0|0:0|3:0,0:0:0:0:
373,124,97300,2,0,P|321:142|279:178,1,110,8|0,0:0|0:0,0:0:0:0:
255,224,97817,1,8,0:0:0:0:
350,269,98162,2,0,P|369:293|373:319,1,55,2|0,0:0|3:0,0:0:0:0:
360,367,98507,1,2,0:0:0:0:
360,367,98679,6,0,L|234:354,1,110,8|0,0:0|3:0,0:0:0:0:
199,345,99196,2,0,P|147:360|97:340,1,110,10|0,0:0|0:0,0:0:0:0:
54,308,99714,1,2,0:0:0:0:
106,217,100058,2,0,P|158:202|208:222,1,110,8|0,0:0|3:0,0:0:0:0:
251,254,100576,1,8,0:0:0:0:
330,186,100921,2,0,L|393:182,1,55,2|0,0:0|3:0,0:0:0:0:
430,88,101438,6,0,L|312:97,1,110,8|0,0:0|3:0,0:0:0:0:
277,66,101955,2,0,B|248:45|248:45|218:37|177:62,1,110,8|0,0:0|0:0,0:0:0:0:
131,85,102472,1,0,3:0:0:0:
38,36,102817,2,0,L|46:156,1,110,8|0,0:0|3:0,0:0:0:0:
52,197,103334,1,8,0:0:0:0:
115,279,103679,2,0,P|148:233|152:181,1,110,2|2,0:0|0:0,0:0:0:0:
142,129,104196,6,0,L|309:122,1,165,8|8,0:0|0:0,0:0:0:0:
350,27,105058,2,0,P|323:19|288:21,1,55,2|2,0:0|0:0,0:0:0:0:
307,123,105576,2,0,L|312:242,1,110,8|0,0:0|3:0,0:0:0:0:
316,285,106093,1,8,0:0:0:0:
418,307,106438,2,0,P|421:279|416:252,2,55,2|0|2,0:0|3:0|0:0,0:0:0:0:
385,348,106955,6,0,P|310:377|237:334,1,165,8|8,0:0|0:0,0:0:0:0:
145,294,107817,2,0,P|117:302|89:298,1,55,2|2,0:0|0:0,0:0:0:0:
46,204,108334,2,0,L|167:195,1,110,8|0,0:0|0:0,0:0:0:0:
208,192,108852,1,8,0:0:0:0:
262,103,109196,2,0,P|289:94|318:99,1,55,2|8,0:0|0:0,0:0:0:0:
358,126,109541,1,2,0:0:0:0:
358,126,109714,6,0,B|392:153|392:153|437:155|455:137,1,110,8|0,0:0|3:0,0:0:0:0:
496,105,110231,2,0,L|492:224,1,110,8|0,0:0|3:0,0:0:0:0:
491,267,110748,1,0,3:0:0:0:
419,343,111093,2,0,P|366:355|314:338,1,110,8|2,0:0|0:0,0:0:0:0:
269,311,111610,1,8,0:0:0:0:
340,234,111955,2,0,P|367:233|393:241,2,55,0|0|2,3:0|3:0|0:0,0:0:0:0:
294,208,112472,6,0,B|239:233|187:205|187:205|161:230|163:251,1,165,8|8,0:0|0:0,0:0:0:0:
114,343,113334,1,0,3:0:0:0:
114,343,113507,1,2,0:0:0:0:
30,280,113852,2,0,P|13:225|31:173,1,110,8|0,0:0|0:0,0:0:0:0:
55,131,114369,1,8,0:0:0:0:
136,196,114714,2,0,B|175:204|175:204|206:193|206:193|244:211|307:194,1,165,8|2,0:0|0:0,0:0:0:0:
320,150,115403,6,0,B|351:114|351:114|411:98|458:144,1,165,6|0,0:0|0:0,0:0:0:0:
487,189,116093,2,0,P|501:248|482:301,1,110,12|0,0:0|3:0,0:0:0:0:
395,346,116783,1,0,3:0:0:0:
395,346,116955,2,0,B|355:323|318:330|318:330|283:370|227:365,1,165,8|8,0:0|0:0,0:0:0:0:
152,314,117817,1,0,3:0:0:0:
230,245,118162,6,0,P|252:161|225:90,1,165,2|0,3:0|0:0,0:0:0:0:
188,53,118852,2,0,L|313:58,2,110,8|0|0,0:0|3:0|3:0,0:0:0:0:
83,54,119886,1,0,3:0:0:0:
38,148,120231,2,0,B|17:174|19:207|19:207|47:251|25:304,1,165,8|0,0:0|0:0,0:0:0:0:
49,350,120921,6,0,B|102:357|136:317|136:317|172:336|201:326,1,165,4|0,0:0|0:0,0:0:0:0:
251,313,121610,1,8,0:0:0:0:
340,367,121955,1,0,3:0:0:0:
426,307,122300,1,0,3:0:0:0:
426,307,122472,2,0,P|440:254|426:202,1,110,8|0,0:0|0:0,0:0:0:0:
399,156,122989,1,8,0:0:0:0:
250,207,123507,1,0,0:0:0:0:
250,207,123679,6,0,B|186:219|146:198|146:198|134:133,1,165,2|0,3:0|0:0,0:0:0:0:
148,89,124369,2,0,L|260:81,1,110,8|0,0:0|3:0,0:0:0:0:
310,76,124886,1,0,0:0:0:0:
310,76,125058,1,2,3:0:0:0:
390,141,125403,2,0,P|443:146|491:118,2,110,12|2|8,0:0|0:0|0:0,0:0:0:0:
310,76,126438,6,0,L|200:83,1,110,6|8,0:0|0:0,0:0:0:0:
100,118,127127,2,0,P|91:92|95:65,2,55,2|2|8,0:0|0:0|0:0,0:0:0:0:
123,165,127644,2,0,P|137:215|115:274,1,110,6|0,0:0|0:0,0:0:0:0:
83,307,128162,1,8,0:0:0:0:
178,348,128507,2,0,P|232:342|292:336,1,110,0|8,3:0|0:0,0:0:0:0:
388,362,129196,6,0,B|428:326|486:338|486:338|485:303|507:269,2,165,6|10|10,0:0|0:0|0:0,0:0:0:0:
287,336,130576,2,0,L|282:262,1,55,2|8,0:0|0:0,0:0:0:0:
280,228,130921,1,2,0:0:0:0:
361,162,131265,2,0,P|414:167|462:139,1,110,10|10,0:0|0:0,0:0:0:0:
388,63,131955,6,0,B|222:70,1,165,6|2,0:0|0:0,0:0:0:0:
175,49,132645,2,0,B|135:40|135:40|101:43|74:72,1,110,10|10,0:0|0:0,0:0:0:0:
40,110,133162,1,14,0:0:0:0:
40,110,134196,6,0,L|47:178,1,55,2|8,0:0|0:0,0:0:0:0:
115,242,134714,6,0,P|161:214|215:219,1,110,6|8,0:0|0:0,0:0:0:0:
242,320,135403,1,2,0:0:0:0:
142,352,135748,1,8,0:0:0:0:
50,302,136093,2,0,B|29:272|29:272|20:239|33:188,1,110,2|8,0:0|0:0,0:0:0:0:
88,112,136783,2,0,L|146:114,1,55,2|2,0:0|0:0,0:0:0:0:
195,116,137127,1,8,0:0:0:0:
275,49,137472,6,0,B|293:33|317:33|317:33|342:51|386:43,1,110,2|8,0:0|0:0,0:0:0:0:
464,104,138162,2,0,P|478:156|461:207,1,110,2|8,0:0|0:0,0:0:0:0:
488,308,138852,2,0,B|450:308|450:308|425:297|425:297|380:297,1,110,2|8,0:0|0:0,0:0:0:0:
337,326,139369,2,0,P|288:350|234:345,1,110,0|2,0:0|0:0,0:0:0:0:
184,329,139886,1,8,0:0:0:0:
233,236,140231,6,0,P|247:185|229:130,1,110,6|8,0:0|0:0,0:0:0:0:
130,100,140921,2,0,L|124:159,2,55,2|2|8,0:0|0:0|0:0,0:0:0:0:
156,54,141438,2,0,P|231:25|313:68,1,165,6|8,0:0|0:0,0:0:0:0:
374,135,142300,1,2,0:0:0:0:
341,234,142645,1,8,0:0:0:0:
387,327,142989,6,0,B|417:348|457:343|457:343|499:318,2,110,6|8|2,0:0|0:0|0:0,0:0:0:0:
293,375,144024,1,8,0:0:0:0:
293,375,144196,2,0,P|237:370|182:367,1,110,6|2,0:0|0:0,0:0:0:0:
132,354,144714,1,8,0:0:0:0:
132,354,144886,2,0,P|104:307|109:253,1,110,6|0,0:0|0:0,0:0:0:0:
124,203,145403,1,8,0:0:0:0:
58,121,145748,6,0,L|167:114,1,110,6|8,0:0|0:0,0:0:0:0:
226,27,146438,2,0,L|280:30,1,55,2|2,0:0|0:0,0:0:0:0:
333,33,146783,1,8,0:0:0:0:
391,119,147127,2,0,B|420:140|420:140|450:148|490:122,2,110,2|8|2,0:0|0:0|0:0,0:0:0:0:
333,33,148162,1,8,0:0:0:0:
242,85,148507,6,0,P|189:97|138:78,1,110,6|8,0:0|0:0,0:0:0:0:
58,146,149196,2,0,P|70:199|51:250,1,110,2|8,0:0|0:0,0:0:0:0:
116,331,149886,2,0,B|177:319|177:319|201:319|228:338,1,110,6|8,0:0|0:0,0:0:0:0:
273,345,150403,2,0,B|317:332|356:351|356:351|388:323|380:268,1,165,0|8,0:0|0:0,0:0:0:0:
337,183,151265,6,0,P|391:187|446:190,1,110,6|8,0:0|0:0,0:0:0:0:
471,88,151955,2,0,P|444:94|417:90,1,55,2|2,0:0|0:0,0:0:0:0:
372,62,152300,1,8,0:0:0:0:
372,62,152472,2,0,B|348:33|320:35|320:35|270:70|220:43,1,165,6|8,0:0|0:0,0:0:0:0:
135,102,153334,2,0,P|84:84|32:100,1,110,2|8,0:0|0:0,0:0:0:0:
11,202,154024,6,0,L|120:211,1,110,6|8,0:0|0:0,0:0:0:0:
173,215,154541,1,0,0:0:0:0:
234,298,154886,2,0,L|298:293,1,55,2|8,0:0|0:0,0:0:0:0:
336,315,155231,2,0,P|414:315|445:243,1,165,6|8,0:0|0:0,0:0:0:0:
491,150,156093,2,0,B|453:150|453:150|428:139|428:139|383:139,1,110,4|4,3:0|3:0,0:0:0:0:
288,183,156783,6,0,B|240:156|187:181|187:181|180:147|151:119,1,165,4|2,0:0|0:0,0:0:0:0:
124,90,157472,1,4,0:0:0:0:
207,26,157817,1,0,0:0:0:0:
207,26,157989,2,0,L|322:38,1,110,2|4,0:0|3:0,0:0:0:0:
368,45,158507,1,0,3:0:0:0:
442,118,158852,2,0,P|459:168|444:220,1,110,8|0,0:0|3:0,0:0:0:0:
370,294,159541,6,0,B|316:292|287:337|287:337|249:321|222:332,1,165,4|2,0:0|0:0,0:0:0:0:
172,349,160231,1,8,0:0:0:0:
83,292,160576,1,0,3:0:0:0:
83,292,160748,2,0,P|62:241|76:188,1,110,0|8,0:0|0:0,0:0:0:0:
185,167,161438,1,2,0:0:0:0:
185,167,161610,2,0,P|212:213|207:267,1,110,8|0,0:0|3:0,0:0:0:0:
228,370,162300,6,0,P|314:363|403:357,1,165,4|2,0:0|0:0,0:0:0:0:
444,352,162989,1,8,0:0:0:0:
504,266,163335,1,0,3:0:0:0:
504,266,163507,2,0,P|453:245|399:254,1,110,0|8,0:0|0:0,0:0:0:0:
353,277,164025,1,0,3:0:0:0:
344,173,164369,2,0,P|340:117|335:47,1,110,8|0,0:0|3:0,0:0:0:0:
238,25,165058,6,0,B|217:51|190:58|190:58|135:24|67:53,1,165,4|2,0:0|0:0,0:0:0:0:
38,62,165748,1,8,0:0:0:0:
2,160,166093,2,0,P|27:169|54:168,1,55,0|0,3:0|0:0,0:0:0:0:
106,158,166438,2,0,L|110:281,1,110,2|12,3:0|0:0,0:0:0:0:
174,349,167127,2,0,B|214:374|244:366|244:366|273:345,1,110,2|2,0:0|0:0,0:0:0:0:
339,265,167817,6,0,B|396:277|396:277|446:261|446:261|499:272,2,165,2|0|8,1:2|1:0|0:0,0:0:0:0:
263,192,169196,2,0,P|270:165|267:138,1,55,2|0,0:0|3:0,0:0:0:0:
254,87,169541,1,2,0:0:0:0:
254,87,169714,2,0,L|134:78,1,110,8|0,0:0|3:0,0:0:0:0:
93,72,170231,1,8,0:0:0:0:
24,151,170576,6,0,B|3:209|19:260|19:260|70:290,2,165,6|0|0,1:2|1:0|3:0,0:0:0:0:
93,72,171955,2,0,B|147:55|188:87|188:87|221:91|249:73,1,165,8|2,0:0|0:0,0:0:0:0:
289,38,172645,2,0,L|407:44,1,110,2|8,0:0|0:0,0:0:0:0:
444,137,173334,6,0,L|326:131,1,110,6|8,0:0|0:0,0:0:0:0:
256,201,174024,2,0,P|241:253|257:304,1,110,2|8,0:0|0:0,0:0:0:0:
345,362,174714,2,0,B|381:368|406:350|406:350|430:350|448:366,2,110,2|8|2,0:0|0:0|0:0,0:0:0:0:
257,304,175748,1,8,0:0:0:0:
158,338,176093,6,0,P|105:343|57:315,1,110,6|8,0:0|0:0,0:0:0:0:
77,212,176783,2,0,P|130:207|177:234,1,110,2|8,0:0|0:0,0:0:0:0:
257,304,177472,2,0,B|286:325|286:325|316:333|356:308,1,110,2|8,0:0|0:0,0:0:0:0:
444,250,178162,1,2,0:0:0:0:
364,182,178507,1,8,0:0:0:0:
448,121,178852,6,0,P|452:67|425:20,2,110,6|8|8,0:0|0:0|0:0,0:0:0:0:
364,182,179886,1,8,0:0:0:0:
283,115,180231,2,0,B|265:99|241:99|241:99|216:117|180:111,1,110,8|8,0:0|0:0,0:0:0:0:
101,41,180921,2,0,P|83:70|78:101,1,55,8|2,0:0|0:0,0:0:0:0:
80,142,181266,2,0,P|86:168|101:190,1,55,8|0,0:0|0:0,0:0:0:0:
145,220,181610,6,0,B|189:235|263:217|263:217|247:235|236:258,1,165,6|6,0:0|0:0,0:0:0:0:
179,343,182472,1,2,0:0:0:0:
179,343,182645,2,0,P|227:363|291:344,1,110,6|4,0:0|3:0,0:0:0:0:
326,322,183162,1,2,0:0:0:0:
385,235,183507,1,2,0:0:0:0:
385,235,183679,2,0,P|438:230|486:258,2,110,2|2|4,0:0|0:0|1:0,0:0:0:0:
256,192,200921,12,14,204886,0:0:0:0:
144,202,205921,6,0,P|112:205|87:198,1,55,2|14,0:0|0:0,0:0:0:0:
46,294,206438,6,0,P|99:297|160:302,1,110,6|8,0:0|0:0,0:0:0:0:
249,348,207127,2,0,P|302:353|350:325,1,110,2|8,0:0|0:0,0:0:0:0:
450,355,207817,2,0,B|473:323|471:285|471:285|454:253,1,110,2|8,0:0|0:0,0:0:0:0:
358,211,208507,1,2,0:0:0:0:
299,297,208852,1,8,0:0:0:0:
202,258,209196,6,0,P|148:247|100:270,1,110,2|8,0:0|0:0,0:0:0:0:
14,209,209886,2,0,L|10:147,1,55,2|2,0:0|0:0,0:0:0:0:
9,101,210231,1,8,0:0:0:0:
96,43,210576,2,0,B|114:27|138:27|138:27|163:45|207:37,1,110,2|8,0:0|0:0,0:0:0:0:
241,69,211093,2,0,P|293:82|343:62,1,110,0|2,0:0|0:0,0:0:0:0:
385,30,211610,1,8,0:0:0:0:
385,135,211955,6,0,L|385:248,1,110,6|8,0:0|0:0,0:0:0:0:
466,311,212645,2,0,P|476:285|478:258,2,55,2|2|8,0:0|0:0|0:0,0:0:0:0:
425,344,213162,2,0,B|376:366|331:336|331:336|303:366|273:366,1,165,6|8,0:0|0:0,0:0:0:0:
169,364,214024,1,2,0:0:0:0:
161,259,214369,1,8,0:0:0:0:
76,197,214714,6,0,P|56:146|69:93,2,110,6|8|2,0:0|0:0|0:0,0:0:0:0:
161,259,215748,1,8,0:0:0:0:
161,259,215921,2,0,B|213:281|270:264|270:264|301:220,1,165,6|8,0:0|0:0,0:0:0:0:
314,169,216610,2,0,L|431:156,1,110,6|2,0:0|0:0,0:0:0:0:
475,149,217127,1,8,0:0:0:0:
501,47,217472,6,0,L|391:59,1,110,12|8,0:0|0:0,0:0:0:0:
287,51,218162,2,0,P|236:37|181:55,1,110,8|8,0:0|0:0,0:0:0:0:
126,141,218852,1,8,0:0:0:0:
55,65,219196,1,8,0:0:0:0:
10,159,219541,2,0,L|19:268,2,110,8|8|12,0:0|0:0|0:0,0:0:0:0:
55,65,220576,5,8,0:0:0:0:
126,141,220921,2,0,B|162:134|187:152|187:152|211:152|229:136,1,110,8|8,0:0|0:0,0:0:0:0:
307,204,221610,2,0,P|324:255|310:308,1,110,12|8,0:0|0:0,0:0:0:0:
225,370,222300,2,0,L|116:363,1,110,8|8,0:0|0:0,0:0:0:0:
104,259,222989,6,0,L|213:266,1,110,12|8,0:0|0:0,0:0:0:0:
310,307,223679,1,8,0:0:0:0:
392,242,224024,2,0,P|423:237|452:246,1,55,8|0,0:0|0:0,0:0:0:0:
494,261,224369,2,0,L|501:152,2,110,8|8|8,0:0|3:2|0:0,0:0:0:0:
483,364,225403,1,8,0:0:0:0:
387,322,225748,6,0,B|332:325|332:325|288:353|288:353|230:356,1,165,12|12,0:0|0:0,0:0:0:0:
144,295,226610,2,0,P|114:298|80:298,1,55,8|8,0:0|0:0,0:0:0:0:
45,270,226955,2,0,B|18:210|42:152|42:152|87:173,1,165,12|2,0:0|0:0,0:0:0:0:
179,205,227817,2,0,P|238:158|225:76,1,165,2|8,0:0|0:0,0:0:0:0:
192,36,228507,6,0,P|246:36|310:34,2,110,12|8|8,0:0|0:0|0:0,0:0:0:0:
88,50,229541,1,8,0:0:0:0:
23,132,229886,2,0,B|1:174|12:203|12:203|36:230,1,110,8|8,0:0|0:0,0:0:0:0:
27,334,230576,2,0,L|148:328,1,110,8|8,0:0|0:0,0:0:0:0:
195,242,231265,6,0,P|246:224|298:238,1,110,12|8,0:0|0:0,0:0:0:0:
344,264,231783,1,0,3:0:0:0:
288,352,232127,2,0,L|223:347,1,55,2|0,0:0|0:0,0:0:0:0:
181,344,232472,1,6,0:0:0:0:
181,344,235403,6,0,P|129:330|93:287,1,110,8|8,3:0|0:0,0:0:0:0:
43,196,236093,2,0,B|87:168|138:191|138:191|160:172|158:129,1,165,2|0,0:0|0:0,0:0:0:0:
163,79,236783,6,0,L|275:74,1,110,6|8,0:0|0:0,0:0:0:0:
372,46,237472,2,0,P|376:73|374:100,1,55,2|2,0:0|0:0,0:0:0:0:
356,149,237817,1,8,0:0:0:0:
356,149,237989,2,0,P|411:132|463:153,1,110,2|2,0:0|0:0,0:0:0:0:
494,189,238507,2,0,L|481:307,1,110,8|2,0:0|0:0,0:0:0:0:
475,349,239024,1,2,0:0:0:0:
475,349,239196,1,8,0:0:0:0:
379,307,239541,6,0,P|325:293|272:303,1,110,2|8,0:0|0:0,0:0:0:0:
187,364,240231,2,0,P|160:368|133:366,1,55,2|2,0:0|0:0,0:0:0:0:
84,345,240576,1,8,0:0:0:0:
84,345,240748,2,0,P|56:298|61:244,1,110,2|0,0:0|0:0,0:0:0:0:
84,198,241265,1,8,0:0:0:0:
29,108,241610,2,0,L|95:103,1,55,2|2,0:0|0:0,0:0:0:0:
136,99,241955,1,8,0:0:0:0:
227,48,242300,6,0,B|256:27|256:27|286:19|331:48,1,110,6|8,0:0|0:0,0:0:0:0:
421,88,242989,2,0,L|425:33,2,55,2|2|8,0:0|0:0|0:0,0:0:0:0:
414,141,243507,2,0,B|456:160|456:160|488:213|457:271,1,165,6|8,0:0|0:0,0:0:0:0:
376,341,244369,2,0,L|265:329,1,110,2|8,0:0|0:0,0:0:0:0:
167,361,245058,6,0,P|113:365|66:337,1,110,2|8,0:0|0:0,0:0:0:0:
90,235,245748,2,0,P|143:230|190:258,1,110,2|8,0:0|0:0,0:0:0:0:
227,295,246265,2,0,L|221:129,1,165,12|0,0:0|0:0,0:0:0:0:
143,59,247127,2,0,B|125:43|101:43|101:43|76:61|39:54,1,110,8|8,0:0|0:0,0:0:0:0:
14,156,247817,6,0,P|65:172|118:158,1,110,12|8,0:0|0:0,0:0:0:0:
221,130,248507,2,0,B|262:126|262:126|292:134|292:134|329:128,1,110,8|8,0:0|0:0,0:0:0:0:
400,51,249196,1,8,0:0:0:0:
494,96,249541,1,8,0:0:0:0:
421,170,249886,2,0,B|408:213|408:213|408:242|429:289,1,110,8|8,0:0|0:0,0:0:0:0:
478,364,250576,6,0,L|361:361,1,110,8|8,0:0|0:0,0:0:0:0:
296,285,251265,2,0,B|278:301|254:301|254:301|222:285|192:295,1,110,8|8,0:0|0:0,0:0:0:0:
101,347,251955,1,8,0:0:0:0:
29,270,252300,2,0,P|14:217|30:165,2,110,8|8|8,0:0|0:0|0:0,0:0:0:0:
101,347,253334,6,0,L|226:340,1,110,12|8,0:0|0:0,0:0:0:0:
315,337,254024,1,8,0:0:0:0:
352,239,254369,2,0,P|324:230|297:232,1,55,8|0,0:0|0:0,0:0:0:0:
247,243,254714,2,0,L|249:132,1,110,10|8,0:0|0:0,0:0:0:0:
353,126,255403,2,0,P|405:140|457:124,1,110,8|8,0:0|0:0,0:0:0:0:
403,33,256093,6,0,B|374:15|342:19|342:19|300:51|246:34,1,165,10|8,0:0|0:0,0:0:0:0:
198,55,256783,2,0,P|149:112|165:202,1,165,8|12,0:0|0:0,0:0:0:0:
256,192,257472,12,0,263679,0:0:0:0:
