osu file format v14

[General]
AudioFilename: HaruModoki.mp3
AudioLeadIn: 1000
PreviewTime: 134534
Countdown: 0
SampleSet: Soft
StackLeniency: 0.7
Mode: 0
LetterboxInBreaks: 0
WidescreenStoryboard: 0

[Editor]
DistanceSpacing: 1
BeatDivisor: 2
GridSize: 8
TimelineZoom: 0.9999999

[Metadata]
Title:Haru Modoki
TitleUnicode:春擬き
Artist:yanaginagi
ArtistUnicode:やなぎなぎ
Creator:Meg
Version:KwaN's Easy
Source:やはり俺の青春ラブコメはまちがっている。続
Tags:iMage-- IamKwaN Meyrink yahari ore no seishun love come wa machigatteiru. zoku opening oregairu my teen romantic comedy snafu
BeatmapID:743812
BeatmapSetID:321203

[Difficulty]
HPDrainRate:2
CircleSize:3
OverallDifficulty:2
ApproachRate:3
SliderMultiplier:1
SliderTickRate:1

[Events]
//Background and Video events
0,0,"BG.jpg",0,0
//Break Periods
//Storyboard Layer 0 (Background)
//Storyboard Layer 1 (Fail)
//Storyboard Layer 2 (Pass)
//Storyboard Layer 3 (Foreground)
//Storyboard Sound Samples

[TimingPoints]
921,344.827586206897,4,2,88,30,1,0
6438,-100,4,2,88,40,0,0
16438,-100,4,2,88,30,0,0
18162,-100,4,2,88,40,0,0
40921,-125,4,2,88,40,0,0
51955,-100,4,2,88,40,0,0
60231,-100,4,2,88,60,0,1
66093,-100,4,2,89,60,0,1
66265,-100,4,2,88,60,0,1
69541,-100,4,2,89,60,0,1
69714,-100,4,2,88,50,0,1
70058,-100,4,2,88,40,0,1
70748,-100,4,2,88,60,0,1
75748,-100,4,2,89,60,0,1
75921,-100,4,2,88,60,0,1
82300,-100,4,2,88,40,0,0
90921,-100,4,2,88,30,0,0
92645,-100,4,2,88,40,0,0
115403,-125,4,2,88,40,0,0
118852,-125,4,2,89,40,0,0
119024,-125,4,2,88,40,0,0
126438,-100,4,2,88,40,0,0
134714,-100,4,2,88,60,0,1
139196,-100,4,2,89,60,0,1
139369,-100,4,2,88,40,0,1
139541,-100,4,2,88,60,0,1
140576,-100,4,2,89,60,0,1
140748,-100,4,2,88,60,0,1
144024,-100,4,2,89,60,0,1
144196,-100,4,2,88,50,0,1
144541,-100,4,2,88,40,0,1
145231,-100,4,2,88,60,0,1
150231,-100,4,2,89,60,0,1
150403,-100,4,2,88,60,0,1
155058,-100,4,2,89,60,0,1
155231,-100,4,2,88,60,0,1
156783,-125,4,2,88,40,0,0
167817,-111.111111111111,4,2,88,40,0,0
168162,-111.111111111111,4,2,89,40,0,0
168334,-111.111111111111,4,2,88,40,0,0
170576,-111.111111111111,4,2,88,50,0,0
173334,-100,4,2,88,40,0,0
179541,-100,4,2,89,40,0,0
179714,-100,4,2,88,40,0,0
180231,-100,4,2,89,40,0,0
180403,-100,4,2,88,40,0,0
181610,-100,4,2,88,50,0,0
184369,-125,4,2,88,50,0,0
185748,-125,4,2,88,30,0,0
195403,-111.111111111111,4,2,88,40,0,0
200576,-111.111111111111,4,2,88,30,0,0
200921,-100,4,2,88,40,0,0
206438,-100,4,2,88,60,0,1
212300,-100,4,2,89,60,0,1
212472,-100,4,2,88,60,0,1
215921,-100,4,2,88,50,0,1
216265,-100,4,2,88,40,0,1
216955,-100,4,2,88,60,0,1
227472,-100,4,2,88,50,0,1
228507,-100,4,2,88,60,0,1
232472,-100,4,2,88,60,0,0
235403,-100,4,2,88,40,0,0
236783,-100,4,2,88,60,0,1
236869,-100,4,2,88,50,0,0
237817,-100,4,2,89,50,0,0
237989,-100,4,2,88,50,0,0
240576,-100,4,2,89,50,0,0
240748,-100,4,2,88,50,0,0
243334,-100,4,2,89,50,0,0
243507,-100,4,2,88,50,0,0
248852,-100,4,2,89,50,0,0
249024,-100,4,2,88,50,0,0
251610,-100,4,2,89,50,0,0
251783,-100,4,2,88,50,0,0
257472,-100,4,2,88,30,0,0
258852,-100,4,2,88,40,0,0
260231,-100,4,2,88,30,0,0
261610,-100,4,2,88,20,0,0
262989,-100,4,2,88,10,0,0

[Colours]
Combo1 : 128,255,128
Combo2 : 128,255,255
Combo3 : 255,128,128
Combo4 : 255,255,128

[HitObjects]
113,71,921,5,2,0:0:0:0:
399,313,2300,1,2,0:0:0:0:
99,71,3679,5,2,0:0:0:0:
399,313,5058,1,2,0:0:0:0:
99,71,6438,6,0,P|90:121|101:168,1,100,2|0,0:3|0:0,0:0:0:0:
184,213,7127,2,0,L|35:233,2,150,8|12|8,0:0|0:0|0:0,0:0:0:0:
268,169,8507,2,0,P|267:120|274:67,2,100,8|8|8,0:0|0:0|0:0,0:0:0:0:
334,237,9541,5,8,0:0:0:0:
396,309,9886,2,0,P|430:243|406:175,2,150,8|12|8,0:0|0:0|0:0,0:0:0:0:
304,332,11265,2,0,L|205:337,1,100,8|8,0:0|0:0,0:0:0:0:
111,315,11955,6,0,P|88:273|97:222,1,100,8|8,0:0|0:0,0:0:0:0:
167,159,12645,2,0,L|17:174,2,150,8|12|8,0:0|0:0|0:0,0:0:0:0:
256,127,14024,1,8,0:0:0:0:
333,72,14369,6,0,P|373:40|422:37,2,100,8|8|8,0:0|0:0|0:0,0:0:0:0:
343,166,15403,2,0,B|386:159|408:129|408:129|443:136|479:113,2,150,8|4|2,0:0|0:0|0:3,0:0:0:0:
256,127,16783,1,2,0:3:0:0:
266,221,17127,1,2,0:3:0:0:
350,264,17472,6,0,P|376:308|379:359,1,100,2|2,0:3|0:3,0:0:0:0:
285,338,18162,2,0,L|234:344,1,50,8|8,0:0|0:0,0:0:0:0:
181,265,18679,6,0,P|113:269|91:344,2,150,4|8|4,0:0|0:0|0:3,0:0:0:0:
266,221,20058,2,0,B|366:233|366:233|412:209,1,150,8|8,0:0|0:0,0:0:0:0:
478,144,20921,2,0,P|480:121|472:87,1,50,2|4,0:3|0:3,0:0:0:0:
382,73,21438,6,0,P|450:69|475:-1,2,150,12|8|4,0:0|0:0|0:3,0:0:0:0:
288,54,22817,2,0,B|190:43|190:43|148:72,1,150,8|8,0:0|0:0,0:0:0:0:
107,158,23680,2,0,P|82:155|53:162,1,50,2|4,0:3|0:3,0:0:0:0:
8,241,24196,6,0,L|0:90,2,150,12|8|4,0:0|0:0|0:3,0:0:0:0:
92,283,25575,2,0,B|193:291|193:291|237:268,1,150,8|8,0:0|0:0,0:0:0:0:
328,245,26438,2,0,L|323:300,1,50,4|2,0:3|0:3,0:0:0:0:
386,366,26955,1,4,0:0:0:0:
386,366,29196,6,0,L|390:316,1,50,8|8,0:0|0:0,0:0:0:0:
367,223,29714,6,0,L|267:230,1,100,4|4,0:0|0:3,0:0:0:0:
229,259,30231,2,0,P|256:294|261:348,2,100,8|4|8,0:0|0:3|0:0,0:0:0:0:
160,192,31265,2,0,L|60:184,1,100,4|8,0:3|0:0,0:0:0:0:
40,91,31955,2,0,L|89:84,1,50,2|4,0:3|0:3,0:0:0:0:
183,99,32472,6,0,P|231:98|269:63,1,100,4|4,0:0|0:3,0:0:0:0:
315,60,32989,2,0,P|306:111|305:167,2,100,8|4|8,0:0|0:3|0:0,0:0:0:0:
400,18,34024,2,0,P|448:35|497:62,1,100,4|8,0:3|0:0,0:0:0:0:
499,153,34713,2,0,P|495:172|494:209,1,50,2|4,0:3|0:3,0:0:0:0:
464,293,35231,6,0,P|416:281|372:302,1,100,12|4,0:0|0:3,0:0:0:0:
331,326,35748,2,0,P|328:276|320:226,2,100,8|4|8,0:0|0:3|0:0,0:0:0:0:
245,367,36783,2,0,P|195:376|151:353,1,100,4|8,0:3|0:0,0:0:0:0:
80,292,37472,2,0,L|87:240,1,50,2|4,0:3|0:3,0:0:0:0:
133,159,37989,6,4,P|197:159|226:132,1,100,12|4,0:0|0:3,0:0:0:0:
266,119,38507,2,0,L|255:223,1,100,8|4,0:0|0:3,0:0:0:0:
269,312,39196,2,0,B|369:293|369:342|467:309,1,200,8|8,0:0|0:0,0:0:0:0:
509,224,40231,2,0,P|525:178|509:129,2,100,8|8|4,0:0|0:3|0:0,0:0:0:0:
443,178,41265,5,2,0:3:0:0:
388,118,41610,2,0,B|348:100|348:100|307:101|284:138,1,120,8|4,0:0|0:3,0:0:0:0:
266,214,42472,2,0,L|147:222,1,120,8|8,0:0|0:0,0:0:0:0:
88,277,43334,1,2,0:3:0:0:
68,199,43679,6,0,P|48:141|113:77,1,160,4|8,0:3|0:0,0:0:0:0:
191,71,44714,2,0,B|246:98|284:96|284:96|334:59,1,160,4|4,0:3|0:3,0:0:0:0:
401,101,45748,2,0,P|413:64|406:24,2,80,8|8|4,0:0|0:3|0:0,0:0:0:0:
352,165,46783,5,2,0:3:0:0:
297,222,47127,2,0,P|312:279|296:336,1,120,8|4,0:0|0:3,0:0:0:0:
216,336,47989,2,0,P|199:278|215:221,1,120,8|8,0:0|0:0,0:0:0:0:
256,152,48851,1,2,0:3:0:0:
292,80,49196,6,0,B|342:68|342:68|397:80|397:80|448:70,1,160,12|8,0:0|0:0,0:0:0:0:
489,138,50231,2,0,P|432:190|462:257,1,160,4|2,0:3|0:3,0:0:0:0:
400,308,51265,2,0,P|417:344|422:391,2,80,4|8|4,0:3|0:0|0:0,0:0:0:0:
344,251,52300,6,0,L|243:257,1,100,8|2,0:0|0:3,0:0:0:0:
198,340,52989,2,0,P|129:346|86:285,1,150,8|4,0:0|0:3,0:0:0:0:
40,272,53679,2,0,P|43:321|36:371,2,100,8|2|8,0:0|0:3|0:0,0:0:0:0:
115,213,54714,6,0,P|70:182|25:179,2,100,4|4|4,0:0|0:3|0:3,0:0:0:0:
174,287,55748,1,8,0:0:0:0:
254,337,56093,2,0,P|304:340|339:306,1,100,4|4,0:3|0:3,0:0:0:0:
360,214,56783,2,0,P|364:165|378:113,1,100,8|8,0:0|0:0,0:0:0:0:
311,47,57472,6,0,L|212:56,1,100,12|8,0:0|0:0,0:0:0:0:
163,138,58162,2,0,P|94:147|74:218,1,150,8|4,0:0|0:0,0:0:0:0:
325,349,59714,2,0,L|382:342,1,50,4|8,0:3|0:0,0:0:0:0:
442,275,60231,6,0,P|465:232|463:182,1,100,4|8,0:0|0:0,0:0:0:0:
402,108,60921,2,0,B|354:120|354:120|303:109,1,100,4|8,0:3|0:0,0:0:0:0:
209,95,61610,2,0,B|161:83|161:83|110:94,1,100,4|8,0:3|0:0,0:0:0:0:
47,164,62300,2,0,P|24:207|26:257,1,100,4|8,0:3|0:0,0:0:0:0:
90,327,62989,5,4,0:3:0:0:
185,326,63334,2,0,P|230:321|265:359,2,100,8|4|8,0:0|0:3|0:0,0:0:0:0:
90,327,64369,2,0,P|101:281|104:228,1,100,4|8,0:3|0:0,0:0:0:0:
59,144,65058,2,0,P|59:97|98:66,1,100,4|8,0:3|0:0,0:0:0:0:
183,23,65748,6,0,L|335:14,2,150,4|2|8,0:0|0:3|0:0,0:0:0:0:
148,57,66955,2,0,B|128:110|128:110|168:136|159:194,1,150,4|8,0:0|0:0,0:0:0:0:
85,252,67817,2,0,L|74:355,1,100,4|8,0:3|0:0,0:0:0:0:
165,384,68507,6,0,L|175:284,1,100,4|8,0:0|0:0,0:0:0:0:
239,215,69196,2,0,B|337:203|337:203|381:236,1,150,4|4,0:3|0:0,0:0:0:0:
461,188,70058,2,0,P|489:152|479:101,1,100,4|4,0:0|0:0,0:0:0:0:
414,31,70748,2,0,B|348:47|333:14|266:34,1,150,12|4,0:0|0:0,0:0:0:0:
173,59,71610,5,8,0:0:0:0:
98,118,71955,2,0,P|60:147|50:196,1,100,4|8,0:3|0:0,0:0:0:0:
144,195,72645,2,0,L|243:195,1,100,4|8,0:3|0:0,0:0:0:0:
314,258,73334,2,0,P|359:274|385:317,1,100,4|8,0:3|0:0,0:0:0:0:
294,348,74024,5,4,0:3:0:0:
221,285,74369,2,0,P|195:325|201:375,2,100,8|4|8,0:0|0:3|0:0,0:0:0:0:
314,258,75403,2,0,P|382:256|410:186,2,150,4|4|8,0:3|0:0|0:0,0:0:0:0:
222,285,76783,6,0,P|236:332|235:386,2,100,4|8|4,0:0|0:0|0:3,0:0:0:0:
163,209,77817,2,0,L|152:109,2,100,8|4|8,0:0|0:0|0:0,0:0:0:0:
89,270,78852,1,4,0:3:0:0:
147,344,79196,1,8,0:0:0:0:
222,285,79541,6,0,P|266:301|320:286,1,100,4|8,0:0|0:0,0:0:0:0:
387,225,80231,2,0,P|368:298|363:373,2,150,8|4|8,0:0|0:0|0:0,0:0:0:0:
404,131,81610,2,0,P|434:98|488:101,2,100,4|8|4,0:3|0:0|0:0,0:0:0:0:
387,225,82645,5,8,0:0:0:0:
393,320,82989,2,0,P|343:315|299:344,1,100,8|8,0:0|0:0,0:0:0:0:
209,340,83679,2,0,P|167:314|119:320,1,100,8|8,0:0|0:0,0:0:0:0:
59,245,84369,2,0,L|49:95,2,150,8|4|8,0:0|0:0|0:0,0:0:0:0:
118,320,85748,6,0,P|166:318|210:290,1,100,8|8,0:0|0:0,0:0:0:0:
302,290,86438,2,0,P|344:317|394:320,1,100,8|8,0:0|0:0,0:0:0:0:
453,245,87127,2,0,L|463:95,2,150,8|4|12,0:0|0:0|0:0,0:0:0:0:
383,311,88507,5,8,0:0:0:0:
315,244,88852,2,0,L|306:144,2,100,8|8|8,0:0|0:0|0:0,0:0:0:0:
291,336,89886,2,0,B|243:353|198:319|141:337,2,150,8|4|2,0:0|0:0|0:3,0:0:0:0:
379,300,91265,6,0,P|422:286|448:237,1,100,2|2,0:3|0:3,0:0:0:0:
447,143,91955,2,0,P|425:100|379:84,1,100,2|2,0:3|0:3,0:0:0:0:
284,102,92645,2,0,L|234:85,1,50,8|8,0:0|0:0,0:0:0:0:
142,97,93162,6,0,P|73:90|57:16,2,150,4|8|4,0:0|0:0|0:3,0:0:0:0:
199,172,94541,2,0,B|179:275|179:275|202:319,1,150,8|8,0:0|0:0,0:0:0:0:
292,338,95403,2,0,B|339:335|339:335|386:359|386:359|438:354,2,150,2|8|8,0:3|0:0|0:0,0:0:0:0:
199,314,96783,6,0,P|174:315|147:322,1,50,4|4,0:3|0:3,0:0:0:0:
65,277,97300,2,0,B|53:180|53:180|86:134,1,150,8|8,0:0|0:0,0:0:0:0:
173,107,98162,2,0,P|133:54|53:47,2,150,2|8|8,0:3|0:0|0:0,0:0:0:0:
233,180,99541,2,0,P|231:106|234:30,2,150,4|8|8,0:3|0:0|0:0,0:0:0:0:
326,197,100921,2,0,P|398:206|431:269,1,150,4|8,0:3|0:0,0:0:0:0:
369,341,101783,6,0,B|326:368|326:368|275:344|231:381|231:381|187:367,1,200,4|4,0:3|0:3,0:0:0:0:
103,320,102817,2,0,B|98:269|98:269|124:224|188:241,1,150,8|8,0:0|0:0,0:0:0:0:
184,143,103679,2,0,B|124:160|98:115|98:115|103:64,1,150,2|8,0:3|0:0,0:0:0:0:
188,23,104541,6,0,B|264:0|312:55|384:26,1,200,4|4,0:3|0:3,0:0:0:0:
478,7,105576,2,0,B|468:106|468:106|492:151,1,150,8|8,0:0|0:0,0:0:0:0:
437,228,106438,2,0,B|386:229|386:229|344:255|344:255|290:255,2,150,6|8|8,0:3|0:0|0:0,0:0:0:0:
501,298,107818,6,0,P|509:321|512:351,1,50,4|4,0:3|0:3,0:0:0:0:
419,366,108335,2,0,B|321:341|321:341|276:364,1,150,8|8,0:0|0:0,0:0:0:0:
195,314,109197,2,0,P|128:307|105:235,2,150,4|8|8,0:3|0:0|0:0,0:0:0:0:
270,255,110576,6,0,L|421:266,2,150,4|8|8,0:3|0:0|0:0,0:0:0:0:
233,167,111955,2,0,P|234:93|224:17,1,150,2|8,0:3|0:0,0:0:0:0:
129,16,112817,6,0,B|100:52|100:52|118:106|78:145|78:145|88:195,1,200,4|8,0:3|0:0,0:0:0:0:
133,280,113852,2,0,B|229:257|229:257|275:282,1,150,8|8,0:0|0:0,0:0:0:0:
363,314,114714,2,0,P|404:284|419:231,2,100,8|8|4,0:0|0:3|0:0,0:0:0:0:
340,237,115748,5,2,0:3:0:0:
274,281,116093,2,0,B|193:271|193:271|114:295,2,160,12|2|8,0:0|0:3|0:0,0:0:0:0:
340,235,117817,1,2,0:3:0:0:
394,176,118162,6,0,P|394:119|408:56,2,120,4|4|2,0:3|0:3|0:3,0:0:0:0:
417,252,119541,2,0,P|449:279|463:321,1,80,2|2,0:3|0:3,0:0:0:0:
382,325,120231,2,0,L|295:320,2,80,8|8|4,0:0|0:3|0:0,0:0:0:0:
417,252,121266,5,2,0:3:0:0:
442,176,121610,2,0,P|447:117|422:63,1,120,8|4,0:0|0:3,0:0:0:0:
351,24,122472,2,0,B|281:42|281:42|235:27,1,120,8|8,0:0|0:0,0:0:0:0:
158,5,123334,1,2,0:3:0:0:
108,67,123679,6,0,L|120:226,1,160,12|8,0:0|0:0,0:0:0:0:
173,286,124714,2,0,P|244:288|270:214,1,160,2|12,0:3|0:0,0:0:0:0:
308,143,125748,2,0,P|308:103|316:51,2,80,8|8|4,0:3|0:3|0:0,0:0:0:0:
392,186,126783,6,0,L|492:182,1,100,8|4,0:0|0:3,0:0:0:0:
494,277,127472,2,0,L|342:282,1,150,8|4,0:0|0:3,0:0:0:0:
298,294,128162,2,0,P|325:337|334:384,2,100,8|2|8,0:0|0:3|0:0,0:0:0:0:
248,212,129196,6,0,P|254:161|278:119,2,100,4|4|4,0:0|0:3|0:3,0:0:0:0:
204,296,130231,1,8,0:0:0:0:
129,354,130576,2,0,P|79:353|54:313,1,100,4|4,0:3|0:3,0:0:0:0:
60,219,131265,2,0,P|78:154|82:115,1,100,8|8,0:0|0:0,0:0:0:0:
140,46,131955,6,0,P|186:55|240:60,1,100,12|8,0:0|0:0,0:0:0:0:
324,102,132645,2,0,P|385:122|389:199,1,150,8|4,0:0|0:0,0:0:0:0:
135,325,134197,2,0,L|85:331,1,50,4|8,0:3|0:0,0:0:0:0:
27,255,134714,6,0,P|58:220|65:166,1,100,4|8,0:0|0:0,0:0:0:0:
113,86,135404,2,0,B|160:71|160:71|209:80,1,100,4|8,0:3|0:0,0:0:0:0:
303,97,136093,2,0,B|352:106|352:106|399:91,1,100,4|8,0:3|0:0,0:0:0:0:
489,58,136783,2,0,P|478:110|477:158,1,100,4|8,0:3|0:0,0:0:0:0:
488,251,137472,5,4,0:3:0:0:
424,321,137817,2,0,P|466:344|519:341,2,100,8|4|8,0:0|0:3|0:0,0:0:0:0:
367,243,138852,2,0,P|367:168|358:93,2,150,4|4|8,0:3|0:0|0:0,0:0:0:0:
272,250,140231,6,0,P|264:175|267:100,2,150,4|0|8,0:0|0:0|0:0,0:0:0:0:
287,294,141438,2,0,L|137:305,1,150,4|8,0:0|0:0,0:0:0:0:
46,276,142300,2,0,P|54:227|46:178,1,100,4|8,0:3|0:0,0:0:0:0:
82,89,142990,6,0,P|130:94|169:61,1,100,4|8,0:0|0:0,0:0:0:0:
255,26,143679,2,0,B|355:14|355:14|397:43,1,150,4|4,0:3|0:0,0:0:0:0:
456,115,144541,2,0,P|444:162|443:213,1,100,4|4,0:0|0:0,0:0:0:0:
433,308,145231,2,0,B|356:335|360:290|284:309,1,150,12|4,0:0|0:0,0:0:0:0:
210,365,146093,5,8,0:0:0:0:
121,330,146438,2,0,P|106:284|123:235,1,100,4|8,0:3|0:0,0:0:0:0:
206,192,147128,2,0,L|305:192,1,100,4|8,0:3|0:0,0:0:0:0:
390,236,147817,2,0,P|405:283|391:330,1,100,4|8,0:3|0:0,0:0:0:0:
306,285,148507,5,4,0:3:0:0:
306,192,148852,2,0,P|317:147|316:94,2,100,8|4|8,0:0|0:3|0:0,0:0:0:0:
223,238,149886,2,0,B|145:259|155:215|72:238,2,150,4|4|8,0:3|0:0|0:0,0:0:0:0:
318,240,151266,6,0,P|367:233|409:258,2,100,4|8|4,0:0|0:0|0:3,0:0:0:0:
318,144,152300,2,0,P|367:151|409:126,2,100,8|4|8,0:0|0:3|0:0,0:0:0:0:
244,83,153334,2,0,P|196:69|152:91,1,100,4|8,0:3|0:0,0:0:0:0:
82,153,154024,6,0,P|72:202|74:254,1,100,4|8,0:0|0:0,0:0:0:0:
154,302,154714,2,0,L|4:313,2,150,4|4|8,0:3|0:0|0:0,0:0:0:0:
243,269,156093,2,0,P|292:270|330:303,2,100,8|8|4,0:0|0:3|0:0,0:0:0:0:
177,222,157127,6,0,P|177:182|186:142,1,80,2|8,0:3|0:0,0:0:0:0:
243,86,157817,2,0,L|123:92,2,120,2|8|8,0:3|0:0|0:0,0:0:0:0:
317,56,159196,1,2,0:3:0:0:
391,85,159541,6,0,B|449:82|449:82|490:115|473:176,1,160,12|8,0:0|0:0,0:0:0:0:
430,242,160576,2,0,P|441:300|443:369,2,120,4|8|8,0:3|0:0|0:0,0:0:0:0:
356,209,161955,1,2,0:3:0:0:
295,261,162300,6,0,B|231:241|198:276|137:254,1,160,12|8,0:0|0:0,0:0:0:0:
86,192,163334,1,4,0:3:0:0:
137,130,163679,2,0,B|198:152|231:117|294:136,1,160,4|8,0:0|0:0,0:0:0:0:
353,192,164714,1,2,0:3:0:0:
409,248,165058,6,0,P|412:166|426:87,2,160,12|8|2,0:0|0:0|0:3,0:0:0:0:
447,318,166783,1,8,0:0:0:0:
367,318,167127,2,0,P|327:320|294:344,1,80,4|8,0:3|0:0,0:0:0:0:
207,364,167817,6,0,B|223:277|223:277|203:235,2,134.999995880127,4|12|8,0:0|0:0|0:0,0:0:0:0:
117,356,169196,2,0,B|70:371|36:342|36:342|25:294,1,134.999995880127,4|8,0:3|0:0,0:0:0:0:
39,205,170058,2,0,P|39:181|46:160,1,44.999998626709,4|8,0:3|0:0,0:0:0:0:
130,128,170576,6,0,B|43:111|43:111|7:72,2,134.999995880127,4|12|8,0:0|0:0|0:0,0:0:0:0:
219,121,171955,2,0,P|263:120|300:94,1,89.9999972534181,8|4,0:0|0:3,0:0:0:0:
377,48,172645,2,0,P|420:45|464:67,1,89.9999972534181,8|8,0:3|0:0,0:0:0:0:
487,161,173334,6,0,P|476:211|475:264,1,100,4|8,0:0|0:0,0:0:0:0:
375,270,174024,2,0,P|326:260|277:282,2,100,0|8|4,1:0|1:2|0:3,0:0:0:0:
335,361,175058,1,8,0:0:0:0:
434,351,175403,2,0,P|470:316|476:268,1,100,0|8,1:0|0:0,0:0:0:0:
437,175,176093,6,0,P|434:125|443:77,1,100,4|8,0:0|1:2,0:0:0:0:
363,15,176783,2,0,B|313:14|313:14|267:35,1,100,0|8,1:0|0:0,0:0:0:0:
208,115,177472,2,0,P|223:161|224:225,1,100,4|8,0:3|0:0,0:0:0:0:
147,275,178162,2,0,P|98:269|77:226,2,100,8|8|4,0:0|0:0|0:0,0:0:0:0:
225,212,179196,6,0,B|308:186|333:245|425:211,2,200,8|8|8,0:0|1:2|1:2,0:0:0:0:
147,275,180921,2,0,P|157:323|143:370,1,100,8|8,0:0|0:0,0:0:0:0:
57,318,181610,6,0,P|51:245|103:186,1,150,4|8,0:0|0:0,0:0:0:0:
231,121,182645,2,0,B|274:138|274:138|323:141|354:84,1,150,8|8,0:0|0:0,0:0:0:0:
451,58,183507,2,0,P|430:133|429:206,1,150,8|8,0:0|0:3,0:0:0:0:
456,300,184369,5,4,0:0:0:0:
142,342,185748,1,2,0:0:0:0:
68,30,187127,6,0,P|80:109|83:190,1,160,2|2,0:0|0:0,0:0:0:0:
142,342,188507,2,0,P|176:321|219:324,1,80,2|0,0:0|0:0,0:0:0:0:
296,322,189196,2,0,P|336:321|370:342,1,80,0|2,0:0|0:0,0:0:0:0:
447,322,189886,6,0,B|472:289|472:289|474:248|447:213,1,120,2|2,0:0|0:0,0:0:0:0:
385,113,190921,2,0,P|442:102|462:49,2,120,2|2|2,0:0|0:0|0:0,0:0:0:0:
314,75,192300,1,2,0:0:0:0:
239,45,192645,6,0,P|181:38|136:78,1,120,2|2,0:0|0:0,0:0:0:0:
48,157,193679,2,0,L|44:35,2,120,2|2|2,0:0|0:0|0:0,0:0:0:0:
92,223,195058,1,8,0:1:0:0:
153,277,195403,6,0,P|195:282|234:258,1,89.9999972534181,4|8,0:0|0:1,0:0:0:0:
323,244,196093,2,0,L|315:340,1,89.9999972534181,0|8,0:0|0:1,0:0:0:0:
405,327,196783,2,0,L|412:237,1,89.9999972534181,0|8,0:0|0:1,0:0:0:0:
416,147,197472,2,0,P|456:129|476:86,1,89.9999972534181,0|8,0:0|0:1,0:0:0:0:
389,62,198162,5,4,0:0:0:0:
327,127,198507,2,0,P|285:120|241:138,2,89.9999972534181,8|0|8,0:1|0:0|0:1,0:0:0:0:
416,147,199541,1,0,0:0:0:0:
491,98,199886,2,0,P|495:52|489:9,2,89.9999972534181,8|0|4,0:1|0:0|0:0,0:0:0:0:
501,192,200921,6,0,L|495:292,2,100,12|4|4,0:0|0:3|0:3,0:0:0:0:
416,147,201955,1,8,0:0:0:0:
342,86,202300,2,0,P|293:98|243:80,1,100,4|4,0:3|0:3,0:0:0:0:
157,50,202989,2,0,P|107:44|63:66,1,100,8|8,0:0|0:0,0:0:0:0:
36,158,203679,6,0,P|48:208|50:260,1,100,12|8,0:0|0:0,0:0:0:0:
134,299,204369,2,0,P|209:293|234:354,1,150,8|4,0:0|0:0,0:0:0:0:
423,139,205921,2,0,L|432:83,1,50,4|8,0:3|0:0,0:0:0:0:
373,14,206438,6,0,B|327:33|327:33|278:25,1,100,4|8,0:0|0:0,0:0:0:0:
184,44,207128,2,0,P|199:93|201:147,1,100,4|8,0:3|0:0,0:0:0:0:
182,234,207817,2,0,P|167:283|165:337,1,100,4|8,0:3|0:0,0:0:0:0:
251,370,208507,2,0,B|300:362|300:362|346:381,1,100,4|8,0:3|0:0,0:0:0:0:
438,358,209196,5,4,0:3:0:0:
487,276,209541,2,0,P|494:229|493:177,2,100,8|4|8,0:0|0:3|0:0,0:0:0:0:
390,275,210576,2,0,P|341:275|302:304,1,100,4|8,0:3|0:0,0:0:0:0:
210,344,211265,2,0,P|161:339|124:306,1,100,4|8,0:3|0:0,0:0:0:0:
54,234,211955,6,0,P|64:306|62:383,2,150,4|2|8,0:0|0:3|0:0,0:0:0:0:
40,185,213162,2,0,B|25:137|25:137|29:84|82:62,1,150,4|8,0:0|0:0,0:0:0:0:
129,150,214024,2,0,P|158:191|166:244,1,100,4|8,0:3|0:0,0:0:0:0:
164,339,214714,6,0,L|264:331,1,100,4|8,0:0|0:0,0:0:0:0:
362,306,215403,2,0,B|461:318|461:318|502:290,1,150,12|4,0:3|0:0,0:0:0:0:
510,194,216265,2,0,P|507:144|482:100,1,100,4|4,0:0|0:0,0:0:0:0:
407,42,216955,2,0,B|350:22|321:65|257:45,1,150,4|4,0:0|0:0,0:0:0:0:
168,19,217817,5,8,0:0:0:0:
74,36,218162,2,0,P|26:38|-7:75,1,100,8|8,0:0|0:0,0:0:0:0:
8,168,218852,2,0,L|13:269,1,100,8|8,0:0|0:0,0:0:0:0:
87,326,219541,2,0,P|135:328|168:365,1,100,8|8,0:0|0:0,0:0:0:0:
263,366,220231,5,8,0:0:0:0:
306,281,220576,2,0,P|306:230|312:181,2,100,8|8|8,0:0|0:0|0:0,0:0:0:0:
395,311,221610,2,0,L|496:320,1,100,8|8,0:0|0:0,0:0:0:0:
507,225,222300,2,0,L|407:216,1,100,8|8,0:0|0:0,0:0:0:0:
357,134,222990,6,0,P|363:85|354:36,2,100,12|8|8,0:0|0:0|0:0,0:0:0:0:
260,134,224024,2,0,P|254:85|263:36,2,100,8|8|8,0:0|0:0|0:0,0:0:0:0:
309,217,225058,2,0,P|337:256|336:308,1,100,8|8,0:0|0:0,0:0:0:0:
264,368,225748,6,8,L|416:360,2,150,12|12|8,0:0|0:0|0:0,0:0:0:0:
222,343,226955,2,0,P|156:342|134:270,1,150,12|8,0:0|0:0,0:0:0:0:
144,176,227817,2,0,P|143:127|126:78,2,100,8|8|4,0:0|0:0|0:0,0:0:0:0:
57,216,228852,5,8,0:0:0:0:
133,271,229196,2,0,L|232:273,1,100,8|8,0:0|0:0,0:0:0:0:
322,241,229886,2,0,P|326:286|303:337,2,100,8|8|8,0:0|0:0|0:0,0:0:0:0:
270,160,230921,1,8,0:0:0:0:
192,106,231265,6,0,P|144:118|99:98,1,100,8|8,0:0|0:0,0:0:0:0:
31,31,231955,2,0,P|49:104|50:181,1,150,8|4,0:3|0:0,0:0:0:0:
256,192,232645,12,8,235403,0:3:0:0:
376,90,236783,6,0,P|397:136|396:185,1,100,4|8,0:0|0:0,0:0:0:0:
329,243,237472,2,0,L|478:231,2,150,2|4|8,0:3|0:0|0:0,0:0:0:0:
262,311,238852,2,0,P|224:278|174:283,1,100,4|8,0:3|0:0,0:0:0:0:
108,215,239541,6,0,P|107:165|130:118,1,100,4|8,0:3|0:0,0:0:0:0:
209,70,240231,2,0,L|59:63,2,150,4|4|8,0:3|0:0|0:0,0:0:0:0:
303,78,241610,2,0,P|351:84|391:52,1,100,2|8,0:3|0:0,0:0:0:0:
483,34,242300,6,0,P|471:82|468:139,1,100,12|8,0:0|0:0,0:0:0:0:
399,198,242989,2,0,B|347:179|305:217|252:194,2,150,2|4|8,0:3|0:0|0:0,0:0:0:0:
481,244,244369,2,0,P|497:291|495:344,1,100,2|8,0:3|0:0,0:0:0:0:
405,370,245058,6,0,L|305:380,1,100,4|8,0:3|0:0,0:0:0:0:
226,326,245748,2,0,P|199:291|145:286,1,100,4|8,0:3|0:0,0:0:0:0:
114,249,246265,2,0,B|106:191|43:165|43:165|96:126|110:76|110:76|155:101|220:90|220:90|195:153|231:198,1,450,4|4,0:0|0:0,0:0:0:0:
304,137,248162,5,8,0:0:0:0:
368,206,248507,2,0,P|391:277|392:353,2,150,8|4|8,0:0|0:0|0:0,0:0:0:0:
396,115,249886,2,0,L|495:108,1,100,8|8,0:0|0:0,0:0:0:0:
469,16,250576,6,0,L|370:23,1,100,8|8,0:0|0:0,0:0:0:0:
303,92,251266,2,0,B|241:78|212:110|152:94,2,150,8|4|8,0:0|0:0|0:0,0:0:0:0:
396,115,252645,2,0,P|414:162|416:218,1,100,8|8,0:0|0:0,0:0:0:0:
363,289,253334,6,0,L|263:295,1,100,12|8,0:0|0:0,0:0:0:0:
174,330,254024,2,0,P|126:338|91:377,2,100,8|8|8,0:0|0:0|0:0,0:0:0:0:
190,236,255058,1,8,0:0:0:0:
259,171,255403,2,0,L|258:71,1,100,8|8,0:0|0:0,0:0:0:0:
352,59,256093,6,0,L|352:158,1,100,8|8,0:0|0:0,0:0:0:0:
357,254,256783,2,0,B|406:247|406:247|454:264|454:264|502:259,1,150,8|12,0:0|0:0,0:0:0:0:
256,192,257472,12,0,263679,0:0:0:0:
