osu file format v14

[General]
AudioFilename: HaruModoki.mp3
AudioLeadIn: 1000
PreviewTime: 134534
Countdown: 0
SampleSet: Soft
StackLeniency: 0.5
Mode: 0
LetterboxInBreaks: 0
WidescreenStoryboard: 0

[Editor]
Bookmarks: 7645,18679,29714,40921,60231,84886,93162,115403,134714,156783,173334,184369,195403,206438,236783,247817,257300,262989
DistanceSpacing: 0.7
BeatDivisor: 4
GridSize: 4
TimelineZoom: 3.499999

[Metadata]
Title:Haru Modoki
TitleUnicode:春擬き
Artist:yanaginagi
ArtistUnicode:やなぎなぎ
Creator:Meg
Version:Genuine
Source:やはり俺の青春ラブコメはまちがっている。続
Tags:iMage-- IamKwaN Meyrink yahari ore no seishun love come wa machigatteiru. zoku opening oregairu my teen romantic comedy snafu
BeatmapID:714591
BeatmapSetID:321203

[Difficulty]
HPDrainRate:6
CircleSize:4
OverallDifficulty:8
ApproachRate:9
SliderMultiplier:1.7
SliderTickRate:1

[Events]
//Background and Video events
0,0,"BG.jpg",0,0
//Break Periods
2,85086,92045
2,184569,194803
//Storyboard Layer 0 (Background)
//Storyboard Layer 1 (Fail)
//Storyboard Layer 2 (Pass)
//Storyboard Layer 3 (Foreground)
//Storyboard Sound Samples

[TimingPoints]
921,344.827586206897,4,2,2,50,1,0
921,-200,4,2,2,50,0,0
6438,-100,4,2,1,60,0,0
15921,-133.333333333333,4,2,1,60,0,0
20921,-83.3333333333333,4,2,1,60,0,0
21438,-133.333333333333,4,2,1,60,0,0
23679,-83.3333333333333,4,2,1,60,0,0
24196,-133.333333333333,4,2,1,60,0,0
26438,-83.3333333333333,4,2,1,60,0,0
26955,-133.333333333333,4,2,1,60,0,0
29714,-100,4,2,1,60,0,0
40921,-200,4,2,1,60,0,0
51955,-100,4,2,1,60,0,0
58852,-100,4,2,1,40,0,0
59886,-66.6666666666667,4,2,1,60,0,0
60231,-90.9090909090909,4,2,1,70,0,1
82300,-100,4,2,1,70,0,0
84886,-100,4,2,1,60,0,0
93162,-133.333333333333,4,2,1,60,0,0
115403,-200,4,2,1,60,0,0
126438,-100,4,2,1,60,0,0
133334,-100,4,2,1,40,0,0
134714,-90.9090909090909,4,2,1,70,0,1
156783,-133.333333333333,4,2,1,60,0,0
167817,-100,4,2,1,60,0,0
169196,-133.333333333333,4,2,1,60,0,0
170576,-100,4,2,1,60,0,0
171955,-133.333333333333,4,2,1,60,0,0
173334,-100,4,2,1,60,0,0
195403,-200,4,3,1,50,0,0
200921,-100,4,2,1,50,0,0
205058,-100,4,2,1,40,0,0
205748,-100,4,2,1,60,0,0
206438,-83.3333333333333,4,2,1,80,0,1
231265,-100,4,2,1,80,0,1
232472,-200,4,2,1,60,0,0
235403,-133.333333333333,4,2,1,60,0,0
235748,-100,4,2,1,60,0,0
236783,-100,4,2,1,70,0,1
236869,-100,4,2,1,70,0,0
247817,-100,4,2,1,80,0,0
258162,-100,4,2,1,70,0,0
258852,-100,4,2,1,60,0,0
259541,-100,4,2,1,50,0,0
260231,-100,4,2,1,40,0,0
260921,-100,4,2,1,30,0,0
261610,-100,4,2,1,20,0,0
262300,-100,4,2,1,10,0,0
262989,-100,4,2,1,5,0,0

[Colours]
Combo1 : 128,255,128
Combo2 : 128,255,255
Combo3 : 255,128,128
Combo4 : 255,255,128

[HitObjects]
408,168,921,6,0,P|366:167|328:184,1,85,2|0,0:0|0:0,0:0:0:0:
200,335,1610,2,0,P|222:299|226:258,1,85
159,72,2300,6,0,P|179:109|213:133,2,85,2|0|0,0:0|0:0|0:0,0:0:0:0:
256,48,3334,1,0,0:0:0:0:
256,192,3679,5,2,0:0:0:0:
134,167,4024,2,0,B|88:160|53:187,1,85
48,324,4714,1,0,0:0:0:0:
48,324,5058,5,2,0:0:0:0:
170,236,5403,2,0,P|200:206|209:165,1,85
84,64,6093,1,0,0:0:0:0:
135,167,6438,6,0,P|155:175|177:176,3,42.5,2|2|2|2,0:0|0:0|0:0|0:0,0:0:0:0:
244,212,6783,2,0,P|265:213|285:220,3,42.5,2|2|2|2,0:0|0:0|0:0|0:0,0:0:0:0:
248,292,7127,1,8,0:0:0:0:
207,284,7214,1,8,0:0:0:0:
176,256,7300,1,8,0:0:0:0:
165,216,7386,1,8,0:0:0:0:
176,176,7472,2,0,P|183:156|184:134,1,42.5,8|8,0:0|0:0,0:0:0:0:
152,52,7645,6,0,B|208:32|252:76|252:76|284:80|312:71,1,170,12|0,0:0|0:0,0:0:0:0:
453,95,8162,2,0,L|463:179,1,85,8|0,0:0|0:0,0:0:0:0:
320,308,8507,1,8,0:0:0:0:
362,177,8679,1,2,0:0:0:0:
406,264,8852,1,8,0:0:0:0:
276,221,9024,1,0,0:0:0:0:
391,339,9196,6,0,P|433:336|466:310,1,85,8|0,0:0|0:0,0:0:0:0:
290,145,9541,2,0,P|248:148|215:174,1,85,8|0,0:0|0:0,0:0:0:0:
406,264,9886,1,8,0:0:0:0:
276,221,10058,1,2,0:0:0:0:
464,180,10231,1,8,0:0:0:0:
320,308,10403,6,0,B|272:328|232:308|232:308|204:332|158:333,1,170,12|0,0:0|0:0,0:0:0:0:
172,160,10921,2,0,P|177:201|168:243,1,85,8|0,0:0|0:0,0:0:0:0:
68,200,11265,1,8,0:0:0:0:
48,320,11438,1,2,0:0:0:0:
101,203,11610,1,8,0:0:0:0:
14,316,11783,1,0,0:0:0:0:
175,241,11955,6,0,P|184:200|172:160,1,85,8|0,0:0|0:0,0:0:0:0:
248,277,12300,2,0,P|236:317|245:359,1,85,8|0,0:0|0:0,0:0:0:0:
312,176,12645,1,8,0:0:0:0:
171,159,12817,1,2,0:0:0:0:
180,320,12989,1,8,0:0:0:0:
248,112,13162,6,0,B|248:28|248:28|208:40|177:74,1,170,12|0,0:0|0:0,0:0:0:0:
104,200,13679,2,0,L|21:181,1,85,8|0,0:0|0:0,0:0:0:0:
180,244,14024,1,8,0:0:0:0:
131,122,14196,1,2,0:0:0:0:
267,241,14369,1,8,0:0:0:0:
218,119,14541,1,0,0:0:0:0:
353,237,14714,6,0,P|361:279|358:321,1,85,8|0,0:0|0:0,0:0:0:0:
220,168,15058,2,0,L|236:84,1,85,8|0,0:0|0:0,0:0:0:0:
396,80,15403,1,10,0:0:0:0:
396,80,15489,1,10,0:0:0:0:
396,80,15576,1,10,0:0:0:0:
267,241,15748,1,0,3:0:0:0:
131,122,15921,6,0,B|88:120|64:140|64:140|46:193,1,127.500004863739,4|0,0:0|0:0,0:0:0:0:
128,316,16438,2,0,P|137:285|141:254,1,63.7500024318696,2|0,3:0|0:0,0:0:0:0:
131,122,16783,1,2,3:0:0:0:
131,122,17127,1,2,3:0:0:0:
276,128,17472,6,0,L|307:130,2,31.8750012159348,4|0|0,3:0|0:0|0:0,0:0:0:0:
368,188,17731,1,4,3:0:0:0:
368,188,17817,2,0,L|361:219,1,31.8750012159348,4|0,3:0|0:0,0:0:0:0:
456,160,17989,2,0,L|460:180,1,21.2500008106232,4|2,3:0|0:0,0:0:0:0:
440,272,18162,1,8,0:0:0:0:
384,72,18334,1,8,0:0:0:0:
384,71,18679,6,0,P|320:79|258:68,1,127.500004863739,6|0,0:0|0:0,0:0:0:0:
160,88,19196,2,0,P|155:119|159:150,1,63.7500024318696,8|0,0:0|0:0,0:0:0:0:
212,224,19541,2,0,L|243:217,1,31.8750012159348,2|2,0:0|0:0,0:0:0:0:
191,235,19714,2,0,P|194:283|173:326,1,95.6250036478044,2|0,0:0|0:0,0:0:0:0:
160,332,20058,6,0,L|66:312,1,95.6250036478044,8|0,0:0|3:0,0:0:0:0:
36,312,20403,2,0,P|31:280|35:249,1,63.7500024318696,0|8,3:0|0:0,0:0:0:0:
116,144,20921,6,0,L|108:245,1,101.999996887207,0|0,1:0|1:0,0:0:0:0:
51,96,21438,6,0,P|104:64|163:81,1,127.500004863739,8|0,0:0|3:0,0:0:0:0:
248,136,21955,2,0,L|311:126,1,63.7500024318696,8|0,0:0|0:0,0:0:0:0:
400,80,22300,1,2,0:0:0:0:
300,200,22472,2,0,L|236:209,1,63.7500024318696,2|0,0:0|3:0,0:0:0:0:
360,300,22817,6,0,P|381:240|376:177,1,127.500004863739,8|2,0:0|0:0,0:0:0:0:
224,282,23334,1,8,0:0:0:0:
225,282,23679,6,0,L|124:297,1,101.999996887207,0|0,1:0|1:0,0:0:0:0:
160,96,24196,6,0,B|156:128|156:128|184:160|183:216,1,127.500004863739,8|0,0:0|3:0,0:0:0:0:
76,196,24714,1,8,0:0:0:0:
32,76,24886,1,0,0:0:0:0:
160,96,25058,1,2,0:0:0:0:
235,40,25231,2,0,P|282:30|329:38,1,95.6250036478044,2|2,0:0|0:0,0:0:0:0:
384,84,25576,6,0,P|359:103|328:110,1,63.7500024318696,8|0,0:0|0:0,0:0:0:0:
252,172,25921,1,0,3:0:0:0:
260,320,26093,1,8,0:0:0:0:
420,344,26438,6,0,L|415:242,1,101.999996887207,0|0,1:0|1:0,0:0:0:0:
415,242,26955,1,12,0:0:0:0:
415,242,29024,6,0,L|393:243,1,21.2500008106232,2|2,0:0|0:0,0:0:0:0:
260,252,29196,1,8,0:0:0:0:
392,160,29369,1,8,0:0:0:0:
291,324,29714,6,0,P|211:316|181:241,1,170,6|0,0:0|0:0,0:0:0:0:
124,132,30231,2,0,L|39:124,1,85,8|0,0:0|0:0,0:0:0:0:
40,240,30576,1,2,0:0:0:0:
199,168,30748,2,0,P|208:126|196:86,1,85,2|8,0:0|0:0,0:0:0:0:
128,216,31093,6,0,L|135:300,1,85,0|2,0:0|0:0,0:0:0:0:
124,132,31438,1,0,0:0:0:0:
255,275,31610,2,0,P|297:284|338:276,1,85,8|0,0:0|0:0,0:0:0:0:
468,200,31955,1,2,1:2:0:0:
336,132,32127,1,2,1:2:0:0:
440,304,32300,1,8,0:0:0:0:
424,120,32472,6,0,L|416:35,1,85,2|0,1:2|0:0,0:0:0:0:
196,116,32817,1,0,0:0:0:0:
336,132,32989,1,8,0:0:0:0:
304,24,33162,1,0,0:0:0:0:
224,144,33334,1,2,0:0:0:0:
319,251,33507,2,0,P|324:294|317:335,1,85,2|8,0:0|0:0,0:0:0:0:
232,220,33852,6,0,L|401:236,1,170,2|0,0:0|0:0,0:0:0:0:
236,304,34369,2,0,L|151:312,1,85,8|0,0:0|0:0,0:0:0:0:
36,288,34714,1,2,1:2:0:0:
148,160,34886,1,2,1:2:0:0:
236,304,35058,1,8,0:0:0:0:
136,136,35231,6,0,P|131:93|137:51,1,85,6|0,1:2|0:0,0:0:0:0:
336,92,35576,1,0,0:0:0:0:
212,124,35748,1,8,0:0:0:0:
336,162,35921,1,0,0:0:0:0:
212,194,36093,1,2,0:0:0:0:
336,233,36265,2,0,L|320:328,1,85,2|8,0:0|0:0,0:0:0:0:
451,232,36610,6,0,P|469:193|469:151,1,85,0|2,0:0|0:0,0:0:0:0:
336,162,36955,1,0,0:0:0:0:
212,194,37127,2,0,L|127:206,1,85,8|0,0:0|0:0,0:0:0:0:
152,112,37472,1,0,1:2:0:0:
184,280,37645,1,0,1:2:0:0:
314,169,37817,1,8,0:0:0:0:
127,206,37989,6,0,P|65:152|64:70,1,170,6|2,1:2|0:0,0:0:0:0:
236,99,38507,2,0,L|151:111,1,85,8|0,0:0|0:0,0:0:0:0:
316,24,38852,1,2,3:2:0:0:
380,112,39024,2,0,P|398:149|395:191,1,85,2|8,3:2|0:0,0:0:0:0:
312,288,39369,1,2,0:0:0:0:
312,288,39455,1,0,0:0:0:0:
312,288,39541,5,6,0:0:0:0:
314,169,39714,1,0,0:0:0:0:
412,312,39886,1,8,0:0:0:0:
487,156,40058,1,0,0:0:0:0:
314,169,40231,6,0,L|369:179,2,56.6666666666667,8|8|8,0:0|0:0|0:0,0:0:0:0:
177,141,40576,2,0,L|121:151,2,56.6666666666667,2|2|2,0:0|0:0|0:0,0:0:0:0:
268,36,40921,5,6,0:0:0:0:
177,141,41610,2,0,P|181:184|172:225,1,85,8|0,0:0|3:0,0:0:0:0:
80,312,42300,1,0,3:0:0:0:
148,352,42472,2,0,L|190:345,1,42.5,8|0,0:0|0:0,0:0:0:0:
308,324,42989,2,0,B|304:300|304:300|308:280|308:280|300:260|300:240,1,85,8|0,0:0|3:0,0:0:0:0:
416,176,43679,6,0,B|420:152|420:152|416:132|416:132|424:112|423:92,1,85,2|0,3:0|3:0,0:0:0:0:
364,40,44196,1,0,0:0:0:0:
308,96,44369,2,0,P|325:107|345:115,1,42.5,8|0,0:0|0:0,0:0:0:0:
244,48,44714,2,0,L|159:55,1,85,0|0,3:0|3:0,0:0:0:0:
92,144,45231,2,0,L|130:126,1,42.5,0|0,0:0|3:0,0:0:0:0:
296,212,45748,2,0,L|257:194,2,42.5,8|2|2,0:0|0:0|3:0,0:0:0:0:
76,328,46438,6,0,L|88:244,1,85,4|0,0:0|3:0,0:0:0:0:
168,112,47127,2,0,P|176:153|161:192,1,85,8|0,0:0|3:0,0:0:0:0:
92,144,47645,1,0,0:0:0:0:
100,60,47817,1,2,0:0:0:0:
210,116,47989,2,0,P|188:115|168:112,1,42.5,8|2,0:0|0:0,0:0:0:0:
284,44,48507,2,0,L|325:37,1,42.5,8|0,0:0|0:0,0:0:0:0:
376,100,48852,2,0,L|417:93,1,42.5,0|0,3:0|0:0,0:0:0:0:
468,156,49196,6,0,P|472:198|465:240,1,85,4|0,0:0|3:0,0:0:0:0:
388,304,49714,1,0,0:0:0:0:
312,236,49886,2,0,L|269:233,1,42.5,8|0,0:0|0:0,0:0:0:0:
136,176,50231,1,0,3:0:0:0:
172,304,50403,1,0,3:0:0:0:
224,156,50576,5,0,3:0:0:0:
224,156,50748,1,2,3:2:0:0:
60,200,50921,2,0,P|59:157|78:120,2,85,0|8|8,3:0|0:0|3:2,0:0:0:0:
172,304,51783,1,0,0:0:0:0:
172,304,51869,1,0,0:0:0:0:
172,304,51955,6,0,L|256:296,1,85,6|0,0:0|0:0,0:0:0:0:
360,316,52300,2,0,B|328:272|348:220|348:220|344:180|321:158,1,170,8|0,0:0|3:0,0:0:0:0:
432,256,52817,1,0,0:0:0:0:
256,220,52989,2,0,L|171:227,1,85,8|0,0:0|0:0,0:0:0:0:
51,192,53334,6,0,P|6:129|67:83,1,170,0|8,3:0|0:0,0:0:0:0:
180,72,53852,1,0,0:0:0:0:
152,180,54024,2,0,L|156:264,1,85,0|0,3:0|0:0,0:0:0:0:
292,88,54369,2,0,L|288:172,1,85,8|0,0:0|0:0,0:0:0:0:
252,320,54714,5,6,0:0:0:0:
359,343,54886,1,2,0:0:0:0:
393,341,54972,1,2,0:0:0:0:
424,327,55058,1,2,0:0:0:0:
449,304,55145,1,2,0:0:0:0:
464,274,55231,1,2,0:0:0:0:
468,240,55317,1,2,0:0:0:0:
461,207,55403,6,0,P|455:187|441:171,3,42.5,2|0|0|2,0:0|0:0|0:0|0:0,0:0:0:0:
360,156,55748,2,0,P|346:140|340:119,3,42.5,10|2|2|2,0:0|0:0|0:0|0:0,0:0:0:0:
420,96,56093,5,2,0:0:0:0:
420,96,56179,1,0,0:0:0:0:
420,96,56265,2,0,L|461:89,1,42.5,10|2,0:0|0:0,0:0:0:0:
364,240,56438,1,2,0:0:0:0:
343,236,56524,1,2,0:0:0:0:
322,233,56610,1,2,0:0:0:0:
301,229,56696,1,2,0:0:0:0:
280,226,56783,6,0,L|238:236,1,42.5,10|2,0:0|0:0,0:0:0:0:
166,325,56955,2,0,L|208:336,1,42.5,2|2,0:0|0:0,0:0:0:0:
316,344,57127,2,0,L|309:302,1,42.5,10|2,0:0|0:0,0:0:0:0:
164,206,57300,2,0,L|158:248,1,42.5,2|2,0:0|0:0,0:0:0:0:
328,156,57472,6,0,L|336:72,1,85,10|2,0:0|0:0,0:0:0:0:
180,48,57817,1,10,0:0:0:0:
164,206,57989,2,0,L|172:290,1,85,2|10,0:0|0:0,0:0:0:0:
166,325,58248,1,10,0:0:0:0:
166,325,58334,2,0,L|124:314,1,42.5,10|2,0:0|0:0,0:0:0:0:
280,264,58507,2,0,L|238:253,1,42.5,6|0,0:0|0:0,0:0:0:0:
394,203,58679,2,0,L|352:192,1,42.5,14|2,0:0|0:0,0:0:0:0:
243,120,58852,5,2,0:0:0:0:
213,129,58938,1,2,0:0:0:0:
187,148,59024,1,2,0:0:0:0:
170,175,59110,1,2,0:0:0:0:
163,205,59196,5,2,0:0:0:0:
166,226,59283,1,2,0:0:0:0:
169,248,59369,1,2,0:0:0:0:
172,269,59455,1,2,0:0:0:0:
175,290,59541,6,0,L|168:332,1,42.5,2|2,0:0|0:0,0:0:0:0:
280,264,59714,2,0,L|273:221,1,42.5,2|2,0:0|0:0,0:0:0:0:
94,238,59886,6,0,B|72:204|32:200|32:200|24:128|94:120,1,191.250007295609,8|0,0:0|0:0,0:0:0:0:
187,148,60231,6,0,P|232:158|276:145,1,93.5000028533936,6|0,0:0|0:0,0:0:0:0:
368,16,60576,2,0,L|364:109,1,93.5000028533936,8|0,0:0|0:0,0:0:0:0:
228,48,60921,1,2,0:0:0:0:
356,192,61093,1,2,0:0:0:0:
187,148,61265,2,0,P|141:138|97:151,1,93.5000028533936,8|0,0:0|0:0,0:0:0:0:
156,256,61610,6,0,B|224:272|264:228|264:228|272:264|268:296,1,187.000005706787,2|8,0:0|0:0,0:0:0:0:
188,348,62127,1,0,0:0:0:0:
72,284,62300,2,0,P|69:237|90:197,1,93.5000028533936,2|2,0:0|0:0,0:0:0:0:
220,32,62645,2,0,P|222:78|201:118,1,93.5000028533936,8|0,0:0|0:0,0:0:0:0:
187,148,62903,1,0,0:0:0:0:
187,148,62989,6,0,P|233:143|280:147,1,93.5000028533936,2|0,0:0|0:0,0:0:0:0:
396,224,63334,2,0,B|380:188|380:188|416:45,1,187.000005706787,8|2,0:0|0:0,0:0:0:0:
488,168,63852,1,2,0:0:0:0:
484,264,64024,2,0,L|468:364,1,93.5000028533936,8|0,0:0|0:0,0:0:0:0:
264,276,64369,5,2,0:0:0:0:
396,224,64541,1,0,0:0:0:0:
375,364,64714,1,8,0:0:0:0:
320,224,64886,2,0,L|335:131,1,93.5000028533936,0|2,0:0|0:0,0:0:0:0:
375,364,65231,1,2,0:0:0:0:
248,200,65403,2,0,L|263:107,1,93.5000028533936,8|0,0:0|0:0,0:0:0:0:
184,328,65748,6,0,P|94:337|34:270,1,187.000005706787,6|8,0:0|0:0,0:0:0:0:
132,156,66265,2,0,P|136:202|127:248,1,93.5000028533936,0|2,0:0|0:0,0:0:0:0:
24,160,66610,1,2,0:0:0:0:
216,112,66783,1,8,0:0:0:0:
184,328,66955,6,0,P|94:337|34:270,1,187.000005706787,6|0,0:0|0:0,0:0:0:0:
224,256,67472,2,0,L|317:263,1,93.5000028533936,8|0,0:0|0:0,0:0:0:0:
392,152,67817,2,0,L|298:159,1,93.5000028533936,2|2,0:0|0:0,0:0:0:0:
224,48,68162,2,0,L|317:55,1,93.5000028533936,8|0,0:0|0:0,0:0:0:0:
476,144,68507,6,0,B|476:224|400:240|400:240|392:272|405:290,1,187.000005706787,6|8,0:0|0:0,0:0:0:0:
392,152,69024,1,0,0:0:0:0:
216,108,69196,1,2,0:0:0:0:
308,192,69369,1,2,0:0:0:0:
336,72,69541,1,8,0:0:0:0:
212,204,69714,6,0,B|200:260|200:260|206:295,1,93.5000028533936,12|0,0:0|0:0,0:0:0:0:
108,224,70058,1,2,0:0:0:0:
44,324,70231,1,8,0:0:0:0:
206,295,70403,2,0,P|251:282|297:287,1,93.5000028533936,6|0,0:0|0:0,0:0:0:0:
440,336,70748,1,2,0:0:0:0:
440,336,70834,1,2,0:0:0:0:
440,336,70921,2,0,L|451:243,1,93.5000028533936,8|2,0:0|0:0,0:0:0:0:
506,106,71265,6,0,P|414:117|335:71,1,187.000005706787,6|8,0:0|0:0,0:0:0:0:
224,52,71783,1,0,0:0:0:0:
124,116,71955,2,0,L|30:108,1,93.5000028533936,2|2,0:0|0:0,0:0:0:0:
224,52,72300,2,0,L|317:44,1,93.5000028533936,8|0,0:0|0:0,0:0:0:0:
232,172,72645,5,2,0:0:0:0:
232,172,72817,1,0,0:0:0:0:
295,255,72989,2,0,P|311:299|307:345,1,93.5000028533936,8|0,0:0|0:0,0:0:0:0:
204,312,73334,1,2,0:0:0:0:
308,180,73507,1,2,0:0:0:0:
415,308,73679,2,0,P|461:300|493:267,1,93.5000028533936,8|0,0:0|0:0,0:0:0:0:
500,236,73938,1,0,0:0:0:0:
500,236,74024,6,0,L|495:143,1,93.5000028533936,2|0,0:0|0:0,0:0:0:0:
372,72,74369,1,8,0:0:0:0:
384,232,74541,1,0,0:0:0:0:
264,152,74714,1,2,0:0:0:0:
444,146,74886,1,2,0:0:0:0:
288,243,75058,2,0,P|241:245|201:222,1,93.5000028533936,8|0,0:0|0:0,0:0:0:0:
100,180,75403,5,6,0:0:0:0:
172,336,75576,2,0,L|263:314,1,93.5000028533936,0|8,0:0|0:0,0:0:0:0:
87,256,75921,2,0,P|59:292|51:338,1,93.5000028533936,0|2,0:0|0:0,0:0:0:0:
201,222,76265,1,2,0:0:0:0:
100,180,76438,2,0,P|71:143|63:97,1,93.5000028533936,8|0,0:0|0:0,0:0:0:0:
204,88,76783,5,6,0:0:0:0:
201,222,76955,1,0,0:0:0:0:
324,112,77127,1,8,0:0:0:0:
227,205,77300,1,0,0:0:0:0:
390,212,77472,2,0,P|437:208|480:191,1,93.5000028533936,2|2,0:0|0:0,0:0:0:0:
256,210,77817,5,8,0:0:0:0:
340,96,77989,1,6,0:0:0:0:
227,205,78162,1,0,0:0:0:0:
195,67,78334,1,0,0:0:0:0:
202,222,78507,2,0,P|206:268|223:311,1,93.5000028533936,8|0,0:0|0:0,0:0:0:0:
223,311,78765,1,0,0:0:0:0:
223,311,78852,2,0,P|270:313|315:322,1,93.5000028533936,2|2,0:0|0:0,0:0:0:0:
136,284,79196,2,0,P|89:282|43:273,1,93.5000028533936,8|0,0:0|0:0,0:0:0:0:
113,160,79541,6,0,B|176:160|204:224|204:224|240:232|268:207,1,187.000005706787,6|8,0:0|0:0,0:0:0:0:
312,112,80058,1,0,0:0:0:0:
312,112,80145,1,0,0:0:0:0:
312,112,80231,2,0,L|358:119,1,46.7500014266968,8|0,0:0|0:0,0:0:0:0:
480,160,80403,2,0,L|433:167,1,46.7500014266968,2|2,0:0|0:0,0:0:0:0:
344,236,80576,2,0,L|361:192,1,46.7500014266968,2|0,0:0|0:0,0:0:0:0:
344,40,80748,6,0,P|256:54|236:140,1,187.000005706787,6|0,0:0|0:0,0:0:0:0:
97,250,81265,2,0,P|111:205|113:159,1,93.5000028533936,8|0,0:0|0:0,0:0:0:0:
64,328,81610,1,2,0:0:0:0:
74,332,81696,1,2,0:0:0:0:
85,337,81783,1,2,0:0:0:0:
96,341,81869,1,8,0:0:0:0:
106,346,81955,5,8,0:0:0:0:
140,341,82041,1,2,0:0:0:0:
175,337,82127,1,2,0:0:0:0:
210,332,82214,1,2,0:0:0:0:
245,328,82300,5,12,0:0:0:0:
256,192,82386,12,12,84886,0:0:0:0:
248,256,92645,6,0,L|261:339,1,85,8|2,0:0|0:0,0:0:0:0:
248,256,93162,6,0,L|263:129,1,127.500004863739,6|2,0:0|0:0,0:0:0:0:
308,71,93679,2,0,P|248:92|185:81,1,127.500004863739,8|2,0:0|0:0,0:0:0:0:
96,55,94196,2,0,P|95:103|117:145,1,95.6250036478044,0|2,3:0|0:0,0:0:0:0:
117,145,94541,6,0,L|102:272,1,127.500004863739,8|0,0:0|3:0,0:0:0:0:
216,328,95058,2,0,B|240:320|240:320|268:336|307:335,1,95.6250036478044,8|0,0:0|3:0,0:0:0:0:
360,312,95403,1,2,0:0:0:0:
293,245,95576,1,0,3:0:0:0:
429,176,95748,1,2,0:0:0:0:
444,268,95921,1,8,0:0:0:0:
336,161,96265,5,0,3:0:0:0:
336,161,96438,2,0,L|342:97,1,63.7500024318696,8|0,0:0|0:0,0:0:0:0:
248,100,96783,2,0,L|254:36,2,63.7500024318696,0|2|0,3:0|0:0|3:0,0:0:0:0:
243,199,97300,6,0,P|255:262|250:325,1,127.500004863739,8|0,0:0|0:0,0:0:0:0:
156,336,97817,2,0,L|92:339,1,63.7500024318696,8|0,0:0|0:0,0:0:0:0:
24,272,98162,1,2,0:0:0:0:
128,196,98334,1,0,3:0:0:0:
224,284,98507,1,2,0:0:0:0:
224,284,98593,1,2,0:0:0:0:
224,284,98679,1,8,0:0:0:0:
48,196,99024,6,0,L|41:132,2,63.7500024318696,0|8|0,3:0|0:0|0:0,0:0:0:0:
24,272,99541,1,0,0:0:0:0:
127,196,99714,2,0,P|162:163|207:151,1,95.6250036478044,2|2,0:0|0:0,0:0:0:0:
207,151,100058,6,0,L|148:128,1,63.7500024318696,8|0,0:0|0:0,0:0:0:0:
80,64,100403,1,0,3:0:0:0:
80,64,100576,2,0,L|139:40,1,63.7500024318696,8|0,0:0|0:0,0:0:0:0:
268,88,100921,1,2,0:0:0:0:
156,36,101093,1,0,3:0:0:0:
284,83,101265,1,2,0:0:0:0:
172,31,101438,1,8,0:0:0:0:
168,188,101783,5,0,3:0:0:0:
231,231,101955,2,0,P|262:239|293:234,1,63.7500024318696,4|0,3:0|0:0,0:0:0:0:
420,168,102300,2,0,P|389:160|358:165,1,63.7500024318696,0|0,0:0|3:0,0:0:0:0:
358,165,102817,6,0,L|367:292,1,127.500004863739,8|0,0:0|3:0,0:0:0:0:
476,352,103334,2,0,L|471:288,1,63.7500024318696,8|0,0:0|0:0,0:0:0:0:
408,228,103679,1,2,0:0:0:0:
312,336,103852,1,0,3:0:0:0:
216,228,104024,1,2,0:0:0:0:
376,296,104196,1,8,0:0:0:0:
355,124,104541,5,0,3:0:0:0:
355,124,104714,2,0,L|349:187,1,63.7500024318696,8|0,0:0|0:0,0:0:0:0:
216,228,105058,1,0,0:0:0:0:
216,228,105231,2,0,L|223:323,1,95.6250036478044,2|2,0:0|0:0,0:0:0:0:
223,323,105576,6,0,P|192:319|160:322,1,63.7500024318696,8|0,0:0|0:0,0:0:0:0:
64,344,105921,1,0,3:0:0:0:
92,248,106093,2,0,P|95:216|92:184,1,63.7500024318696,8|0,0:0|0:0,0:0:0:0:
43,87,106438,1,2,0:0:0:0:
111,115,106610,1,0,3:0:0:0:
184,102,106783,1,2,0:0:0:0:
237,52,106955,1,8,0:0:0:0:
368,40,107300,5,0,3:0:0:0:
408,104,107472,2,0,L|472:112,1,63.7500024318696,8|0,0:0|3:0,0:0:0:0:
332,108,107817,1,2,0:0:0:0:
284,167,107989,2,0,P|273:198|270:229,1,63.7500024318696,2|0,0:0|3:0,0:0:0:0:
360,344,108334,6,0,L|352:216,1,127.500004863739,8|0,0:0|0:0,0:0:0:0:
440,244,108852,2,0,L|443:307,1,63.7500024318696,8|0,0:0|0:0,0:0:0:0:
224,340,109196,1,2,0:0:0:0:
288,264,109369,1,8,0:0:0:0:
200,220,109541,1,2,0:0:0:0:
200,220,109627,1,2,0:0:0:0:
200,220,109714,1,8,0:0:0:0:
440,244,110058,5,0,3:0:0:0:
440,244,110231,2,0,L|443:180,1,63.7500024318696,2|0,0:0|0:0,0:0:0:0:
391,71,110576,2,0,P|407:67|423:66,2,31.8750012159348,0|0|0,3:0|3:0|3:0,0:0:0:0:
268,72,110921,1,0,0:0:0:0:
268,72,111007,1,2,0:0:0:0:
268,72,111093,6,0,P|237:65|205:70,1,63.7500024318696,8|0,0:0|0:0,0:0:0:0:
180,84,111352,1,0,0:0:0:0:
180,84,111438,2,0,L|136:136,1,63.7500024318696,2|8,0:0|0:0,0:0:0:0:
116,248,111783,2,0,L|52:252,2,63.7500024318696,2|8|0,0:0|0:0|0:0,0:0:0:0:
240,208,112300,1,2,0:0:0:0:
216,337,112472,1,8,0:0:0:0:
216,337,112817,5,0,3:0:0:0:
188,264,112989,2,0,L|191:200,1,63.7500024318696,8|0,0:0|3:0,0:0:0:0:
219,127,113334,2,0,L|215:63,1,63.7500024318696,0|2,3:0|0:0,0:0:0:0:
215,63,113852,6,0,P|266:99|328:98,1,127.500004863739,8|0,0:0|0:0,0:0:0:0:
428,84,114369,1,8,0:0:0:0:
428,84,114541,2,0,P|438:114|439:145,1,63.7500024318696,0|8,3:0|0:0,0:0:0:0:
408,248,114886,1,2,0:0:0:0:
408,248,114972,1,2,0:0:0:0:
408,248,115058,2,0,L|376:244,3,31.8750012159348,2|2|2|2,0:0|0:0|0:0|0:0,0:0:0:0:
343,239,115403,6,0,P|318:273|280:292,1,85,6|0,0:0|3:0,0:0:0:0:
240,180,116093,2,0,L|243:95,1,85,12|0,0:0|3:0,0:0:0:0:
112,64,116783,1,0,3:0:0:0:
112,64,116955,2,0,L|113:106,1,42.5,8|0,0:0|3:0,0:0:0:0:
115,212,117472,2,0,L|118:296,1,85,8|0,0:0|3:0,0:0:0:0:
240,340,118162,6,0,B|268:348|268:348|321:333,1,85,2|0,3:0|3:0,0:0:0:0:
380,252,118679,1,0,0:0:0:0:
420,344,118852,2,0,P|440:350|461:352,1,42.5,8|0,0:0|0:0,0:0:0:0:
380,252,119196,2,0,P|359:245|338:243,1,42.5,0|0,3:0|0:0,0:0:0:0:
240,340,119541,5,0,3:0:0:0:
180,248,119714,1,0,0:0:0:0:
235,156,119886,2,0,P|245:125|245:94,1,63.75,0|0,3:0|0:0,0:0:0:0:
208,60,120231,2,0,L|180:65,2,28.3333333333333,8|2|2,0:0|0:0|0:0,0:0:0:0:
292,24,120576,2,0,L|319:29,1,28.3333333333333,8|2,0:0|0:0,0:0:0:0:
440,113,120921,6,0,P|397:112|356:120,1,85,4|0,0:0|3:0,0:0:0:0:
200,248,121610,2,0,P|157:248|115:241,1,85,8|0,0:0|3:0,0:0:0:0:
36,200,122127,1,0,0:0:0:0:
112,152,122300,6,0,L|105:109,1,42.5,0|8,3:0|0:0,0:0:0:0:
40,292,122645,2,0,L|46:334,1,42.5,0|0,3:0|0:0,0:0:0:0:
152,344,122989,1,8,0:0:0:0:
36,200,123334,1,0,3:0:0:0:
136,240,123507,5,0,0:0:0:0:
136,240,123679,2,0,L|178:236,1,42.5,2|0,3:0|0:0,0:0:0:0:
256,192,124024,1,0,3:0:0:0:
256,192,124196,2,0,L|298:195,1,42.5,0|8,0:0|0:0,0:0:0:0:
376,240,124541,1,0,0:0:0:0:
376,240,124714,2,0,L|418:236,1,42.5,0|0,3:0|0:0,0:0:0:0:
496,192,125058,5,2,3:0:0:0:
288,284,125403,2,0,B|284:312|284:312|292:344|292:344|289:367,2,85,12|2|8,0:0|0:0|0:0,0:0:0:0:
224,204,126265,1,2,0:0:0:0:
224,204,126352,1,2,0:0:0:0:
224,204,126438,6,0,L|140:212,1,85,6|0,0:0|0:0,0:0:0:0:
52,127,126783,2,0,P|87:105|129:96,1,85,8|0,0:0|0:0,0:0:0:0:
240,92,127127,1,2,0:0:0:0:
139,212,127300,1,2,0:0:0:0:
129,96,127472,1,8,0:0:0:0:
188,275,127645,6,0,P|107:285|59:219,1,170,6|0,0:0|0:0,0:0:0:0:
224,204,128162,2,0,P|266:203|307:212,1,85,8|0,0:0|0:0,0:0:0:0:
367,356,128507,2,0,P|345:319|332:279,1,85,0|0,3:0|0:0,0:0:0:0:
428,156,128852,2,0,P|407:193|378:224,1,85,8|0,0:0|0:0,0:0:0:0:
196,316,129196,5,6,0:0:0:0:
224,204,129369,1,2,0:0:0:0:
222,182,129455,1,2,0:0:0:0:
221,161,129541,1,2,0:0:0:0:
220,140,129627,1,2,0:0:0:0:
218,119,129714,1,10,0:0:0:0:
217,97,129800,1,2,0:0:0:0:
216,76,129886,6,0,L|230:36,3,42.5,2|0|0|0,0:0|0:0|0:0|0:0,0:0:0:0:
140,76,130231,2,0,L|154:36,3,42.5,10|0|0|0,0:0|0:0|0:0|0:0,0:0:0:0:
64,76,130576,5,2,0:0:0:0:
64,76,130662,1,0,0:0:0:0:
64,76,130748,2,0,L|78:36,1,42.5,8|0,0:0|0:0,0:0:0:0:
107,151,130921,1,2,0:0:0:0:
117,182,131007,1,2,0:0:0:0:
119,213,131093,1,2,0:0:0:0:
114,245,131179,1,2,0:0:0:0:
102,274,131265,6,0,P|94:294|83:312,3,42.5,10|2|2|2,0:0|0:0|0:0|0:0,0:0:0:0:
168,340,131610,2,0,L|212:328,3,42.5,10|2|2|2,0:0|0:0|0:0|0:0,0:0:0:0:
200,248,131955,5,6,0:0:0:0:
340,328,132127,1,2,0:0:0:0:
340,167,132300,1,10,0:0:0:0:
200,87,132472,1,2,0:0:0:0:
200,87,132558,1,2,0:0:0:0:
200,87,132645,6,0,L|200:44,1,42.5,10|2,0:0|0:0,0:0:0:0:
340,167,132817,2,0,L|340:124,1,42.5,10|2,0:0|0:0,0:0:0:0:
200,248,132989,2,0,L|200:205,1,42.5,10|2,0:0|0:0,0:0:0:0:
340,328,133162,2,0,L|340:285,1,42.5,14|2,0:0|0:0,0:0:0:0:
228,340,133334,5,2,0:0:0:0:
212,342,133421,1,2,0:0:0:0:
196,344,133507,1,2,0:0:0:0:
180,346,133593,1,2,0:0:0:0:
164,348,133679,1,2,0:0:0:0:
149,350,133765,1,2,0:0:0:0:
133,353,133852,1,2,0:0:0:0:
117,355,133938,1,2,0:0:0:0:
101,357,134024,6,0,L|59:347,1,42.5,2|2,0:0|0:0,0:0:0:0:
39,248,134196,1,2,0:0:0:0:
53,208,134283,1,2,0:0:0:0:
84,180,134369,6,0,P|101:167|111:148,1,42.5,8|0,0:0|0:0,0:0:0:0:
8,68,134541,2,0,P|17:86|34:99,1,42.5,2|0,0:0|0:0,0:0:0:0:
180,184,134714,6,0,L|273:177,1,93.5000028533936,6|0,0:0|0:0,0:0:0:0:
396,228,135058,2,0,P|408:272|408:319,1,93.5000028533936,8|0,0:0|0:0,0:0:0:0:
273,176,135403,2,0,P|260:131|260:84,1,93.5000028533936,2|2,0:0|0:0,0:0:0:0:
489,220,135748,2,0,L|396:227,1,93.5000028533936,8|0,0:0|0:0,0:0:0:0:
247,284,136093,6,0,P|157:298|78:252,1,187.000005706787,2|8,0:0|0:0,0:0:0:0:
180,184,136610,1,0,0:0:0:0:
340,196,136783,1,2,0:0:0:0:
312,352,136955,1,2,0:0:0:0:
260,176,137127,2,0,L|263:82,1,93.5000028533936,8|0,0:0|0:0,0:0:0:0:
244,60,137386,1,0,0:0:0:0:
244,60,137472,6,0,P|199:45|153:46,1,93.5000028533936,2|0,0:0|0:0,0:0:0:0:
48,144,137817,2,0,B|60:196|60:196|36:264|68:325,1,187.000005706787,8|2,0:0|0:0,0:0:0:0:
180,252,138334,1,2,0:0:0:0:
295,320,138507,2,0,P|341:311|387:321,1,93.5000028533936,8|0,0:0|0:0,0:0:0:0:
408,160,138852,5,2,0:0:0:0:
259,128,139024,1,0,0:0:0:0:
227,289,139196,1,8,0:0:0:0:
387,321,139369,2,0,L|369:229,1,93.5000028533936,0|2,0:0|0:0,0:0:0:0:
192,172,139714,1,2,0:0:0:0:
320,365,139886,2,0,L|302:273,1,93.5000028533936,8|0,0:0|0:0,0:0:0:0:
187,90,140231,6,0,P|265:50|335:105,1,187.000005706787,6|8,0:0|0:0,0:0:0:0:
192,172,140748,2,0,P|147:163|113:131,1,93.5000028533936,0|2,0:0|0:0,0:0:0:0:
259,128,141093,1,2,0:0:0:0:
148,248,141265,1,8,0:0:0:0:
260,368,141438,6,0,L|444:337,1,187.000005706787,6|0,0:0|0:0,0:0:0:0:
452,252,141955,2,0,L|359:267,1,93.5000028533936,8|0,0:0|0:0,0:0:0:0:
459,166,142300,2,0,L|366:181,1,93.5000028533936,2|2,0:0|0:0,0:0:0:0:
466,80,142645,2,0,L|373:95,1,93.5000028533936,8|0,0:0|0:0,0:0:0:0:
256,192,142989,5,6,0:0:0:0:
164,108,143162,1,0,0:0:0:0:
312,140,143334,1,8,0:0:0:0:
210,252,143507,1,0,0:0:0:0:
44,187,143679,2,0,P|90:183|135:194,1,93.5000028533936,2|2,0:0|0:0,0:0:0:0:
64,96,144024,1,8,0:0:0:0:
80,276,144196,6,0,P|76:322|60:366,1,93.5000028533936,6|0,0:0|0:0,0:0:0:0:
44,188,144541,1,2,0:0:0:0:
208,176,144714,1,8,0:0:0:0:
64,96,144886,2,0,P|48:52|44:5,1,93.5000028533936,6|0,0:0|0:0,0:0:0:0:
132,200,145231,1,0,0:0:0:0:
132,200,145317,1,0,0:0:0:0:
132,200,145403,1,8,0:0:0:0:
176,68,145576,1,2,0:0:0:0:
196,256,145748,6,0,L|292:268,1,93.5000028533936,6|0,0:0|0:0,0:0:0:0:
400,208,146093,2,0,P|387:163|398:118,1,93.5000028533936,8|0,0:0|0:0,0:0:0:0:
492,164,146438,1,2,0:0:0:0:
428,20,146610,1,2,0:0:0:0:
292,104,146783,2,0,L|199:113,1,93.5000028533936,8|0,0:0|0:0,0:0:0:0:
196,256,147127,5,2,0:0:0:0:
180,116,147300,1,0,0:0:0:0:
216,254,147472,1,8,0:0:0:0:
160,118,147645,1,0,0:0:0:0:
236,252,147817,2,0,L|224:344,1,93.5000028533936,2|2,0:0|0:0,0:0:0:0:
140,120,148162,2,0,L|151:27,1,93.5000028533936,8|0,0:0|0:0,0:0:0:0:
188,40,148421,1,0,0:0:0:0:
188,40,148507,6,0,P|233:54|280:56,1,93.5000028533936,6|0,0:0|0:0,0:0:0:0:
392,92,148852,2,0,B|424:136|408:184|408:184|372:216|372:263,1,187.000005706787,8|2,0:0|0:0,0:0:0:0:
468,260,149369,1,2,0:0:0:0:
320,340,149541,2,0,L|228:322,1,93.5000028533936,8|0,0:0|0:0,0:0:0:0:
56,216,149886,5,6,0:0:0:0:
172,256,150058,1,0,0:0:0:0:
80,336,150231,1,8,0:0:0:0:
132,179,150403,2,0,P|141:134|136:88,1,93.5000028533936,0|2,0:0|0:0,0:0:0:0:
80,336,150748,1,2,0:0:0:0:
227,262,150921,2,0,P|265:236|294:199,1,93.5000028533936,8|0,0:0|0:0,0:0:0:0:
232,64,151265,5,6,0:0:0:0:
176,140,151438,1,0,0:0:0:0:
316,72,151610,1,8,0:0:0:0:
260,148,151783,1,0,0:0:0:0:
400,80,151955,2,0,L|492:64,1,93.5000028533936,2|2,0:0|0:0,0:0:0:0:
344,156,152300,5,8,0:0:0:0:
232,64,152472,1,6,0:0:0:0:
260,148,152645,1,0,0:0:0:0:
316,72,152817,1,0,0:0:0:0:
176,140,152989,2,0,L|84:156,1,93.5000028533936,8|0,0:0|0:0,0:0:0:0:
32,84,153334,5,2,0:0:0:0:
32,84,153507,1,2,0:0:0:0:
120,232,153679,2,0,L|212:216,1,93.5000028533936,8|0,0:0|0:0,0:0:0:0:
111,327,154024,6,0,P|37:277|35:187,1,187.000005706787,6|8,0:0|0:0,0:0:0:0:
212,215,154541,2,0,L|204:309,2,93.5000028533936,0|2|2,0:0|0:0|0:0,0:0:0:0:
136,112,155058,1,8,0:0:0:0:
289,260,155231,6,0,B|328:284|368:264|368:264|392:296|428:308|468:304|496:276|512:248|511:217,1,280.500008560181,6|12,0:0|0:0,0:0:0:0:
404,84,156093,2,0,P|401:53|410:23,2,62.3333352355958,4|4|4,3:0|3:0|3:0,0:0:0:0:
440,160,156438,2,0,P|442:190|433:220,2,62.3333352355958,4|4|4,3:0|3:0|3:0,0:0:0:0:
364,180,156783,6,0,L|238:154,1,127.500004863739,4|0,0:0|0:0,0:0:0:0:
156,228,157300,1,2,0:0:0:0:
63,291,157472,2,0,P|112:329|175:336,1,127.500004863739,4|0,0:0|0:0,0:0:0:0:
260,264,157989,1,2,0:0:0:0:
156,228,158162,5,0,3:0:0:0:
239,154,158334,1,4,3:0:0:0:
260,264,158507,2,0,L|250:327,1,63.7500024318696,0|0,3:0|0:0,0:0:0:0:
359,260,158852,2,0,P|379:199|374:136,1,127.500004863739,8|0,0:0|3:0,0:0:0:0:
172,12,159541,6,0,P|152:72|157:135,1,127.500004863739,4|0,0:0|0:0,0:0:0:0:
239,154,160058,1,2,0:0:0:0:
156,228,160231,2,0,L|149:291,1,63.7500024318696,8|0,0:0|0:0,0:0:0:0:
72,176,160576,2,0,L|65:239,1,63.7500024318696,0|0,3:0|0:0,0:0:0:0:
172,88,160921,5,0,0:0:0:0:
239,154,161093,1,4,3:0:0:0:
331,152,161265,2,0,P|363:147|392:133,1,63.7500024318696,0|0,3:0|0:0,0:0:0:0:
415,47,161610,2,0,P|466:84|478:145,1,127.500004863739,8|0,3:0|3:0,3:0:0:0:
416,336,162300,6,0,L|408:208,1,127.500004863739,8|0,3:2|0:0,0:0:0:0:
312,256,162817,1,2,0:0:0:0:
312,256,162989,2,0,P|283:271|252:276,1,63.7500024318696,8|0,0:0|0:0,0:0:0:0:
168,268,163334,1,0,3:0:0:0:
168,268,163679,5,0,3:0:0:0:
52,284,163852,2,0,L|40:346,1,63.7500024318696,4|0,3:0|3:0,0:0:0:0:
96,176,164196,1,0,0:0:0:0:
96,176,164369,2,0,L|84:113,1,63.7500024318696,8|0,0:0|3:0,0:0:0:0:
68,32,164714,1,0,3:0:0:0:
256,192,165058,5,6,0:0:0:0:
184,152,165231,2,0,L|172:89,1,63.7500024318696
172,294,165576,1,2,0:0:0:0:
244,254,165748,2,0,L|256:191,1,63.7500024318696,8|0,0:0|0:0,0:0:0:0:
372,156,166093,2,0,L|360:219,1,63.7500024318696,0|0,3:0|0:0,0:0:0:0:
352,80,166438,6,0,P|399:80|435:109,1,95.6250036478044,2|0,3:0|3:0,0:0:0:0:
452,152,166783,2,0,L|440:215,1,63.7500024318696,12|0,0:0|0:0,0:0:0:0:
412,300,167127,1,2,0:0:0:0:
400,300,167214,1,2,0:0:0:0:
388,300,167300,1,2,0:0:0:0:
376,299,167386,1,2,0:0:0:0:
364,298,167472,1,2,0:0:0:0:
352,295,167558,1,0,0:0:0:0:
341,292,167645,1,4,3:0:0:0:
329,288,167731,1,0,0:0:0:0:
318,283,167817,6,0,L|234:299,1,85,2|0,1:2|0:0,0:0:0:0:
280,176,168162,1,8,0:0:0:0:
160,259,168334,2,0,P|149:300|162:341,1,85,0|0,1:0|0:0,0:0:0:0:
352,216,168679,1,2,0:0:0:0:
352,216,168852,2,0,P|362:175|349:134,1,85,8|0,0:0|0:0,0:0:0:0:
268,64,169196,5,2,0:0:0:0:
179,135,169369,2,2,L|115:127,1,63.7500024318696,0|2,3:0|0:0,0:0:0:0:
96,136,169627,1,2,0:0:0:0:
96,136,169714,2,0,L|41:168,1,63.7500024318696,8|0,0:0|0:0,0:0:0:0:
32,40,170058,1,0,3:0:0:0:
191,51,170231,1,8,0:0:0:0:
228,66,170317,1,0,0:0:0:0:
254,96,170403,1,0,0:0:0:0:
263,134,170489,1,0,0:0:0:0:
254,172,170576,6,0,L|233:254,1,85,6|0,1:2|0:0,0:0:0:0:
144,328,170921,1,0,3:0:0:0:
96,136,171093,2,0,L|117:218,1,85,0|0,1:0|0:0,0:0:0:0:
233,254,171438,1,2,0:0:0:0:
80,280,171610,1,0,1:0:0:0:
236,352,171783,1,0,0:0:0:0:
352,300,171955,5,8,0:0:0:0:
353,289,172041,1,8,0:0:0:0:
354,278,172127,1,2,0:0:0:0:
355,268,172214,1,2,0:0:0:0:
356,257,172300,6,0,L|352:225,3,31.8750012159348,2|2|2|0,0:0|0:0|0:0|0:0,0:0:0:0:
289,187,172645,2,0,L|292:155,3,31.8750012159348,2|2|0|0,0:0|0:0|0:0|0:0,0:0:0:0:
356,119,172989,1,8,0:0:0:0:
444,320,173162,1,2,0:0:0:0:
444,320,173248,1,2,0:0:0:0:
444,320,173334,6,0,P|360:313|277:327,1,170,6|8,0:0|0:0,0:0:0:0:
128,320,173852,1,0,0:0:0:0:
208,244,174024,2,0,L|215:159,1,85,2|2,0:0|0:0,0:0:0:0:
88,64,174369,1,8,0:0:0:0:
39,156,174541,6,0,P|80:167|122:162,1,85,0|2,0:0|0:0,0:0:0:0:
208,56,174886,1,0,0:0:0:0:
152,168,175058,1,8,0:0:0:0:
370,165,175231,2,0,L|287:152,1,85,0|2,0:0|0:0,0:0:0:0:
296,64,175576,1,2,0:0:0:0:
316,244,175748,1,8,0:0:0:0:
152,168,175921,1,0,0:0:0:0:
228,284,176093,6,0,P|185:283|145:297,1,85,6|0,0:0|0:0,0:0:0:0:
314,336,176438,1,8,0:0:0:0:
341,332,176524,1,0,0:0:0:0:
365,321,176610,1,0,0:0:0:0:
385,305,176696,1,0,0:0:0:0:
400,284,176783,6,0,L|394:241,3,42.5,2|0|0|0,0:0|0:0|0:0|0:0,0:0:0:0:
464,200,177127,2,0,L|458:157,3,42.5,8|0|0|0,0:0|0:0|0:0|0:0,0:0:0:0:
417,87,177472,5,2,0:0:0:0:
392,80,177558,1,0,0:0:0:0:
365,79,177645,1,0,0:0:0:0:
340,85,177731,1,0,0:0:0:0:
317,99,177817,1,8,0:0:0:0:
293,110,177903,1,0,0:0:0:0:
267,113,177989,1,0,0:0:0:0:
240,109,178076,1,0,0:0:0:0:
216,100,178162,6,0,L|174:89,1,42.5,2|0,0:0|0:0,0:0:0:0:
32,120,178334,2,0,L|53:156,1,42.5,2|0,0:0|0:0,0:0:0:0:
96,224,178507,1,8,0:0:0:0:
92,40,178679,1,2,0:0:0:0:
16,228,178852,6,0,P|61:295|142:291,1,170,6|8,0:0|0:0,0:0:0:0:
112,112,179369,1,0,0:0:0:0:
96,224,179541,2,0,L|100:312,1,85,8|2,0:0|0:0,0:0:0:0:
268,248,179886,2,0,P|279:207|272:165,1,85,8|0,0:0|0:0,0:0:0:0:
112,112,180231,5,8,0:0:0:0:
224,52,180403,1,0,0:0:0:0:
356,154,180576,2,0,P|315:166|272:165,1,85,8|0,0:0|0:0,0:0:0:0:
232,156,180834,1,0,0:0:0:0:
232,156,180921,2,0,L|214:239,1,85,8|2,0:0|0:0,0:0:0:0:
168,328,181265,1,8,0:0:0:0:
352,248,181438,1,0,0:0:0:0:
288,340,181610,6,0,L|204:332,1,85,6|0,0:0|0:0,0:0:0:0:
168,328,181869,1,2,0:0:0:0:
168,328,181955,1,2,0:0:0:0:
83,244,182127,6,0,P|102:205|103:163,1,85,6|0,0:0|0:0,0:0:0:0:
48,76,182472,1,2,0:0:0:0:
193,170,182645,6,0,P|180:128|150:99,1,85,6|0,0:0|0:0,0:0:0:0:
48,76,182989,1,2,0:0:0:0:
217,40,183162,6,0,P|178:21|136:20,1,85,4|0,3:0|0:0,0:0:0:0:
48,76,183507,1,4,3:0:0:0:
160,299,183679,5,2,0:0:0:0:
321,204,183852,1,2,0:0:0:0:
193,170,184024,1,2,0:0:0:0:
287,332,184196,1,2,0:0:0:0:
240,252,184369,5,4,1:0:0:0:
199,68,195403,6,0,L|283:61,1,85,0|2,0:0|0:0,0:0:0:0:
418,118,196093,2,0,L|416:140,3,21.25
408,168,196438,2,0,L|365:164,1,42.5,2|0,0:0|0:0,0:0:0:0:
200,168,196783,2,0,L|202:189,3,21.25
210,217,197127,2,0,L|252:213,1,42.5,2|0,0:0|0:0,0:0:0:0:
418,217,197472,2,0,L|415:238,3,21.25
408,266,197817,2,0,L|365:262,1,42.5,2|0,0:0|0:0,0:0:0:0:
256,344,198162,6,0,P|217:327|174:322,1,85,2|0,0:0|0:0,0:0:0:0:
95,265,198679,1,0,3:0:0:0:
52,356,198852,2,0,L|28:334,3,21.25
0,307,199196,2,0,L|6:264,1,42.5,2|0,0:0|0:0,0:0:0:0:
64,200,199541,6,0,L|81:188,1,21.25
140,232,199714,2,0,L|157:220,1,21.25
216,264,199886,2,0,L|233:252,3,21.25
292,296,200231,5,0,0:0:0:0:
300,290,200317,1,0,0:0:0:0:
309,284,200403,1,0,0:0:0:0:
318,278,200489,1,0,0:0:0:0:
327,272,200576,2,0,L|344:260,3,21.25,2|0|0|0,0:0|0:0|0:0|0:0,0:0:0:0:
376,228,200921,5,6,0:0:0:0:
383,202,201007,1,2,0:0:0:0:
383,176,201093,1,2,0:0:0:0:
376,150,201179,1,2,0:0:0:0:
361,128,201265,1,2,0:0:0:0:
341,112,201352,1,2,0:0:0:0:
316,101,201438,2,0,L|274:111,1,42.5,10|2,0:0|0:0,0:0:0:0:
184,151,201610,5,2,0:0:0:0:
156,156,201696,1,2,0:0:0:0:
129,156,201783,1,2,0:0:0:0:
102,149,201869,1,2,0:0:0:0:
77,137,201955,2,0,L|66:95,3,42.5,10|2|2|2,0:0|0:0|0:0|0:0,0:0:0:0:
136,40,202300,6,0,P|147:57|152:78,1,42.5,2|0,0:0|0:0,0:0:0:0:
184,151,202472,2,0,P|172:168|167:189,1,42.5,10|0,0:0|0:0,0:0:0:0:
80,240,202645,2,0,P|97:251|118:256,1,42.5,2|2,0:0|0:0,0:0:0:0:
260,268,202817,2,0,P|242:256|221:251,1,42.5,2|2,0:0|0:0,0:0:0:0:
232,340,202989,5,10,0:0:0:0:
252,345,203076,1,2,0:0:0:0:
273,345,203162,1,2,0:0:0:0:
293,339,203248,1,2,0:0:0:0:
312,328,203334,5,10,0:0:0:0:
314,296,203421,1,2,0:0:0:0:
317,264,203507,1,2,0:0:0:0:
320,232,203593,1,2,0:0:0:0:
323,201,203679,5,6,0:0:0:0:
432,296,203852,1,2,0:0:0:0:
432,107,204024,1,2,0:0:0:0:
472,216,204196,1,2,0:0:0:0:
472,216,204283,1,2,0:0:0:0:
472,216,204369,6,0,L|478:258,1,42.5,10|2,0:0|0:0,0:0:0:0:
364,216,204541,2,0,L|370:258,1,42.5,10|2,0:0|0:0,0:0:0:0:
256,216,204714,2,0,L|262:258,1,42.5,10|2,0:0|0:0,0:0:0:0:
148,216,204886,2,0,L|154:258,1,42.5,14|2,0:0|0:0,0:0:0:0:
200,140,205058,5,2,0:0:0:0:
216,113,205145,1,2,0:0:0:0:
220,81,205231,1,2,0:0:0:0:
211,51,205317,1,2,0:0:0:0:
190,27,205403,1,2,0:0:0:0:
161,15,205489,1,2,0:0:0:0:
129,15,205576,1,2,0:0:0:0:
100,29,205662,1,2,0:0:0:0:
80,53,205748,5,8,0:0:0:0:
96,92,205834,1,8,0:0:0:0:
100,134,205921,1,8,0:0:0:0:
92,176,206007,1,8,0:0:0:0:
74,214,206093,6,0,P|68:234|70:255,1,42.5,14|0,0:0|0:0,0:0:0:0:
200,140,206265,2,0,P|206:119|204:98,1,42.5,10|0,0:0|0:0,0:0:0:0:
140,240,206438,6,0,L|136:341,1,101.999996887207,6|0,0:0|0:0,0:0:0:0:
304,320,206783,2,0,L|307:218,1,101.999996887207,8|0,0:0|0:0,0:0:0:0:
280,124,207127,1,2,0:0:0:0:
228,272,207300,1,2,0:0:0:0:
384,280,207472,2,0,P|434:285|479:264,1,101.999996887207,8|0,0:0|0:0,0:0:0:0:
408,168,207817,6,0,B|336:160|292:212|292:212|272:180|231:173,1,203.999993774414,2|8,0:0|0:0,0:0:0:0:
68,152,208334,1,0,0:0:0:0:
87,248,208507,2,0,P|132:223|158:180,1,101.999996887207,2|2,0:0|0:0,0:0:0:0:
64,16,208852,2,0,L|68:118,1,101.999996887207,8|0,0:0|0:0,0:0:0:0:
68,152,209110,1,0,0:0:0:0:
68,152,209196,6,0,B|120:124|120:124|176:172|256:145,1,203.999993774414,2|8,0:0|0:0,0:0:0:0:
208,32,209714,1,0,0:0:0:0:
340,120,209886,2,0,L|317:219,1,101.999996887207,2|2,0:0|0:0,0:0:0:0:
168,240,210231,2,0,L|190:339,1,101.999996887207,8|0,0:0|0:0,0:0:0:0:
312,296,210576,5,2,0:0:0:0:
256,145,210748,1,0,0:0:0:0:
136,256,210921,1,8,0:0:0:0:
276,336,211093,6,0,L|272:234,1,101.999996887207,0|2,0:0|0:0,0:0:0:0:
296,72,211438,1,2,0:0:0:0:
348,224,211610,2,0,L|351:325,1,101.999996887207,8|0,0:0|0:0,0:0:0:0:
480,228,211955,6,0,B|480:184|480:184|464:156|464:156|480:88|427:39,1,203.999993774414,6|8,0:0|0:0,0:0:0:0:
351,128,212472,2,0,P|301:128|252:113,1,101.999996887207,0|2,0:0|0:0,0:0:0:0:
156,48,212817,1,2,0:0:0:0:
216,208,212989,1,8,0:0:0:0:
20,128,213162,6,0,P|70:127|119:142,1,101.999996887207,6|0,0:0|0:0,0:0:0:0:
172,312,213507,1,0,0:0:0:0:
56,320,213679,2,0,B|48:272|48:272|56:219,1,101.999996887207,8|0,0:0|0:0,0:0:0:0:
216,208,214024,1,2,0:0:0:0:
72,192,214196,1,2,0:0:0:0:
300,240,214369,1,8,0:0:0:0:
209,126,214541,1,0,0:0:0:0:
336,320,214714,6,0,P|286:327|239:309,1,101.999996887207,6|0,0:0|0:0,0:0:0:0:
407,244,215058,2,0,P|457:236|504:254,1,101.999996887207,8|0,0:0|0:0,0:0:0:0:
449,340,215403,1,2,0:0:0:0:
449,340,215489,1,2,0:0:0:0:
449,340,215576,1,2,0:0:0:0:
294,224,215748,1,8,0:0:0:0:
436,144,215921,6,0,L|456:44,1,101.999996887207,6|0,0:0|0:0,0:0:0:0:
312,20,216265,1,2,0:0:0:0:
312,20,216438,1,8,0:0:0:0:
353,157,216610,6,0,P|336:205|300:240,1,101.999996887207,6|0,0:0|0:0,0:0:0:0:
236,136,216955,1,2,0:0:0:0:
72,224,217127,2,0,P|65:200|63:175,1,50.9999984436036,8|8,0:0|0:0,0:0:0:0:
140,72,217300,2,0,P|147:96|149:121,1,50.9999984436036,8|8,0:0|0:0,0:0:0:0:
156,284,217472,5,12,0:0:0:0:
156,284,217645,1,0,0:0:0:0:
320,232,217817,1,8,0:0:0:0:
320,232,217989,1,0,0:0:0:0:
217,370,218162,1,8,0:0:0:0:
217,370,218334,1,2,0:0:0:0:
219,197,218507,1,8,0:0:0:0:
219,197,218679,1,0,0:0:0:0:
320,340,218852,5,8,0:0:0:0:
156,284,219024,1,0,0:0:0:0:
320,232,219196,1,8,0:0:0:0:
217,370,219369,1,0,0:0:0:0:
219,197,219541,2,0,P|219:146|202:98,1,101.999996887207,8|2,0:0|0:0,0:0:0:0:
312,8,219886,2,0,P|312:58|329:106,1,101.999996887207,8|0,0:0|0:0,0:0:0:0:
448,192,220231,5,12,0:0:0:0:
416,48,220403,1,0,0:0:0:0:
348,180,220576,1,8,0:0:0:0:
268,55,220748,1,0,0:0:0:0:
249,202,220921,1,8,0:0:0:0:
131,112,221093,1,2,0:0:0:0:
163,256,221265,1,8,0:0:0:0:
22,212,221438,1,0,0:0:0:0:
100,335,221610,6,0,P|197:349|261:275,1,203.999993774414,12|8,0:0|0:0,0:0:0:0:
216,124,222127,1,0,0:0:0:0:
163,256,222300,2,0,L|63:235,1,101.999996887207,8|2,0:0|0:0,0:0:0:0:
249,202,222645,2,0,L|348:181,1,101.999996887207,8|0,0:0|0:0,0:0:0:0:
356,40,222989,5,12,0:0:0:0:
216,124,223162,1,0,0:0:0:0:
424,140,223334,1,8,0:0:0:0:
284,24,223507,1,0,0:0:0:0:
348,181,223679,2,0,P|352:232|347:283,1,101.999996887207,8|2,0:0|0:0,0:0:0:0:
164,256,224024,5,8,0:0:0:0:
216,124,224196,1,4,0:0:0:0:
76,145,224369,1,8,0:0:0:0:
244,100,224541,1,0,0:0:0:0:
164,256,224714,2,0,P|160:205|165:154,1,101.999996887207,8|0,3:2|0:0,0:0:0:0:
236,283,225058,6,0,P|205:323|156:333,1,101.999996887207,8|0,0:0|0:0,0:0:0:0:
60,192,225403,2,0,L|90:94,1,101.999996887207,8|2,0:0|0:0,0:0:0:0:
304,52,225748,1,12,0:0:0:0:
321,98,225834,1,8,0:0:0:0:
307,146,225921,1,8,0:0:0:0:
267,176,226007,1,8,0:0:0:0:
217,176,226093,2,0,P|193:167|175:150,1,50.9999984436036,8|8,0:0|0:0,0:0:0:0:
244,100,226265,6,0,L|342:126,1,101.999996887207,12|0,0:0|0:0,0:0:0:0:
436,212,226610,1,8,0:0:0:0:
436,212,226696,1,8,0:0:0:0:
436,212,226783,1,8,0:0:0:0:
448,332,226955,6,0,B|376:336|336:280|336:280|312:308|273:319,1,203.999993774414,12|0,0:0|0:0,0:0:0:0:
156,336,227472,1,2,0:0:0:0:
143,332,227558,1,2,0:0:0:0:
131,328,227645,1,2,0:0:0:0:
119,325,227731,1,2,0:0:0:0:
107,321,227817,6,0,L|56:323,1,50.9999984436036,2|2,0:0|0:0,0:0:0:0:
24,192,227989,2,0,L|62:225,1,50.9999984436036,2|2,0:0|0:0,0:0:0:0:
184,244,228162,1,8,0:0:0:0:
234,247,228248,1,8,0:0:0:0:
282,231,228334,1,8,0:0:0:0:
320,197,228421,1,8,0:0:0:0:
341,151,228507,6,0,P|351:101|349:50,1,101.999996887207,12|0,0:0|0:0,0:0:0:0:
234,247,228852,2,0,P|223:296|225:347,1,101.999996887207,8|0,0:0|0:0,0:0:0:0:
239,145,229196,2,0,P|190:135|139:136,1,101.999996887207,8|2,0:0|0:0,0:0:0:0:
335,252,229541,1,8,0:0:0:0:
341,151,229714,1,0,0:0:0:0:
173,302,229886,5,10,0:0:0:0:
72,260,230058,1,0,0:0:0:0:
172,192,230231,1,8,0:0:0:0:
70,149,230403,1,0,0:0:0:0:
173,302,230576,5,8,0:0:0:0:
275,260,230748,1,2,0:0:0:0:
173,302,230921,1,8,0:0:0:0:
277,150,231093,1,0,0:0:0:0:
173,302,231265,6,0,P|176:217|164:128,1,170,12|8,0:0|0:0,0:0:0:0:
278,79,231783,1,0,3:0:0:0:
273,91,231869,1,0,3:0:0:0:
270,107,231955,2,0,L|276:149,1,42.5,8|0,0:0|0:0,0:0:0:0:
348,208,232127,2,0,L|387:223,1,42.5,2|0,0:0|0:0,0:0:0:0:
474,190,232300,2,0,L|507:163,1,42.5,2|0,0:0|0:0,0:0:0:0:
362,123,232472,6,0,B|280:116|256:196|256:196|288:276|232:336|152:336|96:320|60:292|32:248|20:188|20:188|96:168|167:184|188:231,1,722.5,4|8,0:0|3:0,0:0:0:0:
188,231,235489,6,0,P|178:200|174:168,1,63.7500024318696,8|2,3:0|0:0,0:0:0:0:
176,144,235748,2,0,P|184:102|186:60,1,85,12|0,0:0|0:0,0:0:0:0:
60,88,236093,1,2,0:0:0:0:
28,192,236265,1,0,0:0:0:0:
28,192,236352,1,8,0:0:0:0:
28,192,236438,2,0,L|42:318,1,127.5,8|0,0:0|0:0,0:0:0:0:
42,318,236783,6,0,L|126:334,1,85,6|0,0:0|0:0,0:0:0:0:
188,230,237127,2,0,L|104:245,1,85,8|0,0:0|0:0,0:0:0:0:
228,320,237472,1,2,0:0:0:0:
287,236,237645,2,0,P|292:193|287:151,1,85,2|8,0:0|0:0,0:0:0:0:
195,60,237989,6,0,L|187:229,1,170,2|2,0:0|0:0,0:0:0:0:
308,316,238507,2,0,B|356:300|400:316|400:316|413:240,1,170,8|2,0:0|0:0,0:0:0:0:
308,136,239024,1,2,0:0:0:0:
400,148,239196,2,0,L|484:136,1,85,8|0,0:0|0:0,0:0:0:0:
364,64,239541,5,2,0:0:0:0:
246,68,239714,1,0,0:0:0:0:
232,184,239886,1,8,0:0:0:0:
344,217,240058,1,0,0:0:0:0:
246,68,240231,1,2,0:0:0:0:
232,184,240403,2,0,L|218:268,1,85,2|8,0:0|0:0,0:0:0:0:
104,356,240748,6,0,B|64:324|64:276|64:276|96:248|95:208,1,170,2|0,0:0|0:0,0:0:0:0:
40,72,241265,1,8,0:0:0:0:
16,208,241438,1,0,0:0:0:0:
104,124,241610,2,0,L|188:136,1,85,2|2,0:0|0:0,0:0:0:0:
259,232,241955,2,0,P|222:252|180:256,1,85,8|0,0:0|0:0,0:0:0:0:
283,143,242300,6,0,P|347:196|340:277,1,170,6|8,0:0|0:0,0:0:0:0:
184,328,242817,1,0,0:0:0:0:
260,232,242989,1,2,0:0:0:0:
284,351,243162,1,2,0:0:0:0:
284,351,243248,1,2,0:0:0:0:
284,351,243334,1,8,0:0:0:0:
168,236,243507,6,0,L|83:243,1,85,6|0,0:0|0:0,0:0:0:0:
184,328,243852,1,0,0:0:0:0:
260,232,244024,2,0,L|344:224,1,85,8|0,0:0|0:0,0:0:0:0:
472,264,244369,1,2,0:0:0:0:
384,328,244541,1,2,0:0:0:0:
424,183,244714,2,0,P|428:141|419:100,1,85,8|0,0:0|0:0,0:0:0:0:
248,96,245058,6,0,L|332:84,1,85,2|0,0:0|0:0,0:0:0:0:
256,195,245403,2,0,P|213:193|178:171,1,85,8|0,0:0|0:0,0:0:0:0:
344,224,245748,2,0,L|347:308,2,85,2|2|8,0:0|0:0|0:0,0:0:0:0:
248,96,246265,6,0,P|189:72|127:80,1,127.5,12|2,0:0|0:0,0:0:0:0:
127,80,246610,2,0,L|84:153,1,85,8|0,0:0|0:0,0:0:0:0:
44,328,246955,1,0,0:0:0:0:
44,328,247041,1,8,0:0:0:0:
44,328,247127,2,0,P|84:313|114:284,1,85,8|8,0:0|0:0,0:0:0:0:
120,248,247386,1,0,0:0:0:0:
120,248,247472,6,0,L|104:208,1,42.5,2|2,0:0|0:0,0:0:0:0:
127,80,247645,2,0,L|143:120,1,42.5,2|2,0:0|0:0,0:0:0:0:
189,262,247817,6,0,L|273:253,1,85,12|0,0:0|0:0,0:0:0:0:
420,168,248162,2,0,L|335:176,1,85,8|0,0:0|0:0,0:0:0:0:
256,329,248507,6,0,L|309:263,1,85,8|2,0:0|0:0,0:0:0:0:
352,100,248852,2,0,L|299:166,1,85,8|0,0:0|0:0,0:0:0:0:
419,263,249196,6,0,L|353:209,1,85,8|0,0:0|0:0,0:0:0:0:
189,166,249541,2,0,L|255:220,1,85,8|0,0:0|0:0,0:0:0:0:
351,330,249886,6,0,L|342:245,1,85,8|2,0:0|0:0,0:0:0:0:
257,99,250231,2,0,L|266:184,1,85,8|0,0:0|0:0,0:0:0:0:
420,168,250576,5,8,0:0:0:0:
255,220,250748,1,0,0:0:0:0:
352,100,250921,1,8,0:0:0:0:
420,264,251093,1,0,0:0:0:0:
266,184,251265,5,8,0:0:0:0:
256,329,251438,1,2,0:0:0:0:
368,188,251610,1,8,0:0:0:0:
189,262,251783,1,0,0:0:0:0:
256,99,251955,6,0,P|293:81|335:81,1,85,8|0,0:0|0:0,0:0:0:0:
189,166,252300,2,0,L|105:166,1,85,8|0,0:0|0:0,0:0:0:0:
116,68,252645,5,8,0:0:0:0:
68,256,252817,1,2,0:0:0:0:
189,166,252989,1,8,0:0:0:0:
20,176,253162,1,0,0:0:0:0:
188,262,253334,6,0,P|272:264|332:321,1,170,12|8,0:0|0:0,0:0:0:0:
128,344,253852,1,0,0:0:0:0:
132,200,254024,2,0,L|146:116,1,85,8|2,0:0|0:0,0:0:0:0:
68,256,254369,1,8,0:0:0:0:
232,140,254541,1,0,0:0:0:0:
232,140,254627,1,0,0:0:0:0:
232,140,254714,6,0,B|244:96|216:64|216:64|252:36|300:50,1,170,10|8,0:0|0:0,0:0:0:0:
412,96,255231,1,0,0:0:0:0:
456,208,255403,2,0,P|453:250|435:288,1,85,8|2,0:0|0:0,0:0:0:0:
328,348,255748,1,8,0:0:0:0:
347,219,255921,1,0,0:0:0:0:
347,219,256007,1,0,0:0:0:0:
347,219,256093,5,10,0:0:0:0:
190,110,256265,1,8,0:0:0:0:
156,223,256438,1,10,0:0:0:0:
308,108,256610,1,8,0:0:0:0:
253,290,256783,1,8,0:0:0:0:
254,301,256869,1,2,0:0:0:0:
255,312,256955,1,2,0:0:0:0:
256,322,257041,1,2,0:0:0:0:
256,332,257127,6,0,L|229:298,1,42.5,2|2,0:0|0:0,0:0:0:0:
156,223,257300,1,12,0:0:0:0:
256,192,257386,12,0,263679,0:0:0:0:
