osu file format v14

[General]
AudioFilename: HaruModoki.mp3
AudioLeadIn: 1000
PreviewTime: 134534
Countdown: 0
SampleSet: Soft
StackLeniency: 0.7
Mode: 0
LetterboxInBreaks: 0
WidescreenStoryboard: 0

[Editor]
Bookmarks: 7645,18679,29714,40921,60231,84886,93162,115403,134714,156783,173334,184369,195403,206438,236783,247817,257300,262989
DistanceSpacing: 1.4
BeatDivisor: 4
GridSize: 4
TimelineZoom: 1.5

[Metadata]
Title:Haru Modoki
TitleUnicode:春擬き
Artist:yanaginagi
ArtistUnicode:やなぎなぎ
Creator:Meg
Version:Hard
Source:やはり俺の青春ラブコメはまちがっている。続
Tags:iMage-- IamKwaN Meyrink yahari ore no seishun love come wa machigatteiru. zoku opening oregairu my teen romantic comedy snafu
BeatmapID:722675
BeatmapSetID:321203

[Difficulty]
HPDrainRate:5
CircleSize:4
OverallDifficulty:6
ApproachRate:7.5
SliderMultiplier:1.3
SliderTickRate:1

[Events]
//Background and Video events
0,0,"BG.jpg",0,0
//Break Periods
2,85086,92337
2,184569,194578
2,232671,234578
//Storyboard Layer 0 (Background)
//Storyboard Layer 1 (Fail)
//Storyboard Layer 2 (Pass)
//Storyboard Layer 3 (Foreground)
//Storyboard Sound Samples

[TimingPoints]
921,344.827586206897,4,2,2,50,1,0
921,-200,4,2,2,50,0,0
6438,-133.333333333333,4,2,1,60,0,0
7645,-100,4,2,1,60,0,0
60231,-100,4,2,1,70,0,1
82300,-100,4,2,1,70,0,0
84886,-100,4,2,1,60,0,0
93162,-133.333333333333,4,2,1,60,0,0
115403,-100,4,2,1,60,0,0
134714,-100,4,2,1,70,0,1
156783,-100,4,2,1,60,0,0
195403,-133.333333333333,4,3,1,50,0,0
200921,-100,4,2,1,50,0,0
206438,-100,4,2,1,80,0,1
231265,-100,4,2,1,80,0,1
232472,-100,4,2,1,60,0,0
235403,-133.333333333333,4,2,1,60,0,0
236783,-100,4,2,1,70,0,1
236869,-100,4,2,1,70,0,0
247817,-100,4,2,1,80,0,0
258162,-100,4,2,1,70,0,0
258852,-100,4,2,1,60,0,0
259541,-100,4,2,1,50,0,0
260231,-100,4,2,1,40,0,0
260921,-100,4,2,1,30,0,0
261610,-100,4,2,1,20,0,0
262300,-100,4,2,1,10,0,0
262989,-100,4,2,1,5,0,0

[Colours]
Combo1 : 128,255,128
Combo2 : 128,255,255
Combo3 : 255,128,128
Combo4 : 255,255,128

[HitObjects]
312,336,921,6,0,B|313:280|313:280|336:252|335:210,1,130,2|0,0:0|0:0,0:0:0:0:
200,336,2300,2,0,B|198:280|198:280|176:252|176:210,1,130,2|0,0:0|0:0,0:0:0:0:
256,48,3679,6,0,L|256:178,1,130,2|0,0:0|0:0,0:0:0:0:
111,291,5058,2,0,P|56:261|35:201,1,130,2|0,0:0|0:0,0:0:0:0:
132,196,6438,6,0,L|179:205,1,48.75,2|2,0:0|0:0,0:0:0:0:
228,280,6783,2,0,L|275:270,1,48.75,2|2,0:0|0:0,0:0:0:0:
328,200,7127,2,0,L|330:175,5,24.3750009298325,8|8|8|8|8|8,0:0|0:0|0:0|0:0|0:0|0:0,0:0:0:0:
335,132,7645,6,0,P|396:111|459:127,1,130,12|0,0:0|0:0,0:0:0:0:
488,216,8162,2,0,L|484:280,1,65,8|0,0:0|0:0,0:0:0:0:
404,324,8507,2,0,L|400:260,1,65,8|2,0:0|0:0,0:0:0:0:
328,200,8852,2,0,P|295:204|263:202,1,65,8|0,0:0|0:0,0:0:0:0:
196,140,9196,5,8,0:0:0:0:
120,188,9369,1,0,0:0:0:0:
152,272,9541,2,0,P|156:304|152:336,1,65,8|0,0:0|0:0,0:0:0:0:
244,344,9886,2,0,L|307:358,2,65,8|2|8,0:0|0:0|0:0,0:0:0:0:
240,252,10403,6,0,L|257:123,1,130,12|0,0:0|0:0,0:0:0:0:
312,48,10921,2,0,L|376:45,1,65,8|0,0:0|0:0,0:0:0:0:
412,128,11265,2,0,L|347:125,1,65,8|2,0:0|0:0,0:0:0:0:
256,122,11610,2,0,P|227:110|195:105,1,65,8|0,0:0|0:0,0:0:0:0:
108,136,11955,6,0,L|93:72,2,65,8|0|8,0:0|0:0|0:0,0:0:0:0:
128,224,12472,1,0,0:0:0:0:
220,240,12645,2,0,L|234:303,2,65,8|2|8,0:0|0:0|0:0,0:0:0:0:
40,252,13162,6,0,P|78:302|140:314,1,130,12|0,0:0|0:0,0:0:0:0:
234,303,13679,2,0,L|298:309,1,65,8|0,0:0|0:0,0:0:0:0:
384,344,14024,1,8,0:0:0:0:
384,344,14196,1,2,0:0:0:0:
439,272,14369,2,0,P|446:240|449:207,1,65,8|0,0:0|0:0,0:0:0:0:
372,164,14714,6,0,L|307:160,1,65,8|0,0:0|0:0,0:0:0:0:
292,72,15058,2,0,L|356:75,1,65,8|0,0:0|0:0,0:0:0:0:
444,104,15403,2,0,L|454:73,2,32.5,10|10|10,0:0|0:0|0:0,0:0:0:0:
460,192,15748,1,0,3:0:0:0:
419,273,15921,6,0,P|375:227|372:164,1,130,4|0,0:0|0:0,0:0:0:0:
280,164,16438,1,2,3:0:0:0:
140,47,16783,2,0,P|84:78|63:138,1,130,2|2,3:0|3:0,0:0:0:0:
64,320,17472,6,0,P|96:319|127:311,1,65,4|0,3:0|0:0,0:0:0:0:
208,268,17817,2,0,P|240:268|271:276,1,65,4|4,3:0|3:0,0:0:0:0:
320,356,18162,1,8,0:0:0:0:
352,232,18334,1,8,0:0:0:0:
352,231,18679,6,0,P|404:197|417:135,1,130,6|0,0:0|0:0,0:0:0:0:
360,64,19196,2,0,P|327:64|296:57,1,65,8|0,0:0|0:0,0:0:0:0:
276,145,19541,2,0,P|308:144|340:152,1,65,2|2,0:0|0:0,0:0:0:0:
184,244,20058,6,0,L|173:114,1,130,8|0,0:0|3:0,0:0:0:0:
92,68,20576,1,8,0:0:0:0:
92,248,20921,1,0,1:0:0:0:
92,248,21093,1,0,1:0:0:0:
244,348,21438,6,0,B|304:332|304:332|371:339,1,130,8|0,0:0|3:0,0:0:0:0:
432,272,21955,2,0,L|426:207,1,65,8|0,0:0|0:0,0:0:0:0:
356,152,22300,1,2,0:0:0:0:
279,204,22472,2,0,P|248:211|216:209,1,65,2|0,0:0|3:0,0:0:0:0:
135,168,22817,6,0,P|101:221|100:285,1,130,8|2,0:0|0:0,0:0:0:0:
168,348,23334,1,8,0:0:0:0:
279,204,23679,1,0,1:0:0:0:
279,204,23852,1,0,1:0:0:0:
148,80,24196,6,0,B|176:60|176:60|271:67,1,130,8|0,0:0|3:0,0:0:0:0:
324,143,24714,2,0,P|348:123|362:94,1,65,8|0,0:0|0:0,0:0:0:0:
424,28,25058,1,2,0:0:0:0:
476,99,25231,2,0,P|478:132|476:164,1,65,2|0,0:0|0:0,0:0:0:0:
471,255,25576,6,0,P|409:255|369:304,1,130,8|0,0:0|3:0,0:0:0:0:
288,344,26093,1,8,0:0:0:0:
192,192,26438,1,0,1:0:0:0:
192,192,26610,1,0,1:0:0:0:
371,184,26955,5,12,0:0:0:0:
371,184,29196,6,0,L|387:121,1,65,8|8,0:0|0:0,0:0:0:0:
215,55,29714,6,0,P|151:47|87:58,1,130,6|0,0:0|0:0,0:0:0:0:
40,136,30231,2,0,L|28:199,1,65,8|0,0:0|0:0,0:0:0:0:
72,280,30576,1,2,0:0:0:0:
152,236,30748,2,0,L|216:243,1,65,2|8,0:0|0:0,0:0:0:0:
280,308,31093,2,0,L|344:300,1,65,0|2,0:0|0:0,0:0:0:0:
428,340,31438,5,0,0:0:0:0:
464,255,31610,2,0,P|439:197|379:179,1,130,8|2,0:0|1:2,0:0:0:0:
291,207,32127,2,0,P|288:175|295:144,1,65,2|8,1:2|0:0,0:0:0:0:
379,179,32472,6,0,L|360:324,1,130,2|0,1:2|0:0,0:0:0:0:
276,340,32989,2,0,L|211:348,1,65,8|0,0:0|0:0,0:0:0:0:
128,308,33334,1,2,0:0:0:0:
192,243,33507,2,0,P|198:212|200:179,1,65,2|8,0:0|0:0,0:0:0:0:
112,164,33852,2,0,P|105:132|103:99,1,65,2|0,0:0|0:0,0:0:0:0:
176,48,34196,5,0,0:0:0:0:
176,48,34369,2,0,L|305:63,1,130,8|2,0:0|1:2,0:0:0:0:
367,128,34886,2,0,P|365:160|369:192,1,65,2|8,1:2|0:0,0:0:0:0:
459,212,35231,6,0,P|425:265|364:284,1,130,6|0,1:2|0:0,0:0:0:0:
272,284,35748,2,0,L|262:348,1,65,8|0,0:0|0:0,0:0:0:0:
172,348,36093,1,2,0:0:0:0:
168,256,36265,2,0,P|135:251|103:254,1,65,2|8,0:0|0:0,0:0:0:0:
16,280,36610,6,0,L|25:150,1,130,0|0,0:0|0:0,0:0:0:0:
92,88,37127,2,0,P|108:115|114:147,1,65,8|0,0:0|0:0,0:0:0:0:
124,240,37472,1,0,1:2:0:0:
212,256,37645,2,0,L|275:243,1,65,0|8,1:2|0:0,0:0:0:0:
316,323,37989,6,0,P|372:295|434:311,1,130,6|2,1:2|0:0,0:0:0:0:
464,224,38507,2,0,L|454:159,1,65,8|0,0:0|0:0,0:0:0:0:
416,76,38852,1,2,3:2:0:0:
328,52,39024,2,0,L|263:55,1,65,2|8,3:2|0:0,0:0:0:0:
176,76,39369,1,2,0:0:0:0:
176,76,39541,2,0,P|161:138|170:202,1,130,6|8,0:0|0:0,0:0:0:0:
248,252,40058,1,0,0:0:0:0:
332,220,40231,6,0,L|374:213,2,43.3333333333333,8|8|8,0:0|0:0|0:0,0:0:0:0:
312,296,40576,2,0,L|354:289,2,43.3333333333333,2|2|2,0:0|0:0|0:0,0:0:0:0:
241,331,40921,6,0,L|112:320,1,130,6|0,0:0|0:0,0:0:0:0:
8,172,41610,2,0,L|137:160,1,130,8|0,0:0|3:0,0:0:0:0:
288,264,42300,1,0,3:0:0:0:
288,264,42472,2,0,L|297:199,1,65,8|0,0:0|0:0,0:0:0:0:
452,108,42989,2,0,P|391:128|333:102,1,130,8|0,0:0|3:0,0:0:0:0:
159,48,43679,6,0,B|140:80|140:80|144:116|144:116|120:164|138:235,1,195,2|0,3:0|0:0,0:0:0:0:
200,304,44369,2,0,L|263:289,1,65,8|0,0:0|0:0,0:0:0:0:
312,212,44714,2,0,P|335:233|350:262,1,65,0|0,3:0|0:0,0:0:0:0:
344,351,45058,2,0,P|405:333|438:280,1,130,0|0,3:0|3:0,0:0:0:0:
392,104,45748,2,0,L|406:40,2,65,8|2|2,0:0|0:0|3:0,0:0:0:0:
284,252,46438,6,0,B|240:228|240:228|161:239,1,130,4|0,0:0|3:0,0:0:0:0:
24,360,47127,2,0,L|38:230,1,130,8|0,0:0|3:0,0:0:0:0:
140,80,47817,1,2,0:0:0:0:
140,80,47989,2,0,P|173:84|205:84,1,65,8|2,0:0|0:0,0:0:0:0:
384,44,48507,2,0,P|415:97|392:155,1,130,8|0,0:0|3:0,0:0:0:0:
308,192,49024,1,0,0:0:0:0:
308,192,49196,6,0,L|300:321,1,130,4|0,0:0|3:0,0:0:0:0:
388,344,49714,2,0,L|452:341,1,65,0|8,0:0|0:0,0:0:0:0:
484,256,50058,1,0,0:0:0:0:
484,256,50231,2,0,P|487:191|468:129,1,130,0|0,3:0|3:0,0:0:0:0:
287,92,50921,2,0,P|223:101|159:91,2,130,0|8|8,3:0|0:0|3:2,0:0:0:0:
384,248,51955,6,0,L|319:245,1,65,6|0,0:0|0:0,0:0:0:0:
232,223,52300,2,0,P|187:270|178:333,1,130,8|0,0:0|3:0,0:0:0:0:
88,336,52817,1,0,0:0:0:0:
88,336,52989,2,0,L|24:323,1,65,8|0,0:0|0:0,0:0:0:0:
68,244,53334,6,0,P|112:197|121:134,1,130,0|8,3:0|0:0,0:0:0:0:
172,60,53852,1,0,0:0:0:0:
172,60,54024,2,0,L|236:66,1,65,0|0,3:0|0:0,0:0:0:0:
296,136,54369,2,0,L|360:129,1,65,8|0,0:0|0:0,0:0:0:0:
436,80,54714,6,0,P|451:141|422:198,1,130,6|2,0:0|0:0,0:0:0:0:
352,256,55231,2,0,L|346:320,1,65,2|2,0:0|0:0,0:0:0:0:
264,360,55576,1,0,0:0:0:0:
264,360,55748,2,0,P|240:339|211:325,1,65,10|2,0:0|0:0,0:0:0:0:
120,328,56093,5,2,0:0:0:0:
88,244,56265,2,0,L|91:179,1,65,10|2,0:0|0:0,0:0:0:0:
180,196,56610,1,2,0:0:0:0:
212,112,56782,2,0,L|208:47,1,65,10|2,0:0|0:0,0:0:0:0:
300,136,57127,2,0,L|296:71,1,65,10|2,0:0|0:0,0:0:0:0:
384,68,57472,5,10,0:0:0:0:
388,160,57645,1,2,0:0:0:0:
465,110,57817,1,10,0:0:0:0:
388,160,57989,2,0,P|371:223|381:287,1,130,2|10,0:0|0:0,0:0:0:0:
420,368,58507,1,6,0:0:0:0:
328,356,58679,1,14,0:0:0:0:
292,272,58852,6,0,P|228:280|177:319,1,130,2|2,0:0|0:0,0:0:0:0:
84,320,59369,2,0,P|92:288|106:259,1,65,2|2,0:0|0:0,0:0:0:0:
160,184,59714,1,2,0:0:0:0:
160,184,59886,2,0,P|152:152|138:123,1,65,8|0,0:0|0:0,0:0:0:0:
76,55,60231,6,0,P|136:79|200:77,1,130,6|8,0:0|0:0,0:0:0:0:
292,68,60748,1,0,0:0:0:0:
292,68,60921,2,0,L|318:127,1,65,2|2,0:0|0:0,0:0:0:0:
268,204,61265,2,0,L|241:144,1,65,8|0,0:0|0:0,0:0:0:0:
160,184,61610,6,0,B|116:184|116:184|76:208|64:250,1,130,2|8,0:0|0:0,0:0:0:0:
56,340,62127,1,0,0:0:0:0:
56,340,62300,2,0,L|120:336,1,65,2|2,0:0|0:0,0:0:0:0:
204,300,62645,2,0,L|268:296,1,65,8|0,0:0|0:0,0:0:0:0:
344,348,62989,5,2,0:0:0:0:
488,236,63334,2,0,P|453:182|391:167,1,130,8|2,0:0|0:0,0:0:0:0:
308,208,63852,1,2,0:0:0:0:
216,204,64024,2,0,L|151:198,1,65,8|0,0:0|0:0,0:0:0:0:
88,136,64369,2,0,L|75:72,2,65,2|0|8,0:0|0:0|0:0,0:0:0:0:
176,112,64886,6,0,B|192:84|196:48|196:48|232:56|258:50,1,130,0|2,0:0|0:0,0:0:0:0:
348,52,65403,1,8,0:0:0:0:
348,52,65576,1,0,0:0:0:0:
432,84,65748,6,0,P|443:147|428:209,1,130,6|8,0:0|0:0,0:0:0:0:
348,252,66265,2,0,L|218:240,1,130,0|2,0:0|0:0,0:0:0:0:
140,192,66783,1,8,0:0:0:0:
156,308,66955,6,0,P|213:334|274:316,1,130,6|2,0:0|0:0,0:0:0:0:
367,313,67472,2,0,L|347:251,1,65,8|0,0:0|0:0,0:0:0:0:
264,216,67817,2,0,L|266:151,1,65,2|2,0:0|0:0,0:0:0:0:
200,88,68162,2,0,L|224:27,1,65,8|0,0:0|0:0,0:0:0:0:
308,68,68507,6,0,P|369:87|432:75,1,130,6|8,0:0|0:0,0:0:0:0:
500,140,69024,1,0,0:0:0:0:
500,140,69196,2,0,L|491:204,1,65,2|2,0:0|0:0,0:0:0:0:
460,288,69541,1,8,0:0:0:0:
391,227,69714,6,0,P|331:243|312:303,1,130,12|2,0:0|0:0,0:0:0:0:
236,352,70231,1,8,0:0:0:0:
148,328,70403,2,0,L|127:199,1,130,6|2,0:0|0:0,0:0:0:0:
84,115,70921,2,0,P|115:108|147:109,1,65,8|2,0:0|0:0,0:0:0:0:
216,168,71265,6,0,L|245:41,1,130,6|8,0:0|0:0,0:0:0:0:
336,60,71783,1,0,0:0:0:0:
336,60,71955,2,0,P|368:64|400:61,1,65,2|2,0:0|0:0,0:0:0:0:
480,104,72300,2,0,P|487:135|483:167,1,65,8|0,0:0|0:0,0:0:0:0:
432,244,72645,6,0,L|302:236,2,130,2|8|2,0:0|0:0|0:0,0:0:0:0:
484,320,73507,1,2,0:0:0:0:
392,328,73679,2,0,L|327:324,1,65,8|0,0:0|0:0,0:0:0:0:
240,352,74024,5,2,0:0:0:0:
56,348,74369,2,0,B|44:312|44:312|50:220,1,130,8|2,0:0|0:0,0:0:0:0:
116,156,74886,1,2,0:0:0:0:
152,72,75058,2,0,P|120:64|88:69,1,65,8|0,0:0|0:0,0:0:0:0:
208,143,75403,6,0,P|241:90|233:26,1,130,6|8,0:0|0:0,0:0:0:0:
324,48,75921,2,0,L|400:40,1,65,0|2,0:0|0:0,0:0:0:0:
468,84,76265,1,2,0:0:0:0:
392,132,76438,2,0,P|379:161|379:193,1,65,8|0,0:0|0:0,0:0:0:0:
432,272,76783,5,6,0:0:0:0:
432,272,76955,1,0,0:0:0:0:
364,332,77127,2,0,L|296:324,1,65,8|0,0:0|0:0,0:0:0:0:
240,252,77472,1,2,0:0:0:0:
152,92,77817,5,8,0:0:0:0:
152,92,77989,1,6,0:0:0:0:
83,152,78162,2,0,P|70:181|63:213,1,65,0|0,0:0|0:0,0:0:0:0:
64,304,78507,1,8,0:0:0:0:
240,251,78852,2,0,P|304:246|365:266,1,130,2|8,0:0|0:0,0:0:0:0:
193,315,79541,6,0,L|63:303,1,130,6|8,0:0|0:0,0:0:0:0:
40,216,80058,2,0,L|33:151,1,65,0|8,0:0|0:0,0:0:0:0:
116,112,80403,2,0,L|122:176,1,65,2|2,0:0|0:0,0:0:0:0:
212,180,80748,2,0,B|251:158|251:158|333:179,1,130,6|0,0:0|0:0,0:0:0:0:
416,220,81265,2,0,L|419:155,1,65,8|0,0:0|0:0,0:0:0:0:
364,84,81610,2,0,L|331:84,3,32.5,2|2|2|8,0:0|0:0|0:0|0:0,0:0:0:0:
288,92,81955,2,0,L|230:61,1,65,8|2,0:0|0:0,0:0:0:0:
152,20,82300,5,12,0:0:0:0:
256,192,82386,12,12,84886,0:0:0:0:
116,327,93162,6,0,P|154:299|202:293,1,97.50000371933,6|2,0:0|0:0,0:0:0:0:
268,328,93679,2,0,L|364:339,1,97.50000371933,8|2,0:0|0:0,0:0:0:0:
424,296,94196,2,0,B|444:252|444:252|440:202,1,97.50000371933,0|8,3:0|0:0,0:0:0:0:
340,96,94886,2,0,L|291:102,1,48.750001859665,0|8,3:0|0:0,0:0:0:0:
164,176,95403,2,0,L|115:169,2,48.750001859665,2|0|2,0:0|3:0|0:0,0:0:0:0:
228,216,95921,1,8,0:0:0:0:
372,236,96265,6,0,P|374:211|370:187,2,48.750001859665,0|8|0,3:0|0:0|0:0,0:0:0:0:
336,300,96783,2,0,L|287:308,1,48.750001859665,0|2,3:0|0:0,0:0:0:0:
152,364,97300,2,0,L|145:266,1,97.50000371933,8|0,0:0|0:0,0:0:0:0:
104,204,97817,2,0,L|55:200,1,48.750001859665,8|0,0:0|0:0,0:0:0:0:
52,128,98162,2,0,L|3:124,2,48.750001859665,2|0|2,0:0|3:0|0:0,0:0:0:0:
100,72,98679,1,8,0:0:0:0:
240,108,99024,6,0,P|239:132|243:156,2,48.750001859665,0|2|0,3:0|0:0|0:0,0:0:0:0:
280,48,99541,2,0,L|328:51,1,48.750001859665,0|2,0:0|0:0,0:0:0:0:
448,135,100058,2,0,P|415:171|370:190,1,97.50000371933,8|0,0:0|3:0,0:0:0:0:
304,220,100576,2,0,L|312:268,1,48.750001859665,8|0,0:0|0:0,0:0:0:0:
368,316,100921,2,0,L|413:333,2,48.750001859665,2|0|2,0:0|3:0|0:0,0:0:0:0:
298,341,101438,1,8,0:0:0:0:
156,312,101783,6,0,L|140:358,2,48.750001859665,0|4|0,3:0|3:0|0:0,0:0:0:0:
156,240,102300,2,0,L|204:236,1,48.750001859665,0|0,0:0|3:0,0:0:0:0:
344,279,102817,2,0,P|380:248|427:235,1,97.50000371933,8|0,0:0|3:0,0:0:0:0:
460,172,103334,1,8,0:0:0:0:
459,172,103507,2,0,P|463:147|462:123,1,48.750001859665,0|2,0:0|0:0,0:0:0:0:
420,64,103852,1,0,3:0:0:0:
356,96,104024,2,0,P|332:101|308:104,1,48.750001859665,2|8,0:0|0:0,0:0:0:0:
160,100,104541,6,0,P|135:97|112:91,2,48.750001859665,0|8|0,3:0|0:0|0:0,0:0:0:0:
216,148,105058,2,0,L|219:196,1,48.750001859665,0|2,0:0|0:0,0:0:0:0:
276,332,105576,2,0,L|178:324,1,97.50000371933,8|0,0:0|3:0,0:0:0:0:
112,356,106093,2,0,L|103:307,1,48.750001859665,8|0,0:0|0:0,0:0:0:0:
52,256,106438,2,0,L|60:207,2,48.750001859665,2|0|2,0:0|3:0|0:0,0:0:0:0:
32,328,106955,1,8,0:0:0:0:
176,296,107300,6,0,L|184:344,2,48.750001859665,0|8|0,3:0|0:0|3:0,0:0:0:0:
204,228,107817,2,0,P|228:227|250:218,1,48.750001859665,2|2,0:0|0:0,0:0:0:0:
304,84,108334,2,0,L|207:98,1,97.50000371933,8|0,0:0|0:0,0:0:0:0:
156,152,108852,2,0,P|142:131|134:108,1,48.750001859665,8|0,0:0|0:0,0:0:0:0:
76,68,109196,2,0,L|28:72,2,48.750001859665,2|8|2,0:0|0:0|0:0,0:0:0:0:
144,36,109714,1,8,0:0:0:0:
266,114,110058,6,0,L|303:83,2,48.750001859665,0|2|0,3:0|0:0|0:0,0:0:0:0:
223,172,110576,2,0,P|218:195|215:219,1,48.750001859665,0|0,3:0|3:0,0:0:0:0:
240,288,110921,1,0,0:0:0:0:
268,355,111093,2,0,P|304:324|313:277,1,97.50000371933,8|2,0:0|0:0,0:0:0:0:
316,204,111610,2,0,L|364:201,1,48.750001859665,8|0,0:0|3:0,0:0:0:0:
428,168,111955,2,0,L|401:127,1,48.750001859665,0|0,3:0|3:0,0:0:0:0:
341,90,112300,2,0,L|319:133,1,48.750001859665,2|8,0:0|0:0,0:0:0:0:
188,196,112817,6,0,P|209:207|232:214,2,48.750001859665,0|8|0,3:0|0:0|3:0,0:0:0:0:
140,140,113334,2,0,P|118:128|95:121,1,48.750001859665,0|2,3:0|0:0,0:0:0:0:
16,244,113852,2,0,L|30:340,1,97.50000371933,8|0,0:0|0:0,0:0:0:0:
104,348,114369,1,8,0:0:0:0:
156,295,114541,2,0,P|179:292|203:297,1,48.750001859665,0|8,3:0|0:0,0:0:0:0:
272,324,114886,2,0,L|268:372,2,48.750001859665,2|2|2,0:0|0:0|0:0,0:0:0:0:
264,252,115403,5,6,0:0:0:0:
264,251,116093,2,0,P|280:189|278:124,1,130,12|0,0:0|3:0,0:0:0:0:
104,64,116783,1,0,3:0:0:0:
104,64,116955,2,0,L|168:53,1,65,8|0,0:0|3:0,0:0:0:0:
140,232,117472,2,0,P|200:257|264:251,1,130,8|0,0:0|3:0,0:0:0:0:
420,344,118162,6,0,B|442:276|442:276|425:224|425:224|442:157,1,195,2|0,3:0|0:0,0:0:0:0:
408,72,118852,2,0,L|344:57,1,65,8|0,0:0|0:0,0:0:0:0:
256,48,119196,2,0,P|261:80|273:109,1,65,0|0,3:0|0:0,0:0:0:0:
340,172,119541,2,0,P|280:200|219:185,1,130,0|0,3:0|3:0,0:0:0:0:
44,227,120231,2,0,P|72:284|132:304,1,130,8|0,0:0|0:0,0:0:0:0:
183,124,120921,6,0,B|135:127|116:171|116:171|131:213,1,130,4|0,0:0|3:0,0:0:0:0:
260,344,121610,2,0,L|267:214,1,130,8|0,0:0|3:0,0:0:0:0:
328,44,122300,1,0,3:0:0:0:
328,44,122472,2,0,L|392:40,1,65,8|0,0:0|3:0,0:0:0:0:
484,200,122989,2,0,P|419:208|355:198,1,130,8|0,0:0|3:0,0:0:0:0:
276,152,123507,1,0,0:0:0:0:
276,152,123679,6,0,L|146:159,1,130,2|0,3:0|3:0,0:0:0:0:
60,188,124196,2,0,P|56:155|61:123,1,65,0|8,0:0|0:0,0:0:0:0:
100,40,124541,1,0,0:0:0:0:
100,40,124714,2,0,L|229:32,1,130,0|2,3:0|3:0,0:0:0:0:
348,172,125403,2,0,B|368:107|368:107|360:45,2,130,12|2|8,0:0|0:0|0:0,0:0:0:0:
199,280,126438,6,0,P|231:287|264:287,1,65,6|0,0:0|0:0,0:0:0:0:
332,348,126783,2,0,P|373:299|436:290,1,130,8|2,0:0|0:0,0:0:0:0:
488,216,127300,2,0,L|476:136,1,65,2|8,0:0|0:0,0:0:0:0:
443,68,127645,6,0,P|396:110|389:173,1,130,6|0,0:0|0:0,0:0:0:0:
316,228,128162,2,0,L|297:165,1,65,8|0,0:0|0:0,0:0:0:0:
208,188,128507,2,0,L|226:250,1,65,0|0,3:0|0:0,0:0:0:0:
136,272,128852,2,0,L|118:210,1,65,8|0,0:0|0:0,0:0:0:0:
140,119,129196,6,0,P|128:58|72:30,1,130,6|2,0:0|0:0,0:0:0:0:
20,108,129714,2,0,L|9:172,1,65,10|2,0:0|0:0,0:0:0:0:
44,256,130058,1,0,0:0:0:0:
44,256,130231,2,0,L|33:320,1,65,10|0,0:0|0:0,0:0:0:0:
120,352,130576,5,2,0:0:0:0:
183,288,130748,2,0,P|216:285|248:283,1,65,8|2,0:0|0:0,0:0:0:0:
332,320,131093,1,2,0:0:0:0:
412,363,131265,2,0,P|421:332|419:300,1,65,10|2,0:0|0:0,0:0:0:0:
360,232,131610,2,0,P|350:200|352:168,1,65,10|2,0:0|0:0,0:0:0:0:
432,120,131955,5,6,0:0:0:0:
352,76,132127,1,2,0:0:0:0:
276,124,132300,1,10,0:0:0:0:
196,80,132472,2,0,P|137:102|117:162,1,130,2|10,0:0|0:0,0:0:0:0:
132,252,132989,1,10,0:0:0:0:
212,208,133162,1,14,0:0:0:0:
304,208,133334,6,0,B|368:224|368:224|407:273,1,130,2|2,0:0|0:0,0:0:0:0:
484,323,133852,2,0,P|494:293|495:261,1,65,2|2,0:0|0:0,0:0:0:0:
476,172,134196,1,2,0:0:0:0:
476,172,134369,2,0,P|465:141|464:109,1,65,8|2,0:0|0:0,0:0:0:0:
400,44,134714,6,0,L|270:58,1,130,6|8,0:0|0:0,0:0:0:0:
192,108,135231,1,0,0:0:0:0:
192,108,135403,2,0,P|160:105|130:94,1,65,2|2,0:0|0:0,0:0:0:0:
44,128,135748,2,0,L|31:191,1,65,8|0,0:0|0:0,0:0:0:0:
100,248,136093,6,0,B|144:232|144:232|223:256,1,130,2|8,0:0|0:0,0:0:0:0:
304,300,136610,1,0,0:0:0:0:
304,300,136783,2,0,P|336:307|368:299,1,65,2|2,0:0|0:0,0:0:0:0:
412,220,137127,6,0,L|408:90,1,130,8|2,0:0|0:0,0:0:0:0:
227,104,137817,2,0,P|163:106|102:85,2,130,8|2|8,0:0|0:0|0:0,0:0:0:0:
316,128,138679,1,0,0:0:0:0:
316,128,138852,6,0,L|312:192,2,65,2|0|8,0:0|0:0|0:0,0:0:0:0:
324,36,139369,2,0,P|382:59|409:117,1,130,0|2,0:0|0:0,0:0:0:0:
408,208,139886,1,8,0:0:0:0:
408,208,140058,1,0,0:0:0:0:
352,280,140231,6,0,L|222:287,1,130,6|8,0:0|0:0,0:0:0:0:
132,272,140748,2,0,P|135:304|128:335,1,65,0|2,0:0|0:0,0:0:0:0:
43,299,141093,2,0,P|40:267|47:236,1,65,2|8,0:0|0:0,0:0:0:0:
120,180,141438,6,0,P|123:115|98:56,1,130,6|2,0:0|0:0,0:0:0:0:
188,48,141955,2,0,P|219:55|252:56,1,65,8|0,0:0|0:0,0:0:0:0:
260,148,142300,2,0,P|291:138|319:123,1,65,2|2,0:0|0:0,0:0:0:0:
372,198,142645,2,0,P|394:174|411:146,1,65,8|0,0:0|0:0,0:0:0:0:
488,100,142989,6,0,L|496:232,1,130,6|8,0:0|0:0,0:0:0:0:
456,312,143507,1,0,0:0:0:0:
456,312,143679,2,0,L|391:305,1,65,2|2,0:0|0:0,0:0:0:0:
316,356,144024,1,8,0:0:0:0:
311,264,144196,6,0,P|283:207|223:186,1,130,6|2,0:0|0:0,0:0:0:0:
144,232,144714,1,8,0:0:0:0:
56,216,144886,2,0,L|41:152,1,65,6|0,0:0|0:0,0:0:0:0:
60,64,145231,1,2,0:0:0:0:
147,83,145403,2,0,P|180:84|212:81,1,65,8|2,0:0|0:0,0:0:0:0:
300,52,145748,6,0,P|340:101|343:165,1,130,6|8,0:0|0:0,0:0:0:0:
304,248,146265,1,0,0:0:0:0:
304,248,146438,2,0,P|335:255|367:253,1,65,2|2,0:0|0:0,0:0:0:0:
456,276,146783,2,0,L|442:339,1,65,8|0,0:0|0:0,0:0:0:0:
352,340,147127,6,0,P|287:332|225:348,1,130,2|8,0:0|0:0,0:0:0:0:
56,280,147817,2,0,L|66:215,1,65,2|2,0:0|0:0,0:0:0:0:
136,156,148162,2,0,L|146:220,1,65,8|0,0:0|0:0,0:0:0:0:
160,312,148507,5,6,0:0:0:0:
312,215,148852,2,0,P|376:220|433:250,2,130,8|2|8,0:0|0:0|0:0,0:0:0:0:
240,160,149714,1,0,0:0:0:0:
240,160,149886,6,0,L|246:95,1,65,6|0,0:0|0:0,0:0:0:0:
184,28,150231,1,8,0:0:0:0:
100,64,150403,2,0,P|92:95|93:128,1,65,0|2,0:0|0:0,0:0:0:0:
132,212,150748,1,2,0:0:0:0:
216,244,150921,2,0,P|223:275|222:308,1,65,8|0,0:0|0:0,0:0:0:0:
240,159,151265,6,0,P|272:159|303:166,1,65,6|0,0:0|0:0,0:0:0:0:
380,220,151610,2,0,L|383:284,2,65,8|0|2,0:0|0:0|0:0,0:0:0:0:
408,132,152127,1,2,0:0:0:0:
408,132,152300,6,0,L|472:136,1,65,8|6,0:0|0:0,0:0:0:0:
432,56,152645,2,0,L|496:60,2,65,0|2|8,0:0|0:0|0:0,0:0:0:0:
267,132,153334,2,0,P|203:135|142:114,1,130,2|8,0:0|0:0,0:0:0:0:
44,268,154024,6,0,P|105:247|169:250,1,130,6|8,0:0|0:0,0:0:0:0:
236,312,154541,2,0,B|276:328|276:328|361:315,1,130,0|2,0:0|0:0,0:0:0:0:
444,352,155058,1,8,0:0:0:0:
436,260,155231,6,0,L|447:130,1,130,6|2,0:0|0:0,0:0:0:0:
407,48,155748,2,0,P|382:68|365:95,1,65,12|0,0:0|0:0,0:0:0:0:
288,48,156093,2,0,P|224:46|161:30,1,130,4|4,3:0|3:0,0:0:0:0:
28,156,156783,6,0,L|46:284,1,130,4|0,0:0|0:0,0:0:0:0:
220,336,157472,2,0,L|201:207,1,130,4|0,0:0|0:0,0:0:0:0:
264,140,157989,1,2,0:0:0:0:
264,140,158162,2,0,L|327:124,1,65,0|4,3:0|3:0,0:0:0:0:
408,163,158507,2,0,P|410:100|372:49,2,130,0|8|0,3:0|0:0|3:0,0:0:0:0:
320,324,159541,6,0,L|449:316,1,130,4|0,0:0|0:0,0:0:0:0:
492,236,160058,2,0,L|427:239,1,65,2|8,0:0|0:0,0:0:0:0:
336,244,160403,2,0,L|271:247,1,65,0|0,0:0|3:0,0:0:0:0:
228,328,160748,1,0,0:0:0:0:
228,328,160921,2,0,P|186:279|186:216,1,130,0|0,3:0|3:0,0:0:0:0:
296,72,161610,2,0,P|231:76|166:71,1,130,8|0,3:0|3:0,0:0:0:0:
8,164,162300,6,0,P|73:168|138:163,1,130,8|0,3:2|0:0,0:0:0:0:
228,156,162817,1,2,0:0:0:0:
228,156,162989,2,0,L|224:220,2,65,8|0|0,0:0|0:0|3:0,0:0:0:0:
284,328,163679,5,0,3:0:0:0:
284,328,163852,2,0,P|316:328|348:335,1,65,4|0,3:0|3:0,0:0:0:0:
428,292,164196,1,0,0:0:0:0:
428,292,164369,2,0,L|424:227,2,65,8|0|0,0:0|3:0|3:0,0:0:0:0:
424,108,165058,5,6,0:0:0:0:
424,108,165231,2,0,P|392:111|360:111,1,65,0|0,0:0|0:0,0:0:0:0:
272,88,165576,2,0,L|261:152,1,65,2|8,0:0|0:0,0:0:0:0:
172,132,165921,2,0,L|161:196,1,65,0|0,0:0|3:0,0:0:0:0:
72,176,166265,1,0,0:0:0:0:
72,176,166438,6,0,L|61:240,1,65,2|0,3:0|0:0,0:0:0:0:
84,327,166783,2,0,P|115:320|147:322,1,65,12|0,0:0|0:0,0:0:0:0:
236,348,167127,2,0,L|251:319,3,32.5,2|2|2|2,0:0|0:0|0:0|0:0,0:0:0:0:
288,292,167472,2,0,L|279:260,3,32.5,2|0|4|0,0:0|0:0|3:0|0:0,0:0:0:0:
285,215,167817,6,0,L|171:151,1,130,2|8,1:2|0:0,0:0:0:0:
80,140,168334,2,0,L|144:129,1,65,0|0,1:0|0:0,0:0:0:0:
212,68,168679,1,2,0:0:0:0:
212,68,168852,2,0,L|276:57,1,65,8|0,0:0|0:0,0:0:0:0:
364,87,169196,6,0,P|368:55|362:24,2,65,2|0|2,0:0|3:0|0:0,0:0:0:0:
312,164,169714,2,0,P|373:179|430:150,1,130,8|0,0:0|3:0,0:0:0:0:
476,232,170231,2,0,L|465:296,1,65,8|0,0:0|0:0,0:0:0:0:
388,348,170576,6,0,L|248:320,1,130,6|0,1:2|3:0,0:0:0:0:
220,240,171093,2,0,L|226:304,1,65,0|0,1:0|0:0,0:0:0:0:
140,272,171438,1,2,0:0:0:0:
140,272,171610,2,0,L|146:336,1,65,0|2,1:0|0:0,0:0:0:0:
64,300,171955,6,0,P|61:267|67:236,1,65,8|2,0:0|0:0,0:0:0:0:
24,156,172300,2,0,P|44:131|71:113,1,65,2|2,0:0|0:0,0:0:0:0:
97,25,172645,2,0,P|129:22|160:28,1,65,2|2,0:0|0:0,0:0:0:0:
196,112,172989,1,8,0:0:0:0:
252,40,173162,1,2,0:0:0:0:
263,172,173334,6,0,P|206:200|144:186,1,130,6|8,0:0|0:0,0:0:0:0:
64,144,173852,1,0,0:0:0:0:
64,144,174024,2,0,L|53:208,1,65,2|2,0:0|0:0,0:0:0:0:
36,296,174369,1,8,0:0:0:0:
123,276,174541,6,0,P|156:277|186:287,1,65,0|2,0:0|0:0,0:0:0:0:
268,332,174886,2,0,P|300:330|330:320,2,65,0|8|0,0:0|0:0|0:0,0:0:0:0:
284,244,175403,2,0,L|306:115,1,130,2|8,0:0|0:0,0:0:0:0:
308,24,175921,1,0,0:0:0:0:
217,29,176093,6,0,P|188:15|156:11,1,65,6|0,0:0|0:0,0:0:0:0:
160,104,176438,2,0,L|163:136,3,32.5,8|0|0|0,0:0|0:0|0:0|0:0,0:0:0:0:
192,172,176783,2,0,L|224:168,3,32.5,2|0|0|0,0:0|0:0|0:0|0:0,0:0:0:0:
252,203,177127,2,0,L|256:236,3,32.5,8|0|0|0,0:0|0:0|0:0|0:0,0:0:0:0:
276,276,177472,6,0,L|307:284,3,32.5,2|0|0|0,0:0|0:0|0:0|0:0,0:0:0:0:
348,260,177817,2,0,L|379:268,3,32.5,8|0|0|0,0:0|0:0|0:0|0:0,0:0:0:0:
392,311,178162,2,0,P|424:307|456:312,1,65
492,228,178507,2,0,L|483:162,1,65,8|2,0:0|0:0,0:0:0:0:
491,71,178852,6,0,P|430:86|393:138,1,130,6|8,0:0|0:0,0:0:0:0:
304,156,179369,1,0,0:0:0:0:
216,176,179541,2,0,P|183:173|151:169,1,65,8|2,0:0|0:0,0:0:0:0:
68,136,179886,2,0,L|60:71,1,65,8|0,0:0|0:0,0:0:0:0:
151,78,180231,5,8,0:0:0:0:
151,169,180403,1,0,0:0:0:0:
83,232,180576,2,0,P|75:263|75:295,1,65,8|0,0:0|0:0,0:0:0:0:
156,340,180921,2,0,P|163:304|164:276,1,65,8|2,0:0|0:0,0:0:0:0:
232,216,181265,1,8,0:0:0:0:
256,304,181438,1,0,0:0:0:0:
324,196,181610,6,0,P|385:209|419:263,1,130,6|2,0:0|0:0,0:0:0:0:
476,192,182127,2,0,P|456:131|486:75,1,130,6|2,0:0|0:0,0:0:0:0:
397,63,182645,2,0,P|354:109|291:111,1,130,6|2,0:0|0:0,0:0:0:0:
224,47,183162,6,0,P|199:106|221:166,1,130,4|4,3:0|3:0,0:0:0:0:
300,216,183679,1,2,0:0:0:0:
216,256,183852,1,2,0:0:0:0:
140,204,184024,1,2,0:0:0:0:
49,220,184196,1,2,0:0:0:0:
19,309,184369,5,4,1:0:0:0:
40,316,195403,6,0,L|136:300,1,97.50000371933,0|2,0:0|0:0,0:0:0:0:
268,332,196093,2,0,L|364:316,1,97.50000371933,0|2,0:0|0:0,0:0:0:0:
472,232,196783,2,0,L|375:216,1,97.50000371933,0|2,0:0|0:0,0:0:0:0:
244,248,197473,2,0,L|147:232,1,97.50000371933,0|2,0:0|0:0,0:0:0:0:
40,148,198162,6,0,L|136:132,1,97.50000371933,2|0,0:0|0:0,0:0:0:0:
268,164,198852,2,0,L|364:148,1,97.50000371933
472,64,199541,2,0,L|375:48,1,97.50000371933,0|2,0:0|0:0,0:0:0:0:
244,80,200231,2,0,L|147:64,1,97.50000371933,0|2,0:0|0:0,0:0:0:0:
23,200,200921,6,0,P|17:263|47:320,1,130,6|2,0:0|0:0,0:0:0:0:
136,344,201438,2,0,L|200:337,1,65,10|2,0:0|0:0,0:0:0:0:
288,312,201783,1,2,0:0:0:0:
287,312,201955,2,0,P|310:288|341:280,1,65,10|2,0:0|0:0,0:0:0:0:
432,284,202300,6,0,L|448:348,2,65,2|10|2,0:0|0:0|0:0,0:0:0:0:
412,196,202817,1,2,0:0:0:0:
500,219,202989,2,0,P|501:187|493:156,1,65,10|2,0:0|0:0,0:0:0:0:
420,104,203334,2,0,L|357:87,1,65,10|2,0:0|0:0,0:0:0:0:
268,64,203679,5,6,0:0:0:0:
207,135,203851,1,2,0:0:0:0:
296,152,204024,1,2,0:0:0:0:
339,232,204196,6,0,P|309:244|277:243,1,65,2|10,0:0|0:0,0:0:0:0:
188,256,204541,1,10,0:0:0:0:
164,344,204714,1,10,0:0:0:0:
252,320,204886,1,14,0:0:0:0:
188,256,205058,6,0,P|126:235|63:248,1,130,2|2,0:0|0:0,0:0:0:0:
32,160,205576,2,0,L|48:80,1,65,2|8,0:0|0:0,0:0:0:0:
116,40,205921,1,8,0:0:0:0:
189,149,206093,2,0,P|157:144|127:132,1,65,14|10,0:0|0:0,0:0:0:0:
256,87,206438,6,0,P|320:84|376:115,1,130,6|8,0:0|0:0,0:0:0:0:
416,196,206955,1,0,0:0:0:0:
416,196,207127,2,0,L|409:260,1,65,2|2,0:0|0:0,0:0:0:0:
320,276,207472,2,0,L|326:211,1,65,8|0,0:0|0:0,0:0:0:0:
240,180,207817,6,0,B|204:192|204:192|113:178,1,130,2|8,0:0|0:0,0:0:0:0:
20,336,208507,2,0,P|52:337|82:326,1,65,2|2,0:0|0:0,0:0:0:0:
156,268,208852,2,0,P|188:266|218:277,1,65,8|0,0:0|0:0,0:0:0:0:
288,336,209196,5,2,0:0:0:0:
428,220,209541,2,0,L|442:349,2,130,8|2|8,0:0|0:0|0:0,0:0:0:0:
416,128,210403,1,0,0:0:0:0:
344,184,210576,6,0,P|311:184|279:179,2,65,2|0|8,0:0|0:0|0:0,0:0:0:0:
311,99,211093,2,0,P|248:101|201:144,1,130,0|2,0:0|0:0,0:0:0:0:
208,236,211610,1,8,0:0:0:0:
208,236,211783,1,0,0:0:0:0:
140,296,211955,6,0,L|10:311,1,130,6|8,0:0|0:0,0:0:0:0:
40,223,212472,2,0,P|49:192|52:160,1,65,0|2,0:0|0:0,0:0:0:0:
56,68,212817,2,0,P|88:66|120:71,1,65,2|8,0:0|0:0,0:0:0:0:
184,136,213162,6,0,P|248:133|303:100,1,130,6|2,0:0|0:0,0:0:0:0:
380,52,213679,2,0,L|387:116,1,65,8|0,0:0|0:0,0:0:0:0:
476,132,214024,2,0,L|483:196,1,65,2|2,0:0|0:0,0:0:0:0:
394,211,214369,2,0,L|401:275,1,65,8|0,0:0|0:0,0:0:0:0:
489,291,214714,6,0,P|428:309|376:349,1,130,6|8,0:0|0:0,0:0:0:0:
284,352,215231,1,0,0:0:0:0:
284,352,215403,2,0,P|281:319|277:287,1,65,2|2,0:0|0:0,0:0:0:0:
192,252,215748,1,8,0:0:0:0:
264,196,215921,6,0,P|275:133|248:75,1,130,6|2,0:0|0:0,0:0:0:0:
164,40,216438,1,8,0:0:0:0:
92,96,216611,2,0,P|80:158|107:216,1,130,6|2,0:0|0:0,0:0:0:0:
192,252,217127,2,0,L|187:284,3,32.5,8|8|8|8,0:0|0:0|0:0|0:0,0:0:0:0:
160,324,217472,6,0,L|224:321,1,65,12|0,0:0|0:0,0:0:0:0:
303,363,217817,2,0,P|300:331|306:299,1,65,8|0,0:0|0:0,0:0:0:0:
359,227,218162,2,0,P|350:197|328:174,1,65,8|2,0:0|0:0,0:0:0:0:
260,112,218507,2,0,L|324:100,1,65,8|0,0:0|0:0,0:0:0:0:
244,204,218852,6,0,L|179:192,1,65,8|0,0:0|0:0,0:0:0:0:
107,136,219196,2,0,P|94:165|88:197,1,65,8|0,0:0|0:0,0:0:0:0:
140,272,219541,2,0,L|76:287,1,65,8|2,0:0|0:0,0:0:0:0:
116,368,219886,2,0,P|148:369|178:358,1,65,8|0,0:0|0:0,0:0:0:0:
232,284,220231,5,12,0:0:0:0:
344,140,220576,2,0,L|473:146,2,130,8|8|8,0:0|0:0|0:0,0:0:0:0:
260,176,221438,1,0,0:0:0:0:
268,83,221610,6,0,P|263:51|251:22,1,65,12|0,0:0|0:0,0:0:0:0:
176,76,221955,1,8,0:0:0:0:
84,69,222127,2,0,P|88:101|100:130,1,65,0|8,0:0|0:0,0:0:0:0:
176,76,222472,1,2,0:0:0:0:
184,168,222645,2,0,P|179:200|167:229,1,65,8|0,0:0|0:0,0:0:0:0:
92,280,222989,5,12,0:0:0:0:
92,280,223162,1,0,0:0:0:0:
172,323,223334,2,0,P|204:319|236:321,1,65,8|0,0:0|0:0,0:0:0:0:
320,288,223679,2,0,L|332:224,1,65,8|2,0:0|0:0,0:0:0:0:
348,136,224024,5,8,0:0:0:0:
348,136,224196,1,4,0:0:0:0:
264,100,224369,2,0,P|257:131|262:163,1,65,8|0,0:0|0:0,0:0:0:0:
332,224,224714,2,0,L|396:221,1,65,8|0,3:2|0:0,0:0:0:0:
460,156,225058,2,0,P|485:214|467:275,1,130,8|8,0:0|0:0,0:0:0:0:
296,340,225748,6,0,L|166:329,1,130,12|8,0:0|0:0,0:0:0:0:
84,288,226265,2,0,L|76:223,1,65,12|0,0:0|0:0,0:0:0:0:
168,224,226610,2,0,L|160:159,1,65,8|8,0:0|0:0,0:0:0:0:
184,72,226955,6,0,B|212:88|212:88|308:74,1,130,12|0,0:0|0:0,0:0:0:0:
396,48,227472,2,0,P|401:79|394:111,1,65,2|2,0:0|0:0,0:0:0:0:
316,160,227817,2,0,P|311:191|318:223,1,65,2|2,0:0|0:0,0:0:0:0:
400,264,228162,1,8,0:0:0:0:
324,316,228334,1,8,0:0:0:0:
448,339,228507,6,0,P|486:289|481:226,1,130,12|8,0:0|0:0,0:0:0:0:
400,264,229024,1,0,0:0:0:0:
379,175,229196,2,0,L|315:159,1,65,8|2,0:0|0:0,0:0:0:0:
268,236,229541,2,0,L|204:251,1,65,8|0,0:0|0:0,0:0:0:0:
140,316,229886,5,8,0:0:0:0:
48,320,230058,1,0,0:0:0:0:
92,239,230231,2,0,P|106:211|112:179,1,65,8|0,0:0|0:0,0:0:0:0:
60,104,230576,1,8,0:0:0:0:
152,92,230748,1,2,0:0:0:0:
208,164,230921,2,0,P|240:163|272:158,1,65,8|0,0:0|0:0,0:0:0:0:
343,104,231265,6,0,P|324:165|325:230,1,130,12|8,0:0|0:0,0:0:0:0:
396,288,231783,2,0,L|460:291,1,65,0|8,3:0|0:0,0:0:0:0:
496,208,232127,2,0,L|431:204,2,65,2|0|4,0:0|0:0|0:0,0:0:0:0:
368,328,235403,6,0,P|326:302|279:293,1,97.50000371933,8|12,3:0|0:0,0:0:0:0:
144,264,236093,2,0,P|185:238|232:229,1,97.50000371933,2|8,0:0|0:0,0:0:0:0:
412,204,236783,6,0,B|404:140|404:140|349:103,1,130,6|8,0:0|0:0,0:0:0:0:
260,96,237300,1,0,0:0:0:0:
260,96,237472,2,0,P|228:104|196:107,1,65,2|2,0:0|0:0,0:0:0:0:
108,84,237817,1,8,0:0:0:0:
52,156,237989,6,0,L|40:285,1,130,2|2,0:0|0:0,0:0:0:0:
128,320,238507,2,0,L|133:255,1,65,8|0,0:0|0:0,0:0:0:0:
216,212,238852,2,0,P|247:219|280:218,1,65,2|2,0:0|0:0,0:0:0:0:
348,160,239196,2,0,P|380:159|412:166,1,65,8|0,0:0|0:0,0:0:0:0:
485,218,239541,6,0,P|434:256|372:248,1,130,2|8,0:0|0:0,0:0:0:0:
288,288,240058,1,0,0:0:0:0:
288,288,240231,2,0,L|272:224,1,65,2|2,0:0|0:0,0:0:0:0:
260,136,240576,1,8,0:0:0:0:
348,160,240748,6,0,L|475:133,1,130,2|0,0:0|0:0,0:0:0:0:
464,44,241265,2,0,L|400:57,1,65,8|0,0:0|0:0,0:0:0:0:
307,68,241610,2,0,P|276:60|252:39,1,65,2|2,0:0|0:0,0:0:0:0:
164,56,241955,2,0,L|100:69,1,65,8|0,0:0|0:0,0:0:0:0:
39,140,242300,6,0,P|32:204|46:267,1,130,6|8,0:0|0:0,0:0:0:0:
124,316,242817,2,0,L|188:312,1,65,0|2,0:0|0:0,0:0:0:0:
256,248,243162,1,2,0:0:0:0:
312,320,243334,1,8,0:0:0:0:
379,254,243507,6,0,P|398:193|391:129,1,130,6|0,0:0|0:0,0:0:0:0:
299,112,244024,2,0,P|267:112|235:105,1,65,8|0,0:0|0:0,0:0:0:0:
148,124,244369,2,0,B|172:164|172:164|165:247,1,130,2|8,0:0|0:0,0:0:0:0:
80,280,244886,1,0,0:0:0:0:
80,280,245058,6,0,L|15:269,1,65,2|0,0:0|0:0,0:0:0:0:
24,180,245403,2,0,L|88:190,1,65,8|0,0:0|0:0,0:0:0:0:
148,124,245748,2,0,P|211:135|272:116,1,130,2|8,0:0|0:0,0:0:0:0:
320,196,246265,6,0,B|317:229|317:229|297:250|297:250|303:284|281:314,1,130,12|8,0:0|0:0,0:0:0:0:
208,256,246783,2,0,P|159:258|116:280,1,97.5,0|8,0:0|0:0,0:0:0:0:
72,292,247127,2,0,L|39:287,7,32.5,8|0|2|0|2|0|2|0,0:0|0:0|0:0|0:0|0:0|0:0|0:0|0:0,0:0:0:0:
12,252,247817,6,0,L|23:188,1,65,12|0,0:0|0:0,0:0:0:0:
116,200,248162,2,0,L|127:136,1,65,8|0,0:0|0:0,0:0:0:0:
220,136,248507,2,0,L|231:199,1,65,8|2,0:0|0:0,0:0:0:0:
324,188,248852,2,0,L|335:251,1,65,8|0,0:0|0:0,0:0:0:0:
392,324,249196,6,0,P|422:335|454:335,1,65,8|0,0:0|0:0,0:0:0:0:
496,256,249541,2,0,P|465:244|433:244,1,65,8|0,0:0|0:0,0:0:0:0:
416,155,249886,2,0,P|422:124|420:91,1,65,8|2,0:0|0:0,0:0:0:0:
332,72,250231,2,0,L|267:68,1,65,8|0,0:0|0:0,0:0:0:0:
180,44,250576,6,0,L|158:105,1,65,8|0,0:0|0:0,0:0:0:0:
68,108,250921,2,0,L|89:169,1,65,8|0,0:0|0:0,0:0:0:0:
180,172,251265,2,0,L|158:233,1,65,8|2,0:0|0:0,0:0:0:0:
68,236,251610,2,0,L|89:297,1,65,8|0,0:0|0:0,0:0:0:0:
168,343,251955,6,0,P|198:333|231:334,1,65,8|0,0:0|0:0,0:0:0:0:
320,315,252300,2,0,P|326:284|328:251,1,65,8|0,0:0|0:0,0:0:0:0:
272,180,252645,2,0,L|207:186,1,65,8|2,0:0|0:0,0:0:0:0:
120,216,252989,2,0,P|114:184|122:152,1,65,8|0,0:0|0:0,0:0:0:0:
172,76,253334,6,0,P|236:82|299:68,1,130,12|8,0:0|0:0,0:0:0:0:
388,48,253852,1,0,0:0:0:0:
388,48,254024,2,0,P|421:102|423:167,1,130,8|8,0:0|0:0,0:0:0:0:
356,228,254541,1,0,0:0:0:0:
275,268,254714,6,0,P|323:310|387:310,1,130,10|8,0:0|0:0,0:0:0:0:
452,248,255231,1,0,0:0:0:0:
452,248,255403,2,0,L|466:118,1,130,8|8,0:0|0:0,0:0:0:0:
376,132,255921,1,0,0:0:0:0:
291,164,256093,6,0,P|259:164|229:152,1,65,10|8,0:0|0:0,0:0:0:0:
216,63,256438,2,0,P|248:63|278:75,1,65,10|8,0:0|0:0,0:0:0:0:
144,120,256783,1,8,0:0:0:0:
60,156,256955,1,2,0:0:0:0:
72,64,257127,1,2,0:0:0:0:
144,120,257300,5,12,0:0:0:0:
256,192,257386,12,0,263679,0:0:0:0:
