osu file format v14

[General]
AudioFilename: Harumodoki.mp3
AudioLeadIn: 1430
PreviewTime: 59880
Countdown: 0
SampleSet: Soft
StackLeniency: 0.7
Mode: 0
LetterboxInBreaks: 0
WidescreenStoryboard: 0

[Editor]
DistanceSpacing: 0.5
BeatDivisor: 4
GridSize: 4
TimelineZoom: 3.499999

[Metadata]
Title:Haru Modoki
TitleUnicode:春擬き
Artist:yanaginagi
ArtistUnicode:やなぎなぎ
Creator:Aerous
Version:captin's Insane
Source:やはり俺の青春ラブコメはまちがっている。続
Tags:jmmxps yahari ore no seishun love comedy wa machigatteiru zoku my teen romantic snafu 2 oregairu captin1 momochikun celsiuslk tv size
BeatmapID:679826
BeatmapSetID:300312

[Difficulty]
HPDrainRate:6
CircleSize:4
OverallDifficulty:7.5
ApproachRate:8.7
SliderMultiplier:1.8
SliderTickRate:2

[Events]
//Background and Video events
Video,-370,"snafu2^2.avi"
0,0,"RingBG.jpg",0,0
//Break Periods
//Storyboard Layer 0 (Background)
//Storyboard Layer 1 (Fail)
//Storyboard Layer 2 (Pass)
//Storyboard Layer 3 (Foreground)
//Storyboard Sound Samples

[TimingPoints]
570,344.827586206897,4,2,2,50,1,0
570,-166.666666666667,4,2,2,50,0,0
5052,-133.333333333333,4,2,2,50,0,0
6087,-100,4,2,2,50,0,0
6776,-100,4,2,1,60,0,0
15570,-133.333333333333,4,2,1,50,0,0
15914,-133.333333333333,4,2,2,50,0,0
17638,-100,4,2,1,50,0,0
18328,-111.111111111111,4,2,1,60,0,0
26604,-100,4,2,1,60,0,0
26949,-166.666666666667,4,2,1,40,0,0
28673,-111.111111111111,4,2,1,60,0,0
40225,-111.111111111111,4,2,1,40,0,0
40570,-133.333333333333,4,2,1,60,0,0
45742,-133.333333333333,4,2,1,40,0,0
46087,-133.333333333333,4,2,1,60,0,0
51604,-111.111111111111,4,2,1,70,0,0
54363,-111.111111111111,4,2,1,60,0,0
58501,-111.111111111111,4,2,1,50,0,0
59363,-111.111111111111,4,2,1,60,0,0
59880,-100,4,2,1,70,0,1
70742,-100,4,2,1,70,0,0
70914,-100,4,2,1,70,0,1
81949,-100,4,2,1,70,0,0
86001,-100,4,2,1,50,0,0
86468,344.827586206897,4,2,2,50,1,0
87502,-100,4,2,1,40,0,0
88192,-100,4,2,1,30,0,0
88881,-100,4,2,1,5,0,0

[Colours]
Combo1 : 255,192,0
Combo2 : 0,158,234
Combo3 : 255,128,0
Combo4 : 242,24,57

[HitObjects]
319,143,570,6,0,P|375:131|441:104,1,107.999996704102,2|0,0:0|0:0,0:0:0:0:
281,223,1259,2,0,P|337:233|408:234,1,107.999996704102,2|0,0:0|0:0,0:0:0:0:
158,115,1949,2,0,P|104:117|51:127,1,107.999996704102,2|0,0:0|0:0,0:0:0:0:
194,244,2638,2,0,P|143:225|90:214,1,107.999996704102,2|0,0:0|0:0,0:0:0:0:
246,338,3328,5,2,0:0:0:0:
261,157,3673,2,0,L|257:47,2,107.999996704102,0|2|0,0:0|0:0|0:0,0:0:0:0:
299,281,4707,1,2,0:0:0:0:
256,192,4794,12,0,6604,0:0:0:0:
324,145,6776,5,8,0:0:0:0:
289,157,6863,1,8,0:0:0:0:
253,157,6949,1,8,0:0:0:0:
219,143,7035,1,8,0:0:0:0:
183,135,7121,1,2,0:0:0:0:
147,135,7207,1,2,0:0:0:0:
112,147,7294,6,0,B|83:185|83:185|103:325,1,180,6|0,0:0|0:0,0:0:0:0:
291,249,7811,1,10,0:0:0:0:
168,216,7983,1,0,0:0:0:0:
168,216,8070,1,0,0:0:0:0:
168,216,8156,2,0,P|171:269|179:315,1,90,10|0,0:0|0:0,0:0:0:0:
377,354,8501,2,0,P|383:309|385:264,1,90,10|0,0:0|0:0,0:0:0:0:
330,76,8845,5,10,0:0:0:0:
321,213,9018,1,0,0:0:0:0:
456,139,9190,2,0,L|352:146,1,90,10|0,0:0|0:0,0:0:0:0:
156,174,9535,1,10,0:0:0:0:
235,85,9707,1,0,0:0:0:0:
235,85,9794,1,0,0:0:0:0:
235,85,9880,1,10,0:0:0:0:
244,265,10052,6,0,P|225:312|94:339,1,180,4|0,0:0|0:0,0:0:0:0:
31,216,10570,2,0,L|140:204,1,90,10|0,0:0|0:0,0:0:0:0:
283,175,10914,1,10,0:0:0:0:
291,348,11087,1,0,0:0:0:0:
291,348,11173,1,0,0:0:0:0:
291,348,11259,2,0,P|245:353|189:345,1,90,10|0,0:0|0:0,0:0:0:0:
378,227,11604,6,0,L|486:239,1,90,10|0,0:0|0:0,0:0:0:0:
279,99,11949,2,0,L|171:111,1,90,10|0,0:0|0:0,0:0:0:0:
328,299,12294,1,10,0:0:0:0:
363,128,12466,1,0,0:0:0:0:
197,182,12638,1,10,0:0:0:0:
464,188,12811,6,0,B|471:126|471:126|462:7,1,180,12|0,0:0|0:0,0:0:0:0:
341,243,13328,2,0,P|334:298|335:352,1,90,10|0,0:0|0:0,0:0:0:0:
470,201,13673,1,10,0:0:0:0:
349,143,13845,1,0,0:0:0:0:
251,235,14018,2,0,L|245:331,1,90,10|0,0:0|0:0,0:0:0:0:
52,228,14363,6,0,L|45:120,1,90,10|0,0:0|0:0,0:0:0:0:
187,39,14707,1,10,0:0:0:0:
197,220,14880,1,0,0:0:0:0:
87,147,15052,1,10,0:0:0:0:
113,131,15138,1,0,0:0:0:0:
139,113,15225,1,8,0:3:0:0:
170,114,15311,1,0,0:0:0:0:
201,115,15397,1,8,0:3:0:0:
232,116,15483,1,0,0:0:0:0:
263,117,15570,6,0,P|342:120|422:104,1,135,6|0,0:0|0:0,0:0:0:0:
483,224,16087,2,0,P|438:206|344:196,2,135.000005149842,0|2|0,0:0|0:0|0:0,0:0:0:0:
260,238,17121,2,0,L|218:245,5,33.7500012874604,2|0|0|0|0|0,0:0|0:0|0:0|0:0|0:0|0:0,0:0:0:0:
343,204,17638,1,2,0:0:0:0:
375,345,17811,1,8,0:0:0:0:
357,99,17983,1,8,0:0:0:0:
357,99,18328,6,0,B|301:116|301:116|191:108,1,161.999995056153,6|2,0:0|0:0,0:0:0:0:
429,18,18845,1,8,0:0:0:0:
412,199,19018,1,0,0:0:0:0:
228,202,19190,2,0,L|169:198,1,40.4999987640381,2|0,0:0|0:0,0:0:0:0:
115,159,19363,1,2,0:0:0:0:
115,159,19449,2,0,P|111:207|110:241,1,80.9999975280763,0|2,0:0|0:0,0:0:0:0:
140,315,19707,6,0,P|91:283|21:278,1,107.999996704102,8|0,0:0|0:0,0:0:0:0:
42,275,20052,1,2,0:0:0:0:
295,286,20225,2,0,L|399:275,1,80.9999975280763,8|0,0:0|0:0,0:0:0:0:
476,186,20570,1,2,0:0:0:0:
223,235,20742,2,0,P|214:280|213:330,1,80.9999975280763,2|0,0:0|0:0,0:0:0:0:
384,167,21087,6,0,B|392:41|392:41|352:71,1,161.999995056153,8|2,0:0|0:0,0:0:0:0:
199,137,21604,2,0,P|263:136|300:132,1,80.9999975280763,8|0,0:0|0:0,0:0:0:0:
140,60,21949,1,2,0:0:0:0:
109,251,22121,2,0,L|111:336,1,80.9999975280763,2|0,0:0|0:0,0:0:0:0:
65,159,22466,6,0,P|137:147|203:220,1,161.999995056153,8|2,0:0|0:0,0:0:0:0:
291,341,22983,2,0,P|248:329|198:304,1,80.9999975280763,8|0,0:0|0:0,0:0:0:0:
313,183,23328,1,2,0:0:0:0:
483,197,23501,1,2,0:0:0:0:
483,197,23845,6,0,P|417:151|378:80,1,161.999995056153,8|2,0:0|0:0,0:0:0:0:
499,77,24363,1,8,0:0:0:0:
479,281,24535,1,0,0:0:0:0:
314,168,24707,2,0,L|307:113,1,40.4999987640381,2|0,0:0|0:0,0:0:0:0:
248,73,24880,1,2,0:0:0:0:
248,73,24966,2,0,P|192:82|130:84,1,80.9999975280763,0|2,0:0|0:0,0:0:0:0:
116,34,25225,6,0,P|127:109|123:161,1,107.999996704102,8|0,0:0|0:0,0:0:0:0:
125,140,25570,1,2,0:0:0:0:
79,324,25742,2,0,P|66:279|61:234,1,80.9999975280763,8|0,0:0|0:0,0:0:0:0:
182,86,26087,1,2,0:0:0:0:
287,269,26259,2,0,L|385:284,1,80.9999975280763,2|0,0:0|0:0,0:0:0:0:
105,118,26604,6,0,P|81:173|148:271,1,180,4|0,0:0|0:0,0:0:0:0:
211,210,27121,2,0,P|239:206|267:203,1,53.9999983520508,0|0,0:0|0:0,0:0:0:0:
401,272,27466,2,0,P|374:269|347:265,1,53.9999983520508,0|0,0:0|0:0,0:0:0:0:
347,265,27983,2,0,L|338:136,1,107.999996704102,0|0,0:0|0:0,0:0:0:0:
431,37,28501,2,0,P|432:76|430:104,1,53.9999983520508,0|2,0:0|0:0,0:0:0:0:
420,117,28759,5,2,0:0:0:0:
409,143,28845,1,8,0:0:0:0:
225,106,29018,2,0,P|267:95|326:94,1,80.9999975280763,8|0,0:0|0:0,0:0:0:0:
180,252,29363,6,0,P|104:277|34:241,1,161.999995056153,6|2,0:0|0:0,0:0:0:0:
250,193,29880,2,0,L|354:199,1,80.9999975280763,8|0,0:0|0:0,0:0:0:0:
206,339,30225,1,2,0:0:0:0:
162,163,30397,2,0,P|159:118|158:81,1,80.9999975280763,2|8,0:0|0:0,0:0:0:0:
302,112,30742,1,0,0:0:0:0:
288,272,30914,5,2,0:0:0:0:
135,190,31087,1,2,0:0:0:0:
288,272,31259,2,0,P|237:283|186:288,1,80.9999975280763,8|0,0:0|0:0,0:0:0:0:
29,254,31604,1,2,0:0:0:0:
79,128,31776,2,0,P|117:116|157:109,1,80.9999975280763,2|8,0:0|0:0,0:0:0:0:
232,43,32121,6,0,L|222:210,1,161.999995056153,2|2,0:0|0:0,0:0:0:0:
52,297,32638,2,0,P|108:282|156:276,1,80.9999975280763,8|0,0:0|0:0,0:0:0:0:
332,226,32983,1,2,0:0:0:0:
286,340,33156,1,2,0:0:0:0:
211,245,33328,1,8,0:0:0:0:
394,293,33501,1,0,0:0:0:0:
339,112,33673,6,0,P|295:122|257:139,1,80.9999975280763,2|2,0:0|0:0,0:0:0:0:
62,172,34018,2,0,P|99:187|138:196,1,80.9999975280763,8|0,0:0|0:0,0:0:0:0:
137,76,34363,1,2,0:0:0:0:
113,298,34535,2,0,L|200:285,1,80.9999975280763,2|8,0:0|0:0,0:0:0:0:
455,349,34880,6,0,P|409:324|298:311,1,161.999995056153,6|2,0:0|0:0,0:0:0:0:
95,360,35397,2,0,P|86:308|85:275,1,80.9999975280763,8|0,0:0|0:0,0:0:0:0:
172,98,35742,1,2,0:0:0:0:
198,262,35914,1,2,0:0:0:0:
84,158,36087,1,8,0:0:0:0:
274,109,36259,6,0,L|376:115,1,80.9999975280763,0|2,0:0|0:0,0:0:0:0:
109,197,36604,1,0,0:0:0:0:
305,188,36776,2,0,L|407:194,1,80.9999975280763,8|0,0:0|0:0,0:0:0:0:
311,322,37121,1,2,0:0:0:0:
206,161,37294,2,0,P|198:119|196:72,1,80.9999975280763,2|8,0:0|0:0,0:0:0:0:
427,65,37638,6,0,P|354:100|274:109,1,161.999995056153,6|2,0:0|0:0,0:0:0:0:
44,61,38156,2,0,P|95:74|129:85,1,80.9999975280763,8|0,0:0|0:0,0:0:0:0:
166,246,38501,1,2,0:0:0:0:
9,181,38673,2,0,P|52:164|101:155,1,80.9999975280763,2|8,0:0|0:0,0:0:0:0:
266,229,39018,5,2,0:0:0:0:
266,229,39104,1,0,0:0:0:0:
266,229,39190,1,0,0:0:0:0:
90,234,39363,1,2,0:0:0:0:
269,135,39535,2,0,L|359:142,1,80.9999975280763,12|0,0:0|0:0,0:0:0:0:
418,312,39880,2,0,L|476:301,2,53.9999983520508,8|8|8,0:0|0:0|0:0,0:0:0:0:
330,346,40225,2,0,L|272:336,2,53.9999983520508,8|8|8,0:3|0:3|0:3,0:0:0:0:
185,357,40570,6,0,P|161:316|145:204,1,135.000005149842,6|0,0:0|0:0,0:0:0:0:
228,253,41087,1,2,0:0:0:0:
71,286,41259,2,0,L|2:280,1,67.5000025749208,8|0,0:0|0:0,0:0:0:0:
187,175,41604,2,0,L|256:169,1,67.5000025749208,2|2,0:0|0:0,0:0:0:0:
448,232,41949,5,0,0:0:0:0:
448,232,42121,2,0,P|393:258|299:221,1,135.000005149842,8|2,0:0|0:0,0:0:0:0:
346,91,42638,2,0,L|352:168,1,67.5000025749208,8|0,0:0|0:0,0:0:0:0:
230,325,42983,2,0,L|236:248,1,67.5000025749208,0|2,0:0|0:0,0:0:0:0:
104,201,43328,6,0,P|144:172|235:180,1,135.000005149842,2|0,0:0|0:0,0:0:0:0:
114,283,43845,1,2,0:0:0:0:
24,170,44018,2,0,L|30:24,1,135.000005149842,8|2,0:0|0:0,0:0:0:0:
115,15,44535,1,2,0:0:0:0:
196,172,44707,6,0,L|201:306,1,135.000005149842,0|2,0:0|0:0,0:0:0:0:
109,158,45225,1,0,0:0:0:0:
109,158,45311,1,0,0:0:0:0:
109,158,45397,1,8,0:0:0:0:
244,90,45570,1,8,0:3:0:0:
290,233,45742,2,0,L|294:318,1,67.5000025749208,6|0,0:0|0:0,0:0:0:0:
493,291,46087,6,0,P|442:266|350:275,1,135.000005149842,6|0,0:0|0:0,0:0:0:0:
206,311,46604,1,2,0:0:0:0:
306,182,46776,2,0,L|375:192,1,67.5000025749208,8|0,0:0|0:0,0:0:0:0:
179,288,47121,2,0,L|110:298,1,67.5000025749208,2|2,0:0|0:0,0:0:0:0:
21,137,47466,5,0,0:0:0:0:
122,110,47638,2,0,P|116:179|54:240,1,135.000005149842,8|2,0:0|0:0,0:0:0:0:
56,46,48156,1,8,0:0:0:0:
188,43,48328,2,0,L|334:54,1,135.000005149842,0|2,0:0|0:0,0:0:0:0:
356,155,48845,6,0,P|391:105|407:11,1,135.000005149842,2|0,0:0|0:0,0:0:0:0:
256,192,49363,1,2,0:0:0:0:
256,192,49535,2,0,L|260:268,1,67.5000025749208,8|0,0:0|0:0,0:0:0:0:
326,332,49880,1,2,0:0:0:0:
304,119,50052,6,0,B|260:106|260:106|158:122,1,135.000005149842,2|8,0:0|0:0,0:0:0:0:
31,171,50570,2,0,P|69:177|111:179,1,67.5000025749208,0|2,0:0|0:0,0:0:0:0:
343,227,50914,2,0,P|309:229|276:234,1,67.5000025749208,8|2,0:0|0:0,0:0:0:0:
55,284,51259,2,0,P|90:297|131:308,1,67.5000025749208,8|0,0:0|0:0,0:0:0:0:
413,286,51604,5,6,0:0:0:0:
440,155,51776,1,0,0:0:0:0:
312,195,51949,2,0,L|303:285,1,80.9999975280763,8|0,0:0|0:0,0:0:0:0:
475,169,52294,1,2,0:0:0:0:
348,83,52466,2,0,L|262:86,1,80.9999975280763,2|8,0:0|0:0,0:0:0:0:
102,136,52811,6,0,P|138:170|242:158,1,161.999995056153,2|2,0:0|0:0,0:0:0:0:
30,82,53328,2,0,L|20:170,1,80.9999975280763,8|0,0:0|0:0,0:0:0:0:
212,286,53673,1,2,0:0:0:0:
212,286,53845,1,2,0:0:0:0:
126,116,54018,2,0,L|116:204,1,80.9999975280763,8|0,0:0|0:0,0:0:0:0:
329,342,54363,6,0,P|325:291|318:249,1,80.9999975280763,12|0,0:0|0:0,0:0:0:0:
237,158,54707,2,0,L|233:118,3,40.4999987640381,10|0|0|0,0:0|0:0|0:0|0:0,0:0:0:0:
196,234,55052,2,0,P|199:280|204:329,1,80.9999975280763,10|0,0:0|0:0,0:0:0:0:
380,181,55397,2,0,P|383:140|386:100,1,80.9999975280763,10|0,0:0|0:0,0:0:0:0:
168,48,55742,5,2,0:0:0:0:
141,205,55914,2,0,L|135:261,2,40.4999987640381,8|0|2,0:0|0:0|0:0,0:0:0:0:
226,122,56259,1,0,0:0:0:0:
199,279,56431,2,2,L|193:335,2,40.4999987640381,10|0|0,0:0|0:0|0:0,0:0:0:0:
306,160,56776,1,10,0:0:0:0:
307,131,56863,1,0,0:0:0:0:
309,102,56949,1,0,0:0:0:0:
311,73,57035,1,0,0:0:0:0:
313,44,57121,5,10,0:0:0:0:
474,143,57294,2,0,P|421:153|386:150,1,80.9999975280763,0|8,0:0|0:0,0:0:0:0:
492,50,57638,1,0,0:0:0:0:
493,244,57811,2,0,L|487:293,1,40.4999987640381,8|8,0:0|0:0,0:0:0:0:
399,263,57983,2,0,L|412:310,1,40.4999987640381,8|8,0:3|0:3,0:0:0:0:
324,328,58156,2,0,L|355:366,1,40.4999987640381,2|2,0:0|0:0,0:0:0:0:
228,303,58328,1,6,0:0:0:0:
151,362,58501,5,0,0:0:0:0:
32,271,58673,2,0,L|36:226,2,40.4999987640381,0|0|0,0:0|0:0|0:0,0:0:0:0:
142,206,59018,1,0,0:0:0:0:
70,142,59190,1,0,0:0:0:0:
106,322,59363,1,2,0:0:0:0:
114,336,59449,1,2,0:0:0:0:
122,349,59535,2,0,L|219:343,1,80.9999975280763,12|0,0:0|0:0,0:0:0:0:
412,252,59880,6,0,P|363:241|295:248,1,90,6|0,0:0|0:0,0:0:0:0:
103,233,60225,2,0,L|200:252,1,90,8|0,0:0|0:0,0:0:0:0:
365,170,60570,1,2,0:0:0:0:
282,58,60742,1,2,0:0:0:0:
179,151,60914,2,0,L|283:156,1,90,8|0,0:0|0:0,0:0:0:0:
481,56,61259,6,0,P|428:68|382:87,1,90,2|0,0:0|0:0,0:0:0:0:
439,280,61604,2,0,L|443:172,1,90,8|0,0:0|0:0,0:0:0:0:
304,78,61949,1,2,0:0:0:0:
311,277,62121,1,2,0:0:0:0:
368,142,62294,1,8,0:0:0:0:
206,210,62466,1,0,0:0:0:0:
206,210,62552,1,0,0:0:0:0:
206,210,62638,6,0,L|202:314,1,90,2|0,0:0|0:0,0:0:0:0:
52,144,62983,2,0,L|48:40,1,90,8|0,0:0|0:0,0:0:0:0:
232,97,63328,2,0,P|167:110|114:107,1,90,2|2,0:0|0:0,0:0:0:0:
335,41,63673,2,0,L|441:55,1,90,8|0,0:0|0:0,0:0:0:0:
473,217,64018,5,2,0:0:0:0:
324,225,64190,1,0,0:0:0:0:
425,145,64363,1,8,0:0:0:0:
437,314,64535,2,0,L|319:306,1,90,0|2,0:0|0:0,0:0:0:0:
223,203,64880,1,2,0:0:0:0:
317,111,65052,1,8,0:0:0:0:
332,295,65225,1,0,0:0:0:0:
184,188,65397,6,0,P|126:176|-1:206,1,180,6|8,0:0|0:0,0:0:0:0:
234,277,65914,1,0,0:0:0:0:
307,138,66087,2,0,L|312:31,1,90,2|2,0:0|0:0,0:0:0:0:
180,92,66432,1,8,0:0:0:0:
416,100,66604,6,0,B|445:138|445:138|434:280,1,180,6|2,0:0|0:0,0:0:0:0:
307,369,67121,2,0,P|312:319|329:264,1,90,8|0,0:0|0:0,0:0:0:0:
261,74,67466,2,0,P|272:117|276:162,1,90,2|2,0:0|0:0,0:0:0:0:
69,157,67811,2,0,P|117:140|182:129,1,90,8|0,0:0|0:0,0:0:0:0:
363,157,68156,5,2,0:0:0:0:
228,187,68328,1,2,0:0:0:0:
412,219,68501,2,0,L|502:211,1,90,8|0,0:0|0:0,0:0:0:0:
335,167,68845,1,8,0:3:0:0:
324,186,68931,1,8,0:3:0:0:
319,208,69017,1,8,0:3:0:0:
319,231,69103,1,2,0:0:0:0:
325,252,69189,1,2,0:0:0:0:
387,95,69363,6,0,P|344:65|303:49,1,90,6|0,0:0|0:0,0:0:0:0:
183,173,69707,1,2,0:0:0:0:
148,40,69880,1,8,0:0:0:0:
287,174,70052,2,0,L|282:276,1,90,6|0,0:0|0:0,0:0:0:0:
196,344,70397,1,2,0:0:0:0:
69,252,70570,1,8,0:0:0:0:
67,229,70656,1,8,0:0:0:0:
65,206,70742,1,8,0:0:0:0:
64,183,70828,1,8,0:0:0:0:
63,160,70914,6,0,L|68:67,1,90,6|0,0:0|0:0,0:0:0:0:
212,224,71259,2,0,L|207:131,1,90,8|0,0:0|0:0,0:0:0:0:
375,63,71604,1,8,0:0:0:0:
412,182,71776,1,2,0:0:0:0:
291,153,71949,1,8,0:0:0:0:
392,64,72121,1,2,0:0:0:0:
358,243,72294,6,0,L|356:340,1,90,8|0,0:0|0:0,0:0:0:0:
209,270,72638,2,0,L|211:367,1,90,8|0,0:0|0:0,0:0:0:0:
69,217,72983,1,8,0:0:0:0:
69,217,73156,1,2,0:0:0:0:
248,196,73328,1,8,0:0:0:0:
248,196,73501,1,2,0:0:0:0:
93,102,73673,6,0,P|48:105|4:116,1,90,8|0,0:0|0:0,0:0:0:0:
191,272,74018,2,0,P|236:283|291:286,1,90,8|0,0:0|0:0,0:0:0:0:
423,146,74363,1,8,0:0:0:0:
293,159,74535,1,2,0:0:0:0:
474,225,74707,1,8,0:0:0:0:
432,60,74880,1,2,0:0:0:0:
391,267,75052,6,0,L|395:366,1,90,8|0,0:0|0:0,0:0:0:0:
204,273,75397,2,0,L|208:174,1,90,8|0,0:0|0:0,0:0:0:0:
268,75,75742,1,8,0:0:0:0:
296,242,75914,1,2,0:0:0:0:
136,182,76087,1,8,0:0:0:0:
235,168,76259,1,2,0:0:0:0:
151,330,76432,6,0,P|109:337|45:339,1,90,12|0,0:0|0:0,0:0:0:0:
234,237,76776,1,8,0:0:0:0:
300,355,76949,1,0,0:0:0:0:
105,260,77121,2,0,P|59:260|-1:251,1,90,8|2,0:0|0:0,0:0:0:0:
242,150,77466,2,0,P|289:142|348:141,1,90,8|2,0:0|0:0,0:0:0:0:
448,198,77811,5,8,0:0:0:0:
294,232,77983,1,0,0:0:0:0:
284,65,78156,2,0,P|329:64|390:74,1,90,8|0,0:0|0:0,0:0:0:0:
391,84,78414,1,0,0:0:0:0:
408,98,78501,1,8,0:0:0:0:
383,278,78673,1,2,0:0:0:0:
202,290,78845,2,0,L|200:189,1,90,8|0,0:0|0:0,0:0:0:0:
38,64,79190,5,6,0:0:0:0:
113,212,79363,1,0,0:0:0:0:
113,212,79449,1,8,0:0:0:0:
113,212,79535,1,8,0:0:0:0:
127,98,79707,1,6,0:0:0:0:
8,239,79880,2,0,L|11:291,2,45,8|8|0,0:0|0:0|0:0,0:0:0:0:
16,218,80138,1,8,0:0:0:0:
23,196,80225,1,6,0:0:0:0:
145,316,80397,6,0,P|188:342|302:257,1,180,6|0,0:0|0:0,0:0:0:0:
289,135,80914,2,0,L|283:74,3,45,8|0|0|0,0:0|0:0|0:0|0:0,0:0:0:0:
427,92,81259,2,0,L|433:31,3,45,10|0|0|0,0:0|0:0|0:0|0:0,0:0:0:0:
374,164,81604,1,10,0:0:0:0:
371,195,81690,1,0,0:0:0:0:
373,226,81776,1,0,0:0:0:0:
379,257,81863,1,0,0:0:0:0:
387,287,81949,6,0,L|481:290,1,90,6|0,0:0|0:0,0:0:0:0:
302,207,82294,1,8,0:0:0:0:
206,166,82466,2,0,L|112:169,1,90,0|8,0:0|0:0,0:0:0:0:
31,291,82811,1,2,0:0:0:0:
174,328,82983,2,0,P|218:326|263:317,1,90,8|2,0:0|0:0,0:0:0:0:
458,176,83328,6,0,P|413:167|368:165,1,90,8|0,0:0|0:0,0:0:0:0:
379,353,83673,2,0,L|389:255,1,90,8|0,0:0|0:0,0:0:0:0:
328,87,84018,1,8,0:0:0:0:
310,254,84190,1,2,0:0:0:0:
409,109,84363,2,0,L|405:6,1,90,8|2,0:0|0:0,0:0:0:0:
193,111,84707,6,0,B|174:148|174:148|195:302,1,180,12|8,0:0|0:0,0:0:0:0:
270,171,85225,1,0,0:0:0:0:
85,105,85397,2,0,L|81:164,1,45,8|8,0:0|0:0,0:0:0:0:
36,261,85570,2,0,L|87:269,1,45,8|8,0:3|0:3,0:0:0:0:
196,204,85742,2,0,L|138:212,1,45,2|2,0:0|0:0,0:0:0:0:
155,352,85914,5,6,0:0:0:0:
256,192,86001,12,0,88881,0:0:0:0:
