osu file format v14

[General]
AudioFilename: audio.mp3
AudioLeadIn: 0
PreviewTime: 109043
Countdown: 0
SampleSet: Soft
StackLeniency: 0.4
Mode: 0
LetterboxInBreaks: 0
WidescreenStoryboard: 1

[Editor]
Bookmarks: 78721,94204
DistanceSpacing: 1
BeatDivisor: 4
GridSize: 32
TimelineZoom: 2.3

[Metadata]
Title:Usotsuki
TitleUnicode:嘘月
Artist:yanagi nagi
ArtistUnicode:やなぎなぎ
Creator:Cerberus Roze
Version:Normal
Source:
Tags:
BeatmapID:1974615
BeatmapSetID:943157

[Difficulty]
HPDrainRate:2.2
CircleSize:3
OverallDifficulty:5.2
ApproachRate:5.7
SliderMultiplier:0.999999999999999
SliderTickRate:1

[Events]
//Background and Video events
0,0,"1547187240446.jpg",0,0
//Break Periods
2,78921,92787
//Storyboard Layer 0 (Background)
//Storyboard Layer 1 (Fail)
//Storyboard Layer 2 (Pass)
//Storyboard Layer 3 (Foreground)
//Storyboard Sound Samples

[TimingPoints]
334,322.58064516129,4,2,1,60,1,0
32269,-111.111111111111,4,2,1,35,0,0
47108,-222.222222222222,4,2,1,60,0,0
47753,-100,4,2,1,60,0,1
51624,-105.263157894737,4,2,1,60,0,1
63237,-117.647058823529,4,2,1,35,0,0
94204,-111.111111111111,4,2,1,35,0,0
109043,-222.222222222222,4,2,1,35,0,0
109688,-100,4,2,1,60,0,1
113559,-105.263157894737,4,2,1,60,0,1
123237,-200,4,2,1,40,0,0
125172,-100,4,2,1,60,0,1
129043,-105.263157894737,4,2,1,60,0,1
132914,-111.111111111111,4,2,1,60,0,1
140656,-111.111111111111,4,2,1,60,0,0
153882,-222.222222222222,4,2,1,60,0,0
154204,-100,4,2,1,60,0,0
174527,-1000,4,2,1,60,0,0

[Colours]
Combo1 : 255,112,70
Combo2 : 150,252,101
Combo3 : 255,255,174
Combo4 : 129,207,254

[HitObjects]
255,275,31946,5,0,0:0:0:0:
228,189,32269,2,0,P|302:249|393:228,1,179.999994506836,4|0,1:0|0:0,0:0:0:0:
272,99,33237,2,0,B|170:74|184:126|93:99,1,179.999994506836
33,222,34204,2,0,P|106:209|174:221,1,134.999995880127
295,286,35172,1,0,0:0:0:0:
251,330,35495,1,0,0:0:0:0:
194,302,35817,1,0,0:0:0:0:
248,190,36140,2,0,B|353:222|333:157|430:189,1,179.999994506836
504,335,37108,2,0,P|434:280|345:280,1,179.999994506836
203,347,38075,2,0,P|242:292|270:225,1,134.999995880127
245,100,39043,1,0,0:0:0:0:
184,121,39366,1,0,0:0:0:0:
170,183,39688,1,0,0:0:0:0:
199,61,40011,2,0,B|107:35|108:95|14:60,1,179.999994506836
66,146,40979,2,0,P|60:233|0:299,1,179.999994506836
153,301,41946,2,0,P|250:291|351:285,1,179.999994506836
436,247,42914,2,0,P|473:275|511:295,2,89.999997253418
351,184,43882,2,0,P|353:89|365:-7,1,179.999994506836
288,120,44850,2,0,P|166:69|110:85,1,179.999994506836
22,175,45817,2,0,B|-9:69|62:94|24:-19,1,179.999994506836
118,132,46785,1,0,0:0:0:0:
171,37,47108,2,0,L|166:15,2,22.4999993133545
227,179,47753,2,0,B|336:142|322:224|432:179,1,200
512,83,48721,1,0,0:0:0:0:
422,10,49043,1,0,0:0:0:0:
335,81,49366,1,0,0:0:0:0:
235,18,49688,2,0,P|159:-2|72:18,2,150
158,136,50979,1,0,0:0:0:0:
51,110,51301,1,0,0:0:0:0:
247,185,51624,2,0,B|269:303|215:273|243:384,1,189.999994926453
151,234,52592,2,0,B|91:205|4:223|4:223|34:257,1,189.999994926453
163,138,53559,2,0,P|167:87|166:30,2,94.9999974632263
136,251,54527,1,0,0:0:0:0:
248,207,54850,2,0,L|316:202,1,47.4999987316131
306,306,55172,2,0,L|374:311,1,47.4999987316131
488,203,55495,2,0,B|524:108|459:111|492:9,1,189.999994926453
397,147,56463,2,0,B|373:146|339:153|339:153|276:129|193:147,1,189.999994926453
105,96,57430,2,0,B|74:189|139:186|103:281,1,189.999994926453
0,382,58398,2,0,P|81:340|179:385,1,189.999994926453
306,290,59366,2,0,L|296:390,2,94.9999974632263
424,239,60333,1,0,0:0:0:0:
438,113,60656,1,0,0:0:0:0:
329,57,60979,1,0,0:0:0:0:
240,125,61301,2,0,P|145:118|48:118,1,189.999994926453
0,234,62269,2,0,P|95:227|192:227,1,189.999994926453
289,269,63237,2,0,P|310:341|240:333,1,170.000003242493
155,301,64204,2,0,P|152:218|149:116,1,170.000003242493
15,37,65172,2,0,B|113:63|99:14|188:34,1,170.000003242493
343,92,66140,2,0,B|251:77|285:157|175:137,1,170.000003242493
73,70,67108,2,0,P|94:119|45:237,1,170.000003242493
0,322,68075,2,0,P|41:308|174:336,1,170.000003242493
276,384,69043,1,0,0:0:0:0:
276,384,69366,2,0,L|267:324,1,42.5000008106231
361,306,69688,2,0,L|369:246,1,42.5000008106231
247,249,70011,2,0,L|236:150,2,85.0000016212463
409,220,70979,2,0,P|421:131|428:32,1,170.000003242493
319,112,71946,2,0,P|273:113|228:106,1,85.0000016212463
145,8,72592,1,0,0:0:0:0:
145,8,72914,2,0,P|101:112|155:208,1,212.500004053116
216,288,73882,2,0,P|215:336|198:387,2,85.0000016212463
117,317,74850,1,0,0:0:0:0:
117,317,75172,2,0,P|109:288|93:262,1,42.5000008106231
198,254,75495,2,0,P|206:225|221:198,1,42.5000008106231
46,203,75817,2,0,P|35:155|41:100,2,85.0000016212463
170,153,76785,2,0,B|265:129|245:188|351:152,1,170.000003242493
423,47,77753,1,0,0:0:0:0:
302,73,78075,1,0,0:0:0:0:
353,185,78398,1,0,0:0:0:0:
508,173,78721,1,0,0:0:0:0:
161,117,93882,5,0,0:0:0:0:
215,46,94204,2,0,P|209:131|206:231,1,179.999994506836
256,339,95172,2,0,B|361:369|342:306|438:339,1,179.999994506836
310,251,96140,2,0,P|313:159|323:62,1,179.999994506836
206,157,97108,1,0,0:0:0:0:
184,106,97430,1,0,0:0:0:0:
203,53,97753,1,0,0:0:0:0:
179,211,98075,2,0,P|87:208|-15:202,1,179.999994506836
6,338,99043,2,0,B|118:366|94:310|188:335,1,179.999994506836
351,384,100011,2,0,P|285:348|282:243,1,179.999994506836
359,159,100979,2,0,P|270:154|159:139,1,179.999994506836
59,46,101946,2,0,B|31:142|89:139|58:243,1,179.999994506836
4,344,102914,2,0,P|39:299|162:316,1,179.999994506836
248,384,103882,2,0,P|339:374|442:368,1,179.999994506836
461,197,104850,1,0,0:0:0:0:
425,235,105172,1,0,0:0:0:0:
455,287,105495,1,0,0:0:0:0:
400,166,105817,2,0,B|291:144|331:193|206:161,1,179.999994506836
113,41,106785,2,0,P|105:128|15:177,1,179.999994506836
150,206,107753,2,0,P|138:296|129:387,1,179.999994506836
180,288,108721,1,0,0:0:0:0:
37,268,109043,2,0,L|33:293,2,22.4999993133545
191,199,109688,2,0,B|207:97|135:110|171:-5,1,200
264,53,110656,1,0,0:0:0:0:
368,116,110979,1,0,0:0:0:0:
469,51,111301,1,0,0:0:0:0:
328,147,111624,2,0,P|318:201|325:268,2,99.9999999999999
430,209,112592,1,0,0:0:0:0:
381,327,112914,1,0,0:0:0:0:
285,199,113237,1,0,0:0:0:0:
263,375,113559,2,0,P|165:370|63:367,1,189.999994926453
0,240,114527,2,0,P|93:224|189:232,1,189.999994926453
368,314,115495,2,0,B|396:304|396:304|423:276|436:241,2,94.9999974632263
314,216,116463,1,0,0:0:0:0:
262,338,116785,2,0,L|205:346,1,47.4999987316131
187,231,117108,2,0,L|130:223,1,47.4999987316131
0,337,117430,2,0,B|-29:240|34:230|-1:138,1,189.999994926453
0,33,118398,2,0,P|52:73|188:48,1,189.999994926453
237,144,119366,2,0,P|289:104|425:129,1,189.999994926453
339,197,120333,2,0,B|367:288|310:277|343:384,1,189.999994926453
234,243,121301,2,0,P|199:237|78:243,1,142.499996194839
0,123,122269,2,0,P|35:129|156:123,1,142.499996194839
234,46,123237,1,0,0:0:0:0:
175,15,123559,1,0,0:0:0:0:
105,27,123882,1,0,0:0:0:0:
228,170,124204,1,0,0:0:0:0:
276,95,124527,2,0,L|293:59,2,37.5
208,203,125172,2,0,B|101:174|122:234|2:203,1,200
74,307,126140,1,0,0:0:0:0:
151,218,126463,1,0,0:0:0:0:
58,127,126785,1,0,0:0:0:0:
218,116,127108,2,0,L|234:8,2,99.9999999999999
279,252,128075,1,0,0:0:0:0:
399,178,128398,1,0,0:0:0:0:
349,74,128721,1,0,0:0:0:0:
421,219,129043,2,0,B|451:220|451:220|481:201|501:174,2,94.9999974632263
290,165,130011,2,0,B|190:137|212:199|90:164,1,189.999994926453
15,93,130979,2,0,L|4:-6,2,94.9999974632263
50,249,131946,1,0,0:0:0:0:
177,162,132269,2,0,L|121:156,1,47.4999987316131
168,280,132592,2,0,L|224:274,1,47.4999987316131
295,188,132914,2,0,P|356:252|444:262,1,179.999994506836
512,153,133882,2,0,B|500:126|500:126|449:66|363:79,1,179.999994506836
269,141,134850,2,0,P|225:155|168:141,2,89.999997253418
78,95,135817,2,0,B|39:185|116:199|80:296,1,202.49999382019
0,371,136785,2,0,P|40:353|101:358,1,89.999997253418
220,384,137430,1,0,0:0:0:0:
173,229,137753,2,0,L|183:285,1,44.999998626709
288,170,138076,2,0,L|280:214,1,44.999998626709
197,124,138559,1,0,0:0:0:0:
382,129,138721,2,0,P|390:84|397:32,2,89.999997253418
351,295,139688,1,0,0:0:0:0:
267,183,140011,2,0,L|275:126,1,44.999998626709
170,249,140333,2,0,L|162:192,1,44.999998626709
49,187,140656,2,0,P|54:133|58:79,2,89.999997253418
0,323,141624,2,0,B|107:354|89:289|191:323,1,179.999994506836
