osu file format v14

[General]
AudioFilename: audio.mp3
AudioLeadIn: 0
PreviewTime: 109043
Countdown: 0
SampleSet: Soft
StackLeniency: 0.4
Mode: 0
LetterboxInBreaks: 0
WidescreenStoryboard: 1

[Editor]
Bookmarks: 15817,32269,78721,94204,171624,174850
DistanceSpacing: 1
BeatDivisor: 4
GridSize: 32
TimelineZoom: 2.3

[Metadata]
Title:Usotsuki
TitleUnicode:嘘月
Artist:yanagi nagi
ArtistUnicode:やなぎなぎ
Creator:Cerberus Roze
Version:Insane
Source:
Tags:
BeatmapID:1979567
BeatmapSetID:943157

[Difficulty]
HPDrainRate:5
CircleSize:4
OverallDifficulty:7.5
ApproachRate:9
SliderMultiplier:1.8
SliderTickRate:1

[Events]
//Background and Video events
0,0,"1547187240446.jpg",0,0
//Break Periods
//Storyboard Layer 0 (Background)
//Storyboard Layer 1 (Fail)
//Storyboard Layer 2 (Pass)
//Storyboard Layer 3 (Foreground)
//Storyboard Sound Samples

[TimingPoints]
334,322.58064516129,4,2,1,60,1,0
15817,-285.714285714286,4,2,1,35,0,0
29366,-1000,4,2,1,35,0,0
31946,-200,4,2,1,35,0,0
32269,-111.111111111111,4,2,1,45,0,0
46785,-133.333333333333,4,2,1,45,0,0
47108,-111.111111111111,4,2,1,60,0,0
47753,-86.9565217391304,4,2,1,60,0,1
48237,-95.2380952380952,4,2,1,60,0,1
49688,-105.263157894737,4,2,1,60,0,1
62269,-111.111111111111,4,2,1,60,0,1
63237,-111.111111111111,4,2,1,35,0,0
93882,-285.714285714286,4,2,1,35,0,0
94204,-111.111111111111,4,2,1,45,0,0
108721,-133.333333333333,4,2,1,45,0,0
109043,-86.9565217391304,4,2,1,45,0,0
109366,-111.111111111111,4,2,1,45,0,0
109688,-86.9565217391304,4,2,1,60,0,1
110172,-95.2380952380952,4,2,1,60,0,1
113721,-105.263157894737,4,2,1,60,0,1
123237,-200,4,2,1,40,0,0
124527,-90.9090909090909,4,2,1,60,0,1
125656,-95.2380952380952,4,2,1,60,0,1
129204,-105.263157894737,4,2,1,60,0,1
130656,-222.222222222222,4,2,1,60,0,1
130979,-105.263157894737,4,2,1,60,0,1
132914,-111.111111111111,4,2,1,60,0,1
137430,-222.222222222222,4,2,1,60,0,1
137753,-111.111111111111,4,2,1,60,0,1
140656,-100,4,2,1,60,0,0
153882,-222.222222222222,4,2,1,60,0,0
154204,-100,4,2,1,60,0,0
174527,-1000,4,2,1,60,0,0

[Colours]
Combo1 : 255,112,70
Combo2 : 150,252,101
Combo3 : 255,255,174
Combo4 : 129,207,254

[HitObjects]
390,170,31946,6,0,B|409:184|409:184|414:204|414:235,1,67.5
390,170,32269,2,0,L|211:163,1,161.999995056153
103,126,32753,2,0,P|74:92|61:53,2,80.9999975280763
326,58,33237,2,0,P|244:41|151:60,1,161.999995056153
69,206,33721,1,0,0:0:0:0:
236,94,33882,2,0,P|201:63|157:51,1,80.9999975280763
188,200,34204,2,0,B|267:222|275:170|363:201,2,161.999995056153
0,128,35172,2,0,L|87:125,1,80.9999975280763
82,277,35495,2,0,L|-5:274,1,80.9999975280763
195,301,35817,2,0,P|188:343|157:375,1,80.9999975280763
195,301,36140,2,0,L|379:286,1,161.999995056153
476,226,36624,2,0,L|489:119,2,80.9999975280763
476,226,37108,2,0,B|345:216|345:216|310:236,2,161.999995056153
239,133,38075,2,0,B|205:173|205:173|195:234|236:282,2,161.999995056153
317,208,38882,1,0,0:0:0:0:
150,353,39043,2,0,P|179:297|264:281,1,121.499996292114
230,276,39366,2,0,B|248:282|275:287|275:287|311:282|372:291,1,121.499996292114
349,288,39688,2,0,P|392:247|398:188,1,121.499996292114
164,153,40011,2,0,B|81:111|119:72|41:30,2,161.999995056153
228,51,40817,1,0,0:0:0:0:
280,157,40979,2,0,B|363:115|325:76|403:34,2,161.999995056153
228,51,41785,1,0,0:0:0:0:
452,91,41946,2,0,P|425:63|382:39,1,80.9999975280763
456,178,42269,1,0,0:0:0:0:
388,41,42430,2,0,L|375:204,1,161.999995056153
302,326,42914,2,0,P|368:316|402:254,1,121.499996292114
399,275,43237,2,0,L|248:248,1,121.499996292114
278,253,43559,2,0,P|315:207|374:201,1,121.499996292114
230,352,43882,2,0,B|201:340|201:340|195:362|195:362|185:351|185:351|132:343|153:363|64:349,1,161.999995056153
6,236,44366,2,0,P|0:196|0:156,2,80.9999975280763
244,151,44850,2,0,B|222:169|222:169|162:201|156:148|69:194,1,161.999995056153
147,279,45333,1,0,0:0:0:0:
249,245,45495,1,0,0:0:0:0:
173,94,45656,1,0,0:0:0:0:
343,195,45817,2,0,B|393:186|393:186|443:138|432:62,2,161.999995056153
350,8,46785,2,0,P|346:60|333:113,1,101.250003862381
368,141,47108,1,0,0:0:0:0:
368,141,47188,1,0,0:0:0:0:
368,141,47269,1,0,0:0:0:0:
368,141,47350,1,0,0:0:0:0:
368,141,47430,1,0,0:0:0:0:
368,141,47511,1,0,0:0:0:0:
368,141,47592,1,0,0:0:0:0:
368,141,47672,1,0,0:0:0:0:
368,141,47753,2,0,B|317:139|290:156|290:156|275:143|275:143|221:149|153:141,1,207.000003948212
83,247,48237,2,0,L|-20:249,2,94.499997116089
259,340,48721,2,0,L|155:339,1,94.499997116089
269,174,49043,1,0,0:0:0:0:
393,321,49204,1,0,0:0:0:0:
298,285,49366,1,0,0:0:0:0:
402,220,49527,1,0,0:0:0:0:
207,247,49688,2,0,B|157:224|157:224|116:172|143:100,2,170.999995433807
123,239,50495,1,0,0:0:0:0:
405,158,50656,2,0,P|339:130|244:148,1,170.999995433807
321,243,51140,1,0,0:0:0:0:
366,43,51301,1,0,0:0:0:0:
324,53,51381,1,0,0:0:0:0:
288,75,51462,1,0,0:0:0:0:
260,108,51542,1,0,0:0:0:0:
243,147,51624,2,0,B|228:195|240:224|240:224|234:239|234:239|245:269|229:323,2,170.999995433807
342,197,52430,1,0,0:0:0:0:
151,271,52592,2,0,P|98:273|42:252,2,85.4999977169037
120,111,53075,1,0,0:0:0:0:
240,232,53237,2,0,P|247:279|235:320,1,85.4999977169037
240,232,53559,2,0,P|327:224|410:219,1,170.999995433807
322,173,54043,2,0,P|236:165|152:160,1,170.999995433807
410,218,54527,2,0,P|420:177|417:132,1,85.4999977169037
226,164,54850,1,0,0:0:0:0:
215,205,54930,1,0,0:0:0:0:
218,247,55011,1,0,0:0:0:0:
102,110,55172,1,0,0:0:0:0:
91,151,55252,1,0,0:0:0:0:
85,193,55333,1,0,0:0:0:0:
84,236,55413,1,0,0:0:0:0:
87,278,55495,2,0,B|97:327|97:327|136:378|213:375,2,170.999995433807
243,237,56301,1,0,0:0:0:0:
395,282,56463,2,0,B|385:330|385:330|346:381|269:378,2,170.999995433807
297,273,57269,1,0,0:0:0:0:
479,238,57430,2,0,B|493:196|493:196|465:133|491:62,2,170.999995433807
389,195,58237,1,0,0:0:0:0:
296,239,58398,2,0,B|282:197|282:197|310:134|284:63,2,170.999995433807
191,129,59204,1,0,0:0:0:0:
191,129,59285,1,0,0:0:0:0:
191,129,59366,1,0,0:0:0:0:
287,73,59527,1,0,0:0:0:0:
186,237,59688,1,0,0:0:0:0:
100,53,59850,1,0,0:0:0:0:
271,174,60011,1,0,0:0:0:0:
85,218,60172,1,0,0:0:0:0:
221,327,60333,1,0,0:0:0:0:
137,367,60495,1,0,0:0:0:0:
11,244,60656,2,0,B|60:255|60:255|95:246,1,85.4999977169037
277,196,60979,2,0,B|229:207|229:207|194:198,1,85.4999977169037
238,80,61301,1,0,0:0:0:0:
317,273,61463,2,0,B|231:295|231:295|148:270,2,170.999995433807
152,271,62269,2,0,L|140:388,1,80.9999975280763
238,244,62592,1,0,0:0:0:0:
147,179,62753,1,0,0:0:0:0:
68,256,62914,1,0,0:0:0:0:
233,152,63075,1,0,0:0:0:0:
155,198,63237,2,0,B|152:247|152:247|166:365,2,161.999995056153
