osu file format v14

[General]
AudioFilename: audio.mp3
AudioLeadIn: 0
PreviewTime: 109043
Countdown: 0
SampleSet: Soft
StackLeniency: 0.4
Mode: 0
LetterboxInBreaks: 0
WidescreenStoryboard: 1

[Editor]
Bookmarks: 15817,32269,78721,94204,171624,174850
DistanceSpacing: 1
BeatDivisor: 4
GridSize: 32
TimelineZoom: 2.3

[Metadata]
Title:Usotsuki
TitleUnicode:嘘月
Artist:yanagi nagi
ArtistUnicode:やなぎなぎ
Creator:Cerberus Roze
Version:Equivocate
Source:
Tags:
BeatmapID:1969650
BeatmapSetID:943157

[Difficulty]
HPDrainRate:4.2
CircleSize:4.2
OverallDifficulty:8.9
ApproachRate:8.8
SliderMultiplier:1.8
SliderTickRate:1

[Events]
//Background and Video events
0,0,"1547187240446.jpg",0,0
//Break Periods
2,78921,93253
//Storyboard Layer 0 (Background)
//Storyboard Layer 1 (Fail)
//Storyboard Layer 2 (Pass)
//Storyboard Layer 3 (Foreground)
//Storyboard Sound Samples

[TimingPoints]
334,322.58064516129,4,2,1,60,1,0
15817,-285.714285714286,4,2,1,35,0,0
29366,-1000,4,2,1,35,0,0
31946,-285.714285714286,4,2,1,35,0,0
32269,-111.111111111111,4,2,1,45,0,0
46785,-133.333333333333,4,2,1,45,0,0
47108,-111.111111111111,4,2,1,60,0,0
47753,-86.9565217391304,4,2,1,60,0,1
48237,-95.2380952380952,4,2,1,60,0,1
51785,-105.263157894737,4,2,1,60,0,1
53237,-222.222222222222,4,2,1,60,0,1
53559,-105.263157894737,4,2,1,60,0,1
61785,-153.846153846154,4,2,1,60,0,1
62269,-111.111111111111,4,2,1,60,0,1
63237,-111.111111111111,4,2,1,35,0,0
93882,-285.714285714286,4,2,1,35,0,0
94204,-111.111111111111,4,2,1,45,0,0
108721,-133.333333333333,4,2,1,45,0,0
109043,-86.9565217391304,4,2,1,45,0,0
109366,-111.111111111111,4,2,1,45,0,0
109688,-86.9565217391304,4,2,1,60,0,1
110172,-95.2380952380952,4,2,1,60,0,1
113721,-105.263157894737,4,2,1,60,0,1
123237,-200,4,2,1,40,0,0
124527,-90.9090909090909,4,2,1,60,0,1
125656,-95.2380952380952,4,2,1,60,0,1
129204,-105.263157894737,4,2,1,60,0,1
130656,-222.222222222222,4,2,1,60,0,1
130979,-105.263157894737,4,2,1,60,0,1
132914,-111.111111111111,4,2,1,60,0,1
137430,-222.222222222222,4,2,1,60,0,1
137753,-111.111111111111,4,2,1,60,0,1
140656,-100,4,2,1,60,0,0
153882,-222.222222222222,4,2,1,60,0,0
154204,-100,4,2,1,60,0,0
174527,-1000,4,2,1,60,0,0

[Colours]
Combo1 : 255,112,70
Combo2 : 150,252,101
Combo3 : 255,255,174
Combo4 : 129,207,254

[HitObjects]
75,207,15817,6,0,B|49:202|49:202|27:141|80:112,1,125.999996154785,2|0,0:0|0:0,0:0:0:0:
198,158,16785,2,0,B|256:148|233:171|297:156,1,94.499997116089,2|0,0:0|0:0,0:0:0:0:
411,110,17430,2,0,L|419:75,1,31.4999990386963
456,29,17753,2,0,L|462:132,2,94.499997116089,2|0|2,0:0|0:0|0:0,0:0:0:0:
478,247,19366,5,0,0:0:0:0:
478,247,19688,2,0,B|412:240|431:286|356:279,1,125.999996154785,2|0,0:0|0:0,0:0:0:0:
200,295,20656,2,0,P|254:272|261:227,1,94.499997116089,2|0,0:0|0:0,0:0:0:0:
400,368,21463,1,0,0:0:0:0:
400,368,21624,2,0,P|352:366|333:359,1,62.9999980773926,2|0,0:0|0:0,0:0:0:0:
200,295,22108,2,0,L|132:291,1,62.9999980773926,2|0,0:0|0:0,0:0:0:0:
0,344,22592,1,2,0:0:0:0:
0,344,24204,5,0,0:0:0:0:
0,344,24527,2,0,L|-4:271,1,62.9999980773926,0|2,0:0|0:0,0:0:0:0:
107,272,25172,1,0,0:0:0:0:
107,272,25495,2,0,L|111:199,1,62.9999980773926,0|2,0:0|0:0,0:0:0:0:
107,272,27108,5,2,0:0:0:0:
110,209,27270,1,0,0:0:0:0:
242,326,27430,2,0,L|238:281,1,31.4999990386963,2|0,0:0|0:0,0:0:0:0:
229,208,27753,2,0,L|225:163,1,31.4999990386963,2|0,0:0|0:0,0:0:0:0:
217,93,28075,2,0,L|213:48,1,31.4999990386963
113,136,28398,2,0,L|133:159,1,31.4999990386963,2|0,0:0|0:0,0:0:0:0:
315,138,28721,2,0,P|347:133|379:137,1,62.9999980773926,2|0,0:0|0:0,0:0:0:0:
336,257,29204,1,0,0:0:0:0:
336,257,29366,6,2,L|330:239,5,18
330,239,31946,2,0,L|335:289,1,47.2499985580445
410,384,32269,6,0,P|346:355|239:370,1,161.999995056153,4|0,1:0|0:0,0:0:0:0:
145,378,32753,1,2,0:0:0:0:
252,268,32914,1,2,0:0:0:0:
158,126,33075,1,0,3:0:0:0:
109,199,33237,6,0,B|205:234|186:170|272:199,1,161.999995056153,0|0,1:0|0:0,0:0:0:0:
364,271,33721,1,2,0:0:0:0:
286,345,33882,1,2,0:0:0:0:
335,139,34043,1,0,0:0:0:0:
495,296,34204,6,0,B|472:284|472:284|434:240,1,80.9999975280763,0|0,1:0|0:0,0:0:0:0:
503,100,34527,1,0,0:0:0:0:
269,45,34688,6,0,B|303:26|303:26|355:20|436:43,1,161.999995056153,2|0,0:0|3:0,0:0:0:0:
188,110,35172,2,0,P|171:68|169:25,1,80.9999975280763,0|0,1:0|0:0,0:0:0:0:
151,204,35495,2,0,P|117:173|97:134,1,80.9999975280763,2|0,0:0|3:0,0:0:0:0:
168,308,35817,2,0,P|122:309|81:296,1,80.9999975280763,0|0,1:0|0:0,0:0:0:0:
258,247,36140,6,0,B|342:243|325:297|414:288,1,161.999995056153,0|0,1:0|0:0,0:0:0:0:
397,120,36624,2,0,L|390:205,1,80.9999975280763
506,60,36946,2,0,L|513:124,1,40.4999987640381,0|0,3:0|0:0,0:0:0:0:
419,27,37108,6,0,B|335:56|336:4|258:27,2,161.999995056153,0|0|0,1:0|0:0|0:0,0:0:0:0:
236,153,37914,1,0,0:0:0:0:
289,111,38076,6,0,B|260:195|312:194|289:272,2,161.999995056153,0|0|0,1:0|0:0|0:0,0:0:0:0:
197,242,38882,1,0,3:0:0:0:
224,362,39043,6,0,P|298:383|373:347,1,161.999995056153,0|0,1:0|0:0,0:0:0:0:
453,239,39527,1,2,0:0:0:0:
390,334,39688,1,2,0:0:0:0:
294,288,39850,1,0,3:0:0:0:
344,37,40011,6,0,B|361:77|361:77|370:131|359:198,2,161.999995056153,0|0|2,1:0|0:0|0:0,0:0:0:0:
235,129,40817,1,0,0:0:0:0:
226,16,40979,6,0,P|148:16|59:12,2,161.999995056153,0|0|0,1:0|0:0|0:0,0:0:0:0:
447,0,41785,1,0,0:0:0:0:
243,186,41946,5,0,1:0:0:0:
258,85,42108,2,0,P|298:93|337:103,1,80.9999975280763
416,371,42430,6,0,B|435:285|390:298|415:209,1,161.999995056153,2|0,0:0|3:0,0:0:0:0:
304,338,42914,2,0,P|270:309|243:274,1,80.9999975280763,0|0,1:0|0:0,0:0:0:0:
214,59,43237,2,0,P|247:87|274:122,1,80.9999975280763,0|0,0:0|3:0,0:0:0:0:
41,165,43559,2,0,P|100:156|165:152,1,121.499996292114,0|0,1:0|0:0,0:0:0:0:
325,208,43882,6,0,B|416:185|401:242|497:208,1,161.999995056153,0|2,1:0|0:0,0:0:0:0:
377,62,44366,2,0,P|412:86|443:119,1,80.9999975280763
323,180,44688,1,0,3:0:0:0:
244,17,44850,6,0,P|245:102|241:178,2,161.999995056153,0|0|0,1:0|0:0|0:0,0:0:0:0:
91,66,45656,1,0,0:0:0:0:
138,201,45817,6,0,P|139:286|135:362,2,161.999995056153,0|0|0,1:0|0:0|0:0,0:0:0:0:
170,312,46785,2,0,P|208:325|267:328,1,67.5000025749208,0|0,1:0|0:0,0:0:0:0:
452,336,47108,5,2,0:0:0:0:
461,301,47188,1,2,0:0:0:0:
464,266,47269,1,2,0:0:0:0:
460,231,47349,1,2,0:0:0:0:
449,197,47430,1,2,0:0:0:0:
437,164,47511,1,2,0:0:0:0:
433,129,47591,1,2,0:0:0:0:
437,94,47672,1,2,0:0:0:0:
448,60,47753,6,0,B|329:104|351:32|242:61,1,207.000003948212,4|0,0:0|0:0,0:0:0:0:
171,185,48237,1,0,0:0:0:0:
267,151,48398,1,0,0:0:0:0:
100,119,48559,2,0,L|-7:129,2,94.499997116089,0|0|0,3:0|3:0|0:0,0:0:0:0:
291,165,49043,1,8,0:0:0:0:
179,268,49204,1,2,0:0:0:0:
403,181,49366,1,8,0:0:0:0:
285,44,49527,1,2,0:0:0:0:
343,230,49688,6,0,P|429:212|509:268,2,188.999994232178,0|0|0,1:0|0:0|0:0,0:0:0:0:
407,333,50495,1,0,0:0:0:0:
456,102,50656,1,0,1:0:0:0:
274,191,50817,1,0,0:0:0:0:
241,21,50979,2,0,P|190:13|141:20,1,94.499997116089,2|0,0:0|3:0,0:0:0:0:
355,90,51301,1,2,0:0:0:0:
373,46,51381,1,2,0:0:0:0:
372,0,51462,1,2,0:0:0:0:
401,302,51624,5,0,1:0:0:0:
451,169,51785,2,0,L|456:82,1,85.4999977169037
407,333,52108,1,0,0:0:0:0:
333,251,52269,1,2,0:0:0:0:
238,234,52430,1,0,3:0:0:0:
200,357,52592,5,0,1:0:0:0:
253,203,52753,2,0,B|156:176|181:227|75:196,1,170.999995433807
22,113,53237,2,0,L|16:59,1,40.4999987640381
44,282,53559,1,0,1:0:0:0:
198,245,53721,2,0,P|111:252|31:205,1,170.999995433807
284,134,54204,2,0,P|315:165|333:204,1,85.4999977169037,0|0,0:0|3:0,0:0:0:0:
212,213,54527,1,0,1:0:0:0:
383,138,54688,1,0,0:0:0:0:
107,132,54850,2,0,L|97:26,1,85.4999977169037,0|2,1:0|0:0,0:0:0:0:
99,232,55172,1,0,1:0:0:0:
82,259,55253,1,0,1:0:0:0:
70,289,55333,1,0,1:0:0:0:
62,320,55413,1,0,1:0:0:0:
58,351,55495,6,0,B|101:354|139:347|139:347|154:352|154:352|192:344|231:349,2,170.999995433807,0|0|0,1:0|0:0|0:0,0:0:0:0:
418,182,56301,1,0,3:0:0:0:
473,278,56463,6,0,B|428:298|383:279|383:279|340:259|295:277,1,170.999995433807,0|8,1:0|0:0,0:0:0:0:
336,364,56946,1,2,0:0:0:0:
427,333,57108,1,8,0:0:0:0:
298,161,57269,1,2,0:0:0:0:
442,171,57430,6,0,B|439:122|439:122|442:76|456:-1,2,170.999995433807,0|0|0,1:0|0:0|0:0,0:0:0:0:
325,267,58237,1,0,3:0:0:0:
379,106,58398,2,0,P|335:96|276:70,1,85.4999977169037,0|0,1:0|0:0,0:0:0:0:
169,14,58721,1,0,0:0:0:0:
202,229,58882,1,0,3:0:0:0:
79,127,59043,1,0,1:0:0:0:
71,169,59123,1,0,1:0:0:0:
59,210,59204,1,0,1:0:0:0:
82,382,59366,5,0,1:0:0:0:
246,241,59527,1,2,0:0:0:0:
123,196,59688,1,0,1:0:0:0:
252,358,59850,1,2,0:0:0:0:
231,107,60011,5,0,1:0:0:0:
346,172,60172,1,2,0:0:0:0:
446,101,60333,2,0,L|454:6,1,85.4999977169037,0|2,1:0|0:0,0:0:0:0:
327,292,60656,5,8,0:0:0:0:
171,196,60817,1,2,0:0:0:0:
328,378,60979,5,8,0:0:0:0:
480,245,61140,1,2,0:0:0:0:
246,333,61301,5,0,1:0:0:0:
419,171,61463,2,0,L|422:66,1,85.4999977169037,2|0,0:0|0:0,0:0:0:0:
281,0,61785,2,0,L|284:82,1,58.4999973220826,2|0,0:0|0:0,0:0:0:0:
293,141,62108,2,0,L|296:189,1,29.2499986610413,0|0,3:0|0:0,0:0:0:0:
366,326,62269,6,0,P|317:281|219:281,1,161.999995056153,4|0,1:0|1:0,0:0:0:0:
97,332,62753,1,0,3:0:0:0:
166,200,62914,1,0,1:0:0:0:
123,47,63075,1,0,3:0:0:0:
59,119,63237,6,0,B|120:85|189:117|172:122|248:157|302:119,1,242.999992584229,4|0,1:0|0:0,0:0:0:0:
246,47,63882,1,0,0:0:0:0:
338,194,64043,1,0,0:0:0:0:
443,42,64204,6,0,B|415:89|407:143|478:170|474:235|443:286,1,242.999992584229,0|2,1:0|0:0,0:0:0:0:
351,211,64850,2,0,P|311:201|271:201,1,80.9999975280763
154,277,65172,2,0,B|122:296|110:339|110:339|124:249|93:174,1,242.999992584229,0|2,1:0|0:0,0:0:0:0:
46,57,65817,1,0,0:0:0:0:
18,226,65979,1,0,3:0:0:0:
339,142,66140,6,0,B|237:152|294:96|181:102,1,161.999995056153,0|2,1:0|0:0,0:0:0:0:
159,290,66624,1,0,3:0:0:0:
259,269,66785,1,2,0:0:0:0:
195,184,66946,5,2,0:0:0:0:
293,375,67108,6,0,B|372:350|398:301|398:301|438:306|470:316|458:374|399:367|402:328|416:290|416:290|448:248|511:227,1,404.999987640381,0|0,1:0|3:0,0:0:0:0:
129,102,68075,6,0,B|145:148|186:170|186:170|235:182|235:182|275:209|295:262,1,242.999992584229,0|0,1:0|0:0,0:0:0:0:
176,277,68721,1,2,0:0:0:0:
226,88,69043,1,0,3:0:0:0:
226,88,69366,5,2,0:0:0:0:
127,169,69527,1,0,0:0:0:0:
298,37,69688,5,2,0:0:0:0:
335,187,69850,1,0,3:0:0:0:
384,100,70011,6,0,B|432:95|432:95|480:101,1,80.9999975280763,0|0,1:0|0:0,0:0:0:0:
241,230,70333,2,0,B|203:199|203:199|173:161,1,80.9999975280763,2|0,0:0|3:0,0:0:0:0:
413,269,70656,2,0,B|418:317|418:317|412:365,1,80.9999975280763,2|0,0:0|3:0,0:0:0:0:
286,350,70979,6,0,B|145:394|187:313|41:350,1,242.999992584229,4|2,1:0|0:0,0:0:0:0:
214,274,71624,1,2,0:0:0:0:
91,119,71785,1,0,3:0:0:0:
40,195,71946,6,0,B|64:211|99:209|99:209|134:207|171:162|237:164|287:193,1,242.999992584229,0|2,1:0|0:0,0:0:0:0:
371,257,72592,2,0,P|407:239|414:298,1,121.499996292114
355,266,72914,6,0,B|372:227|372:227|379:160|344:104,2,161.999995056153,0|2|2,1:0|0:0|0:0,0:0:0:0:
272,185,73721,1,0,3:0:0:0:
286,43,73882,6,0,P|203:40|104:37,1,161.999995056153,0|2,1:0|0:0,0:0:0:0:
25,231,74366,1,0,3:0:0:0:
48,120,74527,1,0,3:0:0:0:
114,280,74688,1,2,0:0:0:0:
85,138,74850,5,0,3:0:0:0:
85,138,75172,2,0,P|131:135|170:134,1,80.9999975280763,2|0,0:0|0:0,0:0:0:0:
239,327,75495,2,0,B|229:306|229:306|221:276|227:242,1,80.9999975280763,2|0,0:0|0:0,0:0:0:0:
422,282,75817,2,0,B|381:288|381:288|334:281,1,80.9999975280763,0|0,1:0|0:0,0:0:0:0:
396,110,76140,2,0,L|387:192,1,80.9999975280763,2|0,0:0|0:0,0:0:0:0:
274,56,76463,2,0,L|282:138,1,80.9999975280763,2|0,0:0|0:0,0:0:0:0:
156,128,76785,6,0,B|64:120|99:180|-8:171,2,161.999995056153,0|2|2,1:0|0:0|0:0,0:0:0:0:
152,227,77592,1,0,3:0:0:0:
248,25,77753,2,0,L|256:121,1,80.9999975280763,0|0,1:0|0:0,0:0:0:0:
336,193,78075,5,2,0:0:0:0:
366,92,78237,1,0,3:0:0:0:
266,116,78398,1,2,0:0:0:0:
306,294,78559,1,0,3:0:0:0:
454,39,78721,1,0,0:0:0:0:
267,222,93882,6,0,L|215:213,1,47.2499985580445
284,304,94204,6,0,P|363:263|456:297,2,161.999995056153,4|0|0,1:0|0:0|0:0,0:0:0:0:
374,358,95011,1,0,3:0:0:0:
404,199,95172,6,0,L|425:27,1,161.999995056153,0|0,1:0|0:0,0:0:0:0:
249,170,95656,1,2,0:0:0:0:
173,71,95817,1,0,0:0:0:0:
252,284,95979,1,2,0:0:0:0:
362,107,96140,6,0,L|374:2,1,80.9999975280763,0|0,1:0|0:0,0:0:0:0:
407,263,96463,1,0,0:0:0:0:
239,164,96624,2,0,B|139:187|170:142|74:165,1,161.999995056153,2|0,0:0|3:0,0:0:0:0:
63,325,97108,6,0,P|94:292|112:253,1,80.9999975280763,0|0,1:0|0:0,0:0:0:0:
236,384,97430,2,0,P|205:351|187:312,1,80.9999975280763,0|0,0:0|3:0,0:0:0:0:
351,226,97753,2,0,P|332:261|304:290,1,80.9999975280763,0|0,3:0|0:0,0:0:0:0:
217,113,98075,6,0,B|316:145|298:80|401:110,1,161.999995056153,0|2,1:0|0:0,0:0:0:0:
452,186,98559,1,0,0:0:0:0:
456,206,98721,1,2,0:0:0:0:
341,233,98882,1,0,3:0:0:0:
461,233,99043,6,0,L|491:364,1,121.499996292114,0|0,1:0|0:0,0:0:0:0:
399,381,99366,2,0,P|356:388|300:380,1,80.9999975280763,2|0,0:0|0:0,0:0:0:0:
133,299,99688,2,0,P|199:287|256:299,1,121.499996292114,2|0,0:0|0:0,0:0:0:0:
23,351,100011,6,0,L|51:233,1,121.499996292114,0|0,1:0|0:0,0:0:0:0:
16,114,100333,2,0,P|50:135|94:134,1,80.9999975280763,2|0,0:0|0:0,0:0:0:0:
182,59,100656,2,0,P|220:47|263:59,1,80.9999975280763,2|0,0:0|0:0,0:0:0:0:
430,281,100979,6,0,L|461:164,1,121.499996292114,0|0,1:0|0:0,0:0:0:0:
461,164,101301,2,0,L|429:280,1,121.499996292114,2|0,0:0|0:0,0:0:0:0:
430,281,101624,2,0,L|461:164,1,121.499996292114,0|0,3:0|0:0,0:0:0:0:
475,367,101946,6,0,B|382:401|397:341|309:367,2,161.999995056153,4|0|0,1:0|0:0|0:0,0:0:0:0:
215,286,102753,1,0,3:0:0:0:
359,261,102914,6,0,L|374:87,2,161.999995056153,0|0|0,1:0|0:0|0:0,0:0:0:0:
218,154,103721,1,0,0:0:0:0:
271,52,103882,5,0,3:0:0:0:
102,142,104043,2,0,P|64:132|15:115,1,80.9999975280763
154,226,104366,2,0,B|177:315|127:299|154:387,1,161.999995056153,2|0,0:0|3:0,0:0:0:0:
291,277,104850,6,0,P|264:311|245:344,1,80.9999975280763,0|0,1:0|0:0,0:0:0:0:
323,166,105172,2,0,P|281:178|246:194,1,80.9999975280763,2|0,0:0|3:0,0:0:0:0:
425,85,105495,2,0,P|386:64|351:51,1,80.9999975280763,0|0,3:0|0:0,0:0:0:0:
369,286,105817,6,0,B|473:315|450:262|540:285,2,161.999995056153,0|2|2,3:0|0:0|0:0,0:0:0:0:
411,186,106624,1,0,3:0:0:0:
304,201,106785,6,0,L|266:41,1,161.999995056153,0|2,1:0|0:0,0:0:0:0:
176,164,107269,1,0,0:0:0:0:
230,231,107430,1,2,0:0:0:0:
285,122,107592,1,0,0:0:0:0:
93,135,107753,6,0,P|102:237|101:331,2,161.999995056153,0|2|2,3:0|0:0|0:0,0:0:0:0:
149,256,108721,6,0,P|188:250|232:252,1,67.5000025749208,0|0,1:0|0:0,0:0:0:0:
408,317,109043,5,2,0:0:0:0:
392,267,109123,1,2,0:0:0:0:
384,216,109204,1,2,0:0:0:0:
384,164,109284,1,2,0:0:0:0:
391,113,109366,1,2,0:0:0:0:
407,150,109446,1,2,0:0:0:0:
414,190,109527,1,2,0:0:0:0:
411,231,109607,1,2,0:0:0:0:
399,269,109688,6,0,B|296:238|326:309|193:269,1,207.000003948212
268,173,110172,2,0,L|255:69,1,94.499997116089,2|0,0:0|0:0,0:0:0:0:
171,369,110495,1,0,3:0:0:0:
101,183,110656,6,0,P|49:174|-6:182,1,94.499997116089,0|0,1:0|0:0,0:0:0:0:
45,292,110979,1,8,0:0:0:0:
128,94,111140,1,2,0:0:0:0:
274,369,111301,1,8,0:0:0:0:
189,170,111462,1,2,0:0:0:0:
176,295,111624,5,0,3:0:0:0:
296,205,111785,2,0,B|334:186|377:200|377:200|433:231|491:206,2,188.999994232178,0|2|0,0:0|0:0|3:0,0:0:0:0:
267,206,112592,5,0,1:0:0:0:
352,332,112752,1,0,0:0:0:0:
160,205,112914,1,2,0:0:0:0:
299,100,113075,2,0,P|335:57|357:17,1,94.499997116089,0|0,3:0|1:0,0:0:0:0:
149,157,113398,1,0,1:0:0:0:
173,197,113478,1,0,1:0:0:0:
203,233,113559,5,0,3:0:0:0:
50,58,113721,2,0,P|44:144|33:247,1,170.999995433807
144,363,114204,1,2,0:0:0:0:
159,206,114366,1,0,3:0:0:0:
73,300,114527,6,0,L|60:395,2,85.4999977169037,0|0|2,1:0|0:0|0:0,0:0:0:0:
257,205,115011,1,2,0:0:0:0:
347,328,115172,2,0,P|305:329|251:315,1,85.4999977169037,2|0,0:0|0:0,0:0:0:0:
201,140,115495,5,0,1:0:0:0:
347,328,115656,2,0,P|389:329|443:315,1,85.4999977169037
507,200,115979,2,0,L|511:101,1,85.4999977169037
359,53,116301,1,0,3:0:0:0:
351,219,116463,1,0,1:0:0:0:
418,144,116624,1,0,0:0:0:0:
260,115,116785,1,2,0:0:0:0:
218,105,116865,1,2,0:0:0:0:
175,106,116946,1,2,0:0:0:0:
12,249,117108,5,2,0:0:0:0:
51,264,117188,1,2,0:0:0:0:
94,269,117269,1,2,0:0:0:0:
136,262,117349,1,2,0:0:0:0:
174,244,117430,6,0,P|269:213|335:242,2,170.999995433807,4|2|2,0:0|0:0|0:0,0:0:0:0:
257,308,118237,1,0,0:0:0:0:
170,93,118398,6,0,B|61:126|96:72|0:93,1,170.999995433807,0|2,3:0|0:0,0:0:0:0:
33,275,118882,1,0,0:0:0:0:
180,212,119043,1,2,0:0:0:0:
79,183,119204,1,0,0:0:0:0:
303,324,119366,6,0,P|223:297|145:329,2,170.999995433807,0|0|0,1:0|0:0|0:0,0:0:0:0:
231,384,120172,1,0,3:0:0:0:
290,184,120333,6,0,B|399:217|364:163|457:183,1,170.999995433807,0|0,1:0|0:0,0:0:0:0:
425,293,120817,1,2,0:0:0:0:
337,94,120979,1,0,0:0:0:0:
243,278,121140,1,0,1:0:0:0:
233,292,121221,1,0,1:0:0:0:
220,306,121301,6,0,P|175:298|126:290,1,85.4999977169037,0|0,3:0|0:0,0:0:0:0:
7,315,121624,1,0,0:0:0:0:
162,201,121785,2,0,L|155:100,1,85.4999977169037
315,297,122108,1,0,1:0:0:0:
315,297,122188,1,0,1:0:0:0:
315,297,122269,6,0,L|327:202,1,85.4999977169037,0|0,1:0|0:0,0:0:0:0:
451,142,122592,1,0,0:0:0:0:
442,283,122753,1,0,0:0:0:0:
339,68,122914,1,2,0:0:0:0:
333,50,123237,5,0,0:0:0:0:
230,109,123559,1,0,0:0:0:0:
135,63,123882,1,0,0:0:0:0:
165,226,124204,1,2,0:0:0:0:
165,226,124527,5,2,0:0:0:0:
117,226,124607,1,2,0:0:0:0:
91,266,124688,1,0,3:0:0:0:
110,309,124768,1,2,0:0:0:0:
156,318,124849,1,2,0:0:0:0:
205,310,124930,1,2,0:0:0:0:
252,325,125011,1,0,0:3:0:0:
300,333,125091,1,2,0:0:0:0:
349,325,125172,6,0,B|359:279|342:238|342:238|354:231|354:231|334:180|350:127,1,198.000006042481,4|0,1:0|0:0,0:0:0:0:
462,182,125656,1,0,0:0:0:0:
290,139,125817,1,0,0:0:0:0:
418,68,125979,6,0,L|515:34,2,94.499997116089,0|0|2,3:0|3:0|0:0,0:0:0:0:
210,148,126463,1,8,0:0:0:0:
420,250,126624,1,2,0:0:0:0:
267,64,126785,1,8,0:0:0:0:
190,281,126946,1,0,0:0:0:0:
177,68,127108,6,0,B|158:57|158:57|56:50|16:139,2,188.999994232178,0|0|0,1:0|0:0|0:0,0:0:0:0:
237,224,127914,1,0,0:0:0:0:
131,165,128075,1,0,3:0:0:0:
312,130,128237,1,0,0:0:0:0:
20,155,128398,2,0,L|8:56,1,94.499997116089,0|2,1:0|0:0,0:0:0:0:
110,278,128721,1,0,1:0:0:0:
66,296,128801,1,0,1:0:0:0:
19,299,128882,1,0,1:0:0:0:
168,367,129043,5,0,1:0:0:0:
228,277,129204,2,0,L|333:287,1,85.4999977169037,0|2,0:0|0:0,0:0:0:0:
478,361,129527,1,0,0:0:0:0:
414,283,129688,1,2,0:0:0:0:
456,176,129850,1,0,3:0:0:0:
383,365,130011,5,0,1:0:0:0:
361,198,130172,2,0,B|267:170|296:232|184:197,1,170.999995433807,0|2,0:0|0:0,0:0:0:0:
39,101,130656,2,0,P|57:104|78:111,1,40.4999987640381
104,248,130979,5,0,1:0:0:0:
330,61,131140,2,0,P|239:65|172:13,1,170.999995433807
261,189,131624,2,0,P|302:169|345:166,1,85.4999977169037,0|0,0:0|3:0,0:0:0:0:
330,281,131946,1,0,1:0:0:0:
175,142,132108,1,2,0:0:0:0:
178,289,132269,2,0,L|86:274,1,85.4999977169037,0|0,1:0|3:0,0:0:0:0:
265,371,132592,1,0,3:0:0:0:
307,363,132672,1,0,3:0:0:0:
349,355,132753,1,0,3:0:0:0:
391,348,132833,1,0,3:0:0:0:
433,340,132914,6,0,B|422:300|433:278|433:278|426:265|426:265|438:264|438:264|433:249|433:249|442:217|433:179,1,161.999995056153,4|0,0:0|0:0,0:0:0:0:
295,184,133398,2,0,P|304:253|329:193,1,161.999995056153,0|0,0:0|3:0,0:0:0:0:
250,73,133882,6,0,B|143:55|194:97|72:69,1,161.999995056153,0|8,1:0|0:0,0:0:0:0:
133,0,134366,1,2,0:0:0:0:
4,192,134527,2,0,P|43:175|81:171,1,80.9999975280763,8|2,0:0|0:0,0:0:0:0:
173,305,134850,6,0,B|268:281|244:342|351:301,2,161.999995056153,0|0|2,1:0|0:0|0:0,0:0:0:0:
215,384,135656,1,0,3:0:0:0:
288,226,135817,2,0,P|281:145|274:57,1,161.999995056153,0|2,1:0|0:0,0:0:0:0:
152,42,136301,5,0,3:0:0:0:
161,156,136463,1,2,0:0:0:0:
171,266,136624,1,0,1:0:0:0:
80,105,136785,2,0,P|39:98|-7:103,1,80.9999975280763,0|0,1:0|0:0,0:0:0:0:
246,213,137108,2,0,P|287:220|333:215,1,80.9999975280763,2|0,0:0|0:0,0:0:0:0:
432,105,137430,2,0,L|435:49,1,40.4999987640381,2|0,0:0|3:0,0:0:0:0:
408,282,137753,5,0,1:0:0:0:
511,202,137914,1,0,0:0:0:0:
403,378,138075,1,0,0:0:0:0:
324,214,138237,2,0,L|300:123,1,80.9999975280763,2|0,0:0|0:0,0:0:0:0:
144,222,138559,1,0,0:0:0:0:
223,63,138721,6,0,B|138:37|152:102|40:59,2,161.999995056153,0|0|2,3:0|0:0|0:0,0:0:0:0:
232,177,139527,1,0,0:0:0:0:
315,28,139688,2,0,L|423:25,1,80.9999975280763,0|0,1:0|0:0,0:0:0:0:
368,164,140011,2,0,L|353:213,2,40.4999987640381,0|0|0,1:0|1:0|1:0,1:0:0:0:
425,298,140333,1,0,1:0:0:0:
386,308,140413,1,0,1:0:0:0:
346,303,140494,1,0,1:0:0:0:
307,291,140574,1,0,1:0:0:0:
267,294,140656,6,0,B|162:270|206:335|70:295,1,180,4|2,1:0|0:0,0:0:0:0:
140,226,141140,1,0,0:0:0:0:
67,368,141301,1,2,0:0:0:0:
59,110,141463,1,0,3:3:0:0:
48,198,141624,6,0,P|100:138|211:141,1,180,0|8,1:0|0:0,0:0:0:0:
264,268,142108,1,0,0:0:0:0:
140,226,142269,1,8,0:0:0:0:
496,224,142430,1,2,0:0:0:0:
372,266,142592,6,0,B|346:181|409:163|374:86,2,180,0|0|0,3:0|0:0|0:0,0:0:0:0:
496,224,143398,1,0,3:0:0:0:
314,42,143559,6,0,P|244:24|174:43,1,135,0|0,1:0|0:0,0:0:0:0:
113,133,143882,2,0,P|181:152|253:132,1,135
24,54,144204,1,0,1:0:0:0:
26,98,144284,1,0,1:0:0:0:
28,143,144365,1,0,1:0:0:0:
30,188,144445,1,0,1:0:0:0:
32,233,144527,6,0,B|136:220|94:299|214:281,1,180,4|2,1:0|0:0,0:0:0:0:
301,255,145011,1,0,0:0:0:0:
282,120,145172,1,2,0:0:0:0:
189,189,145333,1,0,3:0:0:0:
330,250,145495,6,2,P|336:158|343:66,1,180,2|2,1:0|0:0,0:0:0:0:
512,230,145979,1,0,0:0:0:0:
378,157,146140,1,2,0:0:0:0:
495,90,146301,1,0,0:0:0:0:
367,309,146463,6,0,P|315:289|229:292,1,135,0|0,3:0|0:0,0:0:0:0:
126,310,146785,1,2,0:0:0:0:
230,125,146946,2,0,P|260:162|279:200,1,90
168,215,147269,1,0,3:0:0:0:
56,80,147430,2,0,P|28:111|6:155,1,90,0|0,1:0|0:0,0:0:0:0:
41,335,147753,1,0,1:0:0:0:
92,344,147833,1,0,1:0:0:0:
143,333,147914,1,0,1:0:0:0:
181,298,147994,1,0,1:0:0:0:
217,260,148075,1,0,1:0:0:0:
266,243,148156,1,0,1:0:0:0:
317,251,148237,2,0,L|317:303,1,45,0|0,1:0|0:0,0:0:0:0:
304,155,148398,6,0,P|362:190|444:172,1,135,0|0,1:0|0:0,0:0:0:0:
298,61,148721,2,0,P|248:75|216:112,1,90,0|2,0:0|0:0,0:0:0:0:
122,345,149043,2,0,B|131:321|131:321|133:240,1,90,0|0,0:0|3:0,0:0:0:0:
0,179,149366,6,0,B|96:215|75:140|185:179,1,180,0|8,1:0|0:0,0:0:0:0:
273,337,149850,1,2,0:0:0:0:
140,254,150011,1,8,0:0:0:0:
413,280,150172,1,2,0:0:0:0:
283,212,150333,6,0,L|273:111,1,90,0|0,3:0|0:0,0:0:0:0:
360,314,150656,2,0,P|319:340|264:337,1,90,0|2,0:0|0:0,0:0:0:0:
128,306,150979,2,0,P|169:280|224:283,1,90,0|0,0:0|3:0,0:0:0:0:
5,374,151301,6,0,L|-1:178,1,180,0|8,1:0|0:0,0:0:0:0:
58,40,151785,1,2,0:0:0:0:
137,194,151946,1,8,0:0:0:0:
267,62,152108,1,0,1:0:0:0:
222,63,152188,1,0,1:0:0:0:
178,73,152269,5,0,1:0:0:0:
95,306,152430,1,0,0:0:0:0:
233,170,152592,1,0,1:0:0:0:
21,227,152753,1,0,0:0:0:0:
300,239,152914,6,0,P|329:193|333:136,1,90,0|0,1:0|3:0,0:0:0:0:
116,170,153237,2,0,P|87:124|83:67,1,90,0|0,1:0|0:0,0:0:0:0:
243,119,153559,5,10,0:0:0:0:
188,336,153721,1,2,0:0:0:0:
89,155,153882,2,0,L|82:195,1,40.4999987640381,8|2,0:0|0:0,0:0:0:0:
33,329,154204,5,0,3:0:0:0:
34,54,154366,2,0,B|143:90|122:17|232:49,1,180,2|2,0:0|0:0,0:0:0:0:
199,160,154850,1,0,0:0:0:0:
92,137,155011,1,0,3:0:0:0:
312,107,155172,6,0,P|294:200|289:293,1,180,2|8,1:2|0:0,0:0:0:0:
355,378,155656,1,2,0:0:0:0:
441,290,155817,1,8,0:0:0:0:
360,195,155979,1,0,1:0:0:0:
315,191,156059,1,0,1:0:0:0:
270,197,156140,6,0,B|177:178|194:255|93:235,1,180,4|0,1:0|0:0,2:0:0:0:
0,124,156624,2,0,P|2:76|15:20,1,90,2|0,0:0|0:0,0:0:0:0:
136,89,156946,1,0,3:0:0:0:
94,198,157108,6,0,B|200:230|176:172|270:197,1,180,0|8,1:0|0:0,0:0:0:0:
221,330,157592,1,2,0:0:0:0:
254,93,157753,1,8,0:0:0:0:
131,273,157914,1,2,0:0:0:0:
412,279,158075,6,0,P|356:212|349:108,1,180,0|0,3:0|0:0,0:0:0:0:
265,350,158559,2,0,P|316:346|359:369,1,90,2|0,0:0|0:0,0:0:0:0:
138,292,158882,1,0,3:0:0:0:
279,172,159043,6,0,P|228:176|185:153,1,90,0|0,1:0|0:0,0:0:0:0:
259,12,159366,1,8,0:0:0:0:
480,201,159527,1,2,0:0:0:0:
418,53,159688,1,0,1:0:0:0:
374,64,159768,1,0,1:0:0:0:
331,54,159849,1,0,1:0:0:0:
288,42,159929,1,0,1:0:0:0:
244,49,160011,6,0,B|152:18|165:85|45:47,2,180,4|2|2,1:0|0:0|0:0,0:0:0:0:
203,159,160817,1,0,3:0:0:0:
291,113,160979,2,0,L|299:218,1,90,0|0,1:0|0:0,0:0:0:0:
304,247,161301,5,8,0:0:0:0:
438,154,161463,1,2,0:0:0:0:
313,319,161624,5,8,0:0:0:0:
190,187,161785,1,2,0:0:0:0:
327,333,161946,6,0,P|408:293|494:335,1,180,0|2,3:0|0:0,0:0:0:0:
415,381,162430,1,0,0:0:0:0:
397,206,162592,1,2,0:0:0:0:
468,278,162753,1,0,3:0:0:0:
276,219,162914,6,0,L|257:126,1,90,0|0,1:0|0:0,0:0:0:0:
345,303,163237,1,0,1:0:0:0:
305,322,163317,1,0,1:0:0:0:
260,324,163398,1,0,1:0:0:0:
91,267,163559,1,0,1:0:0:0:
130,247,163639,1,0,1:0:0:0:
175,245,163721,2,0,L|181:299,1,45,0|0,1:0|0:0,0:0:0:0:
140,141,163882,6,0,B|239:179|228:104|327:142,2,180,4|2|2,1:0|0:0|0:0,0:0:0:0:
273,225,164688,1,0,3:0:0:0:
394,34,164850,6,0,P|385:87|388:131,1,90,0|0,1:0|0:0,0:0:0:0:
486,262,165172,1,8,0:0:0:0:
263,195,165333,1,2,0:0:0:0:
371,339,165495,1,8,0:0:0:0:
142,287,165656,1,2,0:0:0:0:
288,283,165817,6,0,P|201:266|160:171,1,180,0|2,1:0|0:0,0:0:0:0:
301,93,166301,1,2,0:0:0:0:
294,137,166381,1,2,0:0:0:0:
272,176,166462,1,2,0:0:0:0:
179,102,166624,1,0,3:0:0:0:
302,313,166785,5,2,1:0:0:0:
117,255,166946,1,2,0:0:0:0:
236,203,167108,1,8,0:0:0:0:
166,368,167269,1,0,3:0:0:0:
26,175,167430,1,8,0:0:0:0:
208,105,167592,1,0,1:0:0:0:
164,116,167672,1,0,1:0:0:0:
122,105,167753,6,0,P|200:77|289:108,1,180,0|0,1:0|0:0,0:0:0:0:
367,291,168237,1,0,0:0:0:0:
367,291,168398,2,0,P|303:268|227:279,1,135,2|0,0:0|0:0,0:0:0:0:
434,366,168721,6,0,P|457:302|446:226,1,135,0|0,3:0|0:0,0:0:0:0:
377,71,169043,2,2,P|354:134|365:211,1,135,2|2,1:0|0:0,0:0:0:0:
221,127,169366,2,2,P|230:179|250:126,1,135,2|2,1:0|0:0,0:0:0:0:
231,44,169688,6,0,P|188:34|131:40,2,90,0|0|2,3:0|0:0|0:0,0:0:0:0:
302,177,170172,2,0,B|331:273|275:264|300:360,1,180,2|0,0:0|3:0,0:0:0:0:
184,219,170656,2,0,P|134:225|95:250,1,90,0|0,1:0|0:0,0:0:0:0:
185,353,170979,1,8,0:0:0:0:
220,142,171140,1,0,3:0:0:0:
54,313,171301,1,8,0:0:0:0:
302,177,171463,1,0,3:0:0:0:
56,98,171624,5,0,0:0:0:0:
32,77,171946,1,2,0:0:0:0:
160,280,172592,5,0,0:0:0:0:
172,296,172914,1,2,0:0:0:0:
188,117,173559,5,0,0:0:0:0:
188,117,173882,1,2,0:0:0:0:
308,221,174527,6,0,L|327:220,1,18,0|2,2:0|2:0,2:0:0:0:
