osu file format v14

[General]
AudioFilename: audio.mp3
AudioLeadIn: 0
PreviewTime: 73318
Countdown: 0
SampleSet: Soft
StackLeniency: 0.4
Mode: 0
LetterboxInBreaks: 0
WidescreenStoryboard: 1

[Editor]
DistanceSpacing: 1.1
BeatDivisor: 4
GridSize: 8
TimelineZoom: 1.3

[Metadata]
Title:Yuurei Tokyo
TitleUnicode:幽霊東京
Artist:yama
ArtistUnicode:yama
Creator:climbx3145
Version:Ky's Normal
Source:
Tags:ユウレイトウキョウ Ghost city tokyo cover 初音ミク hatsune miku Ayase japanese jpop pop j-pop too Kyle_Y
BeatmapID:2948182
BeatmapSetID:1422289

[Difficulty]
HPDrainRate:3
CircleSize:3.5
OverallDifficulty:4
ApproachRate:5
SliderMultiplier:1.52
SliderTickRate:1

[Events]
//Background and Video events
0,0,"bg.jpg",0,0
Video,-2,"Video.mp4"
//Break Periods
2,92147,106231
2,159889,164296
//Storyboard Layer 0 (Background)
//Storyboard Layer 1 (Fail)
//Storyboard Layer 2 (Pass)
//Storyboard Layer 3 (Foreground)
//Storyboard Layer 4 (Overlay)
//Storyboard Sound Samples

[TimingPoints]
980,483.870967741935,4,2,1,50,1,0
980,-100,4,2,1,50,0,0
2915,-100,4,2,1,70,0,0
18399,-100,4,2,1,60,0,0
33883,-100,4,2,1,70,0,0
41625,-100,4,2,1,60,0,0
57109,-100,4,2,1,60,0,0
64850,-100,4,2,1,60,0,0
70415,-100,4,2,1,60,0,0
72592,-100,4,2,1,60,0,0
74286,-100,4,2,1,60,0,0
74528,-90.0900900900901,4,2,1,80,0,1
91947,-100,4,2,1,70,0,0
107431,-100,4,2,1,60,0,0
115173,-100,4,2,1,60,0,0
117109,-100,4,2,1,60,0,0
122915,-89.2857142857143,4,2,1,80,0,1
136463,-100,4,2,1,50,0,0
144205,-100,4,2,1,55,0,0
150012,-100,4,2,1,55,0,0
150738,-100,4,2,1,55,0,0
151947,-100,4,2,1,60,0,0
152310,-100,4,2,1,5,0,0
152431,-100,4,2,1,60,0,0
152794,-100,4,2,1,5,0,0
152915,-100,4,2,1,60,0,0
156181,-100,4,2,1,5,0,0
156302,-100,4,2,1,60,0,0
159689,-100,4,2,1,40,0,0
165496,-100,4,2,1,60,0,0
167431,-100,4,2,1,60,0,0
167915,-100,4,2,1,65,0,0
168399,-100,4,2,1,70,0,0
168883,-100,4,2,1,75,0,0
169367,-88.4955752212389,4,2,1,80,0,1
186786,-100,4,2,1,80,0,0

[Colours]
Combo1 : 203,151,255
Combo2 : 255,170,255
Combo3 : 255,121,188
Combo4 : 150,150,203

[HitObjects]
148,193,1947,5,8,0:0:0:0:
148,193,2189,2,0,L|130:101,2,76,2|8|8,0:3|0:0|0:3,0:0:0:0:
90,254,2915,6,0,P|168:274|227:216,1,152,6|10,1:2|0:0,0:0:0:0:
324,102,3883,2,0,P|273:71|262:13,2,114,2|2|2,1:2|0:0|0:0,0:0:0:0:
404,80,4850,2,0,L|431:239,1,152,0|10,1:2|0:0,0:0:0:0:
441,317,5576,1,2,0:0:0:0:
441,317,5818,2,0,L|265:347,1,152,2|10,1:2|0:0,0:0:0:0:
213,328,6544,1,2,0:0:0:0:
213,328,6786,1,2,1:2:0:0:
331,209,7270,6,0,L|316:122,1,76,10|2,0:0|0:0,0:0:0:0:
242,98,7754,2,0,P|279:58|348:55,2,114,2|2|2,1:2|0:0|0:0,0:0:0:0:
242,181,8721,2,0,L|76:209,1,152,0|10,1:2|0:0,0:0:0:0:
29,159,9447,1,2,0:0:0:0:
29,159,9689,2,0,L|43:74,2,76,2|10|10,1:2|0:0|0:0,0:0:0:0:
2,324,10657,6,0,L|160:295,1,152,2|10,1:2|0:0,0:0:0:0:
318,279,11625,2,0,P|339:326|315:392,2,114,2|2|2,1:2|0:0|0:0,0:0:0:0:
273,208,12592,2,0,L|300:45,1,152,0|10,1:2|0:0,0:0:0:0:
380,31,13318,1,2,0:0:0:0:
380,31,13560,2,0,L|408:198,1,152,2|10,1:2|0:0,0:0:0:0:
353,247,14286,1,2,0:0:0:0:
353,247,14528,1,2,1:2:0:0:
225,139,15012,6,0,L|210:56,1,76,10|2,0:0|0:0,0:0:0:0:
135,30,15496,2,0,P|80:51|51:108,2,114,2|2|2,1:2|0:0|0:0,0:0:0:0:
135,113,16463,2,0,L|106:276,1,152,0|10,1:2|0:0,0:0:0:0:
91,347,17189,1,2,0:0:0:0:
91,347,17431,2,0,L|-1:362,2,76,2|10|10,1:2|0:0|0:0,0:0:0:0:
252,303,18399,6,0,B|265:223|265:223|186:210,2,152,2|10|2,1:2|0:0|1:2,0:0:0:0:
91,347,19850,2,0,L|106:257,1,76,10|2,0:0|0:0,0:0:0:0:
40,216,20334,2,0,B|26:136|26:136|105:123,1,152,2|10,1:2|0:0,0:0:0:0:
217,8,21302,2,0,L|302:22,1,76,2|2,1:2|0:0,0:0:0:0:
366,59,21786,2,0,L|380:144,1,76,10|2,0:0|0:0,0:0:0:0:
440,190,22270,6,0,L|413:350,1,152,2|10,0:2|0:0,0:0:0:0:
259,276,23238,2,0,B|188:263|188:263|174:342,1,152,2|10,1:2|0:0,0:0:0:0:
97,380,23963,1,2,0:0:0:0:
97,380,24205,2,0,L|72:221,1,152,2|10,1:2|0:0,0:0:0:0:
231,174,25173,2,0,L|310:187,2,76,2|2|10,1:2|0:0|0:0,0:0:0:0:
74,114,26141,6,0,L|88:35,1,76,2|2,1:2|0:0,3:0:0:0:
166,9,26625,2,0,L|245:22,1,76,10|2,0:0|0:0,0:0:0:0:
325,49,27109,1,2,1:2:0:0:
325,49,27350,2,0,P|361:111|329:204,1,152,2|2,0:0|0:0,0:0:0:0:
283,243,28076,2,0,B|179:224|179:224|176:242|176:242|73:224,1,228,2|2,1:2|0:0,0:0:0:0:
7,170,29044,1,2,1:2:0:0:
12,340,29528,2,0,L|93:328,1,76,10|2,0:0|0:0,0:0:0:0:
164,360,30012,6,0,L|313:335,1,152,2|10,1:2|0:0,0:0:0:0:
389,292,30738,1,2,0:0:0:0:
389,292,30979,2,0,L|367:142,2,152,2|10|2,1:2|0:0|1:2,0:0:0:0:
235,224,32431,2,0,L|213:74,1,152,10|2,0:0|1:2,0:0:0:0:
139,33,33157,1,2,1:2:0:0:
139,33,33399,2,0,L|57:47,1,76,8|6,0:0|0:3,0:0:0:0:
21,118,33883,6,0,L|43:268,1,152,6|10,1:2|0:0,0:0:0:0:
200,325,34850,2,0,P|255:304|284:247,2,114,2|2|2,1:2|0:0|0:0,0:0:0:0:
134,272,35818,2,0,L|112:122,1,152,0|10,1:2|0:0,0:0:0:0:
146,44,36544,1,2,0:0:0:0:
221,79,36786,2,0,B|234:158|234:158|313:144,1,152,2|10,1:2|0:0,0:0:0:0:
375,99,37512,1,2,0:0:0:0:
375,99,37754,1,2,1:2:0:0:
491,218,38238,6,0,L|476:305,1,76,10|2,0:0|0:0,0:0:0:0:
396,313,38721,2,0,P|425:360|478:379,2,114,2|2|2,1:2|0:0|0:0,0:0:0:0:
403,229,39689,2,0,L|253:207,1,152,0|10,1:2|0:0,0:0:0:0:
188,261,40415,1,2,0:0:0:0:
188,261,40657,2,0,L|177:336,2,76,2|10|10,1:2|0:0|0:0,0:0:0:0:
92,123,41625,6,0,B|12:136|12:136|0:57,2,152,2|10|2,1:2|0:0|1:2,0:0:0:0:
230,29,43076,2,0,L|319:44,1,76,10|2,0:0|0:0,0:0:0:0:
379,80,43560,2,0,B|392:159|392:159|313:172,1,152,2|10,1:2|0:0,0:0:0:0:
156,194,44528,2,0,L|141:279,1,76,2|2,1:2|0:0,0:0:0:0:
177,345,45012,2,0,L|262:330,1,76,10|2,0:0|0:0,0:0:0:0:
330,362,45496,6,0,B|405:374|405:374|379:222,1,228,2|2,1:2|0:0,0:0:0:0:
324,161,46463,1,2,1:2:0:0:
173,232,46947,2,0,L|98:244,1,76,10|2,0:0|0:0,0:0:0:0:
49,313,47431,2,0,P|18:246|57:175,1,152,2|10,1:2|0:0,0:0:0:0:
113,125,48157,1,2,0:0:0:0:
113,125,48399,2,0,L|98:44,2,76,2|2|10,1:2|0:0|0:0,0:0:0:0:
260,205,49367,6,0,L|341:191,1,76,2|2,1:2|0:0,0:0:0:0:
407,150,49850,2,0,L|420:68,1,76,10|2,0:0|0:0,0:0:0:0:
361,21,50335,1,2,1:2:0:0:
361,21,50576,2,0,P|413:-4|494:46,1,152,2|2,0:0|0:0,0:0:0:0:
511,119,51302,2,0,B|492:223|492:223|510:226|510:226|492:329,1,228,2|2,1:2|0:0,0:0:0:0:
428,382,52270,1,2,1:2:0:0:
299,274,52754,2,0,L|223:285,1,76,10|2,0:0|0:0,0:0:0:0:
179,357,53238,6,0,L|29:331,1,152,2|10,1:2|0:0,0:0:0:0:
7,255,53964,1,2,0:0:0:0:
7,255,54205,2,0,L|18:179,1,76,2|2,1:2|0:0,0:0:0:0:
97,151,54689,2,0,L|246:176,1,152,10|2,0:0|1:2,0:0:0:0:
412,201,55657,1,10,1:2:0:0:
424,34,56141,2,0,L|349:21,1,76,2|6,1:2|0:3,0:0:0:0:
269,54,56625,2,0,L|194:66,1,76,6|2,0:3|1:2,0:0:0:0:
110,72,57109,6,0,P|62:39|-19:34,2,114,6|2|2,1:2|1:2|1:2,0:0:0:0:
159,231,58318,1,2,1:2:0:0:
159,231,58560,2,0,L|146:305,1,76,10|2,0:0|0:0,0:0:0:0:
191,376,59044,2,0,P|246:366|293:333,2,114,6|2|2,1:2|1:2|1:2,0:0:0:0:
23,374,60254,2,0,P|0:322|0:266,1,114,2|2,1:2|0:0,0:0:0:0:
79,242,60859,6,0,P|102:190|102:134,1,114,6|2,1:2|1:2,0:0:0:0:
106,50,61463,2,0,P|54:26|-1:26,2,114,10|6|2,0:0|1:2|1:2,0:0:0:0:
177,94,62431,1,10,0:0:0:0:
327,21,62915,2,0,L|401:34,1,76,6|2,1:2|0:0,0:0:0:0:
452,101,63399,2,0,L|425:250,1,152,10|2,0:0|0:0,0:0:0:0:
359,301,64125,1,2,1:2:0:0:
359,301,64367,2,0,L|284:314,1,76,10|2,0:0|0:0,0:0:0:0:
221,369,64850,6,0,P|165:359|118:326,2,114,6|2|2,1:2|0:0|0:0,0:0:0:0:
264,207,66060,1,2,0:0:0:0:
264,207,66302,2,0,L|189:220,1,76,10|2,0:0|0:0,0:0:0:0:
111,189,66786,2,0,P|67:225|43:276,2,114,2|2|2,1:2|0:0|0:0,0:0:0:0:
242,84,67996,1,2,0:0:0:0:
242,84,68238,2,0,L|316:97,1,76,10|2,0:0|0:0,0:0:0:0:
380,43,68721,6,0,B|459:29|459:29|472:108,1,152,4|2,1:2|1:2,0:0:0:0:
423,169,69447,1,2,0:0:0:0:
423,169,69689,2,0,B|343:155|343:155|330:234,1,152,2|6,0:0|0:3,0:0:0:0:
375,297,70415,1,6,1:2:0:0:
213,341,70899,2,0,B|138:328,1,76,10|4,0:3|0:3,0:0:0:0:
74,274,71383,2,0,B|0:286,2,76,6|2|2,1:2|0:0|0:0,0:0:0:0:
127,209,72109,2,0,B|101:59,1,152,2|0,0:0|1:2,0:0:0:0:
351,14,73318,5,2,1:2:0:0:
351,14,73560,2,0,B|376:163,1,152,10|2,0:0|1:2,0:0:0:0:
407,347,74528,6,0,B|323:361|323:361|241:347,1,168.720004119141,6|10,1:2|0:0,0:0:0:0:
176,285,75254,1,2,0:0:0:0:
176,285,75496,2,0,B|158:180,1,84.3600020595704,2|2,1:2|0:0,0:0:0:0:
79,168,75979,2,0,B|96:63,1,84.3600020595704,10|2,0:0|0:0,0:0:0:0:
149,15,76463,2,0,B|232:0|232:0|315:15,1,168.720004119141,2|10,1:2|0:0,0:0:0:0:
372,90,77189,1,2,0:0:0:0:
372,90,77431,2,0,B|476:72,2,84.3600020595704,2|2|10,1:2|0:0|0:0,0:0:0:0:
203,144,78399,6,0,B|188:227|188:227|203:310,1,168.720004119141,2|10,1:2|0:0,0:0:0:0:
271,374,79125,1,2,0:0:0:0:
271,374,79367,2,0,B|375:356,1,84.3600020595704,2|2,1:2|0:0,0:0:0:0:
441,346,79850,2,0,B|423:241,1,84.3600020595704,10|2,0:0|0:0,0:0:0:0:
345,227,80334,2,0,B|330:144|330:144|345:61,1,168.720004119141,2|10,1:2|0:0,0:0:0:0:
425,19,81060,1,2,0:0:0:0:
425,19,81302,2,0,B|529:36,2,84.3600020595704,2|2|10,1:2|0:0|0:0,0:0:0:0:
247,10,82270,6,0,P|188:32|152:82,1,126.540003089356,2|2,1:2|0:0,0:0:0:0:
105,158,82875,2,0,P|141:208|199:230,1,126.540003089356,2|2,0:0|1:2,0:0:0:0:
282,200,83479,1,0,0:0:0:0:
338,367,83963,1,2,0:0:0:0:
338,367,84205,2,0,B|442:349,2,84.3600020595704,2|2|10,1:2|0:0|0:0,0:0:0:0:
254,335,84931,2,0,B|170:349|170:349|88:335,1,168.720004119141,2|2,0:0|0:0,0:0:0:0:
21,274,85657,2,0,B|38:169,1,84.3600020595704,10|2,0:0|0:0,0:0:0:0:
82,115,86141,1,0,1:2:0:0:
195,200,86625,6,0,B|299:182,1,84.3600020595704,10|2,0:0|0:0,0:0:0:0:
335,117,87109,2,0,B|439:134,1,84.3600020595704,2|2,1:2|0:0,0:0:0:0:
483,190,87592,1,10,0:0:0:0:
483,190,87834,2,0,B|450:378,1,168.720004119141,2|2,0:0|0:0,0:0:0:0:
368,380,88560,1,10,0:0:0:0:
272,230,89044,1,0,1:2:0:0:
272,230,89286,2,0,B|376:247,2,84.3600020595704,2|10|2,0:0|0:0|0:0,0:0:0:0:
212,163,90012,6,0,B|128:177,1,84.3600020595704,2|2,1:2|0:0,0:0:0:0:
44,204,90496,2,0,B|15:37,1,168.720004119141,10|2,0:0|1:2,0:0:0:0:
101,15,91221,2,0,P|170:73|266:29,1,168.720004119141,2|0,1:2|0:0,0:0:0:0:
311,11,91947,5,6,1:2:0:0:
88,151,107431,6,0,B|74:71|74:71|153:58,2,152,2|10|2,1:2|0:0|1:2,0:0:0:0:
113,316,108883,2,0,L|202:300,1,76,10|2,0:0|0:0,0:0:0:0:
250,358,109366,2,0,B|329:371|329:371|341:301,1,152,2|10,1:2|0:0,0:0:0:0:
282,144,110334,2,0,L|297:54,1,76,2|2,1:2|0:0,0:0:0:0:
357,13,110818,2,0,L|446:28,1,76,10|2,0:0|0:0,0:0:0:0:
483,92,111302,6,0,L|458:241,1,152,2|10,1:2|0:0,0:0:0:0:
315,330,112270,2,0,L|225:345,1,76,2|2,1:2|0:0,0:0:0:0:
164,306,112754,2,0,L|149:216,1,76,10|2,0:0|0:0,0:0:0:0:
218,180,113238,2,0,L|242:30,1,152,2|10,1:2|0:0,0:0:0:0:
163,3,113963,1,2,0:0:0:0:
163,3,114205,2,0,L|149:77,2,76,2|2|10,1:2|0:0|0:0,0:0:0:0:
330,6,115173,6,0,L|424:22,1,76,2|2,1:2|1:2,0:0:0:0:
437,96,115657,2,0,L|362:109,1,76,2|10,1:2|0:3,0:0:0:0:
282,85,116141,1,2,1:2:0:0:
282,85,116383,1,2,1:2:0:0:
232,330,117109,6,0,L|218:255,1,76,6|2,1:2|0:0,0:0:0:0:
162,194,117592,2,0,L|87:207,1,76,10|2,0:0|0:0,0:0:0:0:
6,181,118076,2,0,L|32:31,1,152,2|10,1:2|0:0,0:0:0:0:
119,24,118802,1,2,0:0:0:0:
119,24,119044,2,0,L|92:173,1,152,2|10,1:2|0:0,0:0:0:0:
75,340,120012,2,0,L|0:351,2,76,2|2|10,1:2|0:0|0:0,0:0:0:0:
141,282,120738,1,2,0:0:0:0:
141,282,120979,6,0,L|290:308,1,152,2|8,1:2|0:0,0:0:0:0:
364,358,121705,1,2,0:0:0:0:
364,358,121947,1,10,0:0:0:0:
481,239,122431,2,0,L|467:164,1,76,10|10,0:0|0:3,0:0:0:0:
407,103,122915,6,0,L|227:134,1,170.240002078125,6|10,1:2|0:0,0:0:0:0:
158,106,123641,1,2,0:0:0:0:
158,106,123883,2,0,L|140:6,1,85.1200010390625,2|2,1:2|0:0,0:0:0:0:
57,26,124367,2,0,L|71:109,1,85.1200010390625,10|2,0:0|0:0,0:0:0:0:
93,192,124850,2,0,L|260:221,1,170.240002078125,2|10,1:2|0:0,0:0:0:0:
331,172,125576,1,2,0:0:0:0:
331,172,125818,2,0,L|345:88,2,85.1200010390625,2|2|10,1:2|0:0|0:0,0:0:0:0:
303,340,126786,6,0,L|135:369,1,170.240002078125,2|10,1:2|0:0,0:0:0:0:
58,331,127512,1,2,0:0:0:0:
58,331,127754,2,0,L|72:247,1,85.1200010390625,2|2,1:2|0:0,0:0:0:0:
141,196,128238,2,0,L|155:112,1,85.1200010390625,10|2,0:0|0:0,0:0:0:0:
103,44,128721,2,0,P|176:29|241:112,1,170.240002078125,2|10,1:2|0:0,0:0:0:0:
250,180,129447,1,2,0:0:0:0:
250,180,129689,2,0,L|235:263,2,85.1200010390625,2|2|10,1:2|0:0|0:0,0:0:0:0:
361,50,130657,6,0,P|422:71|461:130,1,127.680001558594,2|2,1:2|0:0,0:0:0:0:
438,203,131262,2,0,P|377:224|338:283,1,127.680001558594,2|2,0:0|1:2,0:0:0:0:
372,353,131866,1,0,0:0:0:0:
203,377,132350,1,2,0:0:0:0:
203,377,132592,2,0,L|119:362,2,85.1200010390625,2|2|10,1:2|0:0|0:0,0:0:0:0:
256,310,133318,2,0,L|226:142,1,170.240002078125,2|2,0:0|0:0,0:0:0:0:
147,109,134044,2,0,L|132:192,1,85.1200010390625,10|2,0:0|0:0,0:0:0:0:
115,276,134528,1,0,1:2:0:0:
278,324,135012,6,0,L|361:309,1,85.1200010390625,10|2,0:0|0:0,0:0:0:0:
409,238,135496,1,2,1:2:0:0:
478,286,135738,2,0,P|477:192|409:153,1,170.240002078125,2|0,1:2|0:0,0:0:0:0:
339,179,136463,1,2,1:2:0:0:
256,192,136584,12,0,138399,0:0:0:0:
208,247,140092,5,2,0:0:0:0:
208,247,140334,2,0,L|334:269,2,114,2|2|2,1:2|0:0|0:0,0:0:0:0:
129,218,141302,2,0,B|141:142|141:142|291:169,1,228,2|2,0:0|0:0,0:0:0:0:
373,179,142270,1,2,1:2:0:0:
426,114,142512,2,0,B|413:38|413:38|264:65,1,228,2|2,1:2|0:0,0:0:0:0:
182,81,143479,1,2,1:2:0:0:
146,262,143963,5,2,0:0:0:0:
146,262,144205,2,0,L|272:239,2,114,2|2|2,1:2|0:0|0:0,0:0:0:0:
70,297,145173,2,0,B|82:372|82:372|232:346,1,228,2|2,1:2|0:0,0:0:0:0:
316,311,146141,2,0,L|390:324,1,76,2|0,1:2|0:0,0:0:0:0:
451,382,146625,2,0,P|473:327|416:244,1,152,10|2,1:2|1:2,3:0:0:0:
286,180,147592,1,10,1:2:0:0:
126,131,148076,6,0,L|106:18,2,114,2|2|2,1:2|0:0|0:0,0:0:0:0:
104,213,149044,2,0,B|116:288|116:288|266:262,1,228,2|2,1:2|0:0,0:0:0:0:
286,180,150012,2,0,L|272:105,2,76,2|4|8,1:2|0:3|1:2,0:0:0:0:
311,345,150979,2,0,L|236:358,1,76,2|10,1:2|0:0,0:0:0:0:
165,312,151463,2,0,L|90:298,1,76,2|2,1:2|1:2,0:0:0:0:
38,367,151947,6,0,P|5:301|35:234,1,152,6|10,1:2|0:0,0:0:0:0:
202,219,152915,1,2,1:2:0:0:
180,53,153399,2,0,L|106:66,1,76,10|2,0:0|0:0,0:0:0:0:
50,3,153883,2,0,P|20:79|66:144,1,152,2|10,1:2|0:0,0:0:0:0:
213,180,154850,2,0,L|288:194,1,76,2|10,1:2|0:0,0:0:0:0:
343,256,155334,2,0,L|330:331,1,76,10|2,0:0|0:0,0:0:0:0:
258,374,155818,6,0,L|109:348,1,152,2|10,1:2|0:0,0:0:0:0:
23,203,156786,2,0,L|10:129,1,76,2|2,1:2|0:0,0:0:0:0:
41,51,157270,2,0,L|116:65,1,76,10|2,0:0|0:0,0:0:0:0:
197,45,157754,2,0,L|347:71,1,152,2|10,1:2|0:0,0:0:0:0:
377,151,158479,1,2,0:0:0:0:
377,151,158721,2,0,L|228:177,1,152,2|10,1:2|0:0,0:0:0:0:
158,223,159447,1,2,0:0:0:0:
158,223,159689,1,0,0:0:0:0:
87,149,165496,6,0,L|236:175,1,152,2|2,1:2|1:2,0:0:0:0:
401,204,166463,2,0,L|414:129,1,76,2|2,1:2|1:2,0:0:0:0:
353,70,166947,2,0,L|278:83,1,76,10|2,0:0|1:2,0:0:0:0:
194,76,167431,2,0,L|180:1,2,76,10|8|2,0:3|0:3|1:2,0:0:0:0:
169,159,168157,1,0,0:0:0:0:
169,159,168399,2,0,L|195:308,1,152,10|6,0:0|0:3,0:0:0:0:
356,370,169367,6,0,L|390:175,1,171.76000052417,6|10,1:2|0:0,0:0:0:0:
346,123,170093,1,2,0:0:0:0:
346,123,170334,2,0,L|255:139,1,85.880000262085,2|2,1:2|0:0,0:0:0:0:
177,156,170818,2,0,L|193:246,1,85.880000262085,10|2,0:0|0:0,0:0:0:0:
274,266,171302,2,0,B|258:351|258:351|174:366,1,171.76000052417,2|10,1:2|0:0,0:0:0:0:
118,301,172028,1,2,0:0:0:0:
118,301,172270,2,0,L|27:317,2,85.880000262085,2|2|10,1:2|0:0|0:0,0:0:0:0:
268,201,173238,6,0,L|437:171,1,171.76000052417,2|10,1:2|0:0,0:0:0:0:
489,239,173964,1,2,0:0:0:0:
489,239,174205,2,0,L|472:329,1,85.880000262085,2|2,1:2|0:0,0:0:0:0:
404,375,174689,2,0,L|389:290,1,85.880000262085,10|2,0:0|0:0,0:0:0:0:
310,253,175173,2,0,B|225:238|225:238|210:153,1,171.76000052417,2|10,1:2|0:0,0:0:0:0:
267,88,175899,1,2,0:0:0:0:
267,88,176141,2,0,L|357:104,2,85.880000262085,2|2|10,1:2|0:0|0:0,0:0:0:0:
110,16,177109,6,0,P|51:38|16:119,1,128.820000393127,2|2,1:2|0:0,0:0:0:0:
60,166,177713,2,0,P|119:188|154:269,1,128.820000393127,2|2,0:0|1:2,0:0:0:0:
121,323,178318,1,0,0:0:0:0:
285,373,178802,1,2,0:0:0:0:
285,373,179044,2,0,L|375:356,2,85.880000262085,2|2|10,1:2|0:0|0:0,0:0:0:0:
241,298,179770,2,0,L|270:128,1,171.76000052417,2|2,0:0|0:0,0:0:0:0:
321,58,180496,2,0,L|411:74,1,85.880000262085,10|2,0:0|0:0,0:0:0:0:
462,137,180980,1,0,1:2:0:0:
317,229,181463,6,0,L|226:245,1,85.880000262085,10|2,0:0|0:0,0:0:0:0:
148,224,181947,2,0,L|131:133,1,85.880000262085,2|2,1:2|0:0,0:0:0:0:
67,85,182431,1,10,0:0:0:0:
67,85,182673,2,0,B|25:93|25:93|48:220,1,171.76000052417,2|2,0:0|0:0,0:0:0:0:
89,296,183399,1,10,0:0:0:0:
245,225,183883,1,2,1:2:0:0:
245,225,184125,2,0,L|228:134,2,85.880000262085,2|10|2,0:0|0:0|0:0,0:0:0:0:
260,318,184850,6,0,L|350:335,1,85.880000262085,2|2,1:2|0:0,0:0:0:0:
438,324,185334,2,0,L|405:142,1,171.76000052417,10|2,0:0|1:2,0:0:0:0:
343,84,186060,2,0,B|363:59|401:60|401:60|463:71,2,128.820000393127,2|2|6,1:2|1:2|1:2,0:0:0:0:
207,182,187270,6,0,L|132:195,1,76,10|0,0:0|0:0,0:0:0:0:
79,260,187754,2,0,P|43:203|60:144,2,114,2|2|2,1:2|0:0|0:0,0:0:0:0:
155,294,188721,2,0,L|336:261,1,152,0|10,1:2|0:0,0:0:0:0:
469,239,189689,2,0,L|482:164,1,76,2|10,1:2|0:0,0:0:0:0:
422,105,190173,2,0,L|347:118,1,76,10|2,0:0|0:0,0:0:0:0:
286,176,190657,1,2,1:2:0:0:
142,90,191141,5,10,0:0:0:0:
142,90,191383,2,0,L|67:76,2,76,2|2|2,0:0|1:2|0:0,0:0:0:0:
207,37,192109,2,0,L|281:23,1,76,10|2,0:0|0:0,0:0:0:0:
358,58,192592,1,0,1:2:0:0:
330,222,193076,1,10,0:0:0:0:
330,222,193318,2,0,L|404:208,2,76,2|2|10,0:0|1:2|0:0,0:0:0:0:
264,169,194044,2,0,L|189:182,1,76,10|2,0:0|0:0,0:0:0:0:
131,121,194528,6,0,P|104:182|143:255,1,152,2|10,1:2|0:0,0:0:0:0:
206,305,195254,2,0,L|280:291,2,76,2|2|2,0:0|1:2|0:0,0:0:0:0:
149,366,195979,2,0,L|74:379,1,76,10|2,0:0|0:0,0:0:0:0:
22,313,196463,1,0,1:2:0:0:
67,152,196947,1,10,0:0:0:0:
67,152,197189,2,0,L|53:77,2,76,2|2|10,0:0|1:2|0:0,0:0:0:0:
131,205,197915,2,0,L|205:191,1,76,10|2,0:0|0:0,0:0:0:0:
256,124,198399,5,0,1:2:0:0:
256,124,198641,2,0,L|330:137,2,76,10|10|6,0:3|0:0|0:3,0:0:0:0:
200,64,199367,1,2,1:2:0:0:
200,64,199609,1,2,1:2:0:0:
