osu file format v14

[General]
AudioFilename: audio.mp3
AudioLeadIn: 0
PreviewTime: 171053
Countdown: 0
SampleSet: Normal
StackLeniency: 0.7
Mode: 1
LetterboxInBreaks: 0
WidescreenStoryboard: 0

[Editor]
Bookmarks: 69353,80453
DistanceSpacing: 1
BeatDivisor: 4
GridSize: 32
TimelineZoom: 1.6

[Metadata]
Title:Mahi
TitleUnicode:麻痺
Artist:yama
ArtistUnicode:yama
Creator:waterlemon_
Version:Oni
Source:
Tags:麻痺 - Single
BeatmapID:2867381
BeatmapSetID:1388395

[Difficulty]
HPDrainRate:5
CircleSize:5
OverallDifficulty:5
ApproachRate:5
SliderMultiplier:1.4
SliderTickRate:1

[Events]
//Background and Video events
//Break Periods
//Storyboard Layer 0 (Background)
//Storyboard Layer 1 (Fail)
//Storyboard Layer 2 (Pass)
//Storyboard Layer 3 (Foreground)
//Storyboard Layer 4 (Overlay)
//Storyboard Sound Samples

[TimingPoints]
1253,300,4,1,0,100,1,0
61253,-100,4,1,0,100,0,1
80453,-100,4,1,0,100,0,0
121253,-100,4,1,0,100,0,1
140453,-100,4,1,0,100,0,0
171653,-100,4,1,0,100,0,1
190853,-100,4,1,0,100,0,0

[HitObjects]
256,192,1253,5,2,0:0:0:0:
256,192,1553,1,2,0:0:0:0:
256,192,1703,1,2,0:0:0:0:
256,192,2003,1,2,0:0:0:0:
256,192,2303,1,2,0:0:0:0:
256,192,2453,1,2,0:0:0:0:
256,192,2753,1,2,0:0:0:0:
256,192,2903,1,2,0:0:0:0:
256,192,3203,1,2,0:0:0:0:
256,192,3353,1,2,0:0:0:0:
256,192,3503,1,2,0:0:0:0:
256,192,3653,1,2,0:0:0:0:
256,192,3953,1,2,0:0:0:0:
256,192,4103,1,2,0:0:0:0:
256,192,4253,1,2,0:0:0:0:
256,192,4553,1,2,0:0:0:0:
256,192,4703,1,2,0:0:0:0:
256,192,4853,1,2,0:0:0:0:
256,192,5603,1,2,0:0:0:0:
256,192,5753,1,2,0:0:0:0:
256,192,5903,1,2,0:0:0:0:
256,192,6053,1,2,0:0:0:0:
256,192,6353,1,2,0:0:0:0:
256,192,6503,1,2,0:0:0:0:
256,192,6803,1,2,0:0:0:0:
256,192,7103,1,2,0:0:0:0:
256,192,7403,1,2,0:0:0:0:
256,192,7553,1,2,0:0:0:0:
256,192,7703,1,2,0:0:0:0:
256,192,8003,1,2,0:0:0:0:
256,192,8153,1,2,0:0:0:0:
256,192,8303,1,2,0:0:0:0:
256,192,8453,1,2,0:0:0:0:
256,192,8753,1,2,0:0:0:0:
256,192,8903,1,2,0:0:0:0:
256,192,9203,1,2,0:0:0:0:
256,192,9503,1,2,0:0:0:0:
256,192,9653,1,0,0:0:0:0:
256,192,9953,1,2,0:0:0:0:
256,192,10103,1,0,0:0:0:0:
256,192,10403,1,2,0:0:0:0:
256,192,10553,1,2,0:0:0:0:
256,192,10703,1,2,0:0:0:0:
256,192,10853,1,4,0:0:0:0:
256,192,11153,1,2,0:0:0:0:
256,192,11303,1,0,0:0:0:0:
256,192,11603,1,0,0:0:0:0:
256,192,11753,1,2,0:0:0:0:
256,192,11903,1,0,0:0:0:0:
256,192,12053,1,0,0:0:0:0:
256,192,12203,1,2,0:0:0:0:
256,192,12353,1,2,0:0:0:0:
256,192,12503,1,0,0:0:0:0:
256,192,12653,1,2,0:0:0:0:
256,192,12803,1,0,0:0:0:0:
256,192,12953,1,2,0:0:0:0:
256,192,13103,1,2,0:0:0:0:
256,192,13253,1,0,0:0:0:0:
256,192,13553,1,2,0:0:0:0:
256,192,13853,1,0,0:0:0:0:
256,192,14003,1,0,0:0:0:0:
256,192,14153,1,2,0:0:0:0:
256,192,14303,1,2,0:0:0:0:
256,192,14453,1,0,0:0:0:0:
256,192,14603,1,2,0:0:0:0:
256,192,14753,1,2,0:0:0:0:
256,192,14903,1,0,0:0:0:0:
256,192,15053,1,0,0:0:0:0:
256,192,15353,1,2,0:0:0:0:
256,192,15503,1,2,0:0:0:0:
256,192,15578,1,2,0:0:0:0:
256,192,15653,1,0,0:0:0:0:
256,192,15953,1,2,0:0:0:0:
256,192,16103,1,0,0:0:0:0:
256,192,16403,1,0,0:0:0:0:
256,192,16553,1,2,0:0:0:0:
256,192,16703,1,0,0:0:0:0:
256,192,16853,1,0,0:0:0:0:
256,192,17003,1,2,0:0:0:0:
256,192,17153,1,2,0:0:0:0:
256,192,17303,1,0,0:0:0:0:
256,192,17453,1,2,0:0:0:0:
256,192,17603,1,2,0:0:0:0:
256,192,17753,1,2,0:0:0:0:
256,192,17903,1,0,0:0:0:0:
256,192,18053,1,0,0:0:0:0:
256,192,18353,1,2,0:0:0:0:
256,192,18653,1,0,0:0:0:0:
256,192,18803,1,0,0:0:0:0:
256,192,18953,1,2,0:0:0:0:
256,192,19103,1,2,0:0:0:0:
256,192,19253,1,0,0:0:0:0:
256,192,19403,1,2,0:0:0:0:
256,192,19553,1,2,0:0:0:0:
256,192,19703,1,0,0:0:0:0:
256,192,19853,1,0,0:0:0:0:
256,192,20003,1,0,0:0:0:0:
256,192,20078,1,0,0:0:0:0:
256,192,20153,1,2,0:0:0:0:
256,192,20303,1,2,0:0:0:0:
256,192,20378,1,2,0:0:0:0:
256,192,20453,1,0,0:0:0:0:
256,192,20753,1,2,0:0:0:0:
256,192,20903,1,0,0:0:0:0:
256,192,21203,1,0,0:0:0:0:
256,192,21353,1,2,0:0:0:0:
256,192,21653,1,0,0:0:0:0:
256,192,21803,1,0,0:0:0:0:
256,192,21953,1,2,0:0:0:0:
256,192,22253,1,0,0:0:0:0:
256,192,22403,1,2,0:0:0:0:
256,192,22553,1,2,0:0:0:0:
256,192,22703,1,0,0:0:0:0:
256,192,22853,1,2,0:0:0:0:
256,192,23153,1,2,0:0:0:0:
256,192,23303,1,2,0:0:0:0:
256,192,23603,1,0,0:0:0:0:
256,192,23753,1,2,0:0:0:0:
256,192,24053,1,0,0:0:0:0:
256,192,24353,1,2,0:0:0:0:
256,192,24803,1,0,0:0:0:0:
256,192,24953,1,2,0:0:0:0:
256,192,25253,1,2,0:0:0:0:
256,192,25553,1,2,0:0:0:0:
256,192,25703,1,0,0:0:0:0:
256,192,26003,1,0,0:0:0:0:
256,192,26153,1,2,0:0:0:0:
256,192,26453,1,0,0:0:0:0:
256,192,26603,1,0,0:0:0:0:
256,192,26753,1,2,0:0:0:0:
256,192,27053,1,0,0:0:0:0:
256,192,27203,1,2,0:0:0:0:
256,192,27353,1,2,0:0:0:0:
256,192,27503,1,0,0:0:0:0:
256,192,27653,1,2,0:0:0:0:
256,192,27953,1,2,0:0:0:0:
256,192,28103,1,0,0:0:0:0:
256,192,28403,1,0,0:0:0:0:
256,192,28553,1,2,0:0:0:0:
256,192,28853,1,0,0:0:0:0:
256,192,29153,1,2,0:0:0:0:
256,192,29453,1,2,0:0:0:0:
256,192,29603,1,2,0:0:0:0:
256,192,29753,1,2,0:0:0:0:
256,192,29903,1,2,0:0:0:0:
256,192,30053,1,4,0:0:0:0:
256,192,30353,1,2,0:0:0:0:
256,192,30503,1,0,0:0:0:0:
256,192,30803,1,0,0:0:0:0:
256,192,30953,1,2,0:0:0:0:
256,192,31253,1,0,0:0:0:0:
256,192,31403,1,0,0:0:0:0:
256,192,31553,1,2,0:0:0:0:
256,192,31703,1,0,0:0:0:0:
256,192,31853,1,0,0:0:0:0:
256,192,32003,1,2,0:0:0:0:
256,192,32153,1,2,0:0:0:0:
256,192,32303,1,0,0:0:0:0:
256,192,32453,1,2,0:0:0:0:
256,192,32753,1,2,0:0:0:0:
256,192,32903,1,2,0:0:0:0:
256,192,33203,1,0,0:0:0:0:
256,192,33353,1,2,0:0:0:0:
256,192,33653,1,0,0:0:0:0:
256,192,33953,1,2,0:0:0:0:
256,192,34403,1,0,0:0:0:0:
256,192,34553,1,2,0:0:0:0:
256,192,34853,1,2,0:0:0:0:
256,192,35153,1,2,0:0:0:0:
256,192,35303,1,0,0:0:0:0:
256,192,35603,1,0,0:0:0:0:
256,192,35753,1,2,0:0:0:0:
256,192,36053,1,0,0:0:0:0:
256,192,36203,1,0,0:0:0:0:
256,192,36353,1,2,0:0:0:0:
256,192,36653,1,0,0:0:0:0:
256,192,36803,1,2,0:0:0:0:
256,192,36953,1,2,0:0:0:0:
256,192,37103,1,0,0:0:0:0:
256,192,37253,1,2,0:0:0:0:
256,192,37553,1,2,0:0:0:0:
256,192,37703,1,0,0:0:0:0:
256,192,38003,1,0,0:0:0:0:
256,192,38153,1,2,0:0:0:0:
256,192,38453,1,0,0:0:0:0:
256,192,38603,1,0,0:0:0:0:
256,192,38753,1,2,0:0:0:0:
256,192,38903,1,0,0:0:0:0:
256,192,39053,1,2,0:0:0:0:
256,192,39203,1,0,0:0:0:0:
256,192,39278,1,0,0:0:0:0:
256,192,39353,1,2,0:0:0:0:
256,192,39503,1,2,0:0:0:0:
256,192,39653,1,4,0:0:0:0:
256,192,39953,1,2,0:0:0:0:
256,192,40103,1,0,0:0:0:0:
256,192,40253,1,2,0:0:0:0:
256,192,40403,1,0,0:0:0:0:
256,192,40553,1,2,0:0:0:0:
256,192,40703,1,2,0:0:0:0:
256,192,40853,1,0,0:0:0:0:
256,192,41153,1,2,0:0:0:0:
256,192,41303,1,0,0:0:0:0:
256,192,41453,1,2,0:0:0:0:
256,192,41603,1,0,0:0:0:0:
256,192,41753,1,2,0:0:0:0:
256,192,42053,1,0,0:0:0:0:
256,192,42353,1,2,0:0:0:0:
256,192,42503,1,0,0:0:0:0:
256,192,42653,1,2,0:0:0:0:
256,192,42803,1,0,0:0:0:0:
256,192,42953,1,2,0:0:0:0:
256,192,43103,1,0,0:0:0:0:
256,192,43253,1,2,0:0:0:0:
256,192,43553,1,2,0:0:0:0:
256,192,43703,1,0,0:0:0:0:
256,192,43853,1,2,0:0:0:0:
256,192,44003,1,0,0:0:0:0:
256,192,44153,1,2,0:0:0:0:
256,192,44303,1,2,0:0:0:0:
256,192,44453,1,0,0:0:0:0:
256,192,44753,1,2,0:0:0:0:
256,192,44903,1,0,0:0:0:0:
256,192,45053,1,2,0:0:0:0:
256,192,45203,1,0,0:0:0:0:
256,192,45353,1,2,0:0:0:0:
256,192,45503,1,2,0:0:0:0:
256,192,45653,1,0,0:0:0:0:
256,192,45953,1,2,0:0:0:0:
256,192,46103,1,0,0:0:0:0:
256,192,46253,1,2,0:0:0:0:
256,192,46403,1,0,0:0:0:0:
256,192,46553,1,2,0:0:0:0:
256,192,46853,1,0,0:0:0:0:
256,192,47153,1,2,0:0:0:0:
256,192,47303,1,0,0:0:0:0:
256,192,47453,1,0,0:0:0:0:
256,192,47603,1,0,0:0:0:0:
256,192,47753,1,2,0:0:0:0:
256,192,48053,1,2,0:0:0:0:
256,192,48203,1,0,0:0:0:0:
256,192,48353,1,2,0:0:0:0:
256,192,48503,1,2,0:0:0:0:
256,192,48653,1,0,0:0:0:0:
256,192,48803,1,2,0:0:0:0:
256,192,48878,1,2,0:0:0:0:
256,192,48953,1,2,0:0:0:0:
256,192,49103,1,2,0:0:0:0:
256,192,49253,1,2,0:0:0:0:
256,192,49553,1,2,0:0:0:0:
256,192,49703,1,0,0:0:0:0:
256,192,49853,1,2,0:0:0:0:
256,192,50153,1,2,0:0:0:0:
256,192,50303,1,2,0:0:0:0:
256,192,50453,1,0,0:0:0:0:
256,192,50753,1,2,0:0:0:0:
256,192,50903,1,0,0:0:0:0:
256,192,51053,1,2,0:0:0:0:
256,192,51203,1,0,0:0:0:0:
256,192,51353,1,2,0:0:0:0:
256,192,51653,1,0,0:0:0:0:
256,192,51953,1,2,0:0:0:0:
256,192,52103,1,0,0:0:0:0:
256,192,52253,1,2,0:0:0:0:
256,192,52553,1,2,0:0:0:0:
256,192,52703,1,0,0:0:0:0:
256,192,52853,1,2,0:0:0:0:
256,192,53153,1,2,0:0:0:0:
256,192,53303,1,0,0:0:0:0:
256,192,53378,1,0,0:0:0:0:
256,192,53453,1,2,0:0:0:0:
256,192,53603,1,2,0:0:0:0:
256,192,53753,1,0,0:0:0:0:
256,192,53903,1,0,0:0:0:0:
256,192,54053,1,6,0:0:0:0:
256,192,54203,1,0,0:0:0:0:
256,192,54278,1,0,0:0:0:0:
256,192,54353,1,2,0:0:0:0:
256,192,54503,1,0,0:0:0:0:
256,192,54578,1,0,0:0:0:0:
256,192,54653,1,2,0:0:0:0:
256,192,54803,1,2,0:0:0:0:
256,192,54878,1,2,0:0:0:0:
256,192,54953,1,2,0:0:0:0:
256,192,55103,1,2,0:0:0:0:
256,192,55178,1,2,0:0:0:0:
256,192,55253,1,0,0:0:0:0:
256,192,55403,1,0,0:0:0:0:
256,192,55478,1,0,0:0:0:0:
256,192,55553,1,2,0:0:0:0:
256,192,55703,1,0,0:0:0:0:
256,192,55778,1,0,0:0:0:0:
256,192,55853,1,2,0:0:0:0:
256,192,56003,1,2,0:0:0:0:
256,192,56078,1,2,0:0:0:0:
256,192,56153,1,2,0:0:0:0:
256,192,56303,1,2,0:0:0:0:
256,192,56378,1,2,0:0:0:0:
256,192,56453,1,0,0:0:0:0:
256,192,56603,1,0,0:0:0:0:
256,192,56678,1,0,0:0:0:0:
256,192,56753,1,2,0:0:0:0:
256,192,56903,1,0,0:0:0:0:
256,192,56978,1,0,0:0:0:0:
256,192,57053,1,2,0:0:0:0:
256,192,57203,1,0,0:0:0:0:
256,192,57278,1,0,0:0:0:0:
256,192,57353,1,2,0:0:0:0:
256,192,57428,1,2,0:0:0:0:
256,192,57503,1,2,0:0:0:0:
256,192,57578,1,2,0:0:0:0:
256,192,57653,1,0,0:0:0:0:
256,192,57803,1,0,0:0:0:0:
256,192,57878,1,0,0:0:0:0:
256,192,57953,1,2,0:0:0:0:
256,192,58103,1,0,0:0:0:0:
256,192,58178,1,0,0:0:0:0:
256,192,58253,1,2,0:0:0:0:
256,192,58403,1,0,0:0:0:0:
256,192,58478,1,0,0:0:0:0:
256,192,58553,1,2,0:0:0:0:
256,192,58628,1,2,0:0:0:0:
256,192,58703,1,0,0:0:0:0:
256,192,58778,1,0,0:0:0:0:
256,192,58853,1,2,0:0:0:0:
256,192,59003,1,2,0:0:0:0:
256,192,59153,1,2,0:0:0:0:
256,192,59303,1,2,0:0:0:0:
256,192,59603,1,2,0:0:0:0:
256,192,59903,1,2,0:0:0:0:
256,192,60203,1,2,0:0:0:0:
256,192,60803,1,0,0:0:0:0:
256,192,60953,1,2,0:0:0:0:
256,192,61103,1,0,0:0:0:0:
256,192,61253,1,6,0:0:0:0:
256,192,61403,1,0,0:0:0:0:
256,192,61553,1,2,0:0:0:0:
256,192,61703,1,2,0:0:0:0:
256,192,61778,1,2,0:0:0:0:
256,192,61853,1,0,0:0:0:0:
256,192,62003,1,2,0:0:0:0:
256,192,62153,1,2,0:0:0:0:
256,192,62303,1,0,0:0:0:0:
256,192,62603,1,0,0:0:0:0:
256,192,62753,1,2,0:0:0:0:
256,192,62903,1,0,0:0:0:0:
256,192,63203,1,0,0:0:0:0:
256,192,63353,1,2,0:0:0:0:
256,192,63503,1,0,0:0:0:0:
256,192,63578,1,0,0:0:0:0:
256,192,63653,1,2,0:0:0:0:
256,192,63803,1,0,0:0:0:0:
256,192,63953,1,2,0:0:0:0:
256,192,64103,1,0,0:0:0:0:
256,192,64178,1,0,0:0:0:0:
256,192,64253,1,2,0:0:0:0:
256,192,64403,1,0,0:0:0:0:
256,192,64553,1,2,0:0:0:0:
256,192,64703,1,0,0:0:0:0:
256,192,64853,1,2,0:0:0:0:
256,192,65153,1,2,0:0:0:0:
256,192,65303,1,0,0:0:0:0:
256,192,65603,1,0,0:0:0:0:
256,192,65753,1,2,0:0:0:0:
256,192,65903,1,0,0:0:0:0:
256,192,66053,1,2,0:0:0:0:
256,192,66203,1,0,0:0:0:0:
256,192,66278,1,0,0:0:0:0:
256,192,66353,1,2,0:0:0:0:
256,192,66503,1,2,0:0:0:0:
256,192,66653,1,0,0:0:0:0:
256,192,66803,1,2,0:0:0:0:
256,192,66953,1,2,0:0:0:0:
256,192,67103,1,0,0:0:0:0:
256,192,67403,1,0,0:0:0:0:
256,192,67553,1,2,0:0:0:0:
256,192,67703,1,0,0:0:0:0:
256,192,68003,1,0,0:0:0:0:
256,192,68153,1,2,0:0:0:0:
256,192,68303,1,0,0:0:0:0:
256,192,68453,1,2,0:0:0:0:
256,192,68603,1,0,0:0:0:0:
256,192,68678,1,0,0:0:0:0:
256,192,68753,1,2,0:0:0:0:
256,192,68903,1,2,0:0:0:0:
256,192,69203,1,2,0:0:0:0:
256,192,69278,1,2,0:0:0:0:
256,192,69353,1,0,0:0:0:0:
256,192,69503,1,0,0:0:0:0:
256,192,69653,1,2,0:0:0:0:
256,192,69953,1,6,0:0:0:0:
256,192,70103,1,0,0:0:0:0:
256,192,70178,1,0,0:0:0:0:
256,192,70253,1,0,0:0:0:0:
256,192,70403,1,0,0:0:0:0:
256,192,70478,1,0,0:0:0:0:
256,192,70553,1,2,0:0:0:0:
256,192,70703,1,2,0:0:0:0:
256,192,70853,1,4,0:0:0:0:
256,192,71153,1,2,0:0:0:0:
256,192,71303,1,0,0:0:0:0:
256,192,71453,1,2,0:0:0:0:
256,192,71753,1,2,0:0:0:0:
256,192,71903,1,0,0:0:0:0:
256,192,72053,1,2,0:0:0:0:
256,192,72353,1,2,0:0:0:0:
256,192,72503,1,0,0:0:0:0:
256,192,72578,1,0,0:0:0:0:
256,192,72653,1,2,0:0:0:0:
256,192,72803,1,0,0:0:0:0:
256,192,72953,1,2,0:0:0:0:
256,192,73103,1,0,0:0:0:0:
256,192,73253,1,2,0:0:0:0:
256,192,73403,1,0,0:0:0:0:
256,192,73553,1,2,0:0:0:0:
256,192,73703,1,0,0:0:0:0:
256,192,73853,1,2,0:0:0:0:
256,192,74153,1,2,0:0:0:0:
256,192,74303,1,0,0:0:0:0:
256,192,74453,1,2,0:0:0:0:
256,192,74753,1,2,0:0:0:0:
256,192,74903,1,0,0:0:0:0:
256,192,74978,1,0,0:0:0:0:
256,192,75053,1,2,0:0:0:0:
256,192,75203,1,2,0:0:0:0:
256,192,75278,1,2,0:0:0:0:
256,192,75353,1,2,0:0:0:0:
256,192,75503,1,0,0:0:0:0:
256,192,75653,1,6,0:0:0:0:
256,192,75803,1,0,0:0:0:0:
256,192,75953,1,2,0:0:0:0:
256,192,76253,1,2,0:0:0:0:
256,192,76553,1,2,0:0:0:0:
256,192,76703,1,0,0:0:0:0:
256,192,76853,1,2,0:0:0:0:
256,192,77153,1,2,0:0:0:0:
256,192,77303,1,0,0:0:0:0:
256,192,77453,1,2,0:0:0:0:
256,192,77603,1,0,0:0:0:0:
256,192,77753,1,2,0:0:0:0:
256,192,78053,1,2,0:0:0:0:
256,192,78203,1,0,0:0:0:0:
256,192,78278,1,0,0:0:0:0:
256,192,78353,1,2,0:0:0:0:
256,192,78503,1,0,0:0:0:0:
256,192,78653,1,2,0:0:0:0:
256,192,78803,1,0,0:0:0:0:
256,192,78953,1,2,0:0:0:0:
256,192,79253,1,2,0:0:0:0:
256,192,79553,1,6,0:0:0:0:
256,192,79703,1,0,0:0:0:0:
256,192,79778,1,0,0:0:0:0:
256,192,79853,1,2,0:0:0:0:
256,192,80003,1,2,0:0:0:0:
256,192,80153,1,2,0:0:0:0:
256,192,80303,1,2,0:0:0:0:
256,192,80453,1,4,0:0:0:0:
256,192,80753,1,2,0:0:0:0:
256,192,80903,1,0,0:0:0:0:
256,192,81203,1,0,0:0:0:0:
256,192,81353,1,2,0:0:0:0:
256,192,81503,1,0,0:0:0:0:
256,192,81653,1,0,0:0:0:0:
256,192,81803,1,2,0:0:0:0:
256,192,81953,1,2,0:0:0:0:
256,192,82103,1,0,0:0:0:0:
256,192,82253,1,2,0:0:0:0:
256,192,82403,1,0,0:0:0:0:
256,192,82553,1,2,0:0:0:0:
256,192,82703,1,2,0:0:0:0:
256,192,82853,1,0,0:0:0:0:
256,192,83153,1,2,0:0:0:0:
256,192,83453,1,0,0:0:0:0:
256,192,83603,1,0,0:0:0:0:
256,192,83753,1,2,0:0:0:0:
256,192,83903,1,2,0:0:0:0:
256,192,84053,1,0,0:0:0:0:
256,192,84203,1,2,0:0:0:0:
256,192,84353,1,0,0:0:0:0:
256,192,84503,1,2,0:0:0:0:
256,192,84578,1,2,0:0:0:0:
256,192,84653,1,2,0:0:0:0:
256,192,84803,1,0,0:0:0:0:
256,192,84953,1,6,0:0:0:0:
256,192,85103,1,2,0:0:0:0:
256,192,85253,1,4,0:0:0:0:
256,192,85553,1,2,0:0:0:0:
256,192,85703,1,0,0:0:0:0:
256,192,86003,1,0,0:0:0:0:
256,192,86153,1,2,0:0:0:0:
256,192,86303,1,0,0:0:0:0:
256,192,86453,1,0,0:0:0:0:
256,192,86603,1,2,0:0:0:0:
256,192,86753,1,2,0:0:0:0:
256,192,86903,1,0,0:0:0:0:
256,192,87053,1,2,0:0:0:0:
256,192,87203,1,0,0:0:0:0:
256,192,87353,1,2,0:0:0:0:
256,192,87503,1,2,0:0:0:0:
256,192,87653,1,0,0:0:0:0:
256,192,87803,1,2,0:0:0:0:
256,192,87953,1,4,0:0:0:0:
256,192,88103,1,0,0:0:0:0:
256,192,88178,1,0,0:0:0:0:
256,192,88253,1,2,0:0:0:0:
256,192,88403,1,0,0:0:0:0:
256,192,88553,1,0,0:0:0:0:
256,192,88703,1,2,0:0:0:0:
256,192,89153,1,2,0:0:0:0:
256,192,89453,1,2,0:0:0:0:
256,192,89753,1,2,0:0:0:0:
256,192,90053,1,0,0:0:0:0:
256,192,90353,1,2,0:0:0:0:
256,192,90503,1,0,0:0:0:0:
256,192,90803,1,0,0:0:0:0:
256,192,90953,1,2,0:0:0:0:
256,192,91103,1,0,0:0:0:0:
256,192,91253,1,0,0:0:0:0:
256,192,91553,1,2,0:0:0:0:
256,192,91853,1,0,0:0:0:0:
256,192,92003,1,0,0:0:0:0:
256,192,92153,1,2,0:0:0:0:
256,192,92303,1,0,0:0:0:0:
256,192,92453,1,2,0:0:0:0:
256,192,92753,1,2,0:0:0:0:
256,192,92903,1,2,0:0:0:0:
256,192,93203,1,0,0:0:0:0:
256,192,93353,1,2,0:0:0:0:
256,192,93653,1,0,0:0:0:0:
256,192,93953,1,2,0:0:0:0:
256,192,94103,1,0,0:0:0:0:
256,192,94403,1,0,0:0:0:0:
256,192,94553,1,2,0:0:0:0:
256,192,94703,1,0,0:0:0:0:
256,192,94853,1,0,0:0:0:0:
256,192,95153,1,2,0:0:0:0:
256,192,95303,1,0,0:0:0:0:
256,192,95603,1,0,0:0:0:0:
256,192,95753,1,2,0:0:0:0:
256,192,96053,1,0,0:0:0:0:
256,192,96353,1,2,0:0:0:0:
256,192,96653,1,0,0:0:0:0:
256,192,96803,1,2,0:0:0:0:
256,192,96953,1,2,0:0:0:0:
256,192,97103,1,0,0:0:0:0:
256,192,97253,1,2,0:0:0:0:
256,192,97403,1,0,0:0:0:0:
256,192,97553,1,2,0:0:0:0:
256,192,97703,1,2,0:0:0:0:
256,192,98003,1,0,0:0:0:0:
256,192,98153,1,2,0:0:0:0:
256,192,98228,1,2,0:0:0:0:
256,192,98303,1,0,0:0:0:0:
256,192,98378,1,0,0:0:0:0:
256,192,98453,1,2,0:0:0:0:
256,192,98753,1,2,0:0:0:0:
256,192,99053,1,2,0:0:0:0:
256,192,99203,1,2,0:0:0:0:
256,192,99353,1,0,0:0:0:0:
256,192,99503,1,0,0:0:0:0:
256,192,99653,1,6,0:0:0:0:
256,192,99953,1,2,0:0:0:0:
256,192,100103,1,0,0:0:0:0:
256,192,100253,1,2,0:0:0:0:
256,192,100553,1,2,0:0:0:0:
256,192,100703,1,2,0:0:0:0:
256,192,100853,1,0,0:0:0:0:
256,192,101153,1,2,0:0:0:0:
256,192,101303,1,0,0:0:0:0:
256,192,101378,1,0,0:0:0:0:
256,192,101453,1,2,0:0:0:0:
256,192,101603,1,0,0:0:0:0:
256,192,101753,1,2,0:0:0:0:
256,192,102053,1,0,0:0:0:0:
256,192,102203,1,0,0:0:0:0:
256,192,102353,1,2,0:0:0:0:
256,192,102503,1,0,0:0:0:0:
256,192,102653,1,2,0:0:0:0:
256,192,102953,1,2,0:0:0:0:
256,192,103103,1,0,0:0:0:0:
256,192,103253,1,2,0:0:0:0:
256,192,103553,1,2,0:0:0:0:
256,192,103703,1,0,0:0:0:0:
256,192,103853,1,2,0:0:0:0:
256,192,104003,1,0,0:0:0:0:
256,192,104078,1,0,0:0:0:0:
256,192,104153,1,2,0:0:0:0:
256,192,104303,1,2,0:0:0:0:
256,192,104378,1,2,0:0:0:0:
256,192,104453,1,0,0:0:0:0:
256,192,104603,1,0,0:0:0:0:
256,192,104753,1,2,0:0:0:0:
256,192,104903,1,0,0:0:0:0:
256,192,105053,1,2,0:0:0:0:
256,192,105353,1,2,0:0:0:0:
256,192,105503,1,2,0:0:0:0:
256,192,105653,1,0,0:0:0:0:
256,192,105953,1,2,0:0:0:0:
256,192,106103,1,2,0:0:0:0:
256,192,106178,1,2,0:0:0:0:
256,192,106253,1,0,0:0:0:0:
256,192,106403,1,0,0:0:0:0:
256,192,106553,1,2,0:0:0:0:
256,192,106703,1,2,0:0:0:0:
256,192,106853,1,0,0:0:0:0:
256,192,107153,1,2,0:0:0:0:
256,192,107303,1,0,0:0:0:0:
256,192,107453,1,0,0:0:0:0:
256,192,107603,1,0,0:0:0:0:
256,192,107753,1,2,0:0:0:0:
256,192,108053,1,2,0:0:0:0:
256,192,108203,1,0,0:0:0:0:
256,192,108353,1,2,0:0:0:0:
256,192,108503,1,2,0:0:0:0:
256,192,108653,1,0,0:0:0:0:
256,192,108803,1,2,0:0:0:0:
256,192,108878,1,2,0:0:0:0:
256,192,108953,1,2,0:0:0:0:
256,192,109103,1,2,0:0:0:0:
256,192,109253,1,2,0:0:0:0:
256,192,109553,1,2,0:0:0:0:
256,192,109703,1,0,0:0:0:0:
256,192,109853,1,2,0:0:0:0:
256,192,110003,1,0,0:0:0:0:
256,192,110153,1,2,0:0:0:0:
256,192,110303,1,2,0:0:0:0:
256,192,110453,1,0,0:0:0:0:
256,192,110753,1,2,0:0:0:0:
256,192,110903,1,0,0:0:0:0:
256,192,111053,1,2,0:0:0:0:
256,192,111203,1,0,0:0:0:0:
256,192,111353,1,2,0:0:0:0:
256,192,111653,1,0,0:0:0:0:
256,192,111803,1,0,0:0:0:0:
256,192,111953,1,2,0:0:0:0:
256,192,112103,1,0,0:0:0:0:
256,192,112253,1,2,0:0:0:0:
256,192,112403,1,0,0:0:0:0:
256,192,112553,1,2,0:0:0:0:
256,192,112703,1,2,0:0:0:0:
256,192,112853,1,2,0:0:0:0:
256,192,113003,1,0,0:0:0:0:
256,192,113153,1,2,0:0:0:0:
256,192,113303,1,0,0:0:0:0:
256,192,113378,1,0,0:0:0:0:
256,192,113453,1,2,0:0:0:0:
256,192,113603,1,2,0:0:0:0:
256,192,113753,1,0,0:0:0:0:
256,192,113903,1,0,0:0:0:0:
256,192,114053,1,6,0:0:0:0:
256,192,114203,1,0,0:0:0:0:
256,192,114278,1,0,0:0:0:0:
256,192,114353,1,2,0:0:0:0:
256,192,114503,1,0,0:0:0:0:
256,192,114578,1,0,0:0:0:0:
256,192,114653,1,2,0:0:0:0:
256,192,114803,1,2,0:0:0:0:
256,192,114878,1,2,0:0:0:0:
256,192,114953,1,2,0:0:0:0:
256,192,115103,1,2,0:0:0:0:
256,192,115178,1,2,0:0:0:0:
256,192,115253,1,0,0:0:0:0:
256,192,115403,1,0,0:0:0:0:
256,192,115478,1,0,0:0:0:0:
256,192,115553,1,2,0:0:0:0:
256,192,115703,1,0,0:0:0:0:
256,192,115778,1,0,0:0:0:0:
256,192,115853,1,2,0:0:0:0:
256,192,116003,1,2,0:0:0:0:
256,192,116078,1,2,0:0:0:0:
256,192,116153,1,2,0:0:0:0:
256,192,116303,1,2,0:0:0:0:
256,192,116378,1,2,0:0:0:0:
256,192,116453,1,0,0:0:0:0:
256,192,116603,1,0,0:0:0:0:
256,192,116678,1,0,0:0:0:0:
256,192,116753,1,2,0:0:0:0:
256,192,116903,1,0,0:0:0:0:
256,192,116978,1,0,0:0:0:0:
256,192,117053,1,2,0:0:0:0:
256,192,117203,1,0,0:0:0:0:
256,192,117278,1,0,0:0:0:0:
256,192,117353,1,2,0:0:0:0:
256,192,117428,1,2,0:0:0:0:
256,192,117503,1,2,0:0:0:0:
256,192,117578,1,2,0:0:0:0:
256,192,117653,1,0,0:0:0:0:
256,192,117803,1,0,0:0:0:0:
256,192,117878,1,0,0:0:0:0:
256,192,117953,1,2,0:0:0:0:
256,192,118103,1,0,0:0:0:0:
256,192,118178,1,0,0:0:0:0:
256,192,118253,1,2,0:0:0:0:
256,192,118403,1,2,0:0:0:0:
256,192,118478,1,2,0:0:0:0:
256,192,118553,1,0,0:0:0:0:
256,192,118628,1,0,0:0:0:0:
256,192,118703,1,2,0:0:0:0:
256,192,118778,1,2,0:0:0:0:
256,192,118853,1,0,0:0:0:0:
256,192,119003,1,0,0:0:0:0:
256,192,119153,1,2,0:0:0:0:
256,192,119303,1,0,0:0:0:0:
256,192,119603,1,0,0:0:0:0:
256,192,119753,1,2,0:0:0:0:
256,192,119903,1,0,0:0:0:0:
256,192,120203,1,0,0:0:0:0:
256,192,120353,1,2,0:0:0:0:
256,192,120503,1,0,0:0:0:0:
256,192,120803,1,0,0:0:0:0:
256,192,120953,1,4,0:0:0:0:
256,192,121253,1,6,0:0:0:0:
256,192,121403,1,0,0:0:0:0:
256,192,121553,1,2,0:0:0:0:
256,192,121703,1,2,0:0:0:0:
256,192,121778,1,2,0:0:0:0:
256,192,121853,1,0,0:0:0:0:
256,192,122003,1,2,0:0:0:0:
256,192,122153,1,2,0:0:0:0:
256,192,122303,1,0,0:0:0:0:
256,192,122453,1,0,0:0:0:0:
256,192,122528,1,0,0:0:0:0:
256,192,122603,1,0,0:0:0:0:
256,192,122753,1,2,0:0:0:0:
256,192,122903,1,0,0:0:0:0:
256,192,123203,1,0,0:0:0:0:
256,192,123353,1,2,0:0:0:0:
256,192,123503,1,0,0:0:0:0:
256,192,123653,1,2,0:0:0:0:
256,192,123728,1,2,0:0:0:0:
256,192,123803,1,0,0:0:0:0:
256,192,123953,1,2,0:0:0:0:
256,192,124103,1,2,0:0:0:0:
256,192,124253,1,0,0:0:0:0:
256,192,124403,1,0,0:0:0:0:
256,192,124553,1,2,0:0:0:0:
256,192,124703,1,0,0:0:0:0:
256,192,124853,1,2,0:0:0:0:
256,192,125153,1,2,0:0:0:0:
256,192,125303,1,0,0:0:0:0:
256,192,125603,1,0,0:0:0:0:
256,192,125753,1,2,0:0:0:0:
256,192,125903,1,0,0:0:0:0:
256,192,126053,1,2,0:0:0:0:
256,192,126203,1,0,0:0:0:0:
256,192,126353,1,2,0:0:0:0:
256,192,126503,1,2,0:0:0:0:
256,192,126578,1,2,0:0:0:0:
256,192,126653,1,0,0:0:0:0:
256,192,126803,1,2,0:0:0:0:
256,192,126953,1,2,0:0:0:0:
256,192,127103,1,0,0:0:0:0:
256,192,127253,1,0,0:0:0:0:
256,192,127328,1,0,0:0:0:0:
256,192,127403,1,0,0:0:0:0:
256,192,127553,1,2,0:0:0:0:
256,192,127703,1,0,0:0:0:0:
256,192,128003,1,0,0:0:0:0:
256,192,128153,1,2,0:0:0:0:
256,192,128303,1,0,0:0:0:0:
256,192,128453,1,2,0:0:0:0:
256,192,128603,1,0,0:0:0:0:
256,192,128678,1,0,0:0:0:0:
256,192,128753,1,2,0:0:0:0:
256,192,128903,1,2,0:0:0:0:
256,192,129203,1,2,0:0:0:0:
256,192,129278,1,2,0:0:0:0:
256,192,129353,1,2,0:0:0:0:
256,192,129503,1,0,0:0:0:0:
256,192,129653,1,0,0:0:0:0:
256,192,129803,1,0,0:0:0:0:
256,192,129953,1,6,0:0:0:0:
256,192,130103,1,0,0:0:0:0:
256,192,130178,1,0,0:0:0:0:
256,192,130253,1,0,0:0:0:0:
256,192,130403,1,0,0:0:0:0:
256,192,130478,1,0,0:0:0:0:
256,192,130553,1,2,0:0:0:0:
256,192,130703,1,2,0:0:0:0:
256,192,130778,1,2,0:0:0:0:
256,192,130853,1,0,0:0:0:0:
256,192,131153,1,2,0:0:0:0:
256,192,131303,1,0,0:0:0:0:
256,192,131453,1,2,0:0:0:0:
256,192,131753,1,2,0:0:0:0:
256,192,131903,1,0,0:0:0:0:
256,192,132053,1,2,0:0:0:0:
256,192,132353,1,2,0:0:0:0:
256,192,132503,1,0,0:0:0:0:
256,192,132653,1,2,0:0:0:0:
256,192,132803,1,0,0:0:0:0:
256,192,132953,1,2,0:0:0:0:
256,192,133253,1,0,0:0:0:0:
256,192,133553,1,2,0:0:0:0:
256,192,133703,1,0,0:0:0:0:
256,192,133853,1,2,0:0:0:0:
256,192,134153,1,2,0:0:0:0:
256,192,134303,1,0,0:0:0:0:
256,192,134453,1,2,0:0:0:0:
256,192,134753,1,2,0:0:0:0:
256,192,134903,1,2,0:0:0:0:
256,192,135053,1,0,0:0:0:0:
256,192,135203,1,6,0:0:0:0:
256,192,135353,1,6,0:0:0:0:
256,192,135503,1,0,0:0:0:0:
256,192,135653,1,4,0:0:0:0:
256,192,135953,1,2,0:0:0:0:
256,192,136103,1,0,0:0:0:0:
256,192,136178,1,0,0:0:0:0:
256,192,136253,1,2,0:0:0:0:
256,192,136553,1,2,0:0:0:0:
256,192,136703,1,0,0:0:0:0:
256,192,136778,1,0,0:0:0:0:
256,192,136853,1,2,0:0:0:0:
256,192,137153,1,2,0:0:0:0:
256,192,137303,1,0,0:0:0:0:
256,192,137378,1,0,0:0:0:0:
256,192,137453,1,2,0:0:0:0:
256,192,137603,1,0,0:0:0:0:
256,192,137753,1,2,0:0:0:0:
256,192,137903,1,0,0:0:0:0:
256,192,138053,1,2,0:0:0:0:
256,192,138353,1,2,0:0:0:0:
256,192,138503,1,0,0:0:0:0:
256,192,138578,1,0,0:0:0:0:
256,192,138653,1,2,0:0:0:0:
256,192,138803,1,0,0:0:0:0:
256,192,138953,1,6,0:0:0:0:
256,192,139253,1,2,0:0:0:0:
256,192,139403,1,2,0:0:0:0:
256,192,139553,1,0,0:0:0:0:
256,192,139703,1,0,0:0:0:0:
256,192,139853,1,2,0:0:0:0:
256,192,140003,1,0,0:0:0:0:
256,192,140078,1,0,0:0:0:0:
256,192,140153,1,0,0:0:0:0:
256,192,140303,1,0,0:0:0:0:
256,192,140453,1,6,0:0:0:0:
256,192,140753,1,2,0:0:0:0:
256,192,140903,1,0,0:0:0:0:
256,192,141203,1,0,0:0:0:0:
256,192,141353,1,2,0:0:0:0:
256,192,141653,1,0,0:0:0:0:
256,192,141953,1,0,0:0:0:0:
256,192,142103,1,0,0:0:0:0:
256,192,142403,1,0,0:0:0:0:
256,192,142553,1,2,0:0:0:0:
256,192,142853,1,0,0:0:0:0:
256,192,143153,1,0,0:0:0:0:
256,192,143303,1,0,0:0:0:0:
256,192,143603,1,0,0:0:0:0:
256,192,143753,1,2,0:0:0:0:
256,192,144053,1,2,0:0:0:0:
256,192,144353,1,2,0:0:0:0:
256,192,144503,1,0,0:0:0:0:
256,192,144803,1,0,0:0:0:0:
256,192,144953,1,2,0:0:0:0:
256,192,145103,1,2,0:0:0:0:
256,192,145253,1,0,0:0:0:0:
256,192,145553,1,2,0:0:0:0:
256,192,145703,1,0,0:0:0:0:
256,192,146003,1,2,0:0:0:0:
256,192,146153,1,2,0:0:0:0:
256,192,146303,1,0,0:0:0:0:
256,192,146453,1,0,0:0:0:0:
256,192,146753,1,0,0:0:0:0:
256,192,146903,1,0,0:0:0:0:
256,192,147203,1,0,0:0:0:0:
256,192,147353,1,2,0:0:0:0:
256,192,147503,1,2,0:0:0:0:
256,192,147653,1,0,0:0:0:0:
256,192,147953,1,0,0:0:0:0:
256,192,148103,1,0,0:0:0:0:
256,192,148403,1,0,0:0:0:0:
256,192,148553,1,2,0:0:0:0:
256,192,148703,1,0,0:0:0:0:
256,192,148778,1,0,0:0:0:0:
256,192,148853,1,2,0:0:0:0:
256,192,149003,1,0,0:0:0:0:
256,192,149153,1,0,0:0:0:0:
256,192,149303,1,0,0:0:0:0:
256,192,149453,1,0,0:0:0:0:
256,192,149603,1,0,0:0:0:0:
256,192,149753,1,0,0:0:0:0:
256,192,149903,1,0,0:0:0:0:
256,192,150053,1,6,0:0:0:0:
256,192,150503,1,0,0:0:0:0:
256,192,150953,1,2,0:0:0:0:
256,192,151253,1,0,0:0:0:0:
256,192,151703,1,0,0:0:0:0:
256,192,152153,1,2,0:0:0:0:
256,192,152453,1,2,0:0:0:0:
256,192,152903,1,0,0:0:0:0:
256,192,153353,1,2,0:0:0:0:
256,192,153653,1,0,0:0:0:0:
256,192,153953,1,0,0:0:0:0:
256,192,154103,1,2,0:0:0:0:
256,192,154553,1,2,0:0:0:0:
256,192,154703,1,2,0:0:0:0:
256,192,154853,1,0,0:0:0:0:
256,192,155303,1,0,0:0:0:0:
256,192,155753,1,2,0:0:0:0:
256,192,156053,1,0,0:0:0:0:
256,192,156503,1,0,0:0:0:0:
256,192,156953,1,2,0:0:0:0:
256,192,157253,1,2,0:0:0:0:
256,192,157703,1,0,0:0:0:0:
256,192,158153,1,2,0:0:0:0:
256,192,158453,1,0,0:0:0:0:
256,192,158753,1,2,0:0:0:0:
256,192,158903,1,0,0:0:0:0:
256,192,159203,1,2,0:0:0:0:
256,192,159353,1,2,0:0:0:0:
256,192,159503,1,2,0:0:0:0:
256,192,159653,1,0,0:0:0:0:
256,192,159953,1,0,0:0:0:0:
256,192,160103,1,0,0:0:0:0:
256,192,160178,1,0,0:0:0:0:
256,192,160253,1,0,0:0:0:0:
256,192,160403,1,0,0:0:0:0:
256,192,160553,1,2,0:0:0:0:
256,192,160853,1,0,0:0:0:0:
256,192,161153,1,2,0:0:0:0:
256,192,161303,1,2,0:0:0:0:
256,192,161378,1,2,0:0:0:0:
256,192,161453,1,0,0:0:0:0:
256,192,161603,1,0,0:0:0:0:
256,192,161753,1,2,0:0:0:0:
256,192,162053,1,0,0:0:0:0:
256,192,162353,1,0,0:0:0:0:
256,192,162503,1,2,0:0:0:0:
256,192,162578,1,2,0:0:0:0:
256,192,162653,1,0,0:0:0:0:
256,192,162803,1,0,0:0:0:0:
256,192,162953,1,2,0:0:0:0:
256,192,163253,1,2,0:0:0:0:
256,192,163553,1,2,0:0:0:0:
256,192,163703,1,2,0:0:0:0:
256,192,163778,1,2,0:0:0:0:
256,192,163853,1,0,0:0:0:0:
256,192,164003,1,0,0:0:0:0:
256,192,164153,1,2,0:0:0:0:
256,192,164303,1,0,0:0:0:0:
256,192,164453,1,4,0:0:0:0:
256,192,164753,1,0,0:0:0:0:
256,192,164903,1,0,0:0:0:0:
256,192,164978,1,0,0:0:0:0:
256,192,165053,1,0,0:0:0:0:
256,192,165203,1,0,0:0:0:0:
256,192,165353,1,2,0:0:0:0:
256,192,165653,1,0,0:0:0:0:
256,192,165953,1,2,0:0:0:0:
256,192,166103,1,2,0:0:0:0:
256,192,166178,1,2,0:0:0:0:
256,192,166253,1,0,0:0:0:0:
256,192,166403,1,0,0:0:0:0:
256,192,166553,1,2,0:0:0:0:
256,192,166703,1,2,0:0:0:0:
256,192,166853,1,4,0:0:0:0:
256,192,167153,1,0,0:0:0:0:
256,192,167453,1,2,0:0:0:0:
256,192,167753,1,0,0:0:0:0:
256,192,167903,1,2,0:0:0:0:
256,192,168053,1,0,0:0:0:0:
256,192,168353,1,0,0:0:0:0:
256,192,168503,1,0,0:0:0:0:
256,192,168803,1,0,0:0:0:0:
256,192,168953,1,2,0:0:0:0:
256,192,169103,1,2,0:0:0:0:
256,192,169178,1,2,0:0:0:0:
256,192,169253,12,0,170453,0:0:0:0:
256,192,171203,5,0,0:0:0:0:
256,192,171353,1,2,0:0:0:0:
256,192,171503,1,0,0:0:0:0:
256,192,171653,1,6,0:0:0:0:
256,192,171803,1,0,0:0:0:0:
256,192,171953,1,2,0:0:0:0:
256,192,172103,1,2,0:0:0:0:
256,192,172178,1,2,0:0:0:0:
256,192,172253,1,0,0:0:0:0:
256,192,172403,1,2,0:0:0:0:
256,192,172553,1,2,0:0:0:0:
256,192,172703,1,0,0:0:0:0:
256,192,173003,1,0,0:0:0:0:
256,192,173153,1,2,0:0:0:0:
256,192,173303,1,0,0:0:0:0:
256,192,173453,1,2,0:0:0:0:
256,192,173603,1,0,0:0:0:0:
256,192,173678,1,0,0:0:0:0:
256,192,173753,1,2,0:0:0:0:
256,192,173903,1,2,0:0:0:0:
256,192,174053,1,0,0:0:0:0:
256,192,174203,1,0,0:0:0:0:
256,192,174278,1,0,0:0:0:0:
256,192,174353,1,2,0:0:0:0:
256,192,174503,1,2,0:0:0:0:
256,192,174653,1,0,0:0:0:0:
256,192,174803,1,0,0:0:0:0:
256,192,174878,1,0,0:0:0:0:
256,192,174953,1,2,0:0:0:0:
256,192,175103,1,2,0:0:0:0:
256,192,175253,1,0,0:0:0:0:
256,192,175403,1,2,0:0:0:0:
256,192,175478,1,0,0:0:0:0:
256,192,175553,1,2,0:0:0:0:
256,192,175703,1,0,0:0:0:0:
256,192,175853,1,2,0:0:0:0:
256,192,176003,1,2,0:0:0:0:
256,192,176078,1,2,0:0:0:0:
256,192,176153,1,2,0:0:0:0:
256,192,176303,1,2,0:0:0:0:
256,192,176453,1,0,0:0:0:0:
256,192,176753,1,2,0:0:0:0:
256,192,176903,1,2,0:0:0:0:
256,192,176978,1,2,0:0:0:0:
256,192,177053,1,0,0:0:0:0:
256,192,177203,1,2,0:0:0:0:
256,192,177353,1,2,0:0:0:0:
256,192,177503,1,0,0:0:0:0:
256,192,177803,1,0,0:0:0:0:
256,192,177953,1,2,0:0:0:0:
256,192,178103,1,0,0:0:0:0:
256,192,178178,1,0,0:0:0:0:
256,192,178253,1,2,0:0:0:0:
256,192,178403,1,2,0:0:0:0:
256,192,178478,1,2,0:0:0:0:
256,192,178553,1,2,0:0:0:0:
256,192,178703,1,0,0:0:0:0:
256,192,178853,1,2,0:0:0:0:
256,192,179003,1,0,0:0:0:0:
256,192,179078,1,0,0:0:0:0:
256,192,179153,1,2,0:0:0:0:
256,192,179303,1,2,0:0:0:0:
256,192,179603,1,2,0:0:0:0:
256,192,179753,1,6,0:0:0:0:
256,192,179903,1,0,0:0:0:0:
256,192,179978,1,0,0:0:0:0:
256,192,180053,1,2,0:0:0:0:
256,192,180203,1,0,0:0:0:0:
256,192,180278,1,0,0:0:0:0:
256,192,180353,1,2,0:0:0:0:
256,192,180503,1,0,0:0:0:0:
256,192,180578,1,0,0:0:0:0:
256,192,180653,1,2,0:0:0:0:
256,192,180803,1,2,0:0:0:0:
256,192,180953,1,0,0:0:0:0:
256,192,181103,1,0,0:0:0:0:
256,192,181253,1,2,0:0:0:0:
256,192,181403,1,0,0:0:0:0:
256,192,181478,1,0,0:0:0:0:
256,192,181553,1,2,0:0:0:0:
256,192,181853,1,2,0:0:0:0:
256,192,182003,1,0,0:0:0:0:
256,192,182078,1,0,0:0:0:0:
256,192,182153,1,2,0:0:0:0:
256,192,182453,1,2,0:0:0:0:
256,192,182603,1,0,0:0:0:0:
256,192,182678,1,0,0:0:0:0:
256,192,182753,1,2,0:0:0:0:
256,192,182903,1,0,0:0:0:0:
256,192,183053,1,2,0:0:0:0:
256,192,183203,1,0,0:0:0:0:
256,192,183353,1,2,0:0:0:0:
256,192,183653,1,2,0:0:0:0:
256,192,183803,1,0,0:0:0:0:
256,192,183878,1,0,0:0:0:0:
256,192,183953,1,2,0:0:0:0:
256,192,184253,1,2,0:0:0:0:
256,192,184403,1,0,0:0:0:0:
256,192,184478,1,0,0:0:0:0:
256,192,184553,1,2,0:0:0:0:
256,192,184853,1,2,0:0:0:0:
256,192,185003,1,0,0:0:0:0:
256,192,185078,1,0,0:0:0:0:
256,192,185153,1,2,0:0:0:0:
256,192,185303,1,4,0:0:0:0:
256,192,185603,1,6,0:0:0:0:
256,192,185753,1,6,0:0:0:0:
256,192,185903,1,0,0:0:0:0:
256,192,186053,1,4,0:0:0:0:
256,192,186353,1,2,0:0:0:0:
256,192,186503,1,0,0:0:0:0:
256,192,186578,1,0,0:0:0:0:
256,192,186653,1,2,0:0:0:0:
256,192,186953,1,2,0:0:0:0:
256,192,187103,1,0,0:0:0:0:
256,192,187178,1,0,0:0:0:0:
256,192,187253,1,2,0:0:0:0:
256,192,187553,1,2,0:0:0:0:
256,192,187703,1,0,0:0:0:0:
256,192,187778,1,0,0:0:0:0:
256,192,187853,1,2,0:0:0:0:
256,192,188003,1,0,0:0:0:0:
256,192,188078,1,0,0:0:0:0:
256,192,188153,1,2,0:0:0:0:
256,192,188303,1,0,0:0:0:0:
256,192,188453,1,2,0:0:0:0:
256,192,188603,1,2,0:0:0:0:
256,192,188753,1,2,0:0:0:0:
256,192,188903,1,0,0:0:0:0:
256,192,189053,1,2,0:0:0:0:
256,192,189203,1,2,0:0:0:0:
256,192,189278,1,2,0:0:0:0:
256,192,189353,1,2,0:0:0:0:
256,192,189503,1,2,0:0:0:0:
256,192,189653,1,0,0:0:0:0:
256,192,189803,1,2,0:0:0:0:
256,192,189953,1,0,0:0:0:0:
256,192,190103,1,0,0:0:0:0:
256,192,190178,1,0,0:0:0:0:
256,192,190253,1,2,0:0:0:0:
256,192,190403,1,2,0:0:0:0:
256,192,190553,1,2,0:0:0:0:
256,192,190703,1,0,0:0:0:0:
256,192,190853,1,4,0:0:0:0:
256,192,191153,1,2,0:0:0:0:
256,192,191303,1,0,0:0:0:0:
256,192,191453,1,0,0:0:0:0:
256,192,191753,1,2,0:0:0:0:
256,192,191903,1,0,0:0:0:0:
256,192,192053,1,0,0:0:0:0:
256,192,192203,1,2,0:0:0:0:
256,192,192353,1,2,0:0:0:0:
256,192,192503,1,0,0:0:0:0:
256,192,192653,1,2,0:0:0:0:
256,192,192803,1,2,0:0:0:0:
256,192,192953,1,0,0:0:0:0:
256,192,193103,1,2,0:0:0:0:
256,192,193253,1,0,0:0:0:0:
256,192,193403,1,0,0:0:0:0:
256,192,193553,1,2,0:0:0:0:
256,192,193703,1,0,0:0:0:0:
256,192,193778,1,0,0:0:0:0:
256,192,193853,1,0,0:0:0:0:
256,192,194003,1,2,0:0:0:0:
256,192,194153,1,6,0:0:0:0:
256,192,194303,1,0,0:0:0:0:
256,192,194453,1,2,0:0:0:0:
