osu file format v14

[General]
AudioFilename: audio.mp3
AudioLeadIn: 0
PreviewTime: 50422
Countdown: 0
SampleSet: Soft
StackLeniency: 0.3
Mode: 0
LetterboxInBreaks: 0
WidescreenStoryboard: 0

[Editor]
DistanceSpacing: 0.4
BeatDivisor: 4
GridSize: 16
TimelineZoom: 1.9

[Metadata]
Title:Mahi (TV Size)
TitleUnicode:麻痺 (TV Size)
Artist:yama
ArtistUnicode:yama
Creator:Smoke
Version:Ace
Source:2.43 清陰高校男子バレー部
Tags:opening op paralysis anime japanese rock jrock j-rock seiin high school boys volleyball team tomatas95
BeatmapID:2824260
BeatmapSetID:1365314

[Difficulty]
HPDrainRate:6
CircleSize:4
OverallDifficulty:8.8
ApproachRate:9.3
SliderMultiplier:1.8
SliderTickRate:1

[Events]
//Background and Video events
0,0,"2.43.jpg",0,0
Video,54,"vid.mp4"
//Break Periods
//Storyboard Layer 0 (Background)
//Storyboard Layer 1 (Fail)
//Storyboard Layer 2 (Pass)
//Storyboard Layer 3 (Foreground)
//Storyboard Layer 4 (Overlay)
//Storyboard Sound Samples

[TimingPoints]
622,300,4,2,1,55,1,0
622,-200,4,2,1,40,0,0
3247,-200,4,2,1,5,0,0
3322,-200,4,2,1,40,0,0
3547,-200,4,2,1,5,0,0
3622,-200,4,2,1,40,0,0
3847,-200,4,2,1,5,0,0
3922,-200,4,2,1,40,0,0
4147,-200,4,2,1,5,0,0
4222,-200,4,2,1,40,0,0
9022,-200,4,2,1,65,0,0
9247,-200,4,2,1,5,0,0
9322,-200,4,2,1,65,0,0
10222,-83.3333333333333,4,2,1,75,0,0
10447,-83.3333333333333,4,2,1,5,0,0
10522,-83.3333333333333,4,2,1,75,0,0
10672,-71.4285714285714,4,2,1,75,0,0
11122,-83.3333333333333,4,2,1,75,0,0
11722,-71.4285714285714,4,2,1,75,0,0
11797,-71.4285714285714,4,2,1,5,0,0
11872,-71.4285714285714,4,2,1,75,0,0
12022,-83.3333333333333,4,2,1,75,0,0
12097,-83.3333333333333,4,2,1,5,0,0
12172,-83.3333333333333,4,2,1,75,0,0
12622,-125,4,2,1,75,0,0
12922,-76.9230769230769,4,2,1,75,0,0
12997,-83.3333333333333,4,2,1,5,0,0
13072,-83.3333333333333,4,2,1,75,0,0
13222,-83.3333333333333,4,2,1,75,0,0
13297,-83.3333333333333,4,2,1,5,0,0
13372,-83.3333333333333,4,2,1,75,0,0
13672,-71.4285714285714,4,2,1,75,0,0
13747,-83.3333333333333,4,2,1,5,0,0
13822,-83.3333333333333,4,2,1,75,0,0
13972,-83.3333333333333,4,2,1,75,0,0
14047,-83.3333333333333,4,2,1,5,0,0
14122,-83.3333333333333,4,2,1,75,0,0
14272,-76.9230769230769,4,2,1,75,0,0
14722,-66.6666666666667,4,2,1,75,0,0
15022,-83.3333333333333,4,2,1,75,0,0
15247,-83.3333333333333,4,2,1,5,0,0
15322,-83.3333333333333,4,2,1,75,0,0
15472,-71.4285714285714,4,2,1,75,0,0
15922,-83.3333333333333,4,2,1,75,0,0
16522,-71.4285714285714,4,2,1,75,0,0
16597,-83.3333333333333,4,2,1,5,0,0
16672,-83.3333333333333,4,2,1,75,0,0
16822,-83.3333333333333,4,2,1,75,0,0
16897,-83.3333333333333,4,2,1,5,0,0
16972,-83.3333333333333,4,2,1,75,0,0
17422,-125,4,2,1,75,0,0
17722,-76.9230769230769,4,2,1,75,0,0
17797,-83.3333333333333,4,2,1,5,0,0
17872,-83.3333333333333,4,2,1,75,0,0
18022,-83.3333333333333,4,2,1,75,0,0
18097,-83.3333333333333,4,2,1,5,0,0
18172,-83.3333333333333,4,2,1,75,0,0
18472,-71.4285714285714,4,2,1,75,0,0
18547,-83.3333333333333,4,2,1,5,0,0
18622,-83.3333333333333,4,2,1,75,0,0
18772,-83.3333333333333,4,2,1,75,0,0
18847,-83.3333333333333,4,2,1,5,0,0
18922,-83.3333333333333,4,2,1,75,0,0
19072,-76.9230769230769,4,2,1,75,0,0
19522,-66.6666666666667,4,2,1,75,0,0
19822,-142.857142857143,4,2,1,55,0,0
28222,-142.857142857143,4,2,1,60,0,0
28822,-83.3333333333333,4,2,1,60,0,0
28897,-83.3333333333333,4,2,1,5,0,0
28972,-83.3333333333333,4,2,1,60,0,0
29047,-83.3333333333333,4,2,1,5,0,0
29122,-90.9090909090909,4,2,1,60,0,0
29197,-90.9090909090909,4,2,1,5,0,0
29272,-90.9090909090909,4,2,1,60,0,0
29347,-90.9090909090909,4,2,1,5,0,0
29422,-111.111111111111,4,2,1,65,0,0
37822,-111.111111111111,4,2,1,60,0,0
37897,-111.111111111111,4,2,1,5,0,0
37972,-99.9999999999999,4,2,1,62,0,0
38047,-99.9999999999999,4,2,1,5,0,0
38122,-90.9090909090908,4,2,1,65,0,0
38197,-90.9090909090908,4,2,1,5,0,0
38272,-83.3333333333333,4,2,1,72,0,0
39022,-71.4285714285714,4,2,1,75,0,0
39322,-71.4285714285714,4,2,1,65,0,0
39472,-111.111111111111,4,2,1,65,0,0
43822,-99.9999999999999,4,2,1,65,0,0
45022,-95.2380952380952,4,2,1,70,0,0
46222,-90.9090909090909,4,2,1,75,0,0
47422,-83.3333333333333,4,2,1,80,0,0
48622,-166.666666666667,4,2,1,55,0,0
50497,-166.666666666667,4,2,1,5,0,0
50572,-166.666666666667,4,2,1,65,0,0
51022,-76.9230769230769,4,2,1,80,0,0
51247,-76.9230769230769,4,2,1,5,0,0
51322,-76.9230769230769,4,2,1,80,0,0
53647,-76.9230769230769,4,2,1,5,0,0
53722,-76.9230769230769,4,2,1,80,0,0
53947,-76.9230769230769,4,2,1,5,0,0
54022,-76.9230769230769,4,2,1,80,0,0
54247,-76.9230769230769,4,2,1,5,0,0
54322,-76.9230769230769,4,2,1,80,0,0
54547,-76.9230769230769,4,2,1,5,0,0
54622,-76.9230769230769,4,2,1,80,0,0
54697,-76.9230769230769,4,2,1,5,0,0
54772,-76.9230769230769,4,2,1,80,0,0
54847,-76.9230769230769,4,2,1,5,0,0
54922,-76.9230769230769,4,2,1,80,0,0
55222,-71.4285714285714,4,2,1,80,0,0
55297,-71.4285714285714,4,2,1,5,0,0
55372,-71.4285714285714,4,2,1,80,0,0
55447,-71.4285714285714,4,2,1,5,0,0
55522,-71.4285714285714,4,2,1,80,0,0
55822,-76.9230769230769,4,2,1,80,0,0
56047,-76.9230769230769,4,2,1,5,0,0
56122,-76.9230769230769,4,2,1,80,0,0
60097,-76.9230769230769,4,2,1,5,0,0
60172,-76.9230769230769,4,2,1,80,0,0
63247,-76.9230769230769,4,2,1,5,0,0
63322,-76.9230769230769,4,2,1,80,0,0
64147,-76.9230769230769,4,2,1,5,0,0
64222,-76.9230769230769,4,2,1,80,0,0
64297,-76.9230769230769,4,2,1,5,0,0
64372,-76.9230769230769,4,2,1,80,0,0
64447,-76.9230769230769,4,2,1,5,0,0
64522,-76.9230769230769,4,2,1,80,0,0
64822,-71.4285714285714,4,2,1,80,0,0
64897,-71.4285714285714,4,2,1,5,0,0
64972,-71.4285714285714,4,2,1,80,0,0
65047,-71.4285714285714,4,2,1,5,0,0
65122,-71.4285714285714,4,2,1,80,0,0
65422,-76.9230769230769,4,2,1,80,0,0
65647,-76.9230769230769,4,2,1,5,0,0
65722,-76.9230769230769,4,2,1,80,0,0
70222,-76.9230769230769,4,2,1,85,0,0
71047,-76.9230769230769,4,2,1,5,0,0
71122,-76.9230769230769,4,2,1,85,0,0
73447,-76.9230769230769,4,2,1,5,0,0
73522,-76.9230769230769,4,2,1,85,0,0
75247,-76.9230769230769,4,2,1,5,0,0
75322,-76.9230769230769,4,2,1,85,0,0
75847,-76.9230769230769,4,2,1,5,0,0
75922,-76.9230769230769,4,2,1,85,0,0
77347,-76.9230769230769,4,2,1,5,0,0
77422,-76.9230769230769,4,2,1,85,0,0
78247,-76.9230769230769,4,2,1,5,0,0
78322,-76.9230769230769,4,2,1,85,0,0
79822,-83.3333333333333,4,2,1,75,0,0
80047,-83.3333333333333,4,2,1,5,0,0
80122,-83.3333333333333,4,2,1,75,0,0
80272,-71.4285714285714,4,2,1,75,0,0
80722,-83.3333333333333,4,2,1,75,0,0
81322,-71.4285714285714,4,2,1,75,0,0
81397,-71.4285714285714,4,2,1,5,0,0
81472,-71.4285714285714,4,2,1,75,0,0
81622,-83.3333333333333,4,2,1,75,0,0
81697,-83.3333333333333,4,2,1,5,0,0
81772,-83.3333333333333,4,2,1,75,0,0
82222,-125,4,2,1,75,0,0
82522,-76.9230769230769,4,2,1,75,0,0
82597,-83.3333333333333,4,2,1,5,0,0
82672,-83.3333333333333,4,2,1,75,0,0
82822,-83.3333333333333,4,2,1,75,0,0
82897,-83.3333333333333,4,2,1,5,0,0
82972,-83.3333333333333,4,2,1,75,0,0
83272,-71.4285714285714,4,2,1,75,0,0
83347,-83.3333333333333,4,2,1,5,0,0
83422,-83.3333333333333,4,2,1,75,0,0
83572,-83.3333333333333,4,2,1,75,0,0
83647,-83.3333333333333,4,2,1,5,0,0
83722,-83.3333333333333,4,2,1,75,0,0
83872,-76.9230769230769,4,2,1,75,0,0
84322,-66.6666666666667,4,2,1,75,0,0
84622,-83.3333333333333,4,2,1,75,0,0
84847,-83.3333333333333,4,2,1,5,0,0
84922,-83.3333333333333,4,2,1,75,0,0
85072,-71.4285714285714,4,2,1,75,0,0
85522,-83.3333333333333,4,2,1,75,0,0
86122,-71.4285714285714,4,2,1,75,0,0
86197,-83.3333333333333,4,2,1,5,0,0
86272,-83.3333333333333,4,2,1,75,0,0
86422,-83.3333333333333,4,2,1,75,0,0
86497,-83.3333333333333,4,2,1,5,0,0
86572,-83.3333333333333,4,2,1,75,0,0
87022,-83.3333333333333,4,2,1,75,0,0
87622,-71.4285714285714,4,2,1,75,0,0
88222,-71.4285714285714,4,2,1,75,0,0
88972,-71.4285714285714,4,2,1,5,0,0

[Colours]
Combo1 : 29,177,226
Combo2 : 242,158,74
Combo3 : 244,108,17
Combo4 : 41,215,224

[HitObjects]
59,316,172,5,0,0:0:0:0:
61,324,322,1,0,0:0:0:0:
63,332,472,1,0,0:0:0:0:
169,291,622,6,0,P|214:284|257:315,1,90,2|2,0:0|0:0,0:0:0:0:
408,216,1072,1,2,0:0:0:0:
329,261,1372,1,2,0:0:0:0:
497,379,1672,1,2,0:0:0:0:
497,379,1822,2,0,L|512:282,1,90,2|2,0:0|0:0,0:0:0:0:
408,216,2272,2,0,L|393:119,1,90,2|0,0:0|0:0,0:0:0:0:
489,59,2722,1,2,0:0:0:0:
394,127,2872,1,2,0:0:0:0:
273,52,3022,6,0,P|240:40|190:47,1,67.5,2|0,0:0|0:0,0:0:0:0:
154,121,3322,2,0,P|131:94|84:75,1,67.5,2|0,0:0|0:0,0:0:0:0:
11,182,3622,2,0,P|44:170|94:177,1,67.5,2|0,0:0|0:0,0:0:0:0:
130,251,3922,2,0,P|152:224|199:205,1,67.5,2|0,0:0|0:0,0:0:0:0:
280,350,4222,2,0,P|279:305|203:298,1,135,2|0,0:0|0:0,0:0:0:0:
203,298,4972,1,2,0:0:0:0:
201,306,5122,1,2,0:0:0:0:
200,314,5272,1,2,0:0:0:0:
300,262,5422,6,0,L|286:171,1,90,2|2,0:0|0:0,0:0:0:0:
136,79,5872,1,2,0:0:0:0:
210,125,6172,1,2,0:0:0:0:
351,41,6472,2,0,P|396:37|444:69,1,90,2|2,0:0|0:0,0:0:0:0:
492,120,6922,1,2,0:0:0:0:
398,234,7072,6,0,L|384:322,1,90,2|0,0:0|0:0,0:0:0:0:
452,384,7522,1,2,0:0:0:0:
452,384,7672,1,2,0:0:0:0:
299,310,7822,2,0,P|247:303|210:330,1,90,2|2,0:0|0:0,0:0:0:0:
71,220,8272,1,2,0:0:0:0:
144,271,8572,1,2,0:0:0:0:
368,179,8872,1,2,0:0:0:0:
299,310,9022,6,0,L|285:233,1,67.5,8|0,3:3|0:0,0:0:0:0:
286,243,9322,1,8,3:2:0:0:
512,365,9472,1,4,3:2:0:0:
489,89,9772,1,8,0:0:0:0:
368,179,9922,1,8,0:0:0:0:
229,114,10072,1,8,0:0:0:0:
22,212,10222,6,0,B|-5:201|-13:178|-13:178|18:116|83:139,1,161.999995056153,6|0,3:2|0:0,0:0:0:0:
166,182,10522,1,10,0:0:0:0:
358,35,10672,2,0,B|306:-3|227:38|265:74|187:114|120:53,1,251.999992309571,2|0,3:2|3:2,0:0:0:0:
317,256,11122,1,10,0:0:0:0:
197,365,11272,2,0,P|192:318|227:262,1,107.999996704102,2|0,0:0|3:2,0:0:0:0:
427,122,11572,1,2,0:0:0:0:
350,30,11722,6,0,P|335:58|334:96,1,62.9999980773926,10|0,0:0|0:0,0:0:0:0:
415,223,11872,1,0,3:2:0:0:
140,154,12022,6,0,P|154:182|154:212,1,53.9999983520508,2|0,0:0|0:0,0:0:0:0:
80,263,12172,1,0,3:2:0:0:
336,372,12322,5,10,0:0:0:0:
333,360,12397,1,0,3:2:0:0:
331,349,12472,1,2,3:2:0:0:
329,338,12547,1,0,3:2:0:0:
327,327,12622,6,0,L|313:239,1,72,2|0,3:2|0:0,0:0:0:0:
500,113,12922,6,0,P|474:127|446:126,1,58.4999973220826,10|0,0:0|0:0,0:0:0:0:
365,69,13072,1,0,3:2:0:0:
146,185,13222,6,0,P|171:199|204:199,1,53.9999983520508,2|0,0:0|0:0,0:0:0:0:
262,144,13372,2,0,L|242:20,1,107.999996704102,0|8,3:2|0:0,0:0:0:0:
9,143,13672,6,0,P|34:128|73:130,1,62.9999980773926,2|0,0:0|0:0,0:0:0:0:
146,185,13822,1,0,3:2:0:0:
384,108,13972,6,0,P|358:93|321:94,1,53.9999983520508,2|0,0:0|0:0,0:0:0:0:
262,144,14122,1,8,0:0:0:0:
459,323,14272,6,0,B|490:324|506:281|506:281|460:224|382:234|353:311,1,233.999989288331,2|0,3:2|3:2,0:0:0:0:
250,384,14722,2,0,P|248:349|220:319,1,67.5000025749208,10|0,0:0|0:0,0:0:0:0:
74,270,14872,1,8,0:0:0:0:
61,273,14947,1,8,0:0:0:0:
48,277,15022,6,0,P|25:211|101:192,1,161.999995056153,6|0,3:2|0:0,0:0:0:0:
169,244,15322,1,10,0:0:0:0:
99,30,15472,2,0,P|166:100|320:70,1,251.999992309571,2|0,3:2|3:2,0:0:0:0:
169,244,15922,1,10,0:0:0:0:
273,361,16072,2,0,L|292:249,1,107.999996704102,2|0,0:0|3:2,0:0:0:0:
510,124,16372,1,2,0:0:0:0:
414,23,16522,6,0,P|399:56|404:90,1,62.9999980773926,10|0,0:0|0:0,0:0:0:0:
432,169,16672,1,0,3:2:0:0:
305,304,16822,6,0,P|290:271|295:239,1,53.9999983520508,2|0,0:0|0:0,0:0:0:0:
322,174,16972,1,0,3:2:0:0:
512,341,17122,5,10,0:0:0:0:
500,338,17197,1,0,3:2:0:0:
489,336,17272,1,2,3:2:0:0:
478,334,17347,1,0,3:2:0:0:
467,332,17422,6,0,L|379:318,1,72,2|0,3:2|0:0,0:0:0:0:
122,370,17722,6,0,P|116:334|129:305,1,58.4999973220826,10|0,0:0|0:0,0:0:0:0:
180,240,17872,1,0,3:2:0:0:
2,64,18022,6,0,P|-3:99|6:126,1,53.9999983520508,2|0,0:0|0:0,0:0:0:0:
55,187,18172,2,0,P|88:147|73:73,1,107.999996704102,0|8,3:2|0:0,0:0:0:0:
347,15,18472,6,0,P|313:15|277:43,1,62.9999980773926,2|0,0:0|0:0,0:0:0:0:
218,77,18622,1,0,3:2:0:0:
55,187,18772,6,0,P|89:187|125:215,1,53.9999983520508,2|0,3:2|0:0,0:0:0:0:
180,240,18922,1,8,0:0:0:0:
348,362,19072,6,0,B|386:355|406:308|372:251|295:250|241:327,1,233.999989288331,2|0,3:2|3:2,0:0:0:0:
187,384,19447,1,0,3:2:0:0:
187,384,19522,1,10,0:0:0:0:
348,253,19672,1,8,0:0:0:0:
270,151,19822,6,0,L|284:25,1,125.999996154785,6|8,3:2|0:0,0:0:0:0:
379,10,20272,2,0,L|365:136,1,125.999996154785,2|0,3:2|0:0,0:0:0:0:
439,196,20647,1,2,3:2:0:0:
439,196,20722,2,0,P|371:184|330:236,1,125.999996154785,10|0,0:0|0:0,0:0:0:0:
425,368,21322,1,10,0:0:0:0:
425,368,21622,1,2,0:0:0:0:
321,384,21772,2,0,L|332:322,1,62.9999980773926,2|10,3:2|0:0,0:0:0:0:
255,254,22072,1,2,0:0:0:0:
143,295,22222,6,0,L|157:372,1,62.9999980773926,2|0,3:2|0:0,0:0:0:0:
60,237,22522,1,10,0:0:0:0:
183,169,22672,2,0,L|194:107,1,62.9999980773926,2|0,3:2|0:0,0:0:0:0:
74,5,22972,1,2,0:0:0:0:
0,55,23122,2,0,P|62:46|110:108,1,125.999996154785,10|0,0:0|0:0,0:0:0:0:
16,311,23647,1,2,3:2:0:0:
16,311,23722,2,0,B|86:318|65:351|134:363,1,125.999996154785,10|0,0:0|0:0,0:0:0:0:
206,331,24172,1,0,3:2:0:0:
343,276,24322,2,0,P|376:280|411:304,1,62.9999980773926,8|0,0:0|0:0,0:0:0:0:
229,192,24622,6,0,P|213:129|260:67,1,125.999996154785,6|8,3:2|0:0,0:0:0:0:
316,31,25072,2,0,P|332:94|285:156,1,125.999996154785,2|0,3:2|0:0,0:0:0:0:
241,78,25447,1,2,3:2:0:0:
241,78,25522,2,0,B|200:86|200:86|178:115|178:115|131:126,1,125.999996154785,10|0,0:0|3:2,0:0:0:0:
15,266,26122,1,10,0:0:0:0:
15,266,26422,1,2,0:0:0:0:
94,341,26572,2,0,P|95:309|109:281,1,62.9999980773926,2|8,3:2|0:0,0:0:0:0:
221,384,26872,1,2,0:0:0:0:
292,333,27022,6,0,P|290:301|276:273,1,62.9999980773926,2|0,3:2|0:0,0:0:0:0:
448,329,27322,1,10,0:0:0:0:
377,278,27472,2,0,P|378:246|392:218,1,62.9999980773926,2|0,3:2|0:0,0:0:0:0:
504,109,27772,1,2,3:2:0:0:
402,52,27922,2,0,P|337:42|282:85,1,125.999996154785,10|0,0:0|3:2,0:0:0:0:
289,73,28372,1,0,3:2:0:0:
136,15,28522,1,8,0:0:0:0:
136,15,28672,1,4,3:2:0:0:
35,268,28822,6,0,P|49:247|55:209,1,53.9999983520508,2|0,0:0|0:0,0:0:0:0:
135,136,28972,2,0,P|140:162|155:184,1,53.9999983520508,8|0,3:3|0:0,0:0:0:0:
227,263,29122,2,0,P|232:236|246:214,1,49.5000015106202,10|0,3:2|0:0,0:0:0:0:
333,171,29272,2,0,P|338:197|354:218,1,49.5000015106202,2|0,3:2|0:0,0:0:0:0:
455,235,29422,6,0,P|397:240|356:335,1,161.999995056153,6|10,3:2|0:0,0:0:0:0:
414,384,29872,1,0,3:2:0:0:
414,384,30172,1,0,3:2:0:0:
227,263,30322,2,0,P|193:283|138:281,1,80.9999975280763,10|0,0:0|0:0,0:0:0:0:
80,229,30622,5,2,3:2:0:0:
244,107,30922,1,10,0:0:0:0:
244,107,31072,2,0,B|331:112|301:148|397:157,1,161.999995056153,0|0,3:2|0:0,0:0:0:0:
512,32,31522,2,0,P|482:64|475:121,1,80.9999975280763,10|0,0:0|0:0,0:0:0:0:
288,8,31822,6,0,L|126:29,1,161.999995056153,0|10,3:2|0:0,0:0:0:0:
74,97,32272,1,0,3:2:0:0:
74,97,32572,1,0,3:2:0:0:
184,228,32722,2,0,P|187:188|154:144,1,80.9999975280763,10|0,0:0|0:0,0:0:0:0:
363,91,33022,5,2,3:2:0:0:
363,91,33172,2,0,L|345:188,1,80.9999975280763,2|10,0:0|0:0,0:0:0:0:
496,307,33472,2,0,L|481:227,1,80.9999975280763,2|2,3:2|0:0,0:0:0:0:
279,364,33772,2,0,B|189:357|228:311|123:305,1,161.999995056153,2|2,0:0|0:0,0:0:0:0:
46,354,34222,6,0,P|97:296|72:208,1,161.999995056153,0|10,3:2|0:0,0:0:0:0:
15,150,34672,1,0,3:2:0:0:
15,150,34972,1,0,3:2:0:0:
179,28,35122,2,0,P|150:69|148:122,1,80.9999975280763,10|0,0:0|0:0,0:0:0:0:
325,163,35422,6,0,P|316:96|239:115,1,161.999995056153,2|10,3:2|0:0,0:0:0:0:
192,191,35872,1,2,3:2:0:0:
192,191,36022,1,2,0:0:0:0:
393,303,36322,1,10,0:0:0:0:
299,339,36472,1,2,3:2:0:0:
300,331,36547,1,0,3:2:0:0:
301,323,36622,6,0,L|325:158,1,161.999995056153,2|8,3:2|0:0,0:0:0:0:
397,103,37072,1,2,3:2:0:0:
247,8,37222,2,0,B|162:-2|181:50|72:37,1,161.999995056153,2|10,0:0|0:0,0:0:0:0:
90,38,37822,6,0,P|76:54|72:91,1,40.4999987640381,2|0,3:2|0:0,0:0:0:0:
10,139,37972,2,0,P|16:159|47:183,1,45,2|0,3:2|0:0,0:0:0:0:
66,277,38122,2,0,P|86:281|125:266,1,49.5000015106202,10|0,0:0|0:0,0:0:0:0:
224,317,38272,2,0,P|238:301|236:218,1,107.999996704102,2|0,3:2|0:0,0:0:0:0:
353,33,38572,1,10,0:0:0:0:
268,70,38722,1,8,0:0:0:0:
440,246,38872,1,10,0:0:0:0:
300,377,39022,6,0,B|258:373|244:336|244:336|266:262|352:271|386:321,1,251.999992309571,6|10,3:2|0:0,0:0:0:0:
453,384,39472,1,0,3:2:0:0:
453,384,39772,1,0,3:2:0:0:
506,187,39922,2,0,P|473:159|424:163,1,80.9999975280763,10|2,0:0|0:0,0:0:0:0:
351,202,40222,5,2,3:2:0:0:
178,61,40522,1,10,0:0:0:0:
178,61,40672,2,0,B|88:57|117:101|8:94,1,161.999995056153,2|0,3:2|0:0,0:0:0:0:
123,244,41122,2,0,P|133:205|161:176,1,80.9999975280763,10|0,0:0|0:0,0:0:0:0:
343,94,41422,6,0,B|395:104|395:104|423:148|423:148|478:161,1,161.999995056153,0|10,3:2|0:0,0:0:0:0:
512,248,41872,1,0,3:2:0:0:
512,248,42172,1,0,3:2:0:0:
350,373,42322,2,0,P|340:334|312:305,1,80.9999975280763,10|0,0:0|0:0,0:0:0:0:
100,335,42622,1,2,3:2:0:0:
100,335,42772,2,0,L|118:244,1,80.9999975280763,2|10,0:0|0:0,0:0:0:0:
7,139,43072,2,0,L|-2:93,2,40.4999987640381,2|0|10,3:2|3:2|0:0,0:0:0:0:
157,37,43372,1,8,3:3:0:0:
91,71,43522,1,8,3:3:0:0:
123,136,43672,1,8,3:3:0:0:
11,347,43822,6,0,B|62:320|113:350|77:374|134:404|189:367,1,180,4|2,3:2|1:2,0:0:0:0:
282,316,44272,1,10,3:2:0:0:
284,307,44347,1,0,3:2:0:0:
287,298,44422,2,0,L|297:254,1,45,2|0,1:2|3:2,0:0:0:0:
222,199,44572,1,8,0:0:0:0:
220,190,44647,1,0,3:2:0:0:
218,182,44722,2,0,L|202:116,1,45,2|0,3:2|3:2,0:0:0:0:
308,62,44872,2,0,L|318:18,1,45,10|0,3:2|3:2,0:0:0:0:
489,155,45022,6,0,P|437:147|391:182,1,94.499997116089,0|8,3:2|0:0,0:0:0:0:
395,173,45247,1,8,0:0:0:0:
389,180,45322,2,0,P|404:207|402:235,1,47.2499985580445,2|0,1:2|3:2,0:0:0:0:
332,296,45472,2,0,P|317:323|319:351,1,47.2499985580445,10|0,3:2|3:2,0:0:0:0:
165,268,45622,1,2,1:2:0:0:
155,269,45697,1,0,3:2:0:0:
146,271,45772,1,8,0:0:0:0:
137,273,45847,1,0,3:2:0:0:
128,275,45922,2,0,L|72:286,1,47.2499985580445,2|0,3:2|3:2,0:0:0:0:
4,191,46072,1,10,3:2:0:0:
2,182,46147,1,0,3:2:0:0:
0,173,46222,6,0,P|2:144|25:111,1,49.5000015106202,0|0,3:2|0:0,0:0:0:0:
88,40,46372,2,0,P|88:64|98:87,1,49.5000015106202,0|0,1:2|1:2,0:0:0:0:
182,143,46522,1,10,1:2:0:0:
182,143,46597,1,0,1:2:0:0:
182,143,46672,2,0,L|234:129,1,49.5000015106202,0|0,1:2|1:2,0:0:0:0:
318,197,46822,1,10,1:2:0:0:
318,197,46897,1,0,1:2:0:0:
318,197,46972,2,0,L|370:183,1,49.5000015106202,0|0,1:2|1:2,0:0:0:0:
465,244,47122,1,10,1:2:0:0:
465,244,47197,1,0,1:2:0:0:
465,244,47272,2,0,L|517:230,1,49.5000015106202,0|0,1:2|1:2,0:0:0:0:
350,293,47422,5,10,1:2:0:0:
331,303,47497,1,0,1:2:0:0:
312,314,47572,2,0,P|292:335|287:365,1,53.9999983520508,0|0,1:2|1:2,0:0:0:0:
117,225,47722,5,10,1:2:0:0:
136,235,47797,1,0,1:2:0:0:
155,246,47872,2,0,P|175:267|180:297,1,53.9999983520508,0|0,1:2|1:2,0:0:0:0:
381,131,48022,5,10,1:2:0:0:
362,141,48097,1,0,1:2:0:0:
343,152,48172,2,0,P|323:173|318:203,1,53.9999983520508,0|0,1:2|1:2,0:0:0:0:
116,63,48322,5,10,1:2:0:0:
143,104,48397,1,0,1:2:0:0:
189,91,48472,1,0,1:2:0:0:
192,42,48547,1,0,1:2:0:0:
147,25,48622,6,0,P|115:37|89:33,2,53.9999983520508,2|2|2,0:0|0:0|0:0,0:0:0:0:
40,112,49072,1,2,0:0:0:0:
83,187,49372,1,2,0:0:0:0:
25,327,49672,1,2,0:0:0:0:
216,253,49972,2,0,B|277:237|321:282|282:293|321:332|387:317,1,188.999994232178,2|0,0:0|0:0,0:0:0:0:
376,327,50572,5,0,0:0:0:0:
374,335,50722,1,0,0:0:0:0:
372,343,50872,1,0,0:0:0:0:
191,158,51022,6,0,P|113:155|144:239,1,175.499991966248,4|0,3:1|0:0,0:0:0:0:
217,252,51322,1,10,0:0:0:0:
38,379,51472,2,0,P|45:322|0:264,1,116.999994644165,2|0,3:2|0:0,0:0:0:0:
214,52,51772,2,0,P|183:100|190:157,1,116.999994644165,2|8,0:0|0:0,0:0:0:0:
384,302,52072,1,2,0:0:0:0:
457,210,52222,6,0,L|340:192,1,116.999994644165,6|0,3:2|0:0,0:0:0:0:
158,337,52522,1,10,0:0:0:0:
50,176,52672,2,0,B|46:146|83:114|83:114|155:163|141:230|93:263,1,233.999989288331,2|0,3:2|3:2,0:0:0:0:
27,328,53122,2,0,P|26:308|2:273,1,58.4999973220826,10|0,0:0|3:2,0:0:0:0:
170,181,53272,2,0,P|173:152|190:128,1,58.4999973220826,2|0,3:2|3:2,0:0:0:0:
0,45,53422,6,0,P|72:70|124:-13,1,175.499991966248,6|0,3:2|0:0,0:0:0:0:
190,128,53722,2,0,P|262:153|315:71,1,175.499991966248,10|0,0:0|0:0,0:0:0:0:
512,211,54022,6,0,P|440:236|388:153,1,175.499991966248,6|0,0:0|0:0,0:0:0:0:
322,294,54322,2,0,P|250:319|198:236,1,175.499991966248,10|0,0:0|0:0,0:0:0:0:
43,354,54622,6,0,P|36:323|6:295,1,58.4999973220826,6|0,3:2|0:0,0:0:0:0:
106,233,54772,2,0,P|113:202|143:174,1,58.4999973220826,2|0,0:0|0:0,0:0:0:0:
23,98,54922,2,0,P|16:67|-14:39,2,58.4999973220826,10|0|0,0:0|0:0|3:2,0:0:0:0:
401,360,55222,6,0,P|408:329|436:299,1,62.9999980773926,2|0,0:0|0:0,0:0:0:0:
334,207,55372,2,0,P|327:176|293:145,1,62.9999980773926,2|0,3:2|0:0,0:0:0:0:
469,27,55522,1,10,0:0:0:0:
512,121,55672,1,2,3:2:0:0:
329,1,55822,6,0,B|276:-16|229:23|269:34|227:73|148:52,1,175.499991966248,6|0,3:2|0:0,0:0:0:0:
92,12,56122,1,10,0:0:0:0:
0,207,56272,2,0,B|47:239|47:239|102:217,1,116.999994644165,2|0,3:2|0:0,0:0:0:0:
269,346,56572,2,0,B|221:313|221:313|166:335,1,116.999994644165,2|8,3:2|0:0,0:0:0:0:
319,94,56872,6,0,B|352:93|377:131|377:131|369:184|301:205|248:154,1,233.999989288331,6|2,0:0|0:0,0:0:0:0:
181,97,57322,1,10,0:0:0:0:
5,297,57472,2,0,P|64:240|210:273,1,233.999989288331,2|2,3:2|3:2,0:0:0:0:
275,328,57922,1,10,0:0:0:0:
356,275,58072,1,2,3:2:0:0:
512,370,58222,6,0,B|486:207|486:207|454:182|473:131,1,233.999989288331,6|10,3:2|0:0,0:0:0:0:
343,78,58672,2,0,P|299:119|217:110,1,116.999994644165,2|0,3:2|0:0,0:0:0:0:
54,14,58972,2,0,P|111:18|152:58,1,116.999994644165,2|8,0:0|0:0,0:0:0:0:
12,226,59272,1,2,3:2:0:0:
170,332,59422,1,6,3:2:0:0:
70,384,59572,2,0,L|88:268,1,116.999994644165,2|8,0:0|0:0,0:0:0:0:
244,122,59872,6,0,B|301:113|341:150|308:163|353:205|402:191,1,175.499991966248,2|0,3:2|0:0,0:0:0:0:
468,151,60172,1,2,3:2:0:0:
319,343,60322,1,10,0:0:0:0:
420,324,60472,1,2,3:2:0:0:
244,122,60622,6,0,L|56:155,1,175.499991966248,4|0,3:1|0:0,0:0:0:0:
10,225,60922,1,10,0:0:0:0:
140,369,61072,2,0,P|170:320|163:263,1,116.999994644165,2|0,3:2|0:0,0:0:0:0:
47,47,61372,2,0,P|39:103|70:152,1,116.999994644165,2|8,0:0|0:0,0:0:0:0:
313,34,61672,1,2,0:0:0:0:
359,139,61822,6,0,L|242:121,1,116.999994644165,6|0,3:2|0:0,0:0:0:0:
80,298,62122,1,10,0:0:0:0:
296,265,62272,2,0,L|180:282,1,116.999994644165,2|0,3:2|0:0,0:0:0:0:
80,298,62572,1,0,3:2:0:0:
243,121,62722,1,10,0:0:0:0:
186,20,62872,1,2,3:2:0:0:
359,139,63022,6,0,P|433:128|404:56,1,175.499991966248,6|0,3:2|0:0,0:0:0:0:
320,24,63322,1,10,0:0:0:0:
243,121,63472,1,0,3:2:0:0:
79,1,63622,1,6,0:0:0:0:
161,167,63772,1,2,0:0:0:0:
65,342,63922,6,0,P|-8:327|23:257,1,175.499991966248,10|0,0:0|0:0,0:0:0:0:
115,265,64222,6,0,L|180:281,1,58.4999973220826,6|0,3:2|0:0,0:0:0:0:
263,304,64372,2,0,L|328:320,1,58.4999973220826,2|0,0:0|0:0,0:0:0:0:
410,339,64522,2,0,L|475:355,2,58.4999973220826,10|0|0,0:0|0:0|3:2,0:0:0:0:
104,89,64822,6,0,L|172:71,1,62.9999980773926,2|0,0:0|0:0,0:0:0:0:
264,49,64972,2,0,L|331:31,1,62.9999980773926,2|0,3:2|0:0,0:0:0:0:
423,128,65122,2,0,P|420:71|490:62,1,125.999996154785,10|2,0:0|3:2,0:0:0:0:
512,148,65347,1,0,3:2:0:0:
512,148,65422,6,0,B|459:131|412:170|452:181|410:220|331:199,1,175.499991966248,6|0,3:2|0:0,0:0:0:0:
278,156,65722,1,10,0:0:0:0:
102,317,65872,2,0,P|97:262|42:212,1,116.999994644165,2|0,3:2|0:0,0:0:0:0:
227,69,66172,2,0,P|187:110|181:167,1,116.999994644165,2|8,3:2|0:0,0:0:0:0:
245,250,66472,1,2,0:0:0:0:
412,52,66622,5,4,3:2:0:0:
321,74,66772,1,2,0:0:0:0:
495,277,66922,1,10,0:0:0:0:
345,384,67072,2,0,L|387:148,1,233.999989288331,2|2,3:2|3:2,0:0:0:0:
321,74,67522,1,10,0:0:0:0:
481,169,67672,1,2,3:2:0:0:
210,304,67822,6,0,B|177:305|152:267|152:267|160:214|228:193|281:244,1,233.999989288331,6|10,3:2|0:0,0:0:0:0:
470,358,68272,2,0,P|429:314|438:232,1,116.999994644165,2|0,3:2|0:0,0:0:0:0:
512,47,68572,2,0,P|508:104|468:145,1,116.999994644165,2|8,3:2|0:0,0:0:0:0:
267,61,68872,1,2,3:2:0:0:
360,1,69022,5,6,3:2:0:0:
360,1,69172,1,2,3:2:0:0:
279,242,69322,1,12,0:0:0:0:
115,161,69472,2,0,P|51:158|-8:217,1,116.999994644165,2|0,3:2|3:2,0:0:0:0:
159,80,69772,1,2,3:2:0:0:
159,80,69847,1,0,3:2:0:0:
159,80,69922,1,10,0:0:0:0:
279,242,70072,1,10,0:0:0:0:
419,87,70222,5,12,3:2:0:0:
389,198,70372,1,2,0:0:0:0:
512,357,70522,5,10,0:0:0:0:
481,254,70672,1,2,3:2:0:0:
291,341,70822,6,0,B|200:351|227:294|105:308,1,175.499991966248,10|0,0:0|0:0,0:0:0:0:
41,352,71122,1,10,0:0:0:0:
144,148,71272,1,2,0:0:0:0:
51,92,71422,5,8,3:2:0:0:
122,306,71572,1,2,0:0:0:0:
205,343,71722,5,8,0:0:0:0:
272,150,71872,1,2,3:2:0:0:
351,105,72022,5,8,0:0:0:0:
438,302,72172,1,2,0:0:0:0:
196,223,72322,2,0,P|171:173|178:106,1,116.999994644165,8|0,0:0|0:0,0:0:0:0:
316,26,72622,5,14,3:2:0:0:
272,150,72772,1,2,0:0:0:0:
438,302,72922,5,10,0:0:0:0:
396,182,73072,1,2,3:2:0:0:
207,321,73222,6,0,B|161:342|112:308|150:289|99:250|36:280,1,175.499991966248,10|0,0:0|0:0,0:0:0:0:
0,345,73522,1,10,0:0:0:0:
131,168,73672,6,0,P|196:163|249:204,1,116.999994644165,2|8,0:0|3:2,0:0:0:0:
350,377,73972,2,0,P|313:323|322:256,1,116.999994644165,2|8,0:0|3:2,0:0:0:0:
463,109,74272,1,2,3:2:0:0:
365,63,74422,5,8,0:0:0:0:
477,261,74572,1,4,3:2:0:0:
477,261,74722,1,12,0:0:0:0:
350,377,74872,1,8,3:3:0:0:
142,264,75022,6,0,B|112:269|92:297|92:297|102:345|144:365|199:329,1,175.499991966248,14|0,3:2|0:0,0:0:0:0:
233,270,75322,1,10,0:0:0:0:
113,171,75472,1,0,3:2:0:0:
235,11,75622,2,0,L|203:195,1,175.499991966248,10|0,0:0|0:0,0:0:0:0:
142,264,75922,1,10,0:0:0:0:
70,45,76072,1,2,0:0:0:0:
177,86,76222,5,8,3:2:0:0:
338,6,76372,1,2,0:0:0:0:
426,64,76522,5,8,0:0:0:0:
384,257,76672,1,2,3:2:0:0:
293,182,76822,5,8,0:0:0:0:
352,368,76972,1,2,0:0:0:0:
384,257,77122,6,0,B|290:257|320:306|217:305,1,175.499991966248,8|0,0:0|0:0,0:0:0:0:
141,338,77422,5,14,3:2:0:0:
188,220,77572,1,2,0:0:0:0:
11,101,77722,5,10,0:0:0:0:
58,219,77872,1,2,3:2:0:0:
233,75,78022,6,0,L|419:105,1,175.499991966248,10|0,0:0|0:0,0:0:0:0:
471,167,78322,1,10,0:0:0:0:
294,293,78472,2,0,P|286:230|336:179,1,116.999994644165,2|8,0:0|3:2,0:0:0:0:
119,41,78772,6,0,P|135:67|133:101,1,58.4999973220826,2|0,3:2|3:2,0:0:0:0:
64,151,78922,2,0,P|48:125|50:91,1,58.4999973220826,12|0,0:0|3:2,0:0:0:0:
187,219,79072,1,10,0:0:0:0:
185,231,79147,1,8,0:0:0:0:
183,242,79222,2,0,L|171:308,1,58.4999973220826,10|0,3:2|3:2,0:0:0:0:
303,350,79372,2,0,L|293:292,1,58.4999973220826,8|0,3:2|3:2,0:0:0:0:
449,91,79522,2,0,L|460:157,1,58.4999973220826,10|0,3:2|3:2,0:0:0:0:
315,189,79672,2,0,L|324:131,1,58.4999973220826,8|0,3:2|3:2,0:0:0:0:
510,358,79822,6,0,P|521:303|432:311,1,161.999995056153,6|0,3:2|0:0,0:0:0:0:
392,370,80122,1,10,0:0:0:0:
212,191,80272,2,0,P|285:231|411:127,1,251.999992309571,2|0,3:2|3:2,0:0:0:0:
246,36,80722,1,10,0:0:0:0:
135,123,80872,2,0,P|84:145|18:125,1,107.999996704102,2|0,0:0|3:2,0:0:0:0:
175,300,81172,1,2,0:0:0:0:
63,367,81322,6,0,P|78:339|79:301,1,62.9999980773926,10|0,0:0|0:0,0:0:0:0:
20,240,81472,1,0,3:2:0:0:
267,331,81622,6,0,P|269:304|282:280,1,53.9999983520508,2|0,0:0|0:0,0:0:0:0:
338,213,81772,1,0,3:2:0:0:
492,361,81922,5,10,0:0:0:0:
489,349,81997,1,0,3:2:0:0:
487,338,82072,1,2,3:2:0:0:
485,327,82147,1,0,3:2:0:0:
483,316,82222,6,0,L|469:228,1,72,2|0,3:2|0:0,0:0:0:0:
507,91,82522,6,0,P|481:105|453:104,1,58.4999973220826,10|0,0:0|0:0,0:0:0:0:
372,48,82672,1,0,3:2:0:0:
168,162,82822,6,0,P|193:176|226:176,1,53.9999983520508,2|0,0:0|0:0,0:0:0:0:
296,151,82972,2,0,P|266:104|195:95,1,107.999996704102,0|8,3:2|0:0,0:0:0:0:
42,9,83272,6,0,P|57:34|55:73,1,62.9999980773926,2|0,0:0|0:0,0:0:0:0:
18,143,83422,1,0,3:2:0:0:
217,90,83572,6,0,P|202:115|203:152,1,53.9999983520508,2|0,0:0|0:0,0:0:0:0:
241,224,83722,1,8,0:0:0:0:
451,343,83872,6,0,B|482:344|498:301|498:301|452:244|374:254|345:331,1,233.999989288331,2|0,3:2|3:2,0:0:0:0:
241,224,84247,1,0,3:2:0:0:
241,224,84322,2,0,P|261:253|260:299,1,67.5000025749208,10|0,0:0|0:0,0:0:0:0:
92,364,84472,1,8,0:0:0:0:
79,367,84547,1,8,0:0:0:0:
66,371,84622,6,0,B|27:305|27:305|54:213,1,161.999995056153,6|0,3:2|0:0,0:0:0:0:
9,145,84922,1,10,0:0:0:0:
256,68,85072,2,0,B|204:106|125:65|163:29|85:-11|18:50,1,251.999992309571,2|0,3:2|3:2,0:0:0:0:
192,214,85522,1,10,0:0:0:0:
338,125,85672,2,0,P|397:123|439:158,1,107.999996704102,2|0,0:0|3:2,0:0:0:0:
512,315,85972,1,2,0:0:0:0:
397,384,86122,6,0,P|382:351|387:317,1,62.9999980773926,10|0,0:0|0:0,0:0:0:0:
439,248,86272,1,0,3:2:0:0:
212,344,86422,6,0,P|210:317|197:293,1,53.9999983520508,2|0,0:0|0:0,0:0:0:0:
143,226,86572,1,0,3:2:0:0:
338,125,86722,5,10,0:0:0:0:
341,113,86797,1,0,3:2:0:0:
343,102,86872,1,2,3:2:0:0:
345,91,86947,1,0,3:2:0:0:
347,80,87022,6,0,L|359:16,3,53.9999983520508,2|0|0|0,3:2|3:2|3:2|3:2,0:0:0:0:
216,123,87322,1,8,3:3:0:0:
216,123,87397,1,8,3:3:0:0:
216,123,87472,2,0,P|236:152|237:179,1,53.9999983520508,12|0,3:3|3:2,0:0:0:0:
69,345,87622,6,0,B|13:358|-11:310|-11:310|1:252|80:252,1,188.999994232178,2|0,3:2|3:2,0:0:0:0:
139,287,87922,1,10,0:0:0:0:
156,279,87997,1,10,0:0:0:0:
187,274,88072,1,10,0:0:0:0:
229,284,88147,1,10,0:0:0:0:
270,314,88222,6,0,B|293:353|339:351|339:351|389:296|392:217|289:217|252:133|227:95|257:-24|386:-48|510:-18|534:50|498:205|382:115,1,755.999976928712,14|0,3:2|0:0,0:0:0:0:
