osu file format v14

[General]
AudioFilename: audio.mp3
AudioLeadIn: 0
PreviewTime: 50520
Countdown: 0
SampleSet: Soft
StackLeniency: 0.4
Mode: 0
LetterboxInBreaks: 0
WidescreenStoryboard: 1

[Editor]
DistanceSpacing: 0.4
BeatDivisor: 4
GridSize: 4
TimelineZoom: 1.5

[Metadata]
Title:Mahi (TV Size)
TitleUnicode:麻痺 (TV Size)
Artist:yama
ArtistUnicode:yama
Creator:Sajinn
Version:suyuko's Insane
Source:2.43 清陰高校男子バレー部
Tags:[_eli_] koukou danshi volley-bu boys female vocalist vocal japanese rock j-rock jrock stixy nofc suyuko eli elinor seiin volleyball volley ball anime opening high school club
BeatmapID:2831771
BeatmapSetID:1347186

[Difficulty]
HPDrainRate:5
CircleSize:3.8
OverallDifficulty:8.6
ApproachRate:9
SliderMultiplier:1.5
SliderTickRate:1

[Events]
//Background and Video events
0,0,"1_EnEzGhmmwE6U8bFerI4A_Q_auto_x1.jpg",0,0
Video,0,"VD.mp4"
//Break Periods
//Storyboard Layer 0 (Background)
//Storyboard Layer 1 (Fail)
//Storyboard Layer 2 (Pass)
//Storyboard Layer 3 (Foreground)
//Storyboard Layer 4 (Overlay)
//Storyboard Sound Samples

[TimingPoints]
720,300,4,2,22,52,1,0
720,-166.666666666667,4,2,22,52,0,0
3345,-166.666666666667,4,2,22,5,0,0
3420,-166.666666666667,4,2,22,52,0,0
3945,-166.666666666667,4,2,22,5,0,0
4020,-166.666666666667,4,2,22,52,0,0
10320,-100,4,2,22,62,0,0
19920,-111.111111111111,4,2,22,52,0,0
20145,-111.111111111111,4,2,22,5,0,0
20220,-111.111111111111,4,2,22,52,0,0
25845,-111.111111111111,4,2,22,5,0,0
25920,-111.111111111111,4,2,22,52,0,0
29745,-111.111111111111,4,2,22,5,0,0
29820,-111.111111111111,4,2,22,52,0,0
30645,-111.111111111111,4,2,22,5,0,0
30720,-111.111111111111,4,2,22,52,0,0
32145,-111.111111111111,4,2,22,5,0,0
32220,-111.111111111111,4,2,22,52,0,0
33045,-111.111111111111,4,2,22,5,0,0
33120,-111.111111111111,4,2,22,52,0,0
34545,-111.111111111111,4,2,22,5,0,0
34620,-111.111111111111,4,2,22,52,0,0
39345,-111.111111111111,4,2,22,5,0,0
39420,-111.111111111111,4,2,22,52,0,0
40545,-111.111111111111,4,2,22,5,0,0
40620,-111.111111111111,4,2,22,52,0,0
41145,-111.111111111111,4,2,22,5,0,0
41220,-111.111111111111,4,2,22,52,0,0
41745,-111.111111111111,4,2,22,5,0,0
41820,-111.111111111111,4,2,22,52,0,0
42945,-111.111111111111,4,2,22,5,0,0
43020,-111.111111111111,4,2,22,52,0,0
43920,-100,4,2,22,42,0,0
45120,-100,4,2,22,42,0,0
46320,-100,4,2,22,22,0,0
46620,-100,4,2,22,32,0,0
46920,-100,4,2,22,42,0,0
47220,-100,4,2,22,52,0,0
47520,-100,4,2,22,52,0,0
47820,-100,4,2,22,52,0,0
48720,-250,4,2,22,32,0,0
50070,-500,4,2,22,52,0,0
51045,-500,4,2,22,5,0,0
51120,-83.3333333333333,4,2,22,52,0,0
52545,-83.3333333333333,4,2,22,5,0,0
52620,-83.3333333333333,4,2,22,52,0,0
52995,-83.3333333333333,4,2,22,5,0,0
53070,-83.3333333333333,4,2,22,52,0,0
53745,-83.3333333333333,4,2,22,5,0,0
53820,-83.3333333333333,4,2,22,52,0,0
54345,-83.3333333333333,4,2,22,5,0,0
54420,-83.3333333333333,4,2,22,52,0,0
58545,-83.3333333333333,4,2,22,5,0,0
58620,-83.3333333333333,4,2,22,52,0,0
62145,-83.3333333333333,4,2,22,5,0,0
62220,-83.3333333333333,4,2,22,52,0,0
62595,-83.3333333333333,4,2,22,5,0,0
62670,-83.3333333333333,4,2,22,52,0,0
63345,-83.3333333333333,4,2,22,5,0,0
63420,-83.3333333333333,4,2,22,52,0,0
66945,-83.3333333333333,4,2,22,5,0,0
67020,-83.3333333333333,4,2,22,52,0,0
68145,-83.3333333333333,4,2,22,5,0,0
68220,-83.3333333333333,4,2,22,52,0,0
70320,-76.9230769230769,4,2,22,72,0,1
70545,-76.9230769230769,4,2,22,5,0,1
70620,-76.9230769230769,4,2,22,72,0,1
72645,-76.9230769230769,4,2,22,5,0,1
72720,-76.9230769230769,4,2,22,72,0,1
75345,-76.9230769230769,4,2,22,5,0,1
75420,-76.9230769230769,4,2,22,72,0,1
77445,-76.9230769230769,4,2,22,5,0,1
77520,-76.9230769230769,4,2,22,72,0,1
79920,-90.9090909090909,4,2,22,62,0,0
88320,-142.857142857143,4,2,22,52,0,0
88620,-142.857142857143,4,2,22,5,0,0

[Colours]
Combo1 : 255,91,91
Combo2 : 255,149,255
Combo3 : 136,136,255
Combo4 : 242,242,0
Combo5 : 120,188,188
Combo6 : 255,160,66

[HitObjects]
437,278,270,5,2,0:2:0:0:
510,316,420,1,0,0:2:0:0:
465,384,570,1,0,0:2:0:0:
386,347,720,6,0,B|343:358|343:358|336:356|336:356|289:365,1,89.9999972534181,2|0,0:2|0:2,0:2:0:0:
209,320,1170,2,0,L|190:221,1,89.9999972534181,0|0,0:2|0:2,0:2:0:0:
192,231,1770,1,0,0:2:0:0:
111,185,1920,6,0,P|120:140|131:83,1,89.9999972534181,2|0,0:2|0:2,0:2:0:0:
105,14,2370,2,0,B|153:5|153:5|185:31,1,89.9999972534181,0|0,0:2|0:2,0:2:0:0:
250,95,2820,1,0,0:2:0:0:
250,95,2970,1,0,0:2:0:0:
347,13,3120,6,0,P|354:55|365:110,1,89.9999972534181,2|0,0:2|0:2,0:2:0:0:
452,134,3570,1,0,0:2:0:0:
452,134,3720,2,0,P|445:176|436:235,1,89.9999972534181,2|0,0:2|0:2,0:2:0:0:
437,222,4320,6,0,B|353:257|403:321|321:362,1,179.999994506836,2|0,0:2|0:2,0:2:0:0:
244,344,5070,1,0,0:2:0:0:
300,277,5220,1,0,0:2:0:0:
239,223,5370,1,0,0:2:0:0:
175,286,5520,6,0,B|130:297|130:297|124:294|124:294|71:306,1,89.9999972534181,2|0,0:2|0:2,0:2:0:0:
18,233,5970,1,0,0:2:0:0:
18,233,6270,2,0,P|27:191|45:130,1,89.9999972534181,0|0,0:2|0:2,0:2:0:0:
17,30,6720,6,0,P|34:51|68:63,1,44.999998626709,2|0,0:2|0:0,0:2:0:0:
166,16,7020,1,0,0:2:0:0:
166,16,7170,2,0,P|144:50|146:111,1,89.9999972534181,0|0,0:2|0:2,0:2:0:0:
165,177,7620,2,0,L|218:161,1,44.999998626709,0|0,0:2|0:2,0:2:0:0:
339,205,7920,6,0,B|332:250|332:250|334:258|334:258|326:304,1,89.9999972534181,2|0,0:2|0:2,0:2:0:0:
411,310,8370,2,0,B|417:262|417:262|415:254|415:254|420:210,1,89.9999972534181,0|0,0:2|0:2,0:2:0:0:
494,151,8820,1,0,0:2:0:0:
444,86,8970,1,0,0:2:0:0:
339,205,9120,5,0,1:2:0:0:
501,15,9420,5,8,0:2:0:0:
435,93,9570,2,0,P|396:82|377:77,1,44.999998626709,0|0,1:2|0:2,0:2:0:0:
230,42,9870,5,8,0:2:0:0:
323,0,10020,1,8,0:2:0:0:
386,80,10170,1,8,0:2:0:0:
298,153,10320,6,0,B|286:215|286:215|288:222|288:222|276:283,1,112.5,6|0,1:2|0:2,0:2:0:0:
286,273,10620,1,8,0:2:0:0:
204,354,10770,2,0,B|140:328|175:280|104:263,1,112.5,0|0,1:2|0:2,0:2:0:0:
116,276,11070,1,0,1:2:0:0:
24,147,11220,1,8,0:2:0:0:
58,213,11370,6,0,P|69:161|86:85,1,112.5,0|0,0:2|0:2,0:2:0:0:
91,88,11670,1,2,0:2:0:0:
216,45,11820,1,8,0:2:0:0:
132,7,11970,1,0,1:2:0:0:
290,83,12120,6,0,P|337:75|372:68,1,75,0|0,0:2|0:2,0:2:0:0:
491,2,12420,2,0,B|517:37|517:37|510:76,1,75,8|0,0:2|0:2,0:2:0:0:
366,167,12720,6,0,P|423:154|477:142,1,112.5,2|0,1:2|0:2,0:2:0:0:
484,149,13020,2,0,L|501:230,1,75,8|0,0:2|1:2,0:2:0:0:
428,349,13320,2,0,P|386:340|340:331,1,75,0|0,0:2|1:2,0:2:0:0:
206,378,13620,1,10,0:2:0:0:
136,319,13770,6,0,B|147:266|147:266|152:259|152:259|166:193,1,112.5,2|0,0:2|0:2,0:2:0:0:
153,193,14070,1,0,0:2:0:0:
310,145,14220,1,8,0:2:0:0:
310,145,14370,2,0,P|263:132|144:98,1,150,0|0,1:2|1:2,0:2:0:0:
0,135,14820,1,8,0:2:0:0:
81,0,14970,1,8,0:2:0:0:
87,5,15045,1,8,0:2:0:0:
92,9,15120,6,0,B|186:32|220:40,1,112.5,6|0,1:2|0:2,0:2:0:0:
217,48,15420,2,0,L|301:29,1,75,8|0,0:2|1:2,0:2:0:0:
402,98,15720,2,0,P|393:158|387:189,1,75,0|0,0:2|1:2,0:2:0:0:
490,298,16020,1,8,0:2:0:0:
399,274,16170,1,8,0:2:0:0:
390,273,16245,1,8,0:2:0:0:
380,270,16320,6,0,P|332:259|291:249,1,75,0|2,1:2|0:2,0:2:0:0:
176,369,16620,1,8,0:2:0:0:
237,315,16770,1,0,1:2:0:0:
131,207,16920,2,0,P|141:252|150:293,1,75,0|0,0:2|1:2,0:2:0:0:
53,184,17220,2,0,L|61:138,2,37.5,8|0|0,0:2|0:2|0:2,0:2:0:0:
20,55,17520,6,0,B|78:33|78:33|129:73,1,112.5,2|0,1:2|0:2,0:2:0:0:
127,80,17820,2,0,L|216:95,1,75,8|0,0:2|1:2,0:2:0:0:
339,9,18120,1,0,0:2:0:0:
264,35,18270,1,0,1:2:0:0:
400,157,18420,1,8,0:2:0:0:
318,104,18570,6,0,P|307:155|296:197,1,75,2|0,0:2|1:2,0:2:0:0:
273,307,18870,2,0,P|264:343|256:380,1,75,0|8,1:2|0:2,0:2:0:0:
373,262,19170,1,0,1:2:0:0:
229,221,19320,2,0,P|179:208|142:200,1,75,0|8,1:2|0:2,0:2:0:0:
148,210,19545,1,8,0:2:0:0:
142,214,19620,1,10,0:2:0:0:
41,379,19770,1,8,0:2:0:0:
34,371,19845,1,8,0:2:0:0:
28,361,19920,6,0,P|52:317|141:298,1,134.999995880127,6|10,1:2|0:2,0:2:0:0:
212,357,20370,2,0,B|290:372|279:294|359:308,1,134.999995880127,0|0,1:2|0:2,0:2:0:0:
344,315,20745,1,2,0:2:0:0:
351,325,20820,6,0,P|361:263|377:167,1,134.999995880127,8|0,0:2|0:2,0:2:0:0:
372,191,21420,2,0,P|330:182|300:155,1,67.4999979400635,10|0,0:2|0:2,0:2:0:0:
298,74,21720,1,0,0:2:0:0:
298,74,21870,2,0,P|338:66|376:59,1,67.4999979400635,0|8,1:2|0:2,0:2:0:0:
223,25,22170,1,0,0:2:0:0:
223,25,22320,2,0,P|207:68|233:133,1,101.249996910095,2|0,1:2|0:2,0:2:0:0:
235,131,22620,1,8,0:2:0:0:
203,207,22770,2,0,P|159:196|111:184,1,67.4999979400635,0|0,1:2|0:2,0:2:0:0:
55,170,23070,1,0,0:2:0:0:
143,279,23220,6,0,P|189:289|291:312,1,134.999995880127,8|0,0:2|1:2,0:2:0:0:
274,308,23745,1,2,0:2:0:0:
280,304,23820,2,0,P|293:259|390:224,1,134.999995880127,8|0,0:2|0:2,0:2:0:0:
445,266,24270,1,0,1:2:0:0:
421,138,24420,2,0,P|431:86|441:25,1,101.249996910095,8|8,0:2|0:2,0:2:0:0:
440,30,24720,6,0,B|369:51|368:-14|292:10,1,134.999995880127,6|8,1:2|0:2,0:2:0:0:
209,22,25170,2,0,P|201:77|190:171,1,134.999995880127,0|0,1:2|0:2,0:2:0:0:
178,156,25545,1,2,0:2:0:0:
168,155,25620,2,0,P|127:148|101:121,1,67.4999979400635,8|0,0:2|0:2,0:2:0:0:
0,44,25920,6,0,P|15:114|24:169,1,101.249996910095,0|0,1:2|0:2,0:2:0:0:
28,165,26220,2,0,P|17:216|11:248,1,67.4999979400635,10|0,0:2|0:2,0:2:0:0:
49,342,26520,1,0,0:2:0:0:
49,342,26670,2,0,P|87:346|120:323,1,67.4999979400635,0|8,1:2|0:2,0:2:0:0:
159,260,26970,1,0,0:2:0:0:
239,355,27120,6,0,B|296:343|296:343|301:345|301:345|356:335,1,101.249996910095,2|0,1:2|0:2,0:2:0:0:
362,338,27420,1,10,0:2:0:0:
455,382,27570,2,0,P|464:334|411:249,1,134.999995880127,0|0,1:2|1:2,0:2:0:0:
342,124,28020,2,0,P|334:175|326:232,1,101.249996910095,10|0,0:2|0:2,0:2:0:0:
330,233,28320,5,0,1:2:0:0:
412,249,28470,1,0,1:2:0:0:
243,218,28620,2,0,L|158:198,1,67.4999979400635,8|0,0:2|1:2,0:2:0:0:
76,242,28920,1,2,0:2:0:0:
16,171,29070,1,2,1:2:0:0:
93,136,29220,1,10,0:2:0:0:
158,200,29370,1,2,1:2:0:0:
94,120,29520,6,0,L|111:36,1,67.4999979400635,4|0,1:2|0:2,0:2:0:0:
247,3,29820,2,0,P|306:11|340:58,1,101.249996910095,10|0,0:2|0:2,0:2:0:0:
337,58,30120,2,0,P|377:63|420:70,1,67.4999979400635,0|0,0:2|1:2,0:2:0:0:
307,138,30420,2,0,P|358:145|426:156,1,101.249996910095,8|0,0:2|0:2,0:2:0:0:
419,161,30720,6,0,B|411:219|411:219|413:225|413:225|405:281,1,101.249996910095,2|0,1:2|0:2,0:2:0:0:
415,276,31020,1,8,0:2:0:0:
474,348,31170,1,0,1:2:0:0:
357,378,31320,2,0,L|281:362,1,67.4999979400635,0|0,0:2|0:2,0:2:0:0:
178,242,31620,2,0,P|187:283|196:330,1,67.4999979400635,8|0,0:2|0:2,0:2:0:0:
188,317,31845,1,8,0:2:0:0:
183,324,31920,5,0,1:2:0:0:
268,272,32070,1,0,0:2:0:0:
158,162,32220,2,0,P|105:174|73:181,1,67.4999979400635,10|0,0:2|1:2,0:2:0:0:
214,90,32520,2,0,L|293:104,1,67.4999979400635,0|0,0:2|1:2,0:2:0:0:
166,17,32820,2,0,B|116:29|116:29|108:26|108:26|41:38,1,101.249996910095,8|0,0:2|0:2,0:2:0:0:
50,31,33120,6,0,P|30:74|37:109,1,67.4999979400635,2|0,1:2|0:2,0:2:0:0:
164,172,33420,2,0,L|78:192,1,67.4999979400635,8|0,0:2|1:2,0:2:0:0:
37,263,33720,2,0,P|45:317|48:346,1,67.4999979400635,0|0,0:2|0:2,0:2:0:0:
210,371,34020,2,0,P|222:345|203:367,1,67.4999979400635,8|10,0:2|0:2,0:2:0:0:
230,315,34245,1,8,0:2:0:0:
238,307,34320,6,0,B|290:298|290:298|298:299|298:299|366:289,1,101.249996910095,0|0,1:2|0:2,0:2:0:0:
353,300,34620,1,10,0:2:0:0:
444,350,34770,2,0,B|464:283|464:283|407:213,1,134.999995880127,0|0,1:2|1:2,0:2:0:0:
274,123,35220,1,8,0:2:0:0:
357,167,35370,1,8,0:2:0:0:
363,164,35445,1,8,0:2:0:0:
370,159,35520,6,0,L|356:76,1,67.4999979400635,2|0,1:2|0:2,0:2:0:0:
244,19,35820,1,8,0:2:0:0:
244,19,35970,1,0,1:2:0:0:
171,71,36120,2,0,P|121:64|78:58,1,67.4999979400635,0|0,0:2|0:2,0:2:0:0:
6,163,36420,2,0,L|27:242,1,67.4999979400635,8|8,0:2|0:2,0:2:0:0:
24,242,36645,1,8,0:2:0:0:
21,252,36720,6,0,B|107:229|86:299|159:290,1,134.999995880127,2|8,1:2|0:2,0:2:0:0:
46,324,37170,1,0,1:2:0:0:
158,213,37320,2,0,L|249:232,1,67.4999979400635,0|0,0:2|1:0,0:2:0:0:
345,367,37620,1,8,0:2:0:0:
292,294,37770,1,0,1:2:0:0:
290,304,37845,1,8,0:2:0:0:
287,312,37920,5,2,1:2:0:0:
373,273,38070,1,2,1:2:0:0:
496,220,38220,1,10,0:2:0:0:
471,377,38370,2,0,L|486:293,1,67.4999979400635,2|0,1:2|0:2,0:2:0:0:
389,138,38670,5,10,0:2:0:0:
464,103,38820,1,8,0:2:0:0:
311,181,38970,1,10,0:2:0:0:
243,120,39120,6,0,P|195:88|136:88,1,101.249996910095,4|0,1:2|0:2,0:2:0:0:
137,96,39420,1,8,0:2:0:0:
55,48,39570,1,0,1:2:0:0:
14,131,39720,2,0,L|31:219,1,67.4999979400635,0|0,0:2|1:2,0:2:0:0:
64,352,40020,1,8,0:2:0:0:
5,289,40170,1,0,0:2:0:0:
115,255,40320,6,0,B|182:235|178:311|256:300,1,134.999995880127,2|8,1:2|0:2,0:2:0:0:
333,273,40770,1,0,1:2:0:0:
248,216,40920,2,0,L|263:128,1,67.4999979400635,0|0,0:2|0:2,0:2:0:0:
234,10,41220,2,0,P|278:0|343:36,1,101.249996910095,8|8,0:2|0:2,0:2:0:0:
340,34,41520,6,0,L|415:47,1,67.4999979400635,0|0,1:2|0:2,0:2:0:0:
510,168,41820,2,0,L|426:154,1,67.4999979400635,10|0,0:2|1:2,0:2:0:0:
365,217,42120,2,0,L|384:295,1,67.4999979400635,0|0,0:2|1:2,0:2:0:0:
479,371,42420,1,8,0:2:0:0:
381,283,42570,1,10,0:2:0:0:
371,285,42645,1,8,0:2:0:0:
363,288,42720,5,2,1:2:0:0:
307,357,42870,1,0,1:0:0:0:
198,280,43020,2,0,L|214:195,1,67.4999979400635,10|8,0:2|0:2,0:2:0:0:
205,205,43245,1,8,0:2:0:0:
201,194,43320,1,2,3:2:0:0:
281,106,43470,1,0,3:2:0:0:
231,37,43620,1,2,3:2:0:0:
169,85,43770,1,0,3:2:0:0:
30,13,43920,6,0,L|17:98,1,75,4|8,1:2|0:2,0:2:0:0:
25,97,44145,1,8,0:2:0:0:
32,105,44220,1,10,0:2:0:0:
103,195,44370,2,0,L|146:202,2,37.5,10|8|10,0:2|0:2|0:2,0:2:0:0:
6,284,44670,1,10,0:2:0:0:
60,361,44820,1,10,0:2:0:0:
175,287,44970,1,8,0:2:0:0:
183,291,45045,1,8,0:2:0:0:
193,295,45120,5,4,1:2:0:0:
292,328,45270,2,0,L|348:337,2,37.5,8|8|10,0:0|0:2|0:2,0:2:0:0:
419,281,45570,1,10,0:2:0:0:
354,174,45720,1,10,0:2:0:0:
349,166,45795,1,8,0:2:0:0:
346,158,45870,2,0,L|394:166,2,37.5,10|8|8,0:2|0:2|0:2,0:2:0:0:
286,8,46170,1,8,0:0:0:0:
291,17,46245,1,8,0:2:0:0:
296,27,46320,2,0,L|242:34,2,37.5,8|8|8,0:2|3:2|3:2,0:2:0:0:
144,13,46620,6,0,L|124:105,1,75,10|8,0:2|0:2,0:2:0:0:
131,96,46845,1,8,0:2:0:0:
136,107,46920,2,0,L|151:152,3,37.5,10|8|8|8,0:2|0:2|0:2|0:2,0:2:0:0:
205,207,47220,2,0,L|189:253,2,37.5,10|8|8,0:2|0:2|0:2,0:2:0:0:
72,366,47520,5,10,0:2:0:0:
70,358,47595,1,8,0:2:0:0:
68,349,47670,2,0,L|58:297,1,37.5,8|8,0:2|0:2,0:2:0:0:
8,240,47820,1,10,0:2:0:0:
10,232,47895,1,8,0:2:0:0:
12,224,47970,1,8,0:2:0:0:
14,217,48045,1,8,0:2:0:0:
18,207,48120,2,0,L|26:161,3,37.5,10|8|8|8,0:2|0:2|0:2|0:2,0:2:0:0:
85,115,48420,2,0,P|63:98|41:93,3,37.5,8|8|8|8,0:2|0:2|0:2|0:2,0:2:0:0:
108,196,48720,5,2,0:2:0:0:
190,180,48870,1,0,0:2:0:0:
271,163,49020,1,0,0:2:0:0:
193,193,49170,5,0,0:2:0:0:
280,177,49470,5,2,0:2:0:0:
106,213,49770,5,0,0:2:0:0:
224,31,50070,5,2,0:2:0:0:
229,40,50145,2,0,P|247:51|269:56,1,37.5,2|0,0:0|0:2,0:2:0:0:
355,78,50670,5,2,0:0:0:0:
401,17,50820,1,2,0:0:0:0:
477,26,50970,1,2,0:0:0:0:
454,162,51120,6,0,B|367:141|419:93|328:68,1,134.999995880127,6|0,1:2|0:2,0:2:0:0:
346,85,51420,1,8,0:2:0:0:
230,113,51570,2,0,P|247:36|253:6,1,89.9999972534181,0|0,1:2|0:2,0:2:0:0:
305,185,51870,2,0,B|320:254|320:254|324:258|324:258|337:335,1,134.999995880127,0|0,0:2|0:2,0:2:0:0:
346,333,52170,1,10,0:2:0:0:
225,352,52320,6,0,P|170:366|123:377,1,89.9999972534181,2|0,1:2|0:2,0:2:0:0:
6,247,52620,1,8,0:2:0:0:
52,178,52770,2,0,B|113:191|113:191|122:190|122:190|209:206,1,134.999995880127,0|0,1:2|0:2,0:2:0:0:
200,211,53070,1,0,1:2:0:0:
69,96,53220,1,8,0:2:0:0:
86,6,53370,1,0,0:2:0:0:
230,119,53520,6,0,P|296:96|368:122,1,134.999995880127,2|0,1:2|0:2,0:2:0:0:
361,123,53820,1,8,0:2:0:0:
417,53,53970,1,0,1:2:0:0:
506,152,54120,2,0,P|508:208|431:245,1,134.999995880127,2|0,0:2|0:2,0:2:0:0:
441,237,54420,1,8,0:2:0:0:
313,254,54570,1,0,1:2:0:0:
316,246,54645,1,8,0:2:0:0:
319,237,54720,6,0,B|396:261|349:310|441:330,1,134.999995880127,2|0,1:2|0:2,0:2:0:0:
436,327,55020,1,8,0:2:0:0:
298,313,55170,2,0,P|218:297|136:281,1,134.999995880127,0|0,1:2|0:2,0:2:0:0:
155,295,55470,1,0,1:2:0:0:
77,159,55620,1,8,0:2:0:0:
28,232,55770,1,8,0:2:0:0:
70,71,55920,6,0,P|156:54|227:42,1,134.999995880127,2|0,1:2|0:2,0:2:0:0:
215,36,56220,1,8,0:2:0:0:
356,122,56370,2,0,P|367:68|376:21,1,89.9999972534181,0|0,1:2|0:2,0:2:0:0:
274,171,56670,2,0,B|286:258|286:258|290:264|290:264|302:355,1,179.999994506836,0|10,1:2|0:2,0:2:0:0:
313,353,57045,1,8,0:2:0:0:
328,358,57120,5,0,1:2:0:0:
396,295,57270,1,0,0:2:0:0:
355,138,57420,1,8,0:2:0:0:
512,224,57570,2,0,P|457:215|401:207,1,89.9999972534181,0|0,1:2|0:2,0:2:0:0:
271,150,57870,1,0,1:2:0:0:
394,18,58020,1,8,0:2:0:0:
317,62,58170,1,0,0:2:0:0:
308,58,58245,1,2,0:2:0:0:
300,54,58320,6,0,B|230:68|235:-4|146:15,1,134.999995880127,2|0,1:2|0:2,0:2:0:0:
159,19,58620,1,8,0:2:0:0:
33,113,58770,2,0,B|56:106|90:73|90:73|58:130|64:202,1,179.999994506836,0|0,1:2|0:2,0:2:0:0:
88,371,59220,1,8,0:2:0:0:
21,275,59370,1,8,0:2:0:0:
16,285,59445,1,8,0:2:0:0:
12,293,59520,6,0,P|99:275|130:268,1,89.9999972534181,0|2,1:2|0:2,0:2:0:0:
254,366,59820,1,8,0:2:0:0:
148,196,59970,2,0,P|179:224|172:330,1,134.999995880127,2|0,1:2|0:2,0:2:0:0:
173,326,60270,1,2,1:2:0:0:
317,259,60420,1,8,0:2:0:0:
392,301,60570,1,8,0:2:0:0:
390,311,60645,1,8,0:2:0:0:
389,320,60720,6,0,P|451:337|503:254,1,134.999995880127,6|0,1:2|0:2,0:2:0:0:
499,279,61020,1,8,0:2:0:0:
423,130,61170,2,0,L|404:230,1,89.9999972534181,0|0,1:2|0:2,0:2:0:0:
348,62,61470,2,0,B|290:20|290:20|209:39,1,134.999995880127,0|0,0:2|0:2,0:2:0:0:
218,46,61770,1,10,0:2:0:0:
191,163,61920,2,0,P|233:137|293:141,1,89.9999972534181,2|0,1:2|0:2,0:2:0:0:
256,212,62220,1,8,0:2:0:0:
109,112,62370,6,0,B|59:87|59:87|79:187,1,134.999995880127,0|0,1:2|0:2,0:2:0:0:
72,183,62670,1,0,1:2:0:0:
109,360,62820,1,8,0:2:0:0:
88,273,62970,1,0,0:2:0:0:
212,336,63120,6,0,B|285:308|269:379|373:370,1,134.999995880127,2|0,1:2|0:2,0:2:0:0:
347,363,63420,1,8,0:2:0:0:
438,315,63570,1,0,1:2:0:0:
387,151,63720,1,0,0:0:0:0:
359,238,63870,1,0,0:0:0:0:
467,78,64020,1,8,0:2:0:0:
484,159,64170,1,0,1:2:0:0:
479,165,64245,1,8,0:2:0:0:
474,170,64320,6,0,P|417:158|365:145,1,89.9999972534181,2|0,1:2|0:2,0:2:0:0:
226,84,64620,1,8,0:2:0:0:
251,0,64770,2,0,P|292:36|293:136,1,134.999995880127,0|0,1:2|0:2,0:2:0:0:
290,132,65070,1,0,1:2:0:0:
137,39,65220,2,0,B|136:-1|202:10|178:80|99:76,1,134.999995880127,8|8,0:2|0:2,0:2:0:0:
102,85,65520,6,0,P|115:175|124:243,1,134.999995880127,2|0,1:2|0:2,0:2:0:0:
120,240,65820,1,8,0:2:0:0:
73,348,65970,2,0,B|139:369|139:369|205:320,1,134.999995880127,0|0,1:2|0:2,0:2:0:0:
196,315,66270,2,0,B|237:283|237:283|297:303,1,89.9999972534181,0|8,1:2|0:2,0:2:0:0:
452,363,66570,1,10,0:2:0:0:
373,378,66720,6,0,P|363:319|347:226,1,134.999995880127,0|0,1:2|0:2,0:2:0:0:
345,227,67020,1,8,0:2:0:0:
232,162,67170,2,0,B|156:170|170:110|74:128,1,134.999995880127,0|0,1:2|0:2,0:2:0:0:
90,131,67470,1,0,1:2:0:0:
14,4,67620,1,8,0:2:0:0:
92,32,67770,1,0,0:2:0:0:
98,36,67845,1,0,0:2:0:0:
105,41,67920,6,0,B|176:27|176:27|182:29|182:29|256:14,1,134.999995880127,2|0,1:2|0:2,0:2:0:0:
256,21,68220,1,8,0:2:0:0:
376,108,68370,2,0,B|334:81|334:81|364:194,1,134.999995880127,0|0,1:2|0:2,0:2:0:0:
356,181,68670,1,0,0:2:0:0:
281,330,68820,1,8,0:2:0:0:
246,260,68970,1,10,0:2:0:0:
242,251,69045,1,8,0:2:0:0:
238,243,69120,5,2,1:2:0:0:
161,202,69270,1,0,1:0:0:0:
38,321,69420,2,0,P|87:311|139:302,1,89.9999972534181,12|0,0:2|1:2,0:2:0:0:
135,308,69645,1,0,1:2:0:0:
141,313,69720,1,0,1:2:0:0:
12,232,69870,2,0,L|24:179,2,44.999998626709,8|8|8,0:2|0:2|0:2,0:2:0:0:
54,61,70170,1,8,0:2:0:0:
52,68,70245,1,8,0:2:0:0:
50,75,70320,5,6,1:2:0:0:
117,138,70470,1,0,0:2:0:0:
268,31,70620,5,10,0:2:0:0:
193,0,70770,1,0,1:2:0:0:
344,49,70920,1,8,0:2:0:0:
344,49,71220,1,10,0:2:0:0:
264,122,71370,6,0,P|321:137|374:149,1,97.4999955368044,0|8,1:2|0:2,0:2:0:0:
250,199,71670,2,0,P|307:214|362:227,1,97.4999955368044,2|8,1:2|0:2,0:2:0:0:
235,272,71970,2,0,P|292:287|345:298,1,97.4999955368044,2|8,1:2|0:2,0:2:0:0:
188,341,72270,2,0,B|96:358|96:358|90:357|90:357|-18:376,1,194.999991073609,0|0,1:2|0:2,0:2:0:0:
100,245,72720,5,10,0:2:0:0:
35,183,72870,1,0,1:2:0:0:
70,75,73020,5,8,0:2:0:0:
150,54,73170,1,0,1:2:0:0:
250,119,73320,6,0,B|335:138|306:55|404:73,1,146.249993305207,8|0,0:2|0:2,0:2:0:0:
401,76,73620,1,10,0:2:0:0:
512,0,73770,2,0,P|501:52|490:114,1,97.4999955368044,0|8,1:2|0:2,0:2:0:0:
336,238,74070,6,0,P|352:209|463:193,1,146.249993305207,0|0,1:2|0:2,0:2:0:0:
465,200,74370,1,0,1:2:0:0:
415,368,74520,1,8,0:2:0:0:
481,291,74670,1,4,1:2:0:0:
326,336,74820,2,0,P|267:321|217:309,1,97.4999955368044,8|0,0:2|1:2,0:2:0:0:
74,349,75120,6,0,P|58:299|117:202,1,146.249993305207,6|0,1:2|0:2,0:2:0:0:
115,215,75420,1,10,0:2:0:0:
183,150,75570,1,0,1:2:0:0:
88,4,75720,2,0,B|40:18|40:18|66:138,1,146.249993305207,10|0,0:2|0:2,0:2:0:0:
55,133,76020,1,10,0:2:0:0:
177,52,76170,6,0,B|246:65|229:-2|346:18,1,146.249993305207,0|0,1:2|0:2,0:2:0:0:
329,20,76470,1,2,1:2:0:0:
458,147,76620,1,8,0:2:0:0:
379,184,76770,2,0,B|366:134|366:134|398:79,1,97.4999955368044,2|8,1:2|0:2,0:2:0:0:
469,150,77070,1,2,1:2:0:0:
285,107,77220,1,8,0:2:0:0:
285,107,77520,5,10,0:2:0:0:
230,172,77670,1,0,1:2:0:0:
277,338,77820,5,10,0:2:0:0:
350,377,77970,1,0,1:2:0:0:
249,258,78120,6,0,P|170:277|80:300,1,146.249993305207,10|0,0:2|0:2,0:2:0:0:
103,302,78420,1,10,0:2:0:0:
254,174,78570,6,0,B|338:187|294:240|383:261,1,146.249993305207,0|0,1:2|0:2,0:2:0:0:
386,258,78870,1,0,1:2:0:0:
493,125,79020,1,8,0:2:0:0:
438,189,79170,1,8,0:2:0:0:
430,191,79245,1,8,0:2:0:0:
424,192,79320,5,8,0:2:0:0:
504,110,79470,1,8,0:2:0:0:
376,12,79620,5,8,0:2:0:0:
392,88,79770,1,8,0:2:0:0:
247,105,79920,6,0,B|180:121|180:121|174:120|174:120|117:134,1,123.75000377655,6|0,1:2|0:2,0:2:0:0:
109,142,80220,1,8,0:2:0:0:
29,78,80370,2,0,B|-8:160|-8:160|52:234,1,165.000005035401,0|0,1:2|1:2,0:2:0:0:
168,374,80820,1,8,0:2:0:0:
87,336,80970,2,0,P|129:295|185:293,1,82.5000025177003,0|0,0:2|1:2,0:2:0:0:
321,353,81270,5,2,0:2:0:0:
239,314,81420,1,8,0:2:0:0:
363,257,81570,1,0,1:2:0:0:
282,227,81720,2,0,P|295:172|306:130,1,82.5000025177003,0|0,0:2|0:2,0:2:0:0:
408,52,82020,1,8,0:2:0:0:
319,33,82170,1,0,0:2:0:0:
301,146,82320,6,0,P|366:162|402:169,1,82.5000025177003,2|0,1:2|0:2,0:2:0:0:
487,300,82620,2,0,P|422:287|376:278,1,82.5000025177003,8|0,0:2|1:2,0:2:0:0:
258,369,82920,1,0,0:2:0:0:
281,283,83070,1,0,1:2:0:0:
174,161,83220,1,10,0:2:0:0:
114,224,83370,1,2,0:2:0:0:
106,230,83445,1,2,0:2:0:0:
99,238,83520,5,0,1:2:0:0:
21,183,83670,2,0,P|32:131|43:86,1,82.5000025177003,0|8,0:2|0:2,0:2:0:0:
165,19,83970,1,0,1:2:0:0:
79,2,84120,1,0,0:2:0:0:
208,89,84270,1,0,1:2:0:0:
215,95,84345,1,0,0:0:0:0:
223,100,84420,2,0,P|275:94|307:66,1,82.5000025177003,8|8,0:2|0:2,0:0:0:0:
325,6,84645,1,8,0:2:0:0:
315,2,84720,6,0,P|328:72|343:154,1,123.75000377655,6|0,1:2|0:2,0:2:0:0:
347,140,85020,1,8,0:2:0:0:
301,231,85170,2,0,B|367:246|367:246|430:199,1,123.75000377655,0|0,1:2|0:2,0:2:0:0:
425,196,85470,1,0,1:2:0:0:
506,359,85620,1,8,0:2:0:0:
420,347,85770,6,0,P|366:333|311:319,1,82.5000025177003,8|0,0:2|1:2,0:2:0:0:
251,364,86070,1,2,0:2:0:0:
153,254,86220,1,8,0:2:0:0:
237,220,86370,1,0,1:2:0:0:
150,343,86520,2,0,P|99:326|51:313,1,82.5000025177003,0|0,0:2|1:2,0:2:0:0:
0,173,86820,6,0,P|34:181|53:185,1,41.2500012588501,8|0,0:2|0:2,0:2:0:0:
141,92,86970,1,0,1:2:0:0:
139,100,87045,1,0,1:2:0:0:
137,110,87120,2,0,L|129:164,3,41.2500012588501,8|0|0|0,0:2|3:2|3:2|3:2,0:2:0:0:
224,121,87420,1,0,3:2:0:0:
232,123,87495,1,0,3:2:0:0:
240,124,87570,6,0,L|287:135,5,41.2500012588501,8|0|0|0|0|0,0:2|3:2|3:2|3:2|3:2|3:2,0:2:0:0:
285,141,88020,1,8,0:2:0:0:
316,169,88095,1,8,0:2:0:0:
350,167,88170,1,8,0:2:0:0:
360,158,88245,1,8,0:2:0:0:
357,154,88320,5,6,1:2:0:0:
