osu file format v14

[General]
AudioFilename: audio.mp3
AudioLeadIn: 0
PreviewTime: 50520
Countdown: 0
SampleSet: Soft
StackLeniency: 0.5
Mode: 0
LetterboxInBreaks: 0
WidescreenStoryboard: 1

[Editor]
DistanceSpacing: 1
BeatDivisor: 4
GridSize: 4
TimelineZoom: 1.6

[Metadata]
Title:Mahi (TV Size)
TitleUnicode:麻痺 (TV Size)
Artist:yama
ArtistUnicode:yama
Creator:Sajinn
Version:Stixy's Normal
Source:2.43 清陰高校男子バレー部
Tags:[_eli_] koukou danshi volley-bu boys female vocalist vocal japanese rock j-rock jrock stixy nofc suyuko eli elinor seiin volleyball volley ball anime opening high school club
BeatmapID:2836528
BeatmapSetID:1347186

[Difficulty]
HPDrainRate:3
CircleSize:3
OverallDifficulty:4
ApproachRate:5.6
SliderMultiplier:0.999999999999999
SliderTickRate:1

[Events]
//Background and Video events
0,0,"1_EnEzGhmmwE6U8bFerI4A_Q_auto_x1.jpg",0,0
Video,0,"VD.mp4"
//Break Periods
//Storyboard Layer 0 (Background)
//Storyboard Layer 1 (Fail)
//Storyboard Layer 2 (Pass)
//Storyboard Layer 3 (Foreground)
//Storyboard Layer 4 (Overlay)
//Storyboard Sound Samples

[TimingPoints]
720,300,4,2,22,52,1,0
720,-100,4,2,22,52,0,0
3345,-100,4,2,22,5,0,0
3420,-100,4,2,22,52,0,0
3945,-100,4,2,22,5,0,0
4020,-100,4,2,22,52,0,0
10320,-100,4,2,22,62,0,0
19920,-100,4,2,22,52,0,0
20145,-100,4,2,22,5,0,0
20220,-100,4,2,22,52,0,0
25845,-100,4,2,22,5,0,0
25920,-100,4,2,22,52,0,0
29520,-100,4,2,22,52,0,0
29745,-100,4,2,22,5,0,0
29820,-100,4,2,22,52,0,0
30645,-100,4,2,22,5,0,0
30720,-100,4,2,22,52,0,0
32145,-100,4,2,22,5,0,0
32220,-100,4,2,22,52,0,0
33045,-100,4,2,22,5,0,0
33120,-100,4,2,22,52,0,0
34545,-100,4,2,22,5,0,0
34620,-100,4,2,22,52,0,0
39345,-100,4,2,22,5,0,0
39420,-100,4,2,22,52,0,0
40545,-100,4,2,22,5,0,0
40620,-100,4,2,22,52,0,0
41145,-100,4,2,22,5,0,0
41220,-100,4,2,22,52,0,0
41745,-100,4,2,22,5,0,0
41820,-100,4,2,22,52,0,0
42945,-100,4,2,22,5,0,0
43020,-100,4,2,22,52,0,0
43920,-100,4,2,22,42,0,0
45120,-100,4,2,22,42,0,0
46320,-100,4,2,22,22,0,0
46620,-100,4,2,22,32,0,0
46920,-100,4,2,22,42,0,0
47220,-100,4,2,22,52,0,0
47520,-100,4,2,22,52,0,0
47820,-100,4,2,22,52,0,0
48720,-100,4,2,22,32,0,0
50070,-100,4,2,22,52,0,0
51045,-100,4,2,22,5,0,0
51120,-100,4,2,22,52,0,1
52545,-100,4,2,22,5,0,1
52620,-100,4,2,22,52,0,1
52995,-100,4,2,22,5,0,1
53070,-100,4,2,22,52,0,1
53745,-100,4,2,22,5,0,1
53820,-100,4,2,22,52,0,1
54345,-100,4,2,22,5,0,1
54420,-100,4,2,22,52,0,1
58545,-100,4,2,22,5,0,1
58620,-100,4,2,22,52,0,1
62145,-100,4,2,22,5,0,1
62220,-100,4,2,22,52,0,1
62595,-100,4,2,22,5,0,1
62670,-100,4,2,22,52,0,1
63345,-100,4,2,22,5,0,1
63420,-100,4,2,22,52,0,1
66945,-100,4,2,22,5,0,1
67020,-100,4,2,22,52,0,1
68145,-100,4,2,22,5,0,1
68220,-100,4,2,22,52,0,1
70320,-100,4,2,22,72,0,1
70545,-100,4,2,22,5,0,1
70620,-100,4,2,22,72,0,1
72645,-100,4,2,22,5,0,1
72720,-100,4,2,22,72,0,1
75345,-100,4,2,22,5,0,1
75420,-100,4,2,22,72,0,1
77445,-100,4,2,22,5,0,1
77520,-100,4,2,22,72,0,1
79920,-100,4,2,22,62,0,0
88320,-100,4,2,22,52,0,0
88620,-100,4,2,22,5,0,0

[Colours]
Combo1 : 255,91,91
Combo2 : 255,149,255
Combo3 : 136,136,255
Combo4 : 242,242,0
Combo5 : 120,188,188
Combo6 : 255,160,66

[HitObjects]
36,21,720,6,0,P|85:16|130:36,1,99.9999999999999,2|0,0:2|0:2,0:2:0:0:
169,67,1170,1,0,0:2:0:0:
106,144,1470,1,0,0:2:0:0:
133,245,1770,1,0,0:2:0:0:
133,245,1920,2,0,L|113:360,1,99.9999999999999,2|0,0:2|0:2,0:2:0:0:
151,378,2370,1,0,0:2:0:0:
151,378,3120,6,0,P|200:381|245:360,1,99.9999999999999,2|0,0:2|0:2,0:2:0:0:
337,322,3720,2,0,L|446:340,1,99.9999999999999,2|0,0:2|0:2,0:2:0:0:
506,267,4320,2,0,B|456:259|456:259|436:219|436:219|382:209,1,150,2|0,0:2|0:0,0:2:0:0:
190,49,5520,6,0,L|305:29,1,99.9999999999999,2|0,0:2|0:2,0:2:0:0:
338,28,5970,1,0,0:2:0:0:
434,55,6270,1,0,0:2:0:0:
390,145,6570,2,0,P|386:194|407:239,1,99.9999999999999,0|0,0:2|0:0,0:0:0:0:
446,270,7020,2,0,L|435:322,1,50,0|0,0:2|0:2,0:0:0:0:
295,371,7620,1,0,0:2:0:0:
215,309,7920,6,0,P|164:305|114:332,1,99.9999999999999,2|0,0:2|0:2,0:2:0:0:
79,353,8370,1,0,0:2:0:0:
7,282,8670,1,0,0:2:0:0:
69,204,8970,1,0,0:2:0:0:
69,204,9120,2,0,L|47:86,1,99.9999999999999,0|8,1:2|0:2,0:0:0:0:
77,63,9570,1,0,1:2:0:0:
176,54,9870,2,0,P|185:12|181:-10,2,50,8|8|8,0:2|0:2|0:2,0:0:0:0:
200,96,10320,6,0,P|249:97|293:74,1,99.9999999999999,6|8,1:2|0:2,0:2:0:0:
334,46,10770,2,0,P|377:23|427:24,1,99.9999999999999,0|0,1:2|1:2,0:2:0:0:
471,47,11220,1,8,0:2:0:0:
471,47,11370,1,0,0:2:0:0:
424,135,11670,1,2,0:2:0:0:
424,135,11820,1,8,0:2:0:0:
482,215,12120,2,0,L|462:328,1,99.9999999999999,0|8,0:2|0:2,0:0:0:0:
379,365,12720,5,2,1:2:0:0:
303,299,13020,1,8,0:2:0:0:
219,354,13320,2,0,L|114:335,1,99.9999999999999,0|10,0:2|0:2,0:2:0:0:
71,327,13770,1,2,0:2:0:0:
28,236,14070,1,0,0:2:0:0:
103,170,14370,2,0,L|217:190,1,99.9999999999999,0|0,1:2|1:2,0:2:0:0:
250,197,14820,1,8,0:2:0:0:
345,179,15120,6,0,B|409:158|409:158|455:180,1,99.9999999999999,6|8,1:2|0:2,0:2:0:0:
486,184,15570,2,0,P|509:140|508:90,1,99.9999999999999,0|0,1:2|1:2,0:2:0:0:
487,51,16020,1,8,0:2:0:0:
487,51,16170,1,8,0:2:0:0:
397,20,16470,1,2,0:2:0:0:
397,20,16620,1,8,0:2:0:0:
317,80,16920,2,0,L|215:60,1,99.9999999999999,0|8,0:2|0:2,0:0:0:0:
130,14,17520,5,2,1:2:0:0:
65,90,17820,1,8,0:2:0:0:
124,170,18120,2,0,P|127:219|106:264,1,99.9999999999999,0|8,0:2|0:2,0:2:0:0:
77,305,18570,1,2,0:2:0:0:
154,368,18870,1,0,1:2:0:0:
236,311,19170,2,0,P|283:306|343:336,1,99.9999999999999,0|8,1:2|0:2,0:2:0:0:
370,356,19620,1,10,0:2:0:0:
459,312,19920,6,0,L|440:200,1,99.9999999999999,6|10,1:2|0:2,0:2:0:0:
398,190,20370,2,0,L|299:206,1,99.9999999999999,0|0,1:2|0:2,0:2:0:0:
250,218,20820,1,8,0:2:0:0:
250,218,21420,1,10,0:2:0:0:
170,277,21720,2,0,P|121:285|76:264,1,99.9999999999999,0|8,0:2|0:2,0:0:0:0:
22,180,22320,6,0,L|40:75,1,99.9999999999999,2|8,1:2|0:2,0:2:0:0:
78,50,22770,2,0,P|126:43|171:63,1,99.9999999999999,0|0,1:2|0:2,0:2:0:0:
209,96,23220,1,8,0:2:0:0:
209,96,23820,1,8,0:2:0:0:
347,37,24270,1,0,1:2:0:0:
347,37,24420,1,8,0:2:0:0:
423,100,24720,6,0,L|403:206,1,99.9999999999999,6|8,1:2|0:2,0:2:0:0:
440,233,25170,2,0,L|422:331,1,99.9999999999999,0|0,1:2|0:2,0:2:0:0:
413,380,25620,1,8,0:2:0:0:
413,380,26220,1,10,0:2:0:0:
325,331,26520,1,0,0:2:0:0:
325,331,26670,2,0,L|224:349,1,99.9999999999999,0|0,1:2|0:2,0:2:0:0:
178,362,27120,5,2,1:2:0:0:
90,313,27420,1,10,0:2:0:0:
90,313,27570,2,0,P|87:264|62:221,1,99.9999999999999,0|0,1:2|1:2,0:2:0:0:
28,185,28020,1,10,0:2:0:0:
74,94,28320,2,0,P|82:60|94:42,2,50,0|0|8,1:2|1:2|0:2,0:0:0:0:
151,156,28920,2,0,L|208:145,1,50,2|2,0:2|1:2,0:0:0:0:
235,111,29220,2,0,L|292:100,1,50,10|2,0:2|1:2,0:0:0:0:
317,64,29520,6,0,P|366:58|427:89,1,99.9999999999999,4|10,1:2|0:2,0:2:0:0:
485,144,30120,1,0,0:2:0:0:
409,209,30420,1,8,0:2:0:0:
475,283,30720,2,0,L|455:394,1,99.9999999999999,2|8,1:2|0:2,0:2:0:0:
357,380,31320,2,0,L|339:281,1,99.9999999999999,0|8,0:2|0:2,0:2:0:0:
263,216,31920,1,0,1:2:0:0:
315,130,32220,1,10,0:2:0:0:
242,60,32520,6,0,B|206:70|206:70|180:58|180:58|147:68,1,99.9999999999999,0|8,0:2|0:2,0:2:0:0:
50,43,33120,2,0,P|47:96|80:149,1,99.9999999999999,2|8,1:2|0:2,0:2:0:0:
135,210,33720,1,0,0:2:0:0:
74,289,34020,2,0,L|13:298,1,50,8|10,0:2|0:2,0:0:0:0:
2,341,34320,5,0,1:2:0:0:
93,382,34620,1,10,0:2:0:0:
175,325,34920,2,0,P|218:301|274:304,1,99.9999999999999,0|8,0:2|0:2,0:0:0:0:
356,349,35520,1,2,1:2:0:0:
433,285,35820,2,0,L|422:225,1,50,8|0,0:2|1:2,0:0:0:0:
455,196,36120,2,0,P|460:147|438:101,1,99.9999999999999,0|8,0:2|0:2,0:2:0:0:
405,73,36570,1,8,0:2:0:0:
405,73,36720,6,0,L|289:95,1,99.9999999999999,2|8,1:2|0:2,0:2:0:0:
219,30,37320,2,0,P|171:27|122:58,1,99.9999999999999,0|8,0:2|0:2,0:2:0:0:
64,130,37920,2,0,L|14:139,2,50,2|2|10,1:2|1:2|0:2,0:0:0:0:
105,157,38370,2,0,L|217:175,1,99.9999999999999,2|10,1:2|0:2,0:0:0:0:
307,169,38970,1,10,0:2:0:0:
307,169,39120,6,0,P|365:174|409:197,1,99.9999999999999,4|8,1:2|0:2,0:2:0:0:
468,269,39720,1,0,0:2:0:0:
412,352,40020,2,0,L|353:341,1,50,8|0,0:2|0:2,0:0:0:0:
330,305,40320,2,0,L|231:322,1,99.9999999999999,2|8,1:2|0:2,0:2:0:0:
194,355,40770,1,0,1:2:0:0:
194,355,40920,1,0,0:2:0:0:
100,320,41220,1,8,0:2:0:0:
149,233,41520,6,0,L|130:127,1,99.9999999999999,0|10,1:2|0:2,0:2:0:0:
65,59,42120,1,0,0:2:0:0:
151,8,42420,1,8,0:2:0:0:
230,68,42720,2,0,P|279:73|334:49,1,99.9999999999999,2|10,1:2|0:2,0:2:0:0:
371,22,43170,1,8,0:2:0:0:
371,22,43320,2,0,L|437:32,1,50,2|0,3:2|3:2,0:0:0:0:
456,65,43620,2,0,L|445:131,1,50,2|0,3:2|3:2,0:0:0:0:
434,162,43920,5,4,1:2:0:0:
361,230,44220,2,0,L|311:222,1,50,10|10,0:2|0:2,0:0:0:0:
276,194,44520,1,10,0:2:0:0:
276,194,44670,2,0,P|229:178|180:188,1,99.9999999999999,10|8,0:2|0:2,0:2:0:0:
136,212,45120,1,4,1:2:0:0:
61,278,45420,2,0,L|51:334,1,50,10|10,0:2|0:2,0:0:0:0:
91,367,45720,1,10,0:2:0:0:
91,367,45870,2,0,L|189:384,1,99.9999999999999,10|8,0:2|0:0,0:0:0:0:
236,366,46320,5,8,0:2:0:0:
307,295,46620,1,10,0:2:0:0:
384,358,46920,2,0,L|484:341,1,99.9999999999999,10|10,0:2|0:2,0:0:0:0:
512,244,47520,1,10,0:2:0:0:
434,181,47820,1,10,0:2:0:0:
481,93,48120,2,0,P|479:61|466:41,1,50,10|8,0:2|0:2,0:0:0:0:
426,22,48420,2,0,P|394:24|374:37,1,50,8|8,0:2|0:2,0:0:0:0:
341,66,48720,5,2,0:2:0:0:
341,66,51120,6,0,B|313:73|313:73|284:52|284:52|249:60,1,99.9999999999999,6|8,1:2|0:2,0:2:0:0:
207,32,51570,2,0,L|103:50,1,99.9999999999999,0|0,1:2|0:2,0:2:0:0:
53,132,52170,1,10,0:2:0:0:
53,132,52320,2,0,L|70:230,1,99.9999999999999,2|8,1:2|0:2,0:2:0:0:
36,267,52770,2,0,L|53:365,1,99.9999999999999,0|0,1:2|1:2,0:2:0:0:
104,384,53220,1,8,0:2:0:0:
174,313,53520,6,0,P|221:292|269:301,1,99.9999999999999,2|8,1:2|0:2,0:2:0:0:
362,334,54120,2,0,P|410:341|456:321,1,99.9999999999999,2|8,0:2|0:2,0:2:0:0:
480,223,54720,2,0,L|467:159,1,50,2|0,1:2|0:0,0:2:0:0:
479,124,55020,1,8,0:2:0:0:
412,49,55320,1,0,0:2:0:0:
330,106,55620,2,0,L|266:94,1,50,8|8,0:2|0:2,0:0:0:0:
246,59,55920,6,0,P|200:44|151:53,1,99.9999999999999,2|8,1:2|0:2,0:2:0:0:
108,80,56370,2,0,L|88:188,1,99.9999999999999,0|0,1:2|1:2,0:2:0:0:
157,252,56970,2,0,L|255:269,1,99.9999999999999,10|0,0:2|0:2,0:0:0:0:
298,246,57420,1,8,0:2:0:0:
298,246,57570,2,0,P|347:239|393:258,1,99.9999999999999,0|0,1:2|1:2,0:2:0:0:
430,292,58020,1,8,0:2:0:0:
370,372,58320,6,0,P|321:378|275:359,1,99.9999999999999,2|8,1:2|0:2,0:2:0:0:
236,328,58770,2,0,L|115:349,1,99.9999999999999,0|0,1:2|0:2,0:2:0:0:
88,354,59220,1,8,0:2:0:0:
35,268,59520,1,0,1:2:0:0:
35,268,59670,2,0,L|26:218,1,50,2|8,0:2|0:2,0:2:0:0:
46,172,59970,1,2,1:2:0:0:
72,75,60270,2,0,P|60:48|36:29,2,50,2|8|8,1:2|0:2|0:2,0:0:0:0:
113,103,60720,6,0,L|225:84,1,99.9999999999999,6|8,1:2|0:2,0:2:0:0:
245,55,61170,2,0,L|357:36,1,99.9999999999999,0|0,1:2|0:2,0:2:0:0:
438,66,61770,1,10,0:2:0:0:
438,66,61920,2,0,P|463:110|463:159,1,99.9999999999999,2|8,1:2|0:2,0:2:0:0:
438,203,62370,2,0,P|438:252|462:295,1,99.9999999999999,0|0,1:2|1:2,0:2:0:0:
497,332,62820,1,8,0:2:0:0:
406,375,63120,6,0,L|298:353,1,99.9999999999999,2|8,1:2|0:2,0:2:0:0:
266,326,63570,1,0,1:2:0:0:
266,326,63720,2,0,P|265:297|279:263,1,50
300,237,64020,1,8,0:2:0:0:
263,143,64320,1,2,1:2:0:0:
263,143,64470,2,0,P|264:118|258:94,1,50,0|8,0:0|0:2,0:0:0:0:
165,72,64920,1,0,0:2:0:0:
165,72,65070,2,0,L|116:82,1,50,0|8,1:2|0:2,0:0:0:0:
39,146,65520,6,0,L|61:266,1,99.9999999999999,2|8,1:2|0:2,0:2:0:0:
77,290,65970,2,0,L|175:271,1,99.9999999999999,0|0,1:2|1:2,0:2:0:0:
257,320,66570,2,0,P|258:344|252:369,2,50,10|0|0,0:2|1:2|0:2,0:0:0:0:
293,285,67020,1,8,0:2:0:0:
293,285,67170,2,0,L|272:173,1,99.9999999999999,0|0,1:2|1:2,0:2:0:0:
268,137,67620,1,8,0:2:0:0:
324,54,67920,6,0,P|367:34|431:50,1,99.9999999999999,2|8,1:2|0:2,0:2:0:0:
457,72,68370,2,0,L|476:174,1,99.9999999999999,0|0,1:2|0:2,0:2:0:0:
489,218,68820,1,8,0:2:0:0:
455,314,69120,1,2,1:2:0:0:
455,314,69270,2,0,L|404:323,1,50,0|12,1:0|0:2,0:0:0:0:
356,333,69570,1,0,1:2:0:0:
281,275,69870,1,8,0:2:0:0:
281,275,70020,2,0,L|269:215,1,50,8|8,0:2|0:2,0:0:0:0:
225,204,70320,6,0,L|244:95,1,99.9999999999999,6|10,1:2|0:2,0:2:0:0:
159,50,70920,1,8,0:2:0:0:
75,105,71220,1,10,0:2:0:0:
75,105,71370,2,0,L|92:203,1,99.9999999999999,0|2,1:2|1:2,0:0:0:0:
18,270,71970,2,0,P|56:300|105:303,1,99.9999999999999,2|0,1:2|1:2,0:2:0:0:
154,291,72420,1,8,0:2:0:0:
239,342,72720,6,0,L|304:329,1,50,10|0,0:2|1:2,0:0:0:0:
335,349,73020,2,0,L|400:336,1,50,8|0,0:2|1:2,0:0:0:0:
431,324,73320,1,8,0:2:0:0:
456,227,73620,1,10,0:2:0:0:
456,227,73770,2,0,L|434:108,1,99.9999999999999,0|0,1:2|1:2,0:2:0:0:
423,80,74220,1,8,0:2:0:0:
332,36,74520,2,0,L|265:48,1,50,8|4,0:2|1:2,0:0:0:0:
247,81,74820,2,0,L|180:93,1,50,8|0,0:2|1:2,0:0:0:0:
156,62,75120,6,0,P|109:60|59:92,1,99.9999999999999,6|10,1:2|0:2,0:2:0:0:
22,176,75720,2,0,L|43:291,1,99.9999999999999,10|10,0:2|0:2,0:0:0:0:
85,296,76170,1,0,1:2:0:0:
147,374,76470,1,2,1:2:0:0:
236,330,76770,1,2,1:2:0:0:
226,230,77070,1,2,1:2:0:0:
226,230,77220,1,8,0:2:0:0:
316,183,77520,6,0,L|370:192,1,50,10|0,0:2|1:2,0:0:0:0:
401,157,77820,2,0,L|455:166,1,50,10|0,0:2|1:2,0:0:0:0:
490,136,78120,1,10,0:2:0:0:
436,51,78420,1,10,0:2:0:0:
436,51,78570,2,0,L|324:31,1,99.9999999999999,0|0,1:2|1:2,0:0:0:0:
290,51,79020,1,8,0:2:0:0:
198,10,79320,2,0,L|148:18,1,50,8|8,0:2|0:2,0:0:0:0:
125,63,79620,2,0,L|75:71,1,50,8|8,0:2|0:2,0:0:0:0:
41,108,79920,6,0,P|38:159|72:216,1,99.9999999999999,6|8,1:2|0:2,0:2:0:0:
98,233,80370,2,0,P|118:277|116:327,1,99.9999999999999,0|0,1:2|1:2,0:2:0:0:
101,378,80820,1,8,0:2:0:0:
101,378,80970,1,0,0:2:0:0:
200,381,81270,1,2,0:2:0:0:
200,381,81420,1,8,0:2:0:0:
270,308,81720,2,0,P|319:304|364:324,1,99.9999999999999,0|8,0:2|0:2,0:0:0:0:
441,260,82320,5,2,1:2:0:0:
367,191,82620,1,8,0:2:0:0:
439,122,82920,1,0,0:2:0:0:
379,48,83220,1,10,0:2:0:0:
379,48,83370,2,0,L|259:70,1,99.9999999999999,2|0,0:2|0:2,0:2:0:0:
183,27,83970,2,0,P|133:20|80:49,1,99.9999999999999,0|0,1:2|1:2,0:2:0:0:
54,77,84420,1,8,0:2:0:0:
25,172,84720,6,0,B|36:209|36:209|24:234|24:234|41:274,1,99.9999999999999,6|8,1:2|0:2,0:2:0:0:
73,301,85170,2,0,P|114:274|163:278,1,99.9999999999999,0|0,1:2|1:2,0:2:0:0:
206,303,85620,1,8,0:2:0:0:
206,303,85770,1,8,0:2:0:0:
256,218,86070,1,2,0:2:0:0:
256,218,86220,1,8,0:2:0:0:
191,141,86520,1,0,0:2:0:0:
259,67,86820,1,8,0:2:0:0:
332,134,87120,6,0,P|383:140|437:111,1,99.9999999999999,8|0,0:2|3:2,0:2:0:0:
471,98,87570,2,0,L|491:207,1,99.9999999999999,8|0,0:2|3:2,0:2:0:0:
459,236,88020,2,0,L|450:285,1,50,8|8,0:2|0:2,0:0:0:0:
436,333,88320,1,6,1:2:0:0:
