osu file format v14

[General]
AudioFilename: audio.mp3
AudioLeadIn: 0
PreviewTime: 50422
Countdown: 0
SampleSet: Soft
StackLeniency: 0.7
Mode: 2
LetterboxInBreaks: 0
WidescreenStoryboard: 1

[Editor]
Bookmarks: 43822,51022,51772,75622,75922
DistanceSpacing: 0.1
BeatDivisor: 4
GridSize: 8
TimelineZoom: 1.6

[Metadata]
Title:Mahi (TV Size)
TitleUnicode:麻痺 (TV Size)
Artist:yama
ArtistUnicode:yama
Creator:GIGACHAD
Version:Rain
Source:2.43 清陰高校男子バレー部
Tags:smoke rew0825 zirox kyonkichi dako rew opening op anime japanese rock jrock j-rock seiin high school boys volleyball team pop jpop j-pop
BeatmapID:2842593
BeatmapSetID:1374493

[Difficulty]
HPDrainRate:6
CircleSize:3.3
OverallDifficulty:9
ApproachRate:9
SliderMultiplier:1.7
SliderTickRate:2

[Events]
//Background and Video events
0,0,"haikyuubg.jpg",0,0
//Break Periods
//Storyboard Layer 0 (Background)
//Storyboard Layer 1 (Fail)
//Storyboard Layer 2 (Pass)
//Storyboard Layer 3 (Foreground)
//Storyboard Layer 4 (Overlay)
//Storyboard Sound Samples

[TimingPoints]
622,300,4,2,1,60,1,0
51022,-100,4,2,1,80,0,1
79822,-100,4,2,1,60,0,0

[Colours]
Combo1 : 0,85,170
Combo2 : 100,180,230
Combo3 : 135,220,248
Combo4 : 220,225,175

[HitObjects]
208,264,172,6,0,L|120:216,2,85,0|0|0,0:0|0:0|0:0,0:0:0:0:
352,272,622,6,0,L|360:168,1,85,2|0,0:0|0:0,0:0:0:0:
264,176,922,1,2,0:0:0:0:
120,96,1072,2,0,P|120:184|200:216,1,170,2|2,0:0|0:0,0:0:0:0:
312,216,1672,1,2,0:0:0:0:
232,216,1822,5,2,0:0:0:0:
112,216,2122,1,2,0:0:0:0:
192,344,2272,2,0,L|360:280,1,170,2|0,0:0|0:0,0:0:0:0:
440,144,2722,2,0,L|352:96,1,85,2|2,0:0|0:0,0:0:0:0:
240,48,3022,6,0,L|232:160,1,85,2|0,0:0|0:0,0:0:0:0:
320,192,3322,2,0,L|328:88,1,85,2|0,0:0|0:0,0:0:0:0:
184,312,3622,2,0,L|176:195,1,85,2|0,0:0|0:0,0:0:0:0:
256,312,3922,2,0,L|264:216,1,85,2|0,0:0|0:0,0:0:0:0:
120,264,4222,6,0,P|72:232|128:152,1,170,2|0,0:0|0:0,0:0:0:0:
208,224,4972,2,0,L|112:224,2,85,2|2|2,0:0|0:0|0:0,0:0:0:0:
352,216,5422,6,0,L|360:24,1,170,2|2,0:0|0:0,0:0:0:0:
216,136,5872,2,0,L|400:64,1,170,2|2,0:0|0:0,0:0:0:0:
240,40,6472,1,2,0:0:0:0:
96,271,6622,6,0,L|9:203,2,85,0|2|2,0:0|0:0|0:0,0:0:0:0:
232,272,7072,2,0,L|240:88,1,170,2|0,0:0|0:0,0:0:0:0:
152,192,7522,1,2,0:0:0:0:
144,104,7672,1,2,0:0:0:0:
232,352,7822,6,0,P|272:280|200:216,1,170,2|2,0:0|0:0,0:0:0:0:
88,144,8272,2,0,L|272:72,1,170,2|2,0:0|0:0,0:0:0:0:
160,40,8722,1,0,0:0:0:0:
72,40,8872,1,2,0:0:0:0:
208,136,9022,5,8,3:3:0:0:
376,144,9322,1,8,3:2:0:0:
240,144,9472,2,0,L|232:240,1,85,4|0,3:2|0:0,0:0:0:0:
376,104,9772,2,0,L|256:104,2,85,8|8|8,0:0|0:0|0:0,0:0:0:0:
152,336,10222,6,0,P|96:296|96:176,1,170,6|10,3:2|0:0,0:0:0:0:
216,192,10672,2,0,L|16:192,1,170,2|0,3:2|3:2,0:0:0:0:
128,128,11122,1,10,0:0:0:0:
256,128,11272,1,2,0:0:0:0:
128,128,11422,5,0,3:2:0:0:
40,136,11572,1,2,0:0:0:0:
168,312,11722,2,0,L|168:200,1,85,10|0,0:0|3:2,0:0:0:0:
296,312,12022,2,0,L|296:208,1,85,2|0,0:0|3:2,0:0:0:0:
424,312,12322,2,0,L|424:216,1,85,10|2,0:0|3:2,0:0:0:0:
200,184,12622,6,0,L|104:184,1,85,2|0,3:2|0:0,0:0:0:0:
240,120,12922,2,0,L|152:120,1,85,10|0,0:0|3:2,0:0:0:0:
280,136,13222,2,0,L|287:47,1,85,2|0,0:0|3:2,0:0:0:0:
200,56,13522,1,8,0:0:0:0:
344,48,13672,1,2,0:0:0:0:
128,312,13822,5,0,3:2:0:0:
216,312,13972,1,2,0:0:0:0:
352,256,14122,1,8,0:0:0:0:
256,256,14272,1,2,3:2:0:0:
352,256,14422,2,0,L|352:152,1,85,0|0,0:0|3:2,0:0:0:0:
216,168,14722,2,0,L|171:168,1,42.5,10|0,0:0|0:0,0:0:0:0:
216,168,14872,2,0,L|259:168,1,42.5,8|8,0:0|0:0,0:0:0:0:
112,312,15022,6,0,P|56:304|32:184,1,170,6|10,3:2|0:0,0:0:0:0:
144,216,15472,2,0,L|314:216,1,170,2|0,3:2|3:2,0:0:0:0:
176,64,15922,2,0,L|168:160,1,85,10|2,0:0|0:0,0:0:0:0:
384,320,16222,6,0,L|488:320,1,85,0|2,3:2|0:0,0:0:0:0:
336,264,16522,2,0,L|251:264,1,85,10|0,0:0|3:2,0:0:0:0:
384,200,16822,2,0,L|488:200,1,85,2|0,0:0|3:2,0:0:0:0:
336,128,17122,2,0,L|251:128,1,85,10|2,0:0|3:2,0:0:0:0:
472,136,17422,6,0,L|472:256,1,85,2|0,3:2|0:0,0:0:0:0:
344,256,17722,2,0,L|434:256,1,85,10|0,0:0|3:2,0:0:0:0:
304,264,18022,2,0,L|296:152,1,85,2|0,0:0|3:2,0:0:0:0:
384,176,18322,1,8,0:0:0:0:
264,120,18472,1,2,0:0:0:0:
480,128,18622,5,0,3:2:0:0:
480,128,18772,1,2,3:2:0:0:
352,96,18922,1,8,0:0:0:0:
264,96,19072,1,2,3:2:0:0:
352,96,19222,1,0,0:0:0:0:
224,40,19372,2,0,L|176:40,1,42.5,0|0,3:2|3:2,0:0:0:0:
328,32,19522,2,0,L|408:32,1,42.5,10|0,0:0|0:0,0:0:0:0:
370,32,19672,2,0,L|320:32,1,42.5,8|0,0:0|0:0,0:0:0:0:
200,192,19822,6,0,L|96:192,2,85,6|0|8,3:2|0:0|0:0,0:0:0:0:
312,240,20272,2,0,P|352:168|312:80,1,170,2|0,3:2|0:0,0:0:0:0:
192,312,20722,1,10,0:0:0:0:
104,312,20872,2,0,L|96:192,1,85,0|0,0:0|0:0,0:0:0:0:
472,256,21322,5,10,0:0:0:0:
336,256,21622,2,0,L|240:256,2,85,2|2|10,0:0|3:2|0:0,0:0:0:0:
408,168,22072,1,2,0:0:0:0:
272,168,22222,6,0,B|184:168|184:168|176:272,1,170,2|10,3:2|0:0,0:0:0:0:
312,72,22672,2,0,P|360:136|304:200,1,170,2|2,3:2|0:0,0:0:0:0:
184,64,23122,2,0,L|88:64,1,85,10|0,0:0|0:0,0:0:0:0:
16,64,23422,1,0,0:0:0:0:
400,328,23722,6,0,L|408:128,1,170,10|0,0:0|0:0,0:0:0:0:
320,160,24172,1,0,3:2:0:0:
184,152,24322,2,0,L|88:152,1,85,8|0,0:0|0:0,0:0:0:0:
320,104,24622,6,0,L|512:104,1,170,6|8,3:2|0:0,0:0:0:0:
368,320,25072,2,0,P|296:296|272:192,1,170,2|0,3:2|0:0,0:0:0:0:
408,224,25522,1,10,0:0:0:0:
450,224,25597,1,0,0:0:0:0:
493,224,25672,1,0,0:0:0:0:
408,176,25822,1,0,3:2:0:0:
32,320,26122,6,0,L|24:208,1,85,10|0,0:0|0:0,0:0:0:0:
168,248,26422,2,0,L|280:248,2,85,2|2|8,0:0|3:2|0:0,0:0:0:0:
80,248,26872,1,2,0:0:0:0:
232,184,27022,6,0,L|240:88,1,85,2|0,3:2|0:0,0:0:0:0:
152,104,27322,1,10,0:0:0:0:
280,184,27472,2,0,L|384:184,2,85,2|0|2,3:2|0:0|3:2,0:0:0:0:
152,192,27922,2,0,P|80:168|56:64,1,170,10|0,0:0|3:2,0:0:0:0:
136,88,28372,1,0,3:2:0:0:
352,312,28522,6,0,L|352:200,1,85,8|4,0:0|3:2,0:0:0:0:
224,232,28822,2,0,L|309:232,1,85,2|8,0:0|3:3,0:0:0:0:
440,160,29122,2,0,L|320:160,1,85,10|2,3:2|3:2,0:0:0:0:
120,336,29422,6,0,L|112:216,1,85,6|0,3:2|0:0,0:0:0:0:
240,256,29722,2,0,L|336:256,1,85,10|0,0:0|3:2,0:0:0:0:
192,192,30022,2,0,L|88:192,1,85,0|0,0:0|3:2,0:0:0:0:
240,144,30322,2,0,L|136:144,1,85,10|0,0:0|0:0,0:0:0:0:
368,328,30622,6,0,L|480:328,1,85,2|0,3:2|0:0,0:0:0:0:
328,272,30922,2,0,L|240:272,1,85,10|0,0:0|3:2,0:0:0:0:
368,272,31222,2,0,L|376:152,1,85
136,120,31522,2,0,B|232:120,1,85,10|0,0:0|0:0,0:0:0:0:
480,168,31822,6,0,L|488:72,1,85,0|0,3:2|0:0,0:0:0:0:
360,64,32122,2,0,L|275:64,1,85,10|0,0:0|3:2,0:0:0:0:
144,176,32422,2,0,L|128:64,1,85,0|0,0:0|3:2,0:0:0:0:
264,176,32722,2,0,L|376:176,1,85,10|0,0:0|0:0,0:0:0:0:
120,352,33022,6,0,L|112:240,1,85,2|0,3:2|0:0,0:0:0:0:
256,264,33322,2,0,L|341:264,1,85,10|2,0:0|3:2,0:0:0:0:
200,176,33622,1,2,0:0:0:0:
120,176,33772,1,2,0:0:0:0:
152,96,33922,1,10,0:0:0:0:
232,96,34072,1,2,0:0:0:0:
456,328,34222,6,0,L|464:216,1,85,0|0,3:2|0:0,0:0:0:0:
328,248,34522,2,0,L|232:248,1,85,10|0,0:0|3:2,0:0:0:0:
368,192,34822,2,0,L|464:192,1,85,0|0,0:0|3:2,0:0:0:0:
320,128,35122,2,0,L|424:128,1,85,10|0,0:0|0:0,0:0:0:0:
184,200,35422,6,0,P|128:160|192:112,1,170,2|10,3:2|0:0,0:0:0:0:
272,112,35872,1,2,3:2:0:0:
144,272,36022,2,0,L|128:184,1,85,2|0,0:0|0:0,0:0:0:0:
256,288,36322,2,0,L|171:288,1,85,10|2,0:0|3:2,0:0:0:0:
400,112,36622,6,0,L|416:304,1,170,2|8,3:2|0:0,0:0:0:0:
320,288,37072,1,2,3:2:0:0:
184,288,37222,2,0,P|128:232|200:176,1,170,2|10,0:0|0:0,0:0:0:0:
256,176,37672,1,0,0:0:0:0:
32,96,37822,6,0,L|24:200,1,85,2|2,3:2|3:2,0:0:0:0:
112,168,38122,1,10,0:0:0:0:
240,344,38272,2,0,L|248:240,1,85,2|0,3:2|0:0,0:0:0:0:
120,248,38572,1,10,0:0:0:0:
246,259,38722,1,8,0:0:0:0:
120,248,38872,2,0,L|40:248,1,42.5,10|0,0:0|0:0,0:0:0:0:
232,208,39022,6,0,L|344:208,1,85,6|0,3:2|0:0,0:0:0:0:
272,160,39247,1,0,0:0:0:0:
232,208,39322,2,0,L|136:208,1,85,10|0,0:0|3:2,0:0:0:0:
272,120,39622,2,0,L|280:24,1,85,0|0,0:0|3:2,0:0:0:0:
152,56,39922,1,10,0:0:0:0:
24,56,40072,1,2,0:0:0:0:
240,264,40222,6,0,L|336:264,1,85,2|0,3:2|0:0,0:0:0:0:
192,168,40522,1,10,0:0:0:0:
64,136,40672,1,2,3:2:0:0:
192,192,40822,2,0,L|312:192,1,85
144,352,41122,2,0,L|136:248,1,85,10|0,0:0|0:0,0:0:0:0:
384,352,41422,6,0,L|192:352,1,170,0|10,3:2|0:0,0:0:0:0:
304,296,41872,1,0,3:2:0:0:
176,168,42022,2,0,L|64:168,1,85,0|0,0:0|3:2,0:0:0:0:
224,104,42322,2,0,L|232:216,1,85,10|0,0:0|0:0,0:0:0:0:
16,72,42622,6,0,L|136:72,1,85,2|2,3:2|0:0,0:0:0:0:
224,352,42922,1,10,0:0:0:0:
259,329,42997,1,0,0:0:0:0:
273,290,43072,1,2,3:2:0:0:
261,250,43147,1,0,3:2:0:0:
227,226,43222,1,10,0:0:0:0:
96,224,43372,2,0,L|53:224,2,42.5,8|0|8,3:3|0:0|3:3,0:0:0:0:
227,226,43672,2,0,L|269:226,1,42.5,8|0,3:3|0:0,0:0:0:0:
104,208,43822,5,4,3:2:0:0:
56,184,43897,1,0,0:0:0:0:
56,128,43972,1,0,0:0:0:0:
104,104,44047,1,0,0:0:0:0:
147,104,44122,2,0,L|83:104,1,42.5,2|0,1:2|0:0,0:0:0:0:
62,104,44272,2,0,L|118:104,1,42.5,10|0,3:2|3:2,0:0:0:0:
272,104,44422,5,2,1:2:0:0:
314,104,44497,1,0,3:2:0:0:
357,104,44572,1,8,0:0:0:0:
399,104,44647,1,0,3:2:0:0:
357,104,44722,1,2,3:2:0:0:
314,104,44797,1,0,3:2:0:0:
314,104,44872,1,10,3:2:0:0:
357,104,44947,1,0,3:2:0:0:
192,336,45022,6,0,L|136:336,1,42.5,0|0,3:2|0:0,0:0:0:0:
149,336,45172,2,0,L|192:336,1,42.5,8|8,0:0|0:0,0:0:0:0:
248,344,45322,2,0,L|256:272,1,42.5,2|0,1:2|3:2,0:0:0:0:
200,304,45472,2,0,L|192:240,1,42.5,10|0,3:2|3:2,0:0:0:0:
240,256,45622,2,0,L|282:256,1,42.5,2|0,1:2|3:2,0:0:0:0:
120,256,45772,5,8,0:0:0:0:
81,241,45847,1,0,3:2:0:0:
67,202,45922,1,2,3:2:0:0:
86,166,45997,1,0,3:2:0:0:
126,157,46072,1,10,3:2:0:0:
168,160,46147,1,0,3:2:0:0:
336,160,46222,5,0,3:2:0:0:
384,160,46297,1,0,0:0:0:0:
432,160,46372,1,0,1:2:0:0:
384,160,46447,1,0,1:2:0:0:
224,352,46522,1,10,1:2:0:0:
181,352,46597,1,0,1:2:0:0:
139,352,46672,1,0,1:2:0:0:
96,352,46747,1,0,1:2:0:0:
272,304,46822,6,0,L|328:304,1,42.5,10|0,1:2|1:2,0:0:0:0:
314,304,46972,2,0,L|256:304,1,42.5,0|0,1:2|1:2,0:0:0:0:
112,296,47122,2,0,L|56:296,1,42.5,10|0,1:2|1:2,0:0:0:0:
27,296,47272,2,0,L|80:296,1,42.5,0|0,1:2|1:2,0:0:0:0:
224,248,47422,6,0,L|280:248,1,42.5,10|0,1:2|1:2,0:0:0:0:
312,248,47572,2,0,L|354:248,1,42.5,0|0,1:2|1:2,0:0:0:0:
192,200,47722,1,10,1:2:0:0:
147,200,47797,1,0,1:2:0:0:
147,200,47872,1,0,1:2:0:0:
192,199,47947,1,0,1:2:0:0:
352,192,48022,5,10,1:2:0:0:
391,180,48097,1,0,1:2:0:0:
408,143,48172,1,0,1:2:0:0:
391,105,48247,1,0,1:2:0:0:
351,94,48322,1,10,1:2:0:0:
304,96,48397,2,0,L|240:96,1,42.5,0|0,1:2|1:2,0:0:0:0:
261,96,48547,1,0,1:2:0:0:
440,344,48622,5,2,0:0:0:0:
256,192,48772,12,0,49972,0:0:0:0:
216,192,50572,6,0,L|328:192,2,85,0|0|0,0:0|0:0|0:0,0:0:0:0:
432,208,51022,6,0,P|432:152|320:88,1,170,4|10,3:1|0:0,0:0:0:0:
216,88,51472,2,0,L|336:88,1,85,2|0,3:2|0:0,0:0:0:0:
160,256,51772,1,2,0:0:0:0:
75,256,51922,1,8,0:0:0:0:
160,176,52072,1,2,0:0:0:0:
376,320,52222,6,0,L|384:232,1,85,6|0,3:2|0:0,0:0:0:0:
296,224,52522,1,10,0:0:0:0:
160,112,52672,2,0,P|168:176|264:224,1,170,2|0,3:2|3:2,0:0:0:0:
112,200,53122,2,0,L|104:320,1,85,10|2,0:0|3:2,0:0:0:0:
328,344,53422,6,0,L|336:248,1,85,6|0,3:2|0:0,0:0:0:0:
190,190,53722,2,0,L|275:190,1,85,10|0,0:0|0:0,0:0:0:0:
496,112,54022,2,0,L|400:112,1,85,6|0,0:0|0:0,0:0:0:0:
272,104,54322,2,0,L|184:104,1,85,10|0,0:0|0:0,0:0:0:0:
408,152,54622,6,0,L|232:208,1,170,6|10,3:2|0:0,0:0:0:0:
328,96,55072,1,0,3:2:0:0:
456,256,55222,2,0,L|344:256,1,85,2|2,0:0|3:2,0:0:0:0:
232,272,55522,1,10,0:0:0:0:
200,192,55672,1,2,3:2:0:0:
424,280,55822,6,0,L|224:272,1,170,6|10,3:2|0:0,0:0:0:0:
392,128,56272,2,0,L|408:216,1,85,2|0,3:2|0:0,0:0:0:0:
264,144,56572,2,0,L|168:144,2,85,2|8|2,3:2|0:0|0:0,0:0:0:0:
488,256,57022,6,0,L|496:360,1,85,4|2,3:2|0:0,0:0:0:0:
408,328,57322,1,10,0:0:0:0:
264,168,57472,2,0,L|64:168,1,170,2|2,3:2|3:2,0:0:0:0:
176,256,57922,1,10,0:0:0:0:
89,257,58072,1,2,3:2:0:0:
312,256,58222,6,0,P|400:256|472:184,1,170,6|10,3:2|0:0,0:0:0:0:
320,200,58672,2,0,L|136:200,1,170,2|2,3:2|0:0,0:0:0:0:
64,200,59122,1,8,0:0:0:0:
150,200,59272,1,2,3:2:0:0:
368,160,59422,6,0,L|453:160,2,85,6|2|8,3:2|0:0|0:0,0:0:0:0:
224,336,59872,2,0,L|216:232,1,85,2|0,3:2|0:0,0:0:0:0:
304,248,60172,1,2,3:2:0:0:
176,184,60322,1,10,0:0:0:0:
48,184,60472,1,2,3:2:0:0:
280,192,60622,6,0,P|332:144|268:88,1,170,4|10,3:1|0:0,0:0:0:0:
144,256,61072,2,0,L|40:256,1,85,2|0,3:2|0:0,0:0:0:0:
200,192,61372,1,2,0:0:0:0:
112,192,61522,2,0,L|96:72,1,85,8|2,0:0|0:0,0:0:0:0:
344,288,61822,6,0,L|448:288,2,85,6|0|10,3:2|0:0|0:0,0:0:0:0:
208,296,62272,2,0,L|200:88,1,170,2|0,3:2|3:2,0:0:0:0:
328,232,62722,2,0,L|336:128,1,85,10|2,0:0|3:2,0:0:0:0:
112,256,63022,6,0,L|24:256,1,85,6|0,3:2|0:0,0:0:0:0:
168,184,63322,2,0,L|272:184,1,85,10|0,0:0|3:2,0:0:0:0:
24,112,63622,2,0,L|128:152,1,85,6|2,0:0|0:0,0:0:0:0:
242,111,63922,2,0,L|327:111,1,85,10|0,0:0|0:0,0:0:0:0:
105,325,64222,6,0,L|89:237,2,85,6|2|10,3:2|0:0|0:0,0:0:0:0:
195,326,64672,1,0,3:2:0:0:
328,252,64822,1,2,0:0:0:0:
194,251,64972,1,2,3:2:0:0:
328,252,65122,2,0,L|420:253,1,85,10|2,0:0|3:2,0:0:0:0:
200,256,65422,6,0,P|168:224|160:88,1,170,6|10,3:2|0:0,0:0:0:0:
288,48,65872,2,0,L|384:48,1,85,2|0,3:2|0:0,0:0:0:0:
232,336,66172,1,2,3:2:0:0:
144,344,66322,2,0,L|136:232,1,85,8|2,0:0|0:0,0:0:0:0:
352,320,66622,6,0,P|400:296|400:168,1,170,4|10,3:2|0:0,0:0:0:0:
264,168,67072,2,0,L|179:168,2,85,2|0|2,3:2|0:0|3:2,0:0:0:0:
392,56,67522,2,0,L|384:168,1,85,10|2,0:0|3:2,0:0:0:0:
152,304,67822,6,0,P|80:296|56:200,1,170,6|10,3:2|0:0,0:0:0:0:
192,208,68272,2,0,L|16:208,1,170,2|2,3:2|3:2,0:0:0:0:
48,152,68722,1,8,0:0:0:0:
136,152,68872,1,2,3:2:0:0:
368,96,69022,6,0,L|472:96,1,85,6|2,3:2|3:2,0:0:0:0:
240,288,69322,1,12,0:0:0:0:
104,192,69472,2,0,L|8:192,1,85,2|0,3:2|3:2,0:0:0:0:
104,208,69772,1,2,3:2:0:0:
240,208,69922,2,0,L|328:208,1,85,10|10,0:0|0:0,0:0:0:0:
109,120,70222,6,0,L|24:120,1,85,12|2,3:2|0:0,0:0:0:0:
152,64,70522,2,0,L|64:64,1,85,10|2,0:0|3:2,0:0:0:0:
192,224,70822,2,0,L|312:224,1,85,10|0,0:0|0:0,0:0:0:0:
144,288,71122,1,10,0:0:0:0:
264,288,71272,1,2,0:0:0:0:
480,272,71422,6,0,L|488:168,1,85,8|2,3:2|0:0,0:0:0:0:
400,192,71722,1,8,0:0:0:0:
264,200,71872,2,0,L|152:200,1,85,2|8,3:2|0:0,0:0:0:0:
312,128,72172,2,0,L|208:128,2,85,2|8|0,0:0|0:0|0:0,0:0:0:0:
88,256,72622,6,0,L|72:144,1,85,14|0,3:2|0:0,0:0:0:0:
208,240,72922,2,0,L|296:240,1,85,10|2,0:0|3:2,0:0:0:0:
152,160,73222,2,0,L|56:160,1,85,10|0,0:0|0:0,0:0:0:0:
232,96,73522,2,0,L|120:96,1,85,10|2,0:0|0:0,0:0:0:0:
360,104,73822,5,8,3:2:0:0:
344,184,73972,1,2,0:0:0:0:
288,240,74122,1,8,3:2:0:0:
200,256,74272,1,2,3:2:0:0:
64,288,74422,1,8,0:0:0:0:
280,192,74572,1,4,3:2:0:0:
496,216,74722,2,0,L|496:120,1,85,12|8,0:0|3:3,0:0:0:0:
272,136,75022,6,0,L|384:136,1,85,14|0,3:2|0:0,0:0:0:0:
208,192,75322,2,0,L|184:304,1,85,10|0,0:0|3:2,0:0:0:0:
408,328,75622,2,0,L|512:328,1,85,10|0,0:0|0:0,0:0:0:0:
272,304,75922,1,10,0:0:0:0:
48,331,76072,2,0,L|40:224,1,85,2|8,0:0|3:2,0:0:0:0:
264,232,76372,6,0,L|272:128,1,85,2|8,0:0|0:0,0:0:0:0:
184,144,76672,2,0,L|176:240,1,85,2|8,3:2|0:0,0:0:0:0:
312,288,76972,2,0,L|400:288,2,85,2|8|0,0:0|0:0|0:0,0:0:0:0:
96,48,77422,6,0,L|181:48,3,85,14|2|10|2,3:2|0:0|0:0|3:2,0:0:0:0:
328,336,78022,2,0,P|384:288|320:232,1,170,10|10,0:0|0:0,0:0:0:0:
248,232,78472,1,2,0:0:0:0:
32,128,78622,6,0,L|136:128,1,85,8|2,3:2|3:2,0:0:0:0:
384,96,78922,2,0,L|280:96,1,85,12|10,0:0|0:0,0:0:0:0:
424,40,79222,1,10,3:2:0:0:
296,40,79372,1,8,3:2:0:0:
168,176,79522,2,0,L|160:272,1,85,10|8,3:2|3:2,0:0:0:0:
400,352,79822,6,0,P|448:288|392:232,1,170,6|10,3:2|0:0,0:0:0:0:
256,192,80272,2,0,L|456:192,1,170,2|0,3:2|3:2,0:0:0:0:
344,128,80722,1,10,0:0:0:0:
216,128,80872,1,2,0:0:0:0:
344,128,81022,5,0,3:2:0:0:
432,136,81172,1,2,0:0:0:0:
304,312,81322,2,0,L|304:200,1,85,10|0,0:0|3:2,0:0:0:0:
176,312,81622,2,0,L|176:208,1,85,2|0,0:0|3:2,0:0:0:0:
48,312,81922,2,0,L|48:216,1,85,10|2,0:0|3:2,0:0:0:0:
272,184,82222,6,0,L|368:184,1,85,2|0,3:2|0:0,0:0:0:0:
232,120,82522,2,0,L|320:120,1,85,10|0,0:0|3:2,0:0:0:0:
192,136,82822,2,0,L|185:47,1,85,2|0,0:0|3:2,0:0:0:0:
272,56,83122,1,8,0:0:0:0:
144,304,83272,1,2,0:0:0:0:
368,304,83422,5,0,3:2:0:0:
288,304,83572,1,2,0:0:0:0:
160,256,83722,1,8,0:0:0:0:
256,256,83872,1,2,3:2:0:0:
160,256,84022,2,0,L|160:152,1,85,0|0,0:0|3:2,0:0:0:0:
296,168,84322,2,0,L|341:168,1,42.5,10|0,0:0|0:0,0:0:0:0:
296,168,84472,2,0,L|253:168,1,42.5,8|8,0:0|0:0,0:0:0:0:
88,336,84622,6,0,P|32:288|96:232,1,170,6|10,3:2|0:0,0:0:0:0:
216,240,85072,2,0,L|386:240,1,170,2|0,3:2|3:2,0:0:0:0:
256,184,85522,2,0,L|152:184,1,85,10|2,0:0|0:0,0:0:0:0:
384,320,85822,6,0,L|488:320,1,85,0|2,3:2|0:0,0:0:0:0:
336,264,86122,2,0,L|251:264,1,85,10|0,0:0|3:2,0:0:0:0:
384,200,86422,2,0,L|488:200,1,85,2|0,0:0|3:2,0:0:0:0:
336,128,86722,2,0,L|251:128,1,85,10|2,0:0|3:2,0:0:0:0:
24,208,87022,6,0,L|16:88,1,85,2|0,3:2|3:2,0:0:0:0:
64,120,87247,1,0,3:2:0:0:
106,120,87322,1,8,3:3:0:0:
149,120,87397,1,8,3:3:0:0:
106,120,87472,2,0,L|48:120,1,42.5,12|0,3:3|3:2,0:0:0:0:
152,72,87622,5,2,3:2:0:0:
194,72,87697,1,0,0:0:0:0:
237,72,87772,1,0,0:0:0:0:
279,72,87847,1,0,3:2:0:0:
128,264,87922,1,10,0:0:0:0:
80,264,87997,1,10,0:0:0:0:
128,264,88072,1,10,0:0:0:0:
176,264,88147,1,10,0:0:0:0:
352,264,88222,5,14,3:2:0:0:
