osu file format v14

[General]
AudioFilename: audio.mp3
AudioLeadIn: 0
PreviewTime: 187002
Countdown: 1
SampleSet: Soft
StackLeniency: 0.7
Mode: 1
LetterboxInBreaks: 0
WidescreenStoryboard: 0

[Editor]
DistanceSpacing: 0.8
BeatDivisor: 4
GridSize: 8
TimelineZoom: 4.099998

[Metadata]
Title:Air raid
TitleUnicode:Air raid
Artist:yakou
ArtistUnicode:夜孔
Creator:Xay
Version:Stamina raid
Source:
Tags:JAPAN NATIONAL DAY COMPILATION speedcore
BeatmapID:1692384
BeatmapSetID:806258

[Difficulty]
HPDrainRate:6.5
CircleSize:5
OverallDifficulty:8
ApproachRate:5
SliderMultiplier:1.4
SliderTickRate:1

[Events]
//Background and Video events
0,0,"jigrkuz.jpg",0,0
//Break Periods
//Storyboard Layer 0 (Background)
//Storyboard Layer 1 (Fail)
//Storyboard Layer 2 (Pass)
//Storyboard Layer 3 (Foreground)
//Storyboard Layer 4 (Overlay)
//Storyboard Sound Samples

[TimingPoints]
30,240,4,2,0,100,1,0
30,-222.222222222221,4,2,0,5,0,0
30750,-100,4,2,0,100,0,0
30990,-100,4,2,0,30,0,0
34590,-100,4,2,0,100,0,0
34710,-100,4,2,0,30,0,0
38430,-100,4,2,0,100,0,0
38550,-100,4,2,0,30,0,0
42270,-100,4,2,0,100,0,0
42510,-100,4,2,0,30,0,0
46110,-100,4,2,0,100,0,0
46350,-100,4,2,0,30,0,0
47070,-100,4,2,0,100,0,0
47190,-100,4,2,0,30,0,0
48030,-100,4,2,0,100,0,0
48150,-100,4,2,0,30,0,0
48990,-100,4,2,0,100,0,0
49110,-100,4,2,0,30,0,0
49950,-100,4,2,0,100,0,0
50070,-100,4,2,0,30,0,0
50910,-100,4,2,0,100,0,0
51030,-100,4,2,0,30,0,0
51870,-100,4,2,0,100,0,0
51990,-100,4,2,0,30,0,0
52830,-100,4,2,0,100,0,0
52950,-100,4,2,0,30,0,0
53790,-100,4,2,0,100,0,0
53910,-100,4,2,0,30,0,0
54270,-100,4,2,0,100,0,0
54390,-100,4,2,0,30,0,0
54750,-100,4,2,0,100,0,0
54870,-100,4,2,0,30,0,0
55230,-100,4,2,0,100,0,0
55350,-100,4,2,0,30,0,0
55710,-100,4,2,0,100,0,0
55950,-100,4,2,0,30,0,0
56190,-100,4,2,0,100,0,0
56310,-100,4,2,0,30,0,0
56670,-100,4,2,0,100,0,0
56910,-100,4,2,0,30,0,0
57150,-100,4,2,0,100,0,0
57270,-100,4,2,0,30,0,0
57630,-100,4,2,0,100,0,0
60510,-100,4,2,0,30,0,0
63390,-100,4,2,0,100,0,0
128670,-200,4,2,0,5,0,0
159390,-400,4,2,0,5,0,0
190098,-100,4,2,0,100,0,0
266898,-100,4,2,0,100,0,0
282270,-80,4,2,0,100,0,0
297630,-57.1428571428571,4,2,0,100,0,0

[HitObjects]
267,163,30,5,8,0:0:0:0:
265,132,330,1,8,0:0:0:0:
187,177,630,1,8,0:0:0:0:
320,249,930,1,8,0:0:0:0:
228,219,1230,1,8,0:0:0:0:
320,141,1530,1,4,0:0:0:0:
220,142,1950,1,8,0:0:0:0:
102,102,2910,1,0,0:0:0:0:
211,174,3870,1,8,0:0:0:0:
286,158,4170,1,8,0:0:0:0:
270,161,4470,1,8,0:0:0:0:
345,124,4770,1,0,0:0:0:0:
307,152,4830,1,8,0:0:0:0:
349,234,5070,1,8,0:0:0:0:
331,264,5370,1,8,0:0:0:0:
218,167,5790,1,8,0:0:0:0:
72,134,6750,1,0,0:0:0:0:
253,182,7710,1,8,0:0:0:0:
351,297,8010,1,8,0:0:0:0:
188,150,8310,1,8,0:0:0:0:
345,124,8610,1,0,0:0:0:0:
361,131,8670,1,8,0:0:0:0:
113,131,9630,1,8,0:0:0:0:
193,168,10590,1,0,0:0:0:0:
343,203,11550,1,8,0:0:0:0:
302,148,11850,1,8,0:0:0:0:
345,124,12150,1,8,0:0:0:0:
335,160,12450,1,0,0:0:0:0:
218,164,12510,1,8,0:0:0:0:
176,163,12750,1,8,0:0:0:0:
320,141,13050,1,4,0:0:0:0:
320,150,13470,1,8,0:0:0:0:
122,157,14430,1,0,0:0:0:0:
294,229,15390,1,8,0:0:0:0:
365,270,15990,1,0,0:0:0:0:
328,194,16350,1,8,0:0:0:0:
210,167,17310,1,0,0:0:0:0:
380,214,18270,1,8,0:0:0:0:
365,156,19230,1,0,0:0:0:0:
143,95,19530,1,0,0:0:0:0:
134,185,19830,1,0,0:0:0:0:
307,164,20190,1,8,0:0:0:0:
316,143,21150,1,0,0:0:0:0:
248,182,22110,1,8,0:0:0:0:
293,198,23010,1,8,0:0:0:0:
272,181,23070,1,8,0:0:0:0:
121,141,23370,1,0,0:0:0:0:
198,125,23670,1,0,0:0:0:0:
324,250,23970,1,8,0:0:0:0:
377,164,24030,1,8,0:0:0:0:
320,251,24930,1,0,0:0:0:0:
139,161,24990,1,0,0:0:0:0:
286,202,25890,1,8,0:0:0:0:
180,168,25950,1,8,0:0:0:0:
339,236,26850,1,0,0:0:0:0:
288,168,26910,1,8,0:0:0:0:
198,125,27510,1,0,0:0:0:0:
160,164,27810,1,0,0:0:0:0:
377,164,27870,1,8,0:0:0:0:
253,211,28770,1,0,0:0:0:0:
338,167,28830,1,0,0:0:0:0:
192,165,29730,1,0,0:0:0:0:
198,216,29790,1,8,0:0:0:0:
102,98,30750,1,4,0:0:0:0:
184,176,30990,1,0,0:0:0:0:
337,153,31230,1,8,0:0:0:0:
238,109,31470,1,0,0:0:0:0:
250,189,31710,1,8,0:0:0:0:
283,147,31830,1,8,0:0:0:0:
295,124,31950,1,0,0:0:0:0:
294,125,32070,1,0,0:0:0:0:
220,152,32190,1,8,0:0:0:0:
202,79,32230,1,8,0:0:0:0:
202,79,32270,1,8,0:0:0:0:
208,56,32310,1,0,0:0:0:0:
211,46,32370,1,0,0:0:0:0:
129,37,32430,1,8,0:0:0:0:
117,43,32470,1,8,0:0:0:0:
136,133,32510,1,8,0:0:0:0:
117,43,32550,1,0,0:0:0:0:
245,130,32610,1,0,0:0:0:0:
245,130,32670,1,8,0:0:0:0:
305,172,32790,1,0,0:0:0:0:
262,230,32910,1,0,0:0:0:0:
198,184,33030,1,0,0:0:0:0:
207,138,33150,1,8,0:0:0:0:
257,123,33270,1,0,0:0:0:0:
331,274,33390,1,8,0:0:0:0:
309,197,33510,1,8,0:0:0:0:
183,194,33630,1,0,0:0:0:0:
145,145,33750,1,8,0:0:0:0:
241,131,33870,1,0,0:0:0:0:
319,115,33990,1,0,0:0:0:0:
173,96,34110,1,8,0:0:0:0:
263,126,34170,1,8,0:0:0:0:
179,68,34230,1,0,0:0:0:0:
251,52,34290,1,0,0:0:0:0:
341,89,34350,1,8,0:0:0:0:
331,83,34390,1,8,0:0:0:0:
326,86,34430,1,8,0:0:0:0:
324,85,34470,1,8,0:0:0:0:
345,131,34590,1,4,0:0:0:0:
147,168,34710,1,0,0:0:0:0:
190,149,34830,1,8,0:0:0:0:
183,128,34950,1,0,0:0:0:0:
113,92,35070,1,8,0:0:0:0:
113,92,35190,1,0,0:0:0:0:
91,94,35310,1,0,0:0:0:0:
243,166,35430,1,8,0:0:0:0:
231,101,35550,1,12,0:0:0:0:
294,112,35670,1,12,0:0:0:0:
191,134,35790,1,4,0:0:0:0:
154,78,35910,1,12,0:0:0:0:
150,68,36030,1,12,0:0:0:0:
111,162,36150,1,4,0:0:0:0:
75,138,36270,1,12,0:0:0:0:
254,174,36390,1,0,0:0:0:0:
209,185,36510,1,0,0:0:0:0:
172,125,36630,1,8,0:0:0:0:
179,111,36750,1,0,0:0:0:0:
179,111,36870,1,8,0:0:0:0:
174,149,36990,1,8,0:0:0:0:
206,140,37110,1,0,0:0:0:0:
206,140,37230,1,8,0:0:0:0:
206,131,37350,1,0,0:0:0:0:
205,131,37470,1,0,0:0:0:0:
204,131,37590,1,8,0:0:0:0:
239,201,37710,1,0,0:0:0:0:
287,209,37830,1,8,0:0:0:0:
272,72,37950,1,0,0:0:0:0:
143,154,38010,1,0,0:0:0:0:
117,56,38070,1,8,0:0:0:0:
275,109,38130,1,8,0:0:0:0:
338,107,38190,1,0,0:0:0:0:
316,100,38230,1,0,0:0:0:0:
305,100,38270,1,0,0:0:0:0:
300,98,38310,1,8,0:0:0:0:
316,182,38430,1,4,0:0:0:0:
86,167,38550,1,0,0:0:0:0:
201,156,38670,1,8,0:0:0:0:
146,118,38790,1,0,0:0:0:0:
140,115,38910,1,8,0:0:0:0:
110,100,39030,1,8,0:0:0:0:
107,95,39150,1,0,0:0:0:0:
101,97,39270,1,0,0:0:0:0:
91,97,39390,1,8,0:0:0:0:
79,101,39450,1,8,0:0:0:0:
122,131,39510,1,0,0:0:0:0:
146,118,39570,1,0,0:0:0:0:
127,113,39630,1,0,0:0:0:0:
128,110,39690,1,0,0:0:0:0:
118,112,39750,1,0,0:0:0:0:
114,111,39810,1,0,0:0:0:0:
112,112,39870,1,8,0:0:0:0:
263,128,39930,1,8,0:0:0:0:
202,154,39990,1,0,0:0:0:0:
308,94,40050,1,0,0:0:0:0:
206,67,40110,1,0,0:0:0:0:
184,69,40150,1,0,0:0:0:0:
137,58,40190,1,8,0:0:0:0:
114,60,40230,1,8,0:0:0:0:
349,249,40350,1,0,0:0:0:0:
320,152,40470,1,8,0:0:0:0:
198,168,40590,1,0,0:0:0:0:
168,160,40710,1,0,0:0:0:0:
178,155,40830,1,0,0:0:0:0:
214,96,40890,1,8,0:0:0:0:
139,116,40950,1,0,0:0:0:0:
185,67,41010,1,8,0:0:0:0:
133,107,41070,1,0,0:0:0:0:
185,67,41130,1,8,0:0:0:0:
270,197,41190,1,0,0:0:0:0:
346,119,41310,1,12,0:0:0:0:
262,110,41430,1,4,0:0:0:0:
241,118,41550,1,12,0:0:0:0:
224,109,41670,1,12,0:0:0:0:
225,107,41790,1,12,0:0:0:0:
168,143,41910,1,4,0:0:0:0:
88,114,42030,1,4,0:0:0:0:
101,90,42150,1,12,0:0:0:0:
248,191,42270,1,4,0:0:0:0:
353,152,42510,1,8,0:0:0:0:
267,111,42630,1,0,0:0:0:0:
216,143,42750,1,8,0:0:0:0:
152,102,42870,1,8,0:0:0:0:
152,102,42990,1,0,0:0:0:0:
250,177,43110,1,8,0:0:0:0:
258,173,43230,1,0,0:0:0:0:
145,171,43350,1,0,0:0:0:0:
145,171,43410,1,0,0:0:0:0:
308,151,43470,1,8,0:0:0:0:
234,115,43590,1,0,0:0:0:0:
205,64,43710,1,8,0:0:0:0:
161,63,43830,1,0,0:0:0:0:
161,63,43950,1,0,0:0:0:0:
200,154,44070,1,8,0:0:0:0:
141,101,44190,1,0,0:0:0:0:
326,153,44310,1,12,0:0:0:0:
284,106,44430,1,0,0:0:0:0:
239,53,44550,1,12,0:0:0:0:
353,72,44670,1,8,0:0:0:0:
139,72,44790,1,4,0:0:0:0:
210,118,44910,1,8,0:0:0:0:
184,110,45030,1,4,0:0:0:0:
352,175,45150,1,4,0:0:0:0:
319,126,45390,1,12,0:0:0:0:
294,127,45630,1,12,0:0:0:0:
294,127,45870,1,12,0:0:0:0:
340,159,46110,1,4,0:0:0:0:
206,131,46350,1,8,0:0:0:0:
95,85,46470,1,0,0:0:0:0:
243,61,46590,1,8,0:0:0:0:
126,74,46710,1,0,0:0:0:0:
142,69,46830,1,0,0:0:0:0:
159,79,46950,1,8,0:0:0:0:
150,150,47070,1,4,0:0:0:0:
246,148,47190,1,8,0:0:0:0:
336,128,47310,1,0,0:0:0:0:
302,101,47370,1,0,0:0:0:0:
198,56,47430,1,0,0:0:0:0:
198,56,47490,1,0,0:0:0:0:
260,84,47550,1,8,0:0:0:0:
218,79,47610,1,8,0:0:0:0:
208,85,47670,1,8,0:0:0:0:
218,138,47730,1,8,0:0:0:0:
191,59,47790,1,0,0:0:0:0:
249,89,47830,1,0,0:0:0:0:
179,149,47870,1,0,0:0:0:0:
180,74,47910,1,8,0:0:0:0:
179,74,48030,1,4,0:0:0:0:
158,141,48150,1,0,0:0:0:0:
256,137,48270,1,8,0:0:0:0:
314,101,48390,1,0,0:0:0:0:
272,88,48510,1,8,0:0:0:0:
192,79,48630,1,0,0:0:0:0:
192,79,48750,1,0,0:0:0:0:
188,87,48870,1,8,0:0:0:0:
232,161,48990,1,4,0:0:0:0:
207,138,49110,1,0,0:0:0:0:
200,138,49230,1,8,0:0:0:0:
209,177,49350,1,0,0:0:0:0:
331,139,49470,1,8,0:0:0:0:
259,112,49530,1,8,0:0:0:0:
254,107,49590,1,0,0:0:0:0:
202,162,49650,1,0,0:0:0:0:
270,69,49710,1,8,0:0:0:0:
204,53,49750,1,8,0:0:0:0:
110,62,49790,1,8,0:0:0:0:
147,74,49830,1,8,0:0:0:0:
205,221,49950,1,4,0:0:0:0:
213,136,50070,1,0,0:0:0:0:
86,106,50190,1,8,0:0:0:0:
103,123,50310,1,0,0:0:0:0:
102,123,50430,1,0,0:0:0:0:
126,142,50550,1,8,0:0:0:0:
126,142,50670,1,0,0:0:0:0:
217,195,50790,1,8,0:0:0:0:
157,184,50910,1,4,0:0:0:0:
263,86,51030,1,12,0:0:0:0:
163,94,51150,1,12,0:0:0:0:
153,91,51270,1,12,0:0:0:0:
249,154,51390,1,4,0:0:0:0:
195,145,51510,1,4,0:0:0:0:
172,138,51630,1,4,0:0:0:0:
280,102,51750,1,12,0:0:0:0:
218,61,51870,1,4,0:0:0:0:
155,157,51990,1,0,0:0:0:0:
173,131,52110,1,8,0:0:0:0:
235,151,52230,1,0,0:0:0:0:
206,134,52350,1,8,0:0:0:0:
110,118,52470,1,0,0:0:0:0:
110,118,52590,1,0,0:0:0:0:
110,118,52710,1,8,0:0:0:0:
268,212,52830,1,4,0:0:0:0:
311,168,52950,1,8,0:0:0:0:
165,72,53070,1,0,0:0:0:0:
161,93,53190,1,0,0:0:0:0:
277,72,53310,1,0,0:0:0:0:
242,60,53370,1,0,0:0:0:0:
191,46,53430,1,8,0:0:0:0:
313,65,53490,1,8,0:0:0:0:
305,114,53550,1,0,0:0:0:0:
213,101,53590,1,8,0:0:0:0:
196,99,53630,1,8,0:0:0:0:
161,88,53670,1,8,0:0:0:0:
320,62,53790,1,4,0:0:0:0:
187,134,53910,1,0,0:0:0:0:
84,99,54030,1,8,0:0:0:0:
130,127,54150,1,8,0:0:0:0:
220,57,54270,1,4,0:0:0:0:
247,166,54390,1,8,0:0:0:0:
233,120,54510,1,0,0:0:0:0:
154,62,54630,1,8,0:0:0:0:
95,42,54750,1,4,0:0:0:0:
181,149,54870,1,0,0:0:0:0:
77,142,54990,1,0,0:0:0:0:
120,114,55110,1,8,0:0:0:0:
120,108,55230,1,4,0:0:0:0:
216,119,55350,1,8,0:0:0:0:
149,86,55470,1,8,0:0:0:0:
147,86,55590,1,8,0:0:0:0:
182,76,55710,1,4,0:0:0:0:
186,168,55950,1,8,0:0:0:0:
338,138,56070,1,8,0:0:0:0:
258,147,56190,1,4,0:0:0:0:
139,142,56310,1,8,0:0:0:0:
178,125,56430,1,0,0:0:0:0:
253,118,56670,1,4,0:0:0:0:
315,237,56910,1,0,0:0:0:0:
209,181,57030,1,8,0:0:0:0:
327,191,57150,1,4,0:0:0:0:
161,94,57270,1,8,0:0:0:0:
161,94,57330,1,0,0:0:0:0:
161,94,57390,1,0,0:0:0:0:
161,94,57450,1,8,0:0:0:0:
161,94,57510,1,8,0:0:0:0:
161,94,57570,1,8,0:0:0:0:
347,159,57630,1,4,0:0:0:0:
243,133,57870,1,4,0:0:0:0:
238,106,58110,1,4,0:0:0:0:
236,79,58350,1,4,0:0:0:0:
218,80,58590,1,4,0:0:0:0:
217,90,58830,1,4,0:0:0:0:
151,143,59070,1,4,0:0:0:0:
283,289,59310,1,4,0:0:0:0:
253,195,59550,1,4,0:0:0:0:
195,106,59670,1,4,0:0:0:0:
257,93,59790,1,4,0:0:0:0:
257,93,59910,1,4,0:0:0:0:
292,153,60030,1,4,0:0:0:0:
216,150,60150,1,4,0:0:0:0:
130,166,60270,1,4,0:0:0:0:
139,128,60390,1,4,0:0:0:0:
356,83,60510,1,8,0:0:0:0:
241,248,60570,1,8,0:0:0:0:
191,90,60630,1,0,0:0:0:0:
154,90,60690,1,8,0:0:0:0:
143,79,60750,1,8,0:0:0:0:
116,73,60810,1,0,0:0:0:0:
116,73,60870,1,0,0:0:0:0:
116,73,60930,1,0,0:0:0:0:
116,73,60990,1,8,0:0:0:0:
191,90,61050,1,8,0:0:0:0:
116,73,61110,1,0,0:0:0:0:
116,73,61170,1,0,0:0:0:0:
110,72,61230,1,8,0:0:0:0:
89,134,61290,1,0,0:0:0:0:
109,72,61350,1,8,0:0:0:0:
106,72,61390,1,8,0:0:0:0:
181,125,61430,1,8,0:0:0:0:
246,138,61470,1,8,0:0:0:0:
270,187,63390,1,0,0:0:0:0:
202,154,63450,1,0,0:0:0:0:
186,113,63510,1,0,0:0:0:0:
202,48,63570,1,0,0:0:0:0:
289,78,63630,1,8,0:0:0:0:
280,72,63690,1,8,0:0:0:0:
261,71,63750,1,8,0:0:0:0:
239,72,63810,1,8,0:0:0:0:
302,149,63870,1,0,0:0:0:0:
257,141,63930,1,0,0:0:0:0:
232,141,63990,1,0,0:0:0:0:
206,140,64050,1,0,0:0:0:0:
204,141,64110,1,8,0:0:0:0:
204,141,64170,1,8,0:0:0:0:
197,140,64230,1,8,0:0:0:0:
198,140,64290,1,8,0:0:0:0:
201,140,64350,1,0,0:0:0:0:
201,140,64410,1,0,0:0:0:0:
206,140,64470,1,8,0:0:0:0:
206,140,64530,1,8,0:0:0:0:
206,140,64590,1,0,0:0:0:0:
206,140,64650,1,0,0:0:0:0:
206,140,64710,1,8,0:0:0:0:
206,140,64770,1,8,0:0:0:0:
72,149,64830,1,0,0:0:0:0:
123,153,64870,1,0,0:0:0:0:
147,118,64910,1,0,0:0:0:0:
234,86,64950,1,8,0:0:0:0:
223,85,65010,1,8,0:0:0:0:
218,125,65070,1,0,0:0:0:0:
206,83,65110,1,0,0:0:0:0:
152,120,65150,1,0,0:0:0:0:
201,119,65190,1,8,0:0:0:0:
303,172,65250,1,8,0:0:0:0:
166,128,65310,1,0,0:0:0:0:
183,114,65370,1,0,0:0:0:0:
176,98,65430,1,0,0:0:0:0:
168,101,65490,1,0,0:0:0:0:
163,101,65550,1,8,0:0:0:0:
140,98,65610,1,8,0:0:0:0:
139,97,65670,1,0,0:0:0:0:
132,96,65730,1,8,0:0:0:0:
132,97,65790,1,0,0:0:0:0:
132,97,65850,1,8,0:0:0:0:
129,101,65910,1,0,0:0:0:0:
129,101,65970,1,8,0:0:0:0:
128,101,66030,1,8,0:0:0:0:
128,101,66090,1,8,0:0:0:0:
128,101,66150,1,0,0:0:0:0:
128,101,66210,1,0,0:0:0:0:
201,121,66270,1,8,0:0:0:0:
202,101,66330,1,8,0:0:0:0:
176,83,66390,1,0,0:0:0:0:
176,83,66450,1,0,0:0:0:0:
176,84,66510,1,8,0:0:0:0:
229,105,66570,1,8,0:0:0:0:
169,63,66630,1,0,0:0:0:0:
167,64,66690,1,8,0:0:0:0:
244,145,66750,1,0,0:0:0:0:
262,92,66870,1,0,0:0:0:0:
250,97,66930,1,0,0:0:0:0:
249,97,66990,1,8,0:0:0:0:
101,108,67030,1,8,0:0:0:0:
125,92,67070,1,8,0:0:0:0:
174,131,67110,1,8,0:0:0:0:
260,193,67230,1,0,0:0:0:0:
260,193,67290,1,0,0:0:0:0:
186,113,67350,1,0,0:0:0:0:
202,48,67410,1,0,0:0:0:0:
289,78,67470,1,8,0:0:0:0:
280,72,67530,1,8,0:0:0:0:
261,71,67590,1,8,0:0:0:0:
239,72,67650,1,8,0:0:0:0:
302,149,67710,1,0,0:0:0:0:
257,141,67770,1,0,0:0:0:0:
232,141,67830,1,0,0:0:0:0:
206,140,67890,1,0,0:0:0:0:
204,141,67950,1,8,0:0:0:0:
204,141,68010,1,8,0:0:0:0:
197,140,68070,1,8,0:0:0:0:
198,140,68130,1,8,0:0:0:0:
201,140,68190,1,0,0:0:0:0:
201,140,68250,1,8,0:0:0:0:
206,140,68310,1,0,0:0:0:0:
206,140,68370,1,8,0:0:0:0:
206,140,68430,1,0,0:0:0:0:
206,140,68490,1,8,0:0:0:0:
206,140,68550,1,8,0:0:0:0:
206,140,68610,1,8,0:0:0:0:
206,140,68670,1,0,0:0:0:0:
261,101,68730,1,8,0:0:0:0:
234,86,68790,1,8,0:0:0:0:
223,85,68850,1,0,0:0:0:0:
206,83,68910,1,8,0:0:0:0:
267,172,68970,1,0,0:0:0:0:
239,145,69030,1,8,0:0:0:0:
168,141,69090,1,8,0:0:0:0:
303,172,69150,1,0,0:0:0:0:
183,114,69210,1,0,0:0:0:0:
176,98,69270,1,0,0:0:0:0:
168,101,69330,1,0,0:0:0:0:
163,101,69390,1,8,0:0:0:0:
140,98,69450,1,8,0:0:0:0:
139,97,69510,1,8,0:0:0:0:
132,96,69570,1,8,0:0:0:0:
132,97,69630,1,0,0:0:0:0:
132,97,69690,1,0,0:0:0:0:
129,101,69750,1,8,0:0:0:0:
129,101,69810,1,8,0:0:0:0:
128,101,69870,1,0,0:0:0:0:
128,101,69930,1,0,0:0:0:0:
128,101,69990,1,8,0:0:0:0:
128,101,70050,1,8,0:0:0:0:
201,121,70110,1,0,0:0:0:0:
180,151,70230,1,0,0:0:0:0:
312,138,70290,1,8,0:0:0:0:
172,139,70350,1,0,0:0:0:0:
201,127,70470,1,0,0:0:0:0:
227,156,70590,1,0,0:0:0:0:
285,158,70630,1,0,0:0:0:0:
228,144,70670,1,0,0:0:0:0:
228,142,70710,1,8,0:0:0:0:
253,134,70770,1,8,0:0:0:0:
219,143,70830,1,0,0:0:0:0:
217,139,70870,1,0,0:0:0:0:
217,139,70910,1,0,0:0:0:0:
216,137,70950,1,8,0:0:0:0:
251,118,71010,1,8,0:0:0:0:
270,187,71070,1,0,0:0:0:0:
202,154,71130,1,0,0:0:0:0:
186,113,71190,1,0,0:0:0:0:
202,48,71250,1,0,0:0:0:0:
289,78,71310,1,8,0:0:0:0:
280,72,71370,1,8,0:0:0:0:
261,71,71430,1,8,0:0:0:0:
239,72,71490,1,8,0:0:0:0:
302,149,71550,1,0,0:0:0:0:
257,141,71610,1,0,0:0:0:0:
232,140,71670,1,8,0:0:0:0:
206,140,71730,1,0,0:0:0:0:
204,141,71790,1,0,0:0:0:0:
204,141,71850,1,0,0:0:0:0:
197,140,71910,1,8,0:0:0:0:
198,140,71970,1,0,0:0:0:0:
147,144,72030,1,8,0:0:0:0:
250,133,72070,1,8,0:0:0:0:
206,140,72110,1,8,0:0:0:0:
206,140,72150,1,0,0:0:0:0:
187,139,72210,1,0,0:0:0:0:
239,135,72270,1,0,0:0:0:0:
268,156,72330,1,0,0:0:0:0:
206,140,72390,1,0,0:0:0:0:
206,140,72450,1,8,0:0:0:0:
206,140,72510,1,8,0:0:0:0:
127,113,72570,1,0,0:0:0:0:
234,86,72630,1,0,0:0:0:0:
223,85,72690,1,8,0:0:0:0:
267,172,72750,1,8,0:0:0:0:
239,145,72790,1,8,0:0:0:0:
168,141,72830,1,8,0:0:0:0:
303,172,72870,1,0,0:0:0:0:
160,134,72930,1,0,0:0:0:0:
208,79,72990,1,0,0:0:0:0:
183,114,73050,1,0,0:0:0:0:
176,98,73110,1,0,0:0:0:0:
168,101,73170,1,0,0:0:0:0:
163,101,73230,1,8,0:0:0:0:
140,98,73290,1,8,0:0:0:0:
139,97,73350,1,8,0:0:0:0:
132,96,73410,1,8,0:0:0:0:
132,97,73470,1,0,0:0:0:0:
132,97,73530,1,0,0:0:0:0:
129,101,73590,1,8,0:0:0:0:
129,101,73650,1,8,0:0:0:0:
128,101,73710,1,0,0:0:0:0:
128,101,73770,1,0,0:0:0:0:
128,101,73830,1,8,0:0:0:0:
128,101,73890,1,8,0:0:0:0:
201,121,73950,1,0,0:0:0:0:
202,101,74010,1,8,0:0:0:0:
176,83,74070,1,0,0:0:0:0:
176,83,74130,1,8,0:0:0:0:
176,84,74190,1,8,0:0:0:0:
229,105,74250,1,8,0:0:0:0:
169,63,74310,1,0,0:0:0:0:
167,64,74370,1,8,0:0:0:0:
244,145,74430,1,0,0:0:0:0:
176,126,74550,1,8,0:0:0:0:
151,108,74610,1,0,0:0:0:0:
148,99,74670,1,8,0:0:0:0:
206,131,74790,1,8,0:0:0:0:
270,187,74910,1,0,0:0:0:0:
202,154,74970,1,0,0:0:0:0:
186,113,75030,1,0,0:0:0:0:
202,48,75090,1,0,0:0:0:0:
289,78,75150,1,8,0:0:0:0:
280,72,75210,1,8,0:0:0:0:
261,71,75270,1,8,0:0:0:0:
239,72,75330,1,8,0:0:0:0:
302,149,75390,1,0,0:0:0:0:
257,141,75450,1,0,0:0:0:0:
232,141,75510,1,0,0:0:0:0:
206,140,75570,1,0,0:0:0:0:
204,141,75630,1,8,0:0:0:0:
204,141,75690,1,8,0:0:0:0:
197,140,75750,1,8,0:0:0:0:
198,140,75810,1,8,0:0:0:0:
201,140,75870,1,0,0:0:0:0:
201,140,75930,1,0,0:0:0:0:
206,140,75990,1,8,0:0:0:0:
206,140,76050,1,8,0:0:0:0:
206,140,76110,1,0,0:0:0:0:
206,140,76170,1,8,0:0:0:0:
206,140,76230,1,8,0:0:0:0:
206,140,76290,1,8,0:0:0:0:
206,140,76350,1,0,0:0:0:0:
261,101,76410,1,8,0:0:0:0:
234,86,76470,1,8,0:0:0:0:
223,85,76530,1,0,0:0:0:0:
206,83,76590,1,8,0:0:0:0:
267,172,76650,1,0,0:0:0:0:
239,145,76710,1,8,0:0:0:0:
168,141,76770,1,8,0:0:0:0:
303,172,76830,1,0,0:0:0:0:
183,114,76890,1,0,0:0:0:0:
176,98,76950,1,0,0:0:0:0:
168,101,77010,1,0,0:0:0:0:
163,101,77070,1,8,0:0:0:0:
140,98,77130,1,8,0:0:0:0:
139,97,77190,1,8,0:0:0:0:
132,96,77250,1,8,0:0:0:0:
132,97,77310,1,0,0:0:0:0:
132,97,77370,1,0,0:0:0:0:
129,101,77430,1,8,0:0:0:0:
129,101,77490,1,8,0:0:0:0:
128,101,77550,1,0,0:0:0:0:
128,101,77610,1,0,0:0:0:0:
128,101,77670,1,8,0:0:0:0:
128,101,77730,1,8,0:0:0:0:
201,121,77790,1,0,0:0:0:0:
129,155,77850,1,0,0:0:0:0:
118,164,77910,1,0,0:0:0:0:
220,171,78030,1,8,0:0:0:0:
188,153,78150,1,0,0:0:0:0:
176,143,78210,1,0,0:0:0:0:
246,97,78270,1,8,0:0:0:0:
280,216,78390,1,0,0:0:0:0:
253,108,78510,1,8,0:0:0:0:
333,194,78570,1,8,0:0:0:0:
295,157,78630,1,8,0:0:0:0:
287,157,78690,1,8,0:0:0:0:
272,230,78750,1,0,0:0:0:0:
169,152,78810,1,0,0:0:0:0:
159,134,78870,1,0,0:0:0:0:
137,112,78930,1,0,0:0:0:0:
137,112,78990,1,8,0:0:0:0:
131,111,79050,1,8,0:0:0:0:
131,111,79110,1,0,0:0:0:0:
131,111,79170,1,0,0:0:0:0:
131,111,79230,1,8,0:0:0:0:
131,111,79290,1,8,0:0:0:0:
161,159,79350,1,0,0:0:0:0:
160,156,79410,1,0,0:0:0:0:
155,151,79470,1,0,0:0:0:0:
155,151,79530,1,0,0:0:0:0:
213,128,79590,1,8,0:0:0:0:
200,120,79650,1,8,0:0:0:0:
289,166,79710,1,0,0:0:0:0:
269,79,79770,1,8,0:0:0:0:
230,57,79830,1,0,0:0:0:0:
180,52,79890,1,0,0:0:0:0:
180,52,79950,1,8,0:0:0:0:
141,57,80010,1,8,0:0:0:0:
141,57,80070,1,8,0:0:0:0:
217,134,80130,1,8,0:0:0:0:
291,117,80190,1,0,0:0:0:0:
291,117,80230,1,0,0:0:0:0:
297,118,80270,1,0,0:0:0:0:
204,109,80310,1,8,0:0:0:0:
209,118,80370,1,8,0:0:0:0:
237,166,80430,1,0,0:0:0:0:
118,140,80470,1,0,0:0:0:0:
243,156,80510,1,0,0:0:0:0:
262,107,80550,1,8,0:0:0:0:
209,67,80610,1,8,0:0:0:0:
209,67,80670,1,0,0:0:0:0:
233,119,80730,1,0,0:0:0:0:
233,119,80790,1,0,0:0:0:0:
233,119,80850,1,0,0:0:0:0:
232,118,80910,1,8,0:0:0:0:
232,118,80970,1,8,0:0:0:0:
231,117,81030,1,0,0:0:0:0:
231,117,81090,1,0,0:0:0:0:
231,117,81150,1,8,0:0:0:0:
225,121,81210,1,8,0:0:0:0:
224,121,81270,1,8,0:0:0:0:
224,122,81330,1,8,0:0:0:0:
224,122,81390,1,0,0:0:0:0:
307,143,81450,1,0,0:0:0:0:
121,103,81510,1,8,0:0:0:0:
121,103,81570,1,0,0:0:0:0:
163,94,81630,1,0,0:0:0:0:
163,94,81690,1,0,0:0:0:0:
163,94,81750,1,8,0:0:0:0:
228,182,81810,1,8,0:0:0:0:
159,154,81870,1,0,0:0:0:0:
213,82,81930,1,8,0:0:0:0:
213,82,81990,1,0,0:0:0:0:
206,77,82050,1,8,0:0:0:0:
206,77,82110,1,0,0:0:0:0:
228,147,82230,1,0,0:0:0:0:
213,131,82290,1,0,0:0:0:0:
219,94,82350,1,8,0:0:0:0:
205,94,82390,1,8,0:0:0:0:
202,94,82430,1,8,0:0:0:0:
200,93,82470,1,8,0:0:0:0:
297,219,82590,1,0,0:0:0:0:
194,116,82650,1,0,0:0:0:0:
193,116,82710,1,0,0:0:0:0:
194,116,82770,1,0,0:0:0:0:
196,116,82830,1,8,0:0:0:0:
196,116,82890,1,8,0:0:0:0:
196,116,82950,1,0,0:0:0:0:
180,139,83010,1,0,0:0:0:0:
170,113,83070,1,8,0:0:0:0:
168,112,83130,1,8,0:0:0:0:
170,113,83190,1,0,0:0:0:0:
170,113,83250,1,0,0:0:0:0:
254,177,83310,1,0,0:0:0:0:
233,106,83370,1,0,0:0:0:0:
203,96,83430,1,8,0:0:0:0:
198,90,83490,1,8,0:0:0:0:
181,96,83550,1,0,0:0:0:0:
207,116,83610,1,0,0:0:0:0:
151,120,83670,1,0,0:0:0:0:
151,120,83730,1,0,0:0:0:0:
151,120,83790,1,8,0:0:0:0:
150,120,83850,1,8,0:0:0:0:
150,120,83910,1,0,0:0:0:0:
150,120,83970,1,0,0:0:0:0:
260,168,84030,1,8,0:0:0:0:
216,102,84090,1,0,0:0:0:0:
216,102,84150,1,8,0:0:0:0:
215,102,84210,1,0,0:0:0:0:
215,102,84270,1,8,0:0:0:0:
287,106,84330,1,8,0:0:0:0:
249,78,84390,1,8,0:0:0:0:
241,71,84450,1,8,0:0:0:0:
320,150,84510,1,0,0:0:0:0:
183,137,84570,1,0,0:0:0:0:
170,134,84630,1,0,0:0:0:0:
142,113,84690,1,0,0:0:0:0:
139,113,84750,1,8,0:0:0:0:
136,109,84810,1,0,0:0:0:0:
136,109,84870,1,0,0:0:0:0:
136,109,84930,1,0,0:0:0:0:
136,109,84990,1,8,0:0:0:0:
267,147,85050,1,0,0:0:0:0:
205,91,85110,1,8,0:0:0:0:
189,89,85170,1,0,0:0:0:0:
166,104,85230,1,8,0:0:0:0:
191,75,85290,1,8,0:0:0:0:
191,74,85350,1,8,0:0:0:0:
191,74,85410,1,8,0:0:0:0:
201,121,85470,1,0,0:0:0:0:
180,151,85590,1,0,0:0:0:0:
312,138,85650,1,8,0:0:0:0:
172,139,85710,1,0,0:0:0:0:
201,127,85830,1,0,0:0:0:0:
213,102,85950,1,8,0:0:0:0:
150,115,85990,1,8,0:0:0:0:
149,116,86030,1,8,0:0:0:0:
154,75,86070,1,0,0:0:0:0:
192,94,86130,1,0,0:0:0:0:
176,69,86190,1,8,0:0:0:0:
165,68,86230,1,8,0:0:0:0:
236,72,86270,1,8,0:0:0:0:
195,64,86310,1,0,0:0:0:0:
251,118,86370,1,0,0:0:0:0:
270,187,86430,1,0,0:0:0:0:
271,97,86490,1,0,0:0:0:0:
239,60,86550,1,0,0:0:0:0:
235,60,86610,1,0,0:0:0:0:
308,158,86670,1,8,0:0:0:0:
224,75,86730,1,8,0:0:0:0:
185,155,86790,1,0,0:0:0:0:
224,76,86850,1,0,0:0:0:0:
224,76,86910,1,0,0:0:0:0:
224,75,86970,1,0,0:0:0:0:
236,99,87030,1,8,0:0:0:0:
223,75,87090,1,8,0:0:0:0:
225,129,87150,1,0,0:0:0:0:
221,75,87210,1,0,0:0:0:0:
184,105,87270,1,0,0:0:0:0:
221,75,87330,1,0,0:0:0:0:
158,80,87390,1,8,0:0:0:0:
165,85,87450,1,8,0:0:0:0:
149,80,87510,1,8,0:0:0:0:
158,116,87570,1,8,0:0:0:0:
89,64,87630,1,0,0:0:0:0:
83,55,87690,1,0,0:0:0:0:
236,142,87750,1,8,0:0:0:0:
261,120,87810,1,0,0:0:0:0:
99,152,87870,1,8,0:0:0:0:
148,62,87930,1,8,0:0:0:0:
140,118,87990,1,8,0:0:0:0:
138,54,88050,1,0,0:0:0:0:
243,147,88110,1,8,0:0:0:0:
137,53,88170,1,0,0:0:0:0:
176,123,88230,1,8,0:0:0:0:
190,147,88290,1,0,0:0:0:0:
137,134,88350,1,0,0:0:0:0:
308,129,88410,1,0,0:0:0:0:
131,164,88470,1,0,0:0:0:0:
196,119,88530,1,0,0:0:0:0:
150,163,88590,1,8,0:0:0:0:
246,167,88650,1,8,0:0:0:0:
224,156,88710,1,0,0:0:0:0:
209,153,88770,1,0,0:0:0:0:
200,160,88830,1,0,0:0:0:0:
209,153,88890,1,0,0:0:0:0:
235,221,88950,1,8,0:0:0:0:
209,153,89010,1,8,0:0:0:0:
206,151,89070,1,0,0:0:0:0:
205,152,89130,1,0,0:0:0:0:
131,164,89190,1,0,0:0:0:0:
204,153,89250,1,0,0:0:0:0:
131,164,89310,1,8,0:0:0:0:
204,153,89370,1,8,0:0:0:0:
202,156,89430,1,0,0:0:0:0:
202,157,89490,1,0,0:0:0:0:
200,145,89550,1,8,0:0:0:0:
201,157,89610,1,8,0:0:0:0:
150,132,89670,1,0,0:0:0:0:
201,157,89730,1,8,0:0:0:0:
58,158,89790,1,0,0:0:0:0:
261,131,89910,1,8,0:0:0:0:
156,119,89970,1,0,0:0:0:0:
185,80,90030,1,8,0:0:0:0:
218,209,90150,1,8,0:0:0:0:
309,197,90270,1,0,0:0:0:0:
173,156,90330,1,0,0:0:0:0:
173,156,90390,1,0,0:0:0:0:
161,159,90450,1,0,0:0:0:0:
161,159,90510,1,8,0:0:0:0:
161,159,90570,1,8,0:0:0:0:
161,160,90630,1,8,0:0:0:0:
159,162,90690,1,8,0:0:0:0:
159,162,90750,1,0,0:0:0:0:
152,164,90810,1,0,0:0:0:0:
150,168,90870,1,0,0:0:0:0:
149,168,90930,1,0,0:0:0:0:
149,168,90990,1,8,0:0:0:0:
149,168,91050,1,8,0:0:0:0:
148,166,91110,1,0,0:0:0:0:
149,168,91170,1,8,0:0:0:0:
80,152,91230,1,0,0:0:0:0:
80,152,91290,1,0,0:0:0:0:
80,152,91350,1,0,0:0:0:0:
80,152,91410,1,0,0:0:0:0:
80,152,91470,1,8,0:0:0:0:
80,152,91530,1,8,0:0:0:0:
80,152,91590,1,0,0:0:0:0:
80,152,91650,1,8,0:0:0:0:
232,149,91710,1,8,0:0:0:0:
192,109,91770,1,8,0:0:0:0:
125,64,91830,1,0,0:0:0:0:
75,69,91890,1,8,0:0:0:0:
183,147,91950,1,0,0:0:0:0:
270,125,92010,1,0,0:0:0:0:
206,97,92070,1,0,0:0:0:0:
169,96,92130,1,0,0:0:0:0:
169,96,92190,1,8,0:0:0:0:
164,108,92250,1,8,0:0:0:0:
121,101,92310,1,0,0:0:0:0:
93,76,92370,1,8,0:0:0:0:
91,84,92430,1,0,0:0:0:0:
91,82,92490,1,0,0:0:0:0:
91,82,92550,1,8,0:0:0:0:
91,83,92610,1,0,0:0:0:0:
91,83,92670,1,8,0:0:0:0:
91,83,92730,1,8,0:0:0:0:
87,88,92790,1,0,0:0:0:0:
87,88,92850,1,8,0:0:0:0:
72,154,92910,1,0,0:0:0:0:
162,132,92970,1,8,0:0:0:0:
280,190,93030,1,0,0:0:0:0:
228,105,93090,1,0,0:0:0:0:
101,109,93150,1,8,0:0:0:0:
172,159,93210,1,8,0:0:0:0:
145,145,93270,1,8,0:0:0:0:
136,170,93330,1,8,0:0:0:0:
210,161,93390,1,0,0:0:0:0:
172,131,93450,1,0,0:0:0:0:
128,99,93510,1,8,0:0:0:0:
157,128,93570,1,8,0:0:0:0:
172,175,93630,1,8,0:0:0:0:
166,130,93690,1,0,0:0:0:0:
128,104,93750,1,8,0:0:0:0:
179,137,93810,1,0,0:0:0:0:
216,143,93870,1,8,0:0:0:0:
105,141,93930,1,8,0:0:0:0:
243,134,93990,1,8,0:0:0:0:
174,49,94050,1,8,0:0:0:0:
311,138,94110,1,0,0:0:0:0:
239,189,94170,1,0,0:0:0:0:
148,166,94230,1,0,0:0:0:0:
148,166,94290,1,0,0:0:0:0:
126,171,94350,1,8,0:0:0:0:
126,171,94410,1,8,0:0:0:0:
131,151,94470,1,8,0:0:0:0:
132,149,94530,1,8,0:0:0:0:
132,149,94590,1,0,0:0:0:0:
132,149,94650,1,0,0:0:0:0:
132,149,94710,1,0,0:0:0:0:
132,149,94770,1,0,0:0:0:0:
132,150,94830,1,8,0:0:0:0:
132,150,94890,1,8,0:0:0:0:
126,158,94950,1,0,0:0:0:0:
126,158,95010,1,8,0:0:0:0:
126,158,95070,1,0,0:0:0:0:
123,159,95130,1,0,0:0:0:0:
123,159,95190,1,0,0:0:0:0:
124,159,95250,1,0,0:0:0:0:
93,134,95310,1,8,0:0:0:0:
47,107,95370,1,8,0:0:0:0:
47,107,95430,1,8,0:0:0:0:
47,107,95490,1,8,0:0:0:0:
297,206,95550,1,0,0:0:0:0:
202,125,95590,1,0,0:0:0:0:
188,85,95630,1,0,0:0:0:0:
153,58,95670,1,8,0:0:0:0:
282,81,95730,1,8,0:0:0:0:
224,50,95790,1,0,0:0:0:0:
181,149,95830,1,0,0:0:0:0:
185,40,95870,1,0,0:0:0:0:
223,138,95910,1,8,0:0:0:0:
229,142,95970,1,8,0:0:0:0:
407,89,96030,1,0,0:0:0:0:
263,149,96090,1,0,0:0:0:0:
244,119,96150,1,0,0:0:0:0:
203,118,96210,1,0,0:0:0:0:
202,118,96270,1,8,0:0:0:0:
114,128,96330,1,8,0:0:0:0:
66,76,96390,1,0,0:0:0:0:
66,76,96450,1,0,0:0:0:0:
66,76,96510,1,8,0:0:0:0:
188,85,96570,1,8,0:0:0:0:
128,65,96630,1,0,0:0:0:0:
128,65,96690,1,0,0:0:0:0:
128,65,96750,1,8,0:0:0:0:
128,65,96810,1,8,0:0:0:0:
128,65,96870,1,8,0:0:0:0:
128,65,96930,1,8,0:0:0:0:
128,65,96990,1,0,0:0:0:0:
128,65,97050,1,8,0:0:0:0:
128,65,97110,1,0,0:0:0:0:
215,60,97170,1,8,0:0:0:0:
169,74,97230,1,0,0:0:0:0:
169,74,97290,1,8,0:0:0:0:
161,77,97350,1,8,0:0:0:0:
160,77,97410,1,8,0:0:0:0:
174,162,97470,1,0,0:0:0:0:
143,112,97590,1,0,0:0:0:0:
150,120,97650,1,0,0:0:0:0:
262,114,97710,1,8,0:0:0:0:
180,53,97750,1,8,0:0:0:0:
63,75,97790,1,8,0:0:0:0:
63,75,97830,1,8,0:0:0:0:
128,129,97950,1,0,0:0:0:0:
198,64,98010,1,0,0:0:0:0:
149,68,98070,1,0,0:0:0:0:
146,67,98130,1,0,0:0:0:0:
87,112,98190,1,8,0:0:0:0:
87,105,98250,1,8,0:0:0:0:
86,95,98310,1,0,0:0:0:0:
86,95,98370,1,0,0:0:0:0:
85,96,98430,1,0,0:0:0:0:
84,96,98490,1,0,0:0:0:0:
82,97,98550,1,8,0:0:0:0:
82,97,98610,1,8,0:0:0:0:
209,145,98670,1,0,0:0:0:0:
144,103,98730,1,0,0:0:0:0:
137,90,98790,1,0,0:0:0:0:
133,92,98850,1,0,0:0:0:0:
213,99,98910,1,8,0:0:0:0:
161,57,98970,1,8,0:0:0:0:
109,84,99030,1,0,0:0:0:0:
246,112,99090,1,8,0:0:0:0:
168,72,99150,1,8,0:0:0:0:
128,83,99210,1,0,0:0:0:0:
121,142,99270,1,8,0:0:0:0:
102,97,99330,1,0,0:0:0:0:
52,74,99390,1,8,0:0:0:0:
52,74,99450,1,0,0:0:0:0:
52,74,99510,1,8,0:0:0:0:
168,185,99570,1,0,0:0:0:0:
193,156,99630,1,8,0:0:0:0:
134,117,99690,1,8,0:0:0:0:
58,100,99750,1,0,0:0:0:0:
241,98,99810,1,0,0:0:0:0:
154,55,99870,1,8,0:0:0:0:
154,52,99930,1,0,0:0:0:0:
208,87,99990,1,8,0:0:0:0:
253,139,100050,1,0,0:0:0:0:
185,129,100110,1,0,0:0:0:0:
145,128,100170,1,0,0:0:0:0:
145,128,100230,1,8,0:0:0:0:
117,116,100290,1,0,0:0:0:0:
117,115,100350,1,8,0:0:0:0:
117,115,100410,1,8,0:0:0:0:
117,115,100470,1,8,0:0:0:0:
117,116,100530,1,8,0:0:0:0:
117,116,100590,1,0,0:0:0:0:
117,116,100650,1,8,0:0:0:0:
117,116,100710,1,0,0:0:0:0:
117,116,100770,1,8,0:0:0:0:
266,214,100830,1,0,0:0:0:0:
206,169,100950,1,0,0:0:0:0:
206,169,101010,1,8,0:0:0:0:
321,137,101070,1,0,0:0:0:0:
261,131,101190,1,0,0:0:0:0:
138,134,101310,1,0,0:0:0:0:
132,80,101350,1,0,0:0:0:0:
114,82,101390,1,0,0:0:0:0:
134,104,101430,1,8,0:0:0:0:
177,86,101490,1,8,0:0:0:0:
269,49,101550,1,0,0:0:0:0:
214,49,101590,1,0,0:0:0:0:
127,38,101630,1,0,0:0:0:0:
127,38,101670,1,8,0:0:0:0:
187,86,101730,1,8,0:0:0:0:
185,95,101790,1,0,0:0:0:0:
252,137,101850,1,0,0:0:0:0:
169,127,101910,1,0,0:0:0:0:
132,129,101970,1,0,0:0:0:0:
187,102,102030,1,8,0:0:0:0:
165,102,102090,1,8,0:0:0:0:
140,100,102150,1,8,0:0:0:0:
139,100,102210,1,8,0:0:0:0:
103,120,102270,1,0,0:0:0:0:
103,120,102330,1,0,0:0:0:0:
103,120,102390,1,0,0:0:0:0:
103,120,102450,1,0,0:0:0:0:
217,37,102510,1,8,0:0:0:0:
114,27,102570,1,0,0:0:0:0:
162,90,102630,1,8,0:0:0:0:
220,138,102690,1,0,0:0:0:0:
254,97,102750,1,8,0:0:0:0:
283,150,102790,1,8,0:0:0:0:
125,159,102830,1,8,0:0:0:0:
143,156,102870,1,0,0:0:0:0:
174,129,102930,1,0,0:0:0:0:
205,191,102990,1,8,0:0:0:0:
197,153,103050,1,8,0:0:0:0:
249,155,103110,1,0,0:0:0:0:
133,126,103170,1,0,0:0:0:0:
206,140,103230,1,0,0:0:0:0:
127,113,103290,1,0,0:0:0:0:
234,86,103350,1,8,0:0:0:0:
223,85,103410,1,8,0:0:0:0:
206,83,103470,1,0,0:0:0:0:
187,139,103530,1,0,0:0:0:0:
267,172,103590,1,8,0:0:0:0:
239,145,103630,1,8,0:0:0:0:
168,141,103670,1,8,0:0:0:0:
303,172,103710,1,0,0:0:0:0:
172,185,103770,1,0,0:0:0:0:
258,156,103830,1,0,0:0:0:0:
223,126,103890,1,8,0:0:0:0:
184,113,103950,1,8,0:0:0:0:
245,122,104010,1,8,0:0:0:0:
176,123,104070,1,8,0:0:0:0:
149,105,104130,1,0,0:0:0:0:
149,105,104190,1,0,0:0:0:0:
142,105,104250,1,8,0:0:0:0:
154,118,104310,1,0,0:0:0:0:
141,117,104370,1,8,0:0:0:0:
139,117,104430,1,0,0:0:0:0:
140,117,104490,1,0,0:0:0:0:
139,116,104550,1,8,0:0:0:0:
139,116,104610,1,8,0:0:0:0:
232,168,104670,1,0,0:0:0:0:
214,120,104730,1,8,0:0:0:0:
125,128,104790,1,0,0:0:0:0:
124,127,104850,1,8,0:0:0:0:
122,131,104910,1,0,0:0:0:0:
119,134,104970,1,8,0:0:0:0:
119,134,105030,1,0,0:0:0:0:
347,172,105090,1,8,0:0:0:0:
239,157,105150,1,0,0:0:0:0:
204,137,105270,1,8,0:0:0:0:
90,175,105330,1,0,0:0:0:0:
121,191,105390,1,8,0:0:0:0:
239,256,105510,1,8,0:0:0:0:
158,76,105630,1,8,0:0:0:0:
102,72,105690,1,8,0:0:0:0:
102,72,105750,1,8,0:0:0:0:
102,72,105810,1,8,0:0:0:0:
102,72,105870,1,0,0:0:0:0:
95,72,105930,1,0,0:0:0:0:
94,72,105990,1,0,0:0:0:0:
161,123,106050,1,0,0:0:0:0:
119,96,106110,1,8,0:0:0:0:
119,96,106170,1,8,0:0:0:0:
119,96,106230,1,8,0:0:0:0:
119,96,106290,1,8,0:0:0:0:
124,139,106350,1,0,0:0:0:0:
109,118,106410,1,0,0:0:0:0:
102,106,106470,1,0,0:0:0:0:
102,104,106530,1,0,0:0:0:0:
232,165,106590,1,8,0:0:0:0:
173,109,106650,1,8,0:0:0:0:
170,74,106710,1,0,0:0:0:0:
170,74,106770,1,8,0:0:0:0:
165,74,106830,1,0,0:0:0:0:
158,78,106890,1,8,0:0:0:0:
157,79,106950,1,0,0:0:0:0:
153,79,107010,1,0,0:0:0:0:
150,80,107070,1,8,0:0:0:0:
147,80,107130,1,8,0:0:0:0:
137,83,107190,1,0,0:0:0:0:
191,145,107250,1,8,0:0:0:0:
248,96,107310,1,0,0:0:0:0:
206,78,107370,1,8,0:0:0:0:
166,92,107430,1,0,0:0:0:0:
164,93,107490,1,8,0:0:0:0:
164,93,107550,1,0,0:0:0:0:
276,212,107610,1,0,0:0:0:0:
248,171,107670,1,0,0:0:0:0:
147,175,107730,1,0,0:0:0:0:
147,175,107790,1,8,0:0:0:0:
147,175,107850,1,8,0:0:0:0:
132,180,107910,1,0,0:0:0:0:
132,180,107970,1,0,0:0:0:0:
132,181,108030,1,8,0:0:0:0:
131,182,108090,1,8,0:0:0:0:
120,187,108150,1,8,0:0:0:0:
107,103,108210,1,8,0:0:0:0:
232,96,108270,1,0,0:0:0:0:
131,81,108330,1,0,0:0:0:0:
49,131,108390,1,8,0:0:0:0:
43,92,108450,1,8,0:0:0:0:
201,121,108510,1,0,0:0:0:0:
129,155,108570,1,0,0:0:0:0:
118,164,108630,1,0,0:0:0:0:
220,171,108750,1,8,0:0:0:0:
188,153,108870,1,0,0:0:0:0:
176,143,108930,1,0,0:0:0:0:
246,97,108990,1,8,0:0:0:0:
280,216,109110,1,0,0:0:0:0:
253,108,109230,1,8,0:0:0:0:
333,194,109290,1,8,0:0:0:0:
295,157,109350,1,8,0:0:0:0:
287,157,109410,1,8,0:0:0:0:
113,140,109470,1,0,0:0:0:0:
99,102,109530,1,0,0:0:0:0:
93,90,109590,1,0,0:0:0:0:
93,90,109650,1,0,0:0:0:0:
92,90,109710,1,8,0:0:0:0:
92,90,109770,1,8,0:0:0:0:
92,90,109830,1,0,0:0:0:0:
92,90,109890,1,0,0:0:0:0:
92,91,109950,1,0,0:0:0:0:
91,91,110010,1,0,0:0:0:0:
90,91,110070,1,8,0:0:0:0:
90,92,110130,1,8,0:0:0:0:
90,92,110190,1,0,0:0:0:0:
86,96,110250,1,0,0:0:0:0:
85,97,110310,1,0,0:0:0:0:
85,97,110370,1,0,0:0:0:0:
81,97,110430,1,8,0:0:0:0:
81,97,110490,1,8,0:0:0:0:
93,146,110550,1,0,0:0:0:0:
41,90,110610,1,0,0:0:0:0:
29,67,110670,1,8,0:0:0:0:
30,59,110730,1,8,0:0:0:0:
24,68,110790,1,8,0:0:0:0:
17,74,110850,1,8,0:0:0:0:
206,140,110910,1,0,0:0:0:0:
261,101,110950,1,0,0:0:0:0:
127,113,110990,1,0,0:0:0:0:
234,86,111030,1,8,0:0:0:0:
223,85,111090,1,8,0:0:0:0:
206,83,111150,1,0,0:0:0:0:
187,139,111190,1,0,0:0:0:0:
168,136,111230,1,0,0:0:0:0:
186,117,111270,1,8,0:0:0:0:
132,113,111330,1,8,0:0:0:0:
215,101,111390,1,0,0:0:0:0:
208,145,111450,1,0,0:0:0:0:
110,113,111510,1,0,0:0:0:0:
109,113,111570,1,0,0:0:0:0:
109,112,111630,1,8,0:0:0:0:
109,108,111690,1,8,0:0:0:0:
109,108,111750,1,0,0:0:0:0:
109,107,111810,1,0,0:0:0:0:
109,107,111870,1,0,0:0:0:0:
109,107,111930,1,0,0:0:0:0:
109,107,111990,1,8,0:0:0:0:
109,107,112050,1,8,0:0:0:0:
109,107,112110,1,0,0:0:0:0:
109,107,112170,1,8,0:0:0:0:
109,107,112230,1,0,0:0:0:0:
188,98,112290,1,8,0:0:0:0:
147,70,112350,1,0,0:0:0:0:
142,65,112410,1,0,0:0:0:0:
139,67,112470,1,0,0:0:0:0:
137,68,112530,1,0,0:0:0:0:
268,94,112590,1,8,0:0:0:0:
263,72,112650,1,8,0:0:0:0:
206,49,112710,1,0,0:0:0:0:
162,164,112770,1,8,0:0:0:0:
71,157,112830,1,0,0:0:0:0:
143,112,112950,1,0,0:0:0:0:
150,120,113010,1,0,0:0:0:0:
262,114,113070,1,8,0:0:0:0:
180,53,113110,1,8,0:0:0:0:
63,75,113150,1,8,0:0:0:0:
63,75,113190,1,8,0:0:0:0:
243,177,113310,1,0,0:0:0:0:
183,165,113370,1,0,0:0:0:0:
139,165,113430,1,0,0:0:0:0:
133,164,113490,1,0,0:0:0:0:
88,158,113550,1,8,0:0:0:0:
88,157,113610,1,8,0:0:0:0:
88,158,113670,1,8,0:0:0:0:
88,158,113730,1,8,0:0:0:0:
88,158,113790,1,0,0:0:0:0:
88,158,113850,1,0,0:0:0:0:
88,158,113910,1,8,0:0:0:0:
183,165,113970,1,8,0:0:0:0:
136,131,114030,1,0,0:0:0:0:
132,126,114090,1,8,0:0:0:0:
128,127,114150,1,0,0:0:0:0:
125,128,114210,1,0,0:0:0:0:
256,97,114270,1,8,0:0:0:0:
187,82,114330,1,0,0:0:0:0:
96,70,114390,1,8,0:0:0:0:
96,70,114450,1,8,0:0:0:0:
108,76,114510,1,0,0:0:0:0:
108,78,114570,1,8,0:0:0:0:
107,78,114630,1,8,0:0:0:0:
103,78,114690,1,0,0:0:0:0:
76,115,114750,1,8,0:0:0:0:
80,123,114810,1,0,0:0:0:0:
257,172,114870,1,8,0:0:0:0:
111,159,114930,1,8,0:0:0:0:
157,154,114990,1,0,0:0:0:0:
247,92,115050,1,8,0:0:0:0:
176,105,115110,1,0,0:0:0:0:
129,110,115170,1,8,0:0:0:0:
263,181,115230,1,0,0:0:0:0:
179,171,115290,1,0,0:0:0:0:
77,171,115350,1,0,0:0:0:0:
77,171,115410,1,0,0:0:0:0:
69,177,115470,1,8,0:0:0:0:
69,177,115530,1,8,0:0:0:0:
69,177,115590,1,8,0:0:0:0:
69,177,115650,1,8,0:0:0:0:
100,199,115710,1,0,0:0:0:0:
257,176,115770,1,8,0:0:0:0:
167,153,115830,1,0,0:0:0:0:
109,151,115890,1,0,0:0:0:0:
108,145,115950,1,8,0:0:0:0:
108,143,116010,1,8,0:0:0:0:
108,143,116070,1,0,0:0:0:0:
108,143,116130,1,8,0:0:0:0:
208,199,116190,1,0,0:0:0:0:
219,124,116310,1,0,0:0:0:0:
124,101,116370,1,8,0:0:0:0:
122,122,116430,1,0,0:0:0:0:
308,240,116550,1,0,0:0:0:0:
276,80,116670,1,8,0:0:0:0:
261,75,116710,1,8,0:0:0:0:
187,73,116750,1,8,0:0:0:0:
163,79,116790,1,0,0:0:0:0:
208,153,116850,1,0,0:0:0:0:
253,112,116910,1,8,0:0:0:0:
189,101,116950,1,8,0:0:0:0:
191,97,116990,1,8,0:0:0:0:
132,98,117030,1,0,0:0:0:0:
164,127,117090,1,0,0:0:0:0:
222,176,117150,1,8,0:0:0:0:
208,153,117210,1,8,0:0:0:0:
208,153,117270,1,8,0:0:0:0:
208,153,117330,1,8,0:0:0:0:
208,153,117390,1,0,0:0:0:0:
206,148,117450,1,0,0:0:0:0:
206,148,117510,1,8,0:0:0:0:
206,148,117570,1,8,0:0:0:0:
206,148,117630,1,8,0:0:0:0:
206,148,117690,1,8,0:0:0:0:
206,148,117750,1,0,0:0:0:0:
206,148,117810,1,0,0:0:0:0:
253,170,117870,1,8,0:0:0:0:
240,140,117930,1,8,0:0:0:0:
214,136,117990,1,8,0:0:0:0:
34,131,118050,1,8,0:0:0:0:
122,175,118110,1,0,0:0:0:0:
122,175,118170,1,0,0:0:0:0:
283,219,118230,1,8,0:0:0:0:
209,171,118290,1,8,0:0:0:0:
205,171,118350,1,8,0:0:0:0:
155,143,118410,1,8,0:0:0:0:
183,138,118470,1,0,0:0:0:0:
121,82,118530,1,8,0:0:0:0:
121,82,118590,1,0,0:0:0:0:
244,160,118650,1,0,0:0:0:0:
135,114,118710,1,8,0:0:0:0:
299,158,118770,1,0,0:0:0:0:
200,99,118830,1,8,0:0:0:0:
242,73,118890,1,8,0:0:0:0:
150,77,118950,1,0,0:0:0:0:
73,152,119010,1,8,0:0:0:0:
198,186,119070,1,0,0:0:0:0:
218,159,119130,1,0,0:0:0:0:
254,164,119190,1,0,0:0:0:0:
254,164,119250,1,0,0:0:0:0:
256,162,119310,1,8,0:0:0:0:
209,124,119370,1,8,0:0:0:0:
80,134,119430,1,0,0:0:0:0:
83,133,119490,1,0,0:0:0:0:
151,136,119550,1,0,0:0:0:0:
151,136,119610,1,0,0:0:0:0:
151,136,119670,1,8,0:0:0:0:
151,136,119730,1,8,0:0:0:0:
151,136,119790,1,0,0:0:0:0:
151,136,119850,1,0,0:0:0:0:
151,136,119910,1,0,0:0:0:0:
151,136,119970,1,0,0:0:0:0:
151,136,120030,1,8,0:0:0:0:
263,150,120090,1,8,0:0:0:0:
145,86,120150,1,0,0:0:0:0:
145,86,120210,1,0,0:0:0:0:
90,116,120270,1,8,0:0:0:0:
90,116,120330,1,8,0:0:0:0:
179,142,120390,1,0,0:0:0:0:
205,94,120450,1,8,0:0:0:0:
208,90,120510,1,0,0:0:0:0:
178,89,120630,1,8,0:0:0:0:
174,75,120690,1,8,0:0:0:0:
173,75,120750,1,8,0:0:0:0:
276,200,120870,1,8,0:0:0:0:
364,212,120990,1,8,0:0:0:0:
220,167,121050,1,0,0:0:0:0:
220,167,121110,1,0,0:0:0:0:
137,156,121170,1,0,0:0:0:0:
137,156,121230,1,8,0:0:0:0:
137,156,121290,1,0,0:0:0:0:
137,156,121350,1,0,0:0:0:0:
137,156,121410,1,0,0:0:0:0:
137,156,121470,1,8,0:0:0:0:
137,156,121530,1,0,0:0:0:0:
137,156,121590,1,0,0:0:0:0:
137,156,121650,1,0,0:0:0:0:
139,161,121710,1,8,0:0:0:0:
194,154,121770,1,0,0:0:0:0:
152,153,121830,1,0,0:0:0:0:
151,149,121890,1,0,0:0:0:0:
146,150,121950,1,8,0:0:0:0:
243,143,122010,1,0,0:0:0:0:
73,116,122070,1,0,0:0:0:0:
76,97,122130,1,0,0:0:0:0:
76,97,122190,1,8,0:0:0:0:
76,97,122250,1,0,0:0:0:0:
123,167,122310,1,0,0:0:0:0:
113,145,122370,1,0,0:0:0:0:
113,138,122430,1,8,0:0:0:0:
113,138,122490,1,0,0:0:0:0:
113,138,122550,1,0,0:0:0:0:
113,138,122610,1,0,0:0:0:0:
113,138,122670,1,8,0:0:0:0:
113,138,122730,1,0,0:0:0:0:
113,138,122790,1,0,0:0:0:0:
113,138,122850,1,0,0:0:0:0:
235,232,122910,1,8,0:0:0:0:
271,164,122970,1,0,0:0:0:0:
183,82,123030,1,8,0:0:0:0:
95,64,123090,1,0,0:0:0:0:
95,64,123150,1,8,0:0:0:0:
95,64,123210,1,0,0:0:0:0:
95,64,123270,1,8,0:0:0:0:
95,64,123330,1,0,0:0:0:0:
95,64,123390,1,8,0:0:0:0:
95,64,123450,1,0,0:0:0:0:
95,64,123510,1,8,0:0:0:0:
165,171,123570,1,0,0:0:0:0:
165,163,123630,1,8,0:0:0:0:
165,161,123690,1,0,0:0:0:0:
165,161,123750,1,8,0:0:0:0:
165,161,123810,1,0,0:0:0:0:
165,161,123870,1,8,0:0:0:0:
321,159,123930,1,8,0:0:0:0:
186,131,123990,1,0,0:0:0:0:
229,88,124050,1,0,0:0:0:0:
229,88,124110,1,8,0:0:0:0:
229,88,124170,1,8,0:0:0:0:
229,88,124230,1,8,0:0:0:0:
229,88,124290,1,0,0:0:0:0:
173,79,124350,1,8,0:0:0:0:
117,48,124410,1,8,0:0:0:0:
101,136,124470,1,0,0:0:0:0:
246,169,124530,1,0,0:0:0:0:
147,153,124590,1,8,0:0:0:0:
143,137,124630,1,8,0:0:0:0:
80,112,124670,1,8,0:0:0:0:
80,112,124710,1,8,0:0:0:0:
80,112,124750,1,8,0:0:0:0:
80,106,124790,1,8,0:0:0:0:
78,106,124830,1,0,0:0:0:0:
249,167,128670,1,8,0:0:0:0:
357,200,129630,1,8,0:0:0:0:
302,237,130590,1,0,0:0:0:0:
273,227,131550,1,8,0:0:0:0:
320,323,132510,1,0,0:0:0:0:
256,192,132750,12,0,135390,0:0:0:0:
250,170,136350,5,0,0:0:0:0:
328,236,137310,1,0,0:0:0:0:
269,235,138270,1,8,0:0:0:0:
298,219,139230,1,8,0:0:0:0:
278,234,140190,1,0,0:0:0:0:
300,234,144030,1,8,0:0:0:0:
282,164,144990,1,8,0:0:0:0:
287,241,145950,1,0,0:0:0:0:
261,195,146910,1,0,0:0:0:0:
248,213,147870,1,8,0:0:0:0:
213,175,151710,1,0,0:0:0:0:
175,185,152670,1,0,0:0:0:0:
283,227,153630,1,8,0:0:0:0:
275,246,154590,1,0,0:0:0:0:
299,189,155550,1,0,0:0:0:0:
200,110,159390,1,4,0:0:0:0:
153,148,161310,1,8,0:0:0:0:
195,157,162270,1,0,0:0:0:0:
226,168,163230,1,8,0:0:0:0:
268,204,167070,5,0,0:0:0:0:
324,254,168990,1,0,0:0:0:0:
294,230,169950,1,8,0:0:0:0:
261,228,170910,1,0,0:0:0:0:
207,188,174750,1,8,0:0:0:0:
291,193,176670,1,8,0:0:0:0:
241,226,177630,1,0,0:0:0:0:
276,191,178590,1,8,0:0:0:0:
81,182,182430,1,0,0:0:0:0:
277,225,184350,1,0,0:0:0:0:
186,163,185310,1,8,0:0:0:0:
232,189,186270,1,0,0:0:0:0:
251,191,190110,1,0,0:0:0:0:
114,105,190170,1,0,0:0:0:0:
147,86,190230,1,0,0:0:0:0:
174,82,190290,1,8,0:0:0:0:
121,175,190350,1,0,0:0:0:0:
174,149,190410,1,8,0:0:0:0:
177,142,190470,1,8,0:0:0:0:
177,141,190530,1,8,0:0:0:0:
175,141,190590,1,0,0:0:0:0:
172,138,190650,1,8,0:0:0:0:
165,139,190710,1,0,0:0:0:0:
161,140,190770,1,8,0:0:0:0:
161,140,190830,1,0,0:0:0:0:
91,111,190890,1,0,0:0:0:0:
113,73,190950,1,0,0:0:0:0:
113,73,191010,1,8,0:0:0:0:
113,73,191070,1,0,0:0:0:0:
113,73,191130,1,8,0:0:0:0:
110,77,191190,1,8,0:0:0:0:
110,80,191250,1,8,0:0:0:0:
109,81,191310,1,0,0:0:0:0:
155,127,191370,1,8,0:0:0:0:
158,122,191430,1,8,0:0:0:0:
158,122,191490,1,8,0:0:0:0:
157,122,191550,1,0,0:0:0:0:
156,122,191610,1,8,0:0:0:0:
155,127,191670,1,0,0:0:0:0:
150,128,191730,1,8,0:0:0:0:
147,129,191790,1,0,0:0:0:0:
47,129,191850,1,0,0:0:0:0:
107,110,191910,1,8,0:0:0:0:
107,110,191970,1,8,0:0:0:0:
107,110,192030,1,0,0:0:0:0:
107,110,192090,1,8,0:0:0:0:
107,110,192150,1,0,0:0:0:0:
101,109,192210,1,0,0:0:0:0:
97,111,192270,1,8,0:0:0:0:
95,113,192330,1,8,0:0:0:0:
95,113,192390,1,0,0:0:0:0:
92,114,192450,1,8,0:0:0:0:
91,116,192510,1,8,0:0:0:0:
201,141,192570,1,8,0:0:0:0:
183,92,192630,1,0,0:0:0:0:
140,57,192690,1,0,0:0:0:0:
140,57,192750,1,8,0:0:0:0:
209,133,192810,1,8,0:0:0:0:
180,139,192870,1,0,0:0:0:0:
166,140,192930,1,0,0:0:0:0:
161,137,192990,1,8,0:0:0:0:
174,134,193050,1,8,0:0:0:0:
171,133,193110,1,0,0:0:0:0:
172,136,193170,1,8,0:0:0:0:
172,136,193230,1,0,0:0:0:0:
102,147,193290,1,0,0:0:0:0:
98,131,193350,1,0,0:0:0:0:
97,131,193410,1,8,0:0:0:0:
165,152,193470,1,0,0:0:0:0:
98,156,193590,1,0,0:0:0:0:
132,155,193650,1,0,0:0:0:0:
132,155,193710,1,8,0:0:0:0:
131,127,193770,1,8,0:0:0:0:
235,143,193830,1,0,0:0:0:0:
247,98,193950,1,8,0:0:0:0:
131,127,194010,1,0,0:0:0:0:
105,108,194070,1,0,0:0:0:0:
93,108,194130,1,0,0:0:0:0:
91,103,194190,1,8,0:0:0:0:
88,100,194250,1,8,0:0:0:0:
87,100,194310,1,0,0:0:0:0:
84,108,194370,1,0,0:0:0:0:
84,109,194430,1,8,0:0:0:0:
70,113,194490,1,0,0:0:0:0:
69,114,194550,1,8,0:0:0:0:
66,115,194610,1,0,0:0:0:0:
62,115,194670,1,8,0:0:0:0:
62,116,194730,1,8,0:0:0:0:
59,118,194790,1,8,0:0:0:0:
60,121,194850,1,0,0:0:0:0:
67,127,194910,1,8,0:0:0:0:
64,127,194970,1,8,0:0:0:0:
325,149,195030,1,8,0:0:0:0:
169,137,195090,1,0,0:0:0:0:
149,135,195150,1,8,0:0:0:0:
141,127,195210,1,0,0:0:0:0:
132,126,195270,1,8,0:0:0:0:
102,125,195330,1,8,0:0:0:0:
102,125,195390,1,0,0:0:0:0:
102,125,195450,1,0,0:0:0:0:
74,138,195510,1,8,0:0:0:0:
270,163,195570,1,8,0:0:0:0:
128,122,195630,1,8,0:0:0:0:
128,125,195690,1,8,0:0:0:0:
128,123,195750,1,0,0:0:0:0:
129,123,195810,1,8,0:0:0:0:
131,123,195870,1,0,0:0:0:0:
143,116,195930,1,8,0:0:0:0:
122,112,195990,1,0,0:0:0:0:
106,112,196050,1,8,0:0:0:0:
105,112,196110,1,8,0:0:0:0:
104,113,196170,1,0,0:0:0:0:
104,114,196230,1,8,0:0:0:0:
147,160,196290,1,0,0:0:0:0:
139,159,196350,1,0,0:0:0:0:
134,158,196410,1,0,0:0:0:0:
133,156,196470,1,8,0:0:0:0:
130,157,196530,1,0,0:0:0:0:
203,137,196590,1,8,0:0:0:0:
119,127,196650,1,0,0:0:0:0:
22,139,196710,1,8,0:0:0:0:
230,160,196770,1,0,0:0:0:0:
56,85,196830,1,0,0:0:0:0:
194,156,196890,1,8,0:0:0:0:
252,158,196950,1,0,0:0:0:0:
156,127,197010,1,0,0:0:0:0:
165,165,197070,1,8,0:0:0:0:
239,69,197130,1,8,0:0:0:0:
216,203,197190,1,0,0:0:0:0:
239,69,197250,1,8,0:0:0:0:
73,167,197310,1,0,0:0:0:0:
153,142,197370,1,0,0:0:0:0:
124,105,197430,1,8,0:0:0:0:
164,120,197490,1,8,0:0:0:0:
169,99,197550,1,0,0:0:0:0:
147,160,197610,1,0,0:0:0:0:
184,97,197670,1,8,0:0:0:0:
243,197,197730,1,0,0:0:0:0:
141,207,197790,1,0,0:0:0:0:
78,130,197850,1,0,0:0:0:0:
147,72,197910,1,0,0:0:0:0:
88,65,197970,1,0,0:0:0:0:
88,65,198030,1,8,0:0:0:0:
81,66,198090,1,0,0:0:0:0:
79,66,198150,1,8,0:0:0:0:
74,66,198210,1,0,0:0:0:0:
146,132,198270,1,8,0:0:0:0:
184,142,198330,1,8,0:0:0:0:
180,116,198390,1,8,0:0:0:0:
165,110,198450,1,0,0:0:0:0:
161,102,198510,1,8,0:0:0:0:
160,101,198570,1,8,0:0:0:0:
157,101,198630,1,0,0:0:0:0:
157,101,198690,1,0,0:0:0:0:
155,102,198750,1,8,0:0:0:0:
122,169,198810,1,0,0:0:0:0:
233,156,198870,1,8,0:0:0:0:
180,156,198930,1,0,0:0:0:0:
177,156,198990,1,8,0:0:0:0:
169,153,199050,1,8,0:0:0:0:
168,153,199110,1,8,0:0:0:0:
163,153,199170,1,0,0:0:0:0:
158,157,199230,1,8,0:0:0:0:
129,112,199290,1,8,0:0:0:0:
129,112,199350,1,0,0:0:0:0:
123,112,199410,1,0,0:0:0:0:
121,110,199470,1,8,0:0:0:0:
120,110,199530,1,8,0:0:0:0:
110,112,199590,1,0,0:0:0:0:
182,128,199650,1,0,0:0:0:0:
239,127,199710,1,8,0:0:0:0:
100,107,199770,1,0,0:0:0:0:
97,105,199830,1,0,0:0:0:0:
93,103,199890,1,8,0:0:0:0:
82,105,199950,1,8,0:0:0:0:
79,105,200010,1,0,0:0:0:0:
79,105,200070,1,0,0:0:0:0:
78,106,200130,1,8,0:0:0:0:
76,106,200190,1,0,0:0:0:0:
76,107,200250,1,8,0:0:0:0:
76,108,200310,1,8,0:0:0:0:
66,109,200370,1,8,0:0:0:0:
66,109,200430,1,0,0:0:0:0:
80,101,200490,1,8,0:0:0:0:
83,97,200550,1,8,0:0:0:0:
80,97,200610,1,8,0:0:0:0:
77,97,200670,1,0,0:0:0:0:
79,97,200730,1,0,0:0:0:0:
78,97,200790,1,8,0:0:0:0:
76,97,200850,1,0,0:0:0:0:
73,97,200910,1,8,0:0:0:0:
64,98,200970,1,0,0:0:0:0:
60,99,201030,1,8,0:0:0:0:
60,98,201090,1,8,0:0:0:0:
198,188,201150,1,0,0:0:0:0:
245,118,201270,1,0,0:0:0:0:
151,101,201330,1,0,0:0:0:0:
151,101,201390,1,0,0:0:0:0:
311,264,201510,1,0,0:0:0:0:
26,164,201630,1,0,0:0:0:0:
132,156,201690,1,0,0:0:0:0:
115,94,201750,1,8,0:0:0:0:
115,94,201810,1,8,0:0:0:0:
115,94,201870,1,0,0:0:0:0:
107,96,201930,1,0,0:0:0:0:
105,99,201990,1,8,0:0:0:0:
105,99,202050,1,8,0:0:0:0:
98,107,202110,1,0,0:0:0:0:
97,107,202170,1,0,0:0:0:0:
96,107,202230,1,8,0:0:0:0:
95,105,202290,1,8,0:0:0:0:
94,106,202350,1,0,0:0:0:0:
89,109,202410,1,8,0:0:0:0:
89,109,202470,1,8,0:0:0:0:
89,109,202530,1,0,0:0:0:0:
83,111,202590,1,0,0:0:0:0:
83,111,202650,1,8,0:0:0:0:
81,112,202710,1,8,0:0:0:0:
145,169,202770,1,8,0:0:0:0:
209,137,202830,1,0,0:0:0:0:
181,128,202890,1,8,0:0:0:0:
159,127,202950,1,8,0:0:0:0:
158,127,203010,1,8,0:0:0:0:
152,127,203070,1,0,0:0:0:0:
142,126,203130,1,0,0:0:0:0:
142,126,203190,1,8,0:0:0:0:
235,108,203250,1,8,0:0:0:0:
148,94,203310,1,0,0:0:0:0:
148,94,203370,1,0,0:0:0:0:
148,94,203430,1,8,0:0:0:0:
225,163,203490,1,8,0:0:0:0:
120,140,203550,1,0,0:0:0:0:
120,140,203610,1,8,0:0:0:0:
103,149,203670,1,8,0:0:0:0:
102,149,203730,1,0,0:0:0:0:
102,149,203790,1,0,0:0:0:0:
102,149,203850,1,8,0:0:0:0:
102,147,203910,1,0,0:0:0:0:
101,148,203970,1,0,0:0:0:0:
101,148,204030,1,8,0:0:0:0:
101,148,204090,1,0,0:0:0:0:
101,149,204150,1,8,0:0:0:0:
101,149,204210,1,8,0:0:0:0:
99,149,204270,1,8,0:0:0:0:
93,149,204330,1,8,0:0:0:0:
93,149,204390,1,0,0:0:0:0:
91,149,204450,1,0,0:0:0:0:
91,149,204510,1,8,0:0:0:0:
206,140,204630,1,0,0:0:0:0:
151,136,204690,1,0,0:0:0:0:
206,140,204750,1,8,0:0:0:0:
134,195,204810,1,0,0:0:0:0:
173,156,204870,1,0,0:0:0:0:
173,156,204990,1,8,0:0:0:0:
129,223,205110,1,0,0:0:0:0:
212,206,205230,1,8,0:0:0:0:
201,197,205290,1,8,0:0:0:0:
189,167,205350,1,8,0:0:0:0:
177,163,205410,1,8,0:0:0:0:
174,162,205470,1,0,0:0:0:0:
276,171,205530,1,0,0:0:0:0:
152,147,205590,1,0,0:0:0:0:
152,147,205650,1,0,0:0:0:0:
73,118,205710,1,8,0:0:0:0:
79,112,205770,1,8,0:0:0:0:
79,112,205830,1,0,0:0:0:0:
79,112,205890,1,0,0:0:0:0:
79,112,205950,1,0,0:0:0:0:
82,116,206010,1,0,0:0:0:0:
82,116,206070,1,8,0:0:0:0:
82,116,206130,1,8,0:0:0:0:
82,116,206190,1,0,0:0:0:0:
261,154,206250,1,0,0:0:0:0:
210,145,206310,1,8,0:0:0:0:
203,143,206370,1,8,0:0:0:0:
174,135,206430,1,0,0:0:0:0:
165,139,206490,1,0,0:0:0:0:
164,139,206550,1,0,0:0:0:0:
175,204,206610,1,0,0:0:0:0:
167,179,206670,1,8,0:0:0:0:
165,174,206730,1,8,0:0:0:0:
145,173,206790,1,0,0:0:0:0:
144,173,206850,1,0,0:0:0:0:
143,182,206910,1,8,0:0:0:0:
143,175,206970,1,8,0:0:0:0:
143,184,207030,1,8,0:0:0:0:
143,185,207090,1,8,0:0:0:0:
265,186,207150,1,0,0:0:0:0:
240,131,207210,1,8,0:0:0:0:
175,127,207270,1,0,0:0:0:0:
174,127,207330,1,8,0:0:0:0:
163,133,207390,1,0,0:0:0:0:
244,234,207450,1,0,0:0:0:0:
213,212,207510,1,0,0:0:0:0:
206,207,207570,1,0,0:0:0:0:
177,191,207630,1,8,0:0:0:0:
177,191,207690,1,8,0:0:0:0:
161,197,207750,1,8,0:0:0:0:
144,201,207810,1,8,0:0:0:0:
143,205,207870,1,0,0:0:0:0:
143,205,207930,1,0,0:0:0:0:
143,205,207990,1,8,0:0:0:0:
139,208,208050,1,8,0:0:0:0:
139,208,208110,1,0,0:0:0:0:
140,208,208170,1,0,0:0:0:0:
144,208,208230,1,8,0:0:0:0:
145,209,208290,1,8,0:0:0:0:
145,209,208350,1,0,0:0:0:0:
182,197,208410,1,8,0:0:0:0:
181,197,208470,1,0,0:0:0:0:
180,197,208530,1,8,0:0:0:0:
174,199,208590,1,0,0:0:0:0:
174,199,208650,1,8,0:0:0:0:
290,256,208710,1,8,0:0:0:0:
248,176,208770,1,8,0:0:0:0:
203,157,208830,1,0,0:0:0:0:
228,149,208950,1,0,0:0:0:0:
243,131,209010,1,0,0:0:0:0:
243,131,209070,1,8,0:0:0:0:
127,156,209110,1,8,0:0:0:0:
127,156,209150,1,8,0:0:0:0:
241,155,209190,1,0,0:0:0:0:
202,112,209310,1,8,0:0:0:0:
106,81,209370,1,8,0:0:0:0:
106,81,209430,1,8,0:0:0:0:
106,81,209490,1,8,0:0:0:0:
106,81,209550,1,0,0:0:0:0:
106,81,209610,1,0,0:0:0:0:
102,88,209670,1,0,0:0:0:0:
102,90,209730,1,0,0:0:0:0:
100,92,209790,1,8,0:0:0:0:
100,92,209850,1,8,0:0:0:0:
99,93,209910,1,8,0:0:0:0:
99,95,209970,1,8,0:0:0:0:
99,95,210030,1,0,0:0:0:0:
99,95,210090,1,0,0:0:0:0:
99,95,210150,1,0,0:0:0:0:
99,96,210210,1,0,0:0:0:0:
187,157,210270,1,8,0:0:0:0:
180,131,210330,1,8,0:0:0:0:
101,127,210390,1,0,0:0:0:0:
97,117,210450,1,8,0:0:0:0:
97,116,210510,1,8,0:0:0:0:
97,116,210570,1,0,0:0:0:0:
95,115,210630,1,8,0:0:0:0:
93,113,210690,1,0,0:0:0:0:
92,113,210750,1,8,0:0:0:0:
91,115,210810,1,8,0:0:0:0:
91,115,210870,1,0,0:0:0:0:
89,116,210930,1,8,0:0:0:0:
89,116,210990,1,8,0:0:0:0:
88,116,211050,1,0,0:0:0:0:
88,119,211110,1,8,0:0:0:0:
96,114,211170,1,0,0:0:0:0:
158,156,211230,1,8,0:0:0:0:
130,138,211290,1,0,0:0:0:0:
111,140,211350,1,0,0:0:0:0:
108,140,211410,1,0,0:0:0:0:
106,141,211470,1,8,0:0:0:0:
100,145,211530,1,0,0:0:0:0:
98,144,211590,1,0,0:0:0:0:
97,144,211650,1,0,0:0:0:0:
96,143,211710,1,8,0:0:0:0:
279,198,211770,1,8,0:0:0:0:
211,180,211830,1,0,0:0:0:0:
191,177,211890,1,0,0:0:0:0:
176,177,211950,1,8,0:0:0:0:
174,176,212010,1,8,0:0:0:0:
176,177,212070,1,0,0:0:0:0:
176,177,212130,1,8,0:0:0:0:
56,85,212190,1,8,0:0:0:0:
194,156,212250,1,8,0:0:0:0:
252,158,212310,1,0,0:0:0:0:
165,165,212430,1,0,0:0:0:0:
216,203,212550,1,0,0:0:0:0:
73,167,212670,1,8,0:0:0:0:
153,142,212730,1,8,0:0:0:0:
124,105,212790,1,0,0:0:0:0:
164,120,212850,1,0,0:0:0:0:
169,99,212910,1,8,0:0:0:0:
191,100,212950,1,8,0:0:0:0:
184,97,212990,1,8,0:0:0:0:
184,97,213030,1,0,0:0:0:0:
123,96,213150,1,0,0:0:0:0:
204,140,213210,1,0,0:0:0:0:
198,132,213270,1,0,0:0:0:0:
197,132,213330,1,0,0:0:0:0:
180,119,213390,1,8,0:0:0:0:
176,120,213450,1,8,0:0:0:0:
176,121,213510,1,0,0:0:0:0:
173,124,213570,1,0,0:0:0:0:
173,124,213630,1,8,0:0:0:0:
173,123,213690,1,8,0:0:0:0:
173,123,213750,1,0,0:0:0:0:
171,123,213810,1,8,0:0:0:0:
171,123,213870,1,8,0:0:0:0:
171,123,213930,1,8,0:0:0:0:
171,123,213990,1,0,0:0:0:0:
171,123,214050,1,8,0:0:0:0:
170,123,214110,1,0,0:0:0:0:
170,123,214170,1,8,0:0:0:0:
170,123,214230,1,0,0:0:0:0:
170,123,214290,1,0,0:0:0:0:
173,124,214350,1,0,0:0:0:0:
203,133,214410,1,0,0:0:0:0:
202,97,214470,1,8,0:0:0:0:
174,94,214530,1,8,0:0:0:0:
166,92,214590,1,0,0:0:0:0:
165,91,214650,1,8,0:0:0:0:
165,91,214710,1,0,0:0:0:0:
162,91,214770,1,0,0:0:0:0:
161,91,214830,1,8,0:0:0:0:
162,92,214890,1,0,0:0:0:0:
162,92,214950,1,8,0:0:0:0:
157,94,215010,1,8,0:0:0:0:
156,94,215070,1,8,0:0:0:0:
156,95,215130,1,0,0:0:0:0:
156,96,215190,1,8,0:0:0:0:
156,95,215250,1,0,0:0:0:0:
106,119,215310,1,0,0:0:0:0:
150,138,215370,1,8,0:0:0:0:
203,127,215430,1,0,0:0:0:0:
196,101,215490,1,0,0:0:0:0:
196,101,215550,1,8,0:0:0:0:
196,101,215610,1,8,0:0:0:0:
191,105,215670,1,0,0:0:0:0:
187,105,215730,1,0,0:0:0:0:
187,105,215790,1,8,0:0:0:0:
187,105,215850,1,8,0:0:0:0:
187,105,215910,1,0,0:0:0:0:
187,105,215970,1,0,0:0:0:0:
187,105,216030,1,8,0:0:0:0:
186,105,216090,1,8,0:0:0:0:
186,105,216150,1,8,0:0:0:0:
185,106,216210,1,8,0:0:0:0:
185,106,216270,1,0,0:0:0:0:
185,106,216330,1,0,0:0:0:0:
184,106,216390,1,8,0:0:0:0:
184,106,216450,1,8,0:0:0:0:
86,164,216510,1,0,0:0:0:0:
217,126,216630,1,0,0:0:0:0:
146,115,216690,1,0,0:0:0:0:
146,115,216750,1,0,0:0:0:0:
254,224,216870,1,0,0:0:0:0:
312,302,216990,1,0,0:0:0:0:
149,191,217050,1,0,0:0:0:0:
136,173,217110,1,8,0:0:0:0:
135,168,217170,1,8,0:0:0:0:
130,162,217230,1,0,0:0:0:0:
130,164,217290,1,0,0:0:0:0:
130,164,217350,1,8,0:0:0:0:
130,164,217410,1,8,0:0:0:0:
128,167,217470,1,8,0:0:0:0:
128,167,217530,1,8,0:0:0:0:
128,167,217590,1,0,0:0:0:0:
232,175,217650,1,0,0:0:0:0:
186,160,217710,1,8,0:0:0:0:
186,160,217770,1,8,0:0:0:0:
186,160,217830,1,8,0:0:0:0:
186,160,217890,1,8,0:0:0:0:
186,160,217950,1,0,0:0:0:0:
186,160,218010,1,0,0:0:0:0:
186,160,218070,1,8,0:0:0:0:
186,160,218130,1,8,0:0:0:0:
265,197,218190,1,0,0:0:0:0:
233,188,218250,1,0,0:0:0:0:
229,188,218310,1,8,0:0:0:0:
228,186,218370,1,8,0:0:0:0:
204,92,218430,1,0,0:0:0:0:
136,86,218490,1,0,0:0:0:0:
136,86,218550,1,8,0:0:0:0:
136,86,218610,1,8,0:0:0:0:
135,91,218670,1,0,0:0:0:0:
134,91,218730,1,8,0:0:0:0:
134,93,218790,1,0,0:0:0:0:
132,97,218850,1,8,0:0:0:0:
131,97,218910,1,0,0:0:0:0:
44,160,218970,1,0,0:0:0:0:
44,160,219030,1,0,0:0:0:0:
44,160,219090,1,0,0:0:0:0:
44,160,219150,1,8,0:0:0:0:
44,160,219210,1,0,0:0:0:0:
44,160,219270,1,0,0:0:0:0:
54,158,219330,1,0,0:0:0:0:
346,284,219390,1,8,0:0:0:0:
329,172,219450,1,8,0:0:0:0:
334,311,219510,1,0,0:0:0:0:
241,112,219570,1,0,0:0:0:0:
231,110,219630,1,0,0:0:0:0:
225,106,219690,1,0,0:0:0:0:
283,170,219750,1,8,0:0:0:0:
127,166,219810,1,0,0:0:0:0:
168,181,219870,1,8,0:0:0:0:
43,169,219930,1,8,0:0:0:0:
44,160,219990,1,8,0:0:0:0:
44,160,220050,1,0,0:0:0:0:
254,264,220110,1,8,0:0:0:0:
134,131,220170,1,0,0:0:0:0:
207,208,220230,1,8,0:0:0:0:
125,116,220290,1,8,0:0:0:0:
125,116,220350,1,8,0:0:0:0:
125,116,220410,1,0,0:0:0:0:
355,262,220470,1,8,0:0:0:0:
72,128,220530,1,0,0:0:0:0:
291,208,220590,1,8,0:0:0:0:
212,102,220650,1,8,0:0:0:0:
232,186,220710,1,8,0:0:0:0:
128,80,220770,1,8,0:0:0:0:
251,191,220830,1,0,0:0:0:0:
114,105,220890,1,0,0:0:0:0:
147,86,220950,1,0,0:0:0:0:
174,82,221010,1,8,0:0:0:0:
121,175,221070,1,0,0:0:0:0:
174,149,221130,1,8,0:0:0:0:
177,142,221190,1,8,0:0:0:0:
177,141,221250,1,8,0:0:0:0:
175,141,221310,1,0,0:0:0:0:
172,138,221370,1,8,0:0:0:0:
165,139,221430,1,0,0:0:0:0:
161,140,221490,1,8,0:0:0:0:
161,140,221550,1,0,0:0:0:0:
91,111,221610,1,0,0:0:0:0:
113,73,221670,1,0,0:0:0:0:
113,73,221730,1,8,0:0:0:0:
113,73,221790,1,0,0:0:0:0:
113,73,221850,1,8,0:0:0:0:
110,77,221910,1,8,0:0:0:0:
110,80,221970,1,8,0:0:0:0:
109,81,222030,1,0,0:0:0:0:
155,127,222090,1,8,0:0:0:0:
158,122,222150,1,8,0:0:0:0:
158,122,222210,1,8,0:0:0:0:
157,122,222270,1,0,0:0:0:0:
156,122,222330,1,8,0:0:0:0:
155,127,222390,1,0,0:0:0:0:
150,128,222450,1,8,0:0:0:0:
147,129,222510,1,0,0:0:0:0:
47,129,222570,1,0,0:0:0:0:
107,110,222630,1,8,0:0:0:0:
107,110,222690,1,8,0:0:0:0:
107,110,222750,1,0,0:0:0:0:
107,110,222810,1,8,0:0:0:0:
107,110,222870,1,0,0:0:0:0:
101,109,222930,1,0,0:0:0:0:
97,111,222990,1,8,0:0:0:0:
95,113,223050,1,8,0:0:0:0:
95,113,223110,1,0,0:0:0:0:
92,114,223170,1,8,0:0:0:0:
91,116,223230,1,8,0:0:0:0:
201,141,223290,1,8,0:0:0:0:
183,92,223350,1,0,0:0:0:0:
140,57,223410,1,0,0:0:0:0:
140,57,223470,1,8,0:0:0:0:
209,133,223530,1,8,0:0:0:0:
180,139,223590,1,0,0:0:0:0:
166,140,223650,1,0,0:0:0:0:
161,137,223710,1,8,0:0:0:0:
174,134,223770,1,8,0:0:0:0:
171,133,223830,1,0,0:0:0:0:
172,136,223890,1,8,0:0:0:0:
172,136,223950,1,0,0:0:0:0:
102,147,224010,1,0,0:0:0:0:
98,131,224070,1,0,0:0:0:0:
97,131,224130,1,8,0:0:0:0:
96,131,224190,1,0,0:0:0:0:
98,156,224310,1,0,0:0:0:0:
132,155,224370,1,0,0:0:0:0:
132,155,224430,1,0,0:0:0:0:
224,162,224550,1,0,0:0:0:0:
280,94,224670,1,8,0:0:0:0:
211,79,224730,1,8,0:0:0:0:
60,96,224790,1,0,0:0:0:0:
62,83,224850,1,0,0:0:0:0:
62,83,224910,1,8,0:0:0:0:
63,75,224970,1,8,0:0:0:0:
62,80,225030,1,8,0:0:0:0:
59,82,225090,1,0,0:0:0:0:
59,82,225150,1,8,0:0:0:0:
58,82,225210,1,8,0:0:0:0:
58,82,225270,1,0,0:0:0:0:
58,82,225330,1,0,0:0:0:0:
57,85,225390,1,8,0:0:0:0:
54,87,225450,1,8,0:0:0:0:
54,87,225510,1,0,0:0:0:0:
54,87,225570,1,8,0:0:0:0:
54,90,225630,1,8,0:0:0:0:
49,97,225690,1,8,0:0:0:0:
49,97,225750,1,0,0:0:0:0:
47,97,225810,1,0,0:0:0:0:
47,97,225870,1,8,0:0:0:0:
252,104,225930,1,0,0:0:0:0:
183,104,225990,1,0,0:0:0:0:
132,101,226050,1,0,0:0:0:0:
136,105,226110,1,8,0:0:0:0:
155,78,226170,1,0,0:0:0:0:
155,78,226230,1,0,0:0:0:0:
155,78,226290,1,0,0:0:0:0:
155,78,226350,1,8,0:0:0:0:
150,82,226410,1,8,0:0:0:0:
150,82,226470,1,0,0:0:0:0:
150,82,226530,1,0,0:0:0:0:
150,82,226590,1,8,0:0:0:0:
235,153,226650,1,8,0:0:0:0:
235,153,226710,1,0,0:0:0:0:
111,153,226770,1,0,0:0:0:0:
105,124,226830,1,8,0:0:0:0:
105,124,226890,1,8,0:0:0:0:
78,127,226950,1,8,0:0:0:0:
78,127,227010,1,8,0:0:0:0:
78,127,227070,1,0,0:0:0:0:
78,127,227130,1,8,0:0:0:0:
78,127,227190,1,0,0:0:0:0:
73,123,227250,1,8,0:0:0:0:
73,123,227310,1,0,0:0:0:0:
73,123,227370,1,0,0:0:0:0:
73,123,227430,1,8,0:0:0:0:
73,123,227490,1,8,0:0:0:0:
180,145,227550,1,0,0:0:0:0:
174,148,227610,1,0,0:0:0:0:
173,148,227670,1,8,0:0:0:0:
172,148,227790,1,0,0:0:0:0:
73,167,227910,1,0,0:0:0:0:
128,142,228030,1,0,0:0:0:0:
85,123,228090,1,0,0:0:0:0:
124,105,228150,1,8,0:0:0:0:
164,120,228210,1,8,0:0:0:0:
169,99,228270,1,0,0:0:0:0:
191,100,228310,1,0,0:0:0:0:
184,97,228350,1,0,0:0:0:0:
184,97,228390,1,8,0:0:0:0:
271,108,228510,1,0,0:0:0:0:
150,185,228570,1,0,0:0:0:0:
131,155,228630,1,0,0:0:0:0:
131,155,228690,1,0,0:0:0:0:
131,155,228750,1,8,0:0:0:0:
208,115,228810,1,0,0:0:0:0:
169,93,228870,1,8,0:0:0:0:
169,93,228930,1,0,0:0:0:0:
172,175,228990,1,0,0:0:0:0:
147,136,229050,1,0,0:0:0:0:
145,132,229110,1,8,0:0:0:0:
143,135,229170,1,8,0:0:0:0:
136,135,229230,1,0,0:0:0:0:
134,135,229290,1,8,0:0:0:0:
133,135,229350,1,8,0:0:0:0:
134,136,229410,1,0,0:0:0:0:
130,145,229470,1,8,0:0:0:0:
130,145,229530,1,0,0:0:0:0:
130,145,229590,1,0,0:0:0:0:
187,114,229650,1,0,0:0:0:0:
172,120,229710,1,8,0:0:0:0:
224,152,229770,1,8,0:0:0:0:
214,149,229830,1,8,0:0:0:0:
206,149,229890,1,0,0:0:0:0:
202,151,229950,1,0,0:0:0:0:
102,108,230010,1,0,0:0:0:0:
95,109,230070,1,8,0:0:0:0:
95,109,230130,1,0,0:0:0:0:
113,160,230190,1,8,0:0:0:0:
106,100,230250,1,0,0:0:0:0:
105,97,230310,1,0,0:0:0:0:
103,97,230370,1,0,0:0:0:0:
103,97,230430,1,8,0:0:0:0:
100,97,230490,1,0,0:0:0:0:
88,99,230550,1,0,0:0:0:0:
88,99,230610,1,0,0:0:0:0:
88,99,230670,1,8,0:0:0:0:
76,99,230730,1,8,0:0:0:0:
75,99,230790,1,0,0:0:0:0:
74,98,230850,1,8,0:0:0:0:
72,98,230910,1,0,0:0:0:0:
72,98,230970,1,8,0:0:0:0:
186,186,231030,1,8,0:0:0:0:
177,170,231090,1,8,0:0:0:0:
132,133,231150,1,0,0:0:0:0:
132,133,231210,1,0,0:0:0:0:
132,133,231270,1,0,0:0:0:0:
132,133,231330,1,0,0:0:0:0:
204,141,231390,1,8,0:0:0:0:
204,141,231450,1,8,0:0:0:0:
197,140,231510,1,0,0:0:0:0:
198,140,231570,1,8,0:0:0:0:
201,140,231630,1,0,0:0:0:0:
201,140,231690,1,8,0:0:0:0:
206,140,231750,1,8,0:0:0:0:
206,140,231810,1,8,0:0:0:0:
206,140,231870,1,0,0:0:0:0:
206,140,231990,1,8,0:0:0:0:
206,140,232050,1,8,0:0:0:0:
206,140,232110,1,0,0:0:0:0:
234,86,232230,1,8,0:0:0:0:
206,83,232350,1,0,0:0:0:0:
177,98,232410,1,0,0:0:0:0:
140,80,232470,1,0,0:0:0:0:
132,71,232530,1,0,0:0:0:0:
124,71,232590,1,8,0:0:0:0:
110,70,232650,1,0,0:0:0:0:
95,70,232710,1,0,0:0:0:0:
89,72,232770,1,0,0:0:0:0:
86,74,232830,1,8,0:0:0:0:
86,74,232890,1,0,0:0:0:0:
86,74,232950,1,0,0:0:0:0:
224,172,233010,1,0,0:0:0:0:
178,145,233070,1,0,0:0:0:0:
148,146,233130,1,0,0:0:0:0:
142,146,233190,1,8,0:0:0:0:
134,149,233250,1,0,0:0:0:0:
125,151,233310,1,8,0:0:0:0:
122,152,233370,1,0,0:0:0:0:
122,150,233430,1,0,0:0:0:0:
117,152,233490,1,0,0:0:0:0:
117,151,233550,1,8,0:0:0:0:
113,149,233610,1,8,0:0:0:0:
199,138,233670,1,0,0:0:0:0:
154,128,233730,1,0,0:0:0:0:
119,130,233790,1,8,0:0:0:0:
96,132,233850,1,0,0:0:0:0:
96,132,233910,1,0,0:0:0:0:
95,132,233970,1,0,0:0:0:0:
95,132,234030,1,8,0:0:0:0:
88,134,234090,1,0,0:0:0:0:
87,134,234150,1,0,0:0:0:0:
74,139,234210,1,0,0:0:0:0:
74,140,234270,1,8,0:0:0:0:
99,162,234330,1,0,0:0:0:0:
91,160,234390,1,8,0:0:0:0:
80,161,234450,1,0,0:0:0:0:
67,162,234510,1,8,0:0:0:0:
216,174,234570,1,0,0:0:0:0:
160,114,234630,1,8,0:0:0:0:
133,98,234690,1,0,0:0:0:0:
133,98,234750,1,8,0:0:0:0:
123,90,234810,1,8,0:0:0:0:
121,90,234870,1,8,0:0:0:0:
120,90,234930,1,0,0:0:0:0:
120,90,234990,1,8,0:0:0:0:
276,168,235050,1,0,0:0:0:0:
180,122,235110,1,8,0:0:0:0:
99,161,235170,1,0,0:0:0:0:
99,166,235230,1,8,0:0:0:0:
225,122,235350,1,0,0:0:0:0:
226,114,235410,1,0,0:0:0:0:
224,106,235470,1,8,0:0:0:0:
224,106,235530,1,0,0:0:0:0:
221,106,235590,1,0,0:0:0:0:
220,106,235710,1,8,0:0:0:0:
153,212,235830,1,0,0:0:0:0:
262,191,235950,1,8,0:0:0:0:
228,147,236010,1,8,0:0:0:0:
224,142,236070,1,8,0:0:0:0:
223,142,236130,1,8,0:0:0:0:
222,142,236190,1,0,0:0:0:0:
32,124,236250,1,0,0:0:0:0:
46,105,236310,1,0,0:0:0:0:
46,105,236370,1,0,0:0:0:0:
136,119,236430,1,8,0:0:0:0:
65,86,236490,1,0,0:0:0:0:
65,86,236550,1,0,0:0:0:0:
65,86,236610,1,0,0:0:0:0:
51,86,236670,1,8,0:0:0:0:
51,86,236730,1,0,0:0:0:0:
51,85,236790,1,0,0:0:0:0:
51,86,236850,1,0,0:0:0:0:
51,87,236910,1,8,0:0:0:0:
51,87,236970,1,8,0:0:0:0:
51,88,237030,1,0,0:0:0:0:
36,93,237090,1,0,0:0:0:0:
35,93,237150,1,8,0:0:0:0:
43,95,237210,1,8,0:0:0:0:
191,164,237270,1,8,0:0:0:0:
164,134,237330,1,0,0:0:0:0:
158,130,237390,1,8,0:0:0:0:
136,131,237450,1,8,0:0:0:0:
136,131,237510,1,0,0:0:0:0:
126,132,237570,1,8,0:0:0:0:
125,134,237630,1,0,0:0:0:0:
250,113,237690,1,0,0:0:0:0:
102,154,237750,1,8,0:0:0:0:
84,131,237810,1,0,0:0:0:0:
84,131,237870,1,0,0:0:0:0:
84,131,237930,1,0,0:0:0:0:
202,172,237990,1,8,0:0:0:0:
177,172,238050,1,0,0:0:0:0:
167,172,238110,1,8,0:0:0:0:
136,183,238170,1,8,0:0:0:0:
136,183,238230,1,0,0:0:0:0:
124,186,238290,1,8,0:0:0:0:
121,184,238350,1,8,0:0:0:0:
121,182,238410,1,8,0:0:0:0:
121,182,238470,1,0,0:0:0:0:
117,187,238530,1,0,0:0:0:0:
117,187,238590,1,8,0:0:0:0:
114,193,238650,1,0,0:0:0:0:
205,167,238710,1,0,0:0:0:0:
161,146,238770,1,0,0:0:0:0:
161,146,238830,1,8,0:0:0:0:
133,144,238890,1,0,0:0:0:0:
133,144,238950,1,0,0:0:0:0:
123,145,239010,1,0,0:0:0:0:
123,144,239070,1,8,0:0:0:0:
123,144,239130,1,8,0:0:0:0:
169,127,239190,1,0,0:0:0:0:
163,132,239250,1,0,0:0:0:0:
135,135,239310,1,8,0:0:0:0:
134,135,239370,1,8,0:0:0:0:
130,134,239430,1,8,0:0:0:0:
128,135,239490,1,8,0:0:0:0:
246,189,239550,1,0,0:0:0:0:
109,126,239670,1,0,0:0:0:0:
102,124,239730,1,0,0:0:0:0:
92,135,239790,1,0,0:0:0:0:
128,180,239910,1,0,0:0:0:0:
286,285,240030,1,0,0:0:0:0:
97,133,240090,1,0,0:0:0:0:
97,132,240150,1,0,0:0:0:0:
97,132,240210,1,0,0:0:0:0:
97,132,240270,1,8,0:0:0:0:
125,146,240330,1,0,0:0:0:0:
125,146,240390,1,0,0:0:0:0:
125,146,240450,1,0,0:0:0:0:
119,150,240510,1,8,0:0:0:0:
178,177,240570,1,0,0:0:0:0:
170,174,240630,1,8,0:0:0:0:
156,171,240690,1,8,0:0:0:0:
156,171,240750,1,8,0:0:0:0:
156,171,240810,1,0,0:0:0:0:
154,171,240870,1,8,0:0:0:0:
152,171,240930,1,8,0:0:0:0:
146,175,240990,1,0,0:0:0:0:
124,120,241050,1,0,0:0:0:0:
120,111,241110,1,0,0:0:0:0:
119,111,241170,1,0,0:0:0:0:
119,111,241230,1,8,0:0:0:0:
119,111,241290,1,8,0:0:0:0:
47,128,241350,1,0,0:0:0:0:
47,128,241410,1,0,0:0:0:0:
47,128,241470,1,8,0:0:0:0:
47,128,241530,1,8,0:0:0:0:
47,128,241590,1,0,0:0:0:0:
47,128,241650,1,0,0:0:0:0:
68,97,241710,1,8,0:0:0:0:
68,97,241770,1,8,0:0:0:0:
62,97,241830,1,0,0:0:0:0:
56,99,241890,1,8,0:0:0:0:
42,101,241950,1,0,0:0:0:0:
42,102,242010,1,8,0:0:0:0:
36,105,242070,1,8,0:0:0:0:
27,112,242130,1,0,0:0:0:0:
23,112,242190,1,0,0:0:0:0:
150,160,242250,1,0,0:0:0:0:
149,108,242310,1,8,0:0:0:0:
146,112,242370,1,0,0:0:0:0:
145,112,242430,1,8,0:0:0:0:
145,112,242490,1,8,0:0:0:0:
141,112,242550,1,0,0:0:0:0:
141,112,242610,1,0,0:0:0:0:
79,92,242670,1,8,0:0:0:0:
79,92,242730,1,8,0:0:0:0:
79,92,242790,1,0,0:0:0:0:
79,92,242850,1,8,0:0:0:0:
265,224,242910,1,0,0:0:0:0:
257,125,243030,1,0,0:0:0:0:
209,140,243150,1,0,0:0:0:0:
169,193,243270,1,0,0:0:0:0:
56,168,243330,1,0,0:0:0:0:
235,223,243390,1,0,0:0:0:0:
163,145,243510,1,0,0:0:0:0:
299,272,243570,1,0,0:0:0:0:
247,137,243630,1,8,0:0:0:0:
246,137,243670,1,8,0:0:0:0:
246,137,243710,1,8,0:0:0:0:
243,137,243750,1,0,0:0:0:0:
222,176,243870,1,8,0:0:0:0:
208,153,243930,1,8,0:0:0:0:
208,153,243990,1,8,0:0:0:0:
208,153,244050,1,8,0:0:0:0:
208,153,244110,1,0,0:0:0:0:
206,148,244170,1,0,0:0:0:0:
206,148,244230,1,8,0:0:0:0:
206,148,244290,1,8,0:0:0:0:
206,148,244350,1,8,0:0:0:0:
206,148,244410,1,8,0:0:0:0:
206,148,244470,1,0,0:0:0:0:
206,148,244530,1,0,0:0:0:0:
253,170,244590,1,8,0:0:0:0:
240,140,244650,1,8,0:0:0:0:
214,136,244710,1,8,0:0:0:0:
34,131,244770,1,8,0:0:0:0:
122,175,244830,1,0,0:0:0:0:
122,175,244890,1,0,0:0:0:0:
283,219,244950,1,8,0:0:0:0:
209,171,245010,1,8,0:0:0:0:
205,171,245070,1,8,0:0:0:0:
155,143,245130,1,8,0:0:0:0:
183,138,245190,1,0,0:0:0:0:
121,82,245250,1,8,0:0:0:0:
121,82,245310,1,0,0:0:0:0:
244,160,245370,1,0,0:0:0:0:
135,114,245430,1,8,0:0:0:0:
299,158,245490,1,0,0:0:0:0:
200,99,245550,1,8,0:0:0:0:
242,73,245610,1,8,0:0:0:0:
150,77,245670,1,0,0:0:0:0:
73,152,245730,1,8,0:0:0:0:
198,186,245790,1,0,0:0:0:0:
218,159,245850,1,0,0:0:0:0:
254,164,245910,1,0,0:0:0:0:
254,164,245970,1,0,0:0:0:0:
256,162,246030,1,8,0:0:0:0:
209,124,246090,1,8,0:0:0:0:
80,134,246150,1,0,0:0:0:0:
83,133,246210,1,0,0:0:0:0:
151,136,246270,1,0,0:0:0:0:
151,136,246330,1,0,0:0:0:0:
151,136,246390,1,8,0:0:0:0:
151,136,246450,1,8,0:0:0:0:
151,136,246510,1,0,0:0:0:0:
151,136,246570,1,0,0:0:0:0:
151,136,246630,1,0,0:0:0:0:
151,136,246690,1,0,0:0:0:0:
151,136,246750,1,8,0:0:0:0:
263,150,246810,1,8,0:0:0:0:
145,86,246870,1,0,0:0:0:0:
145,86,246930,1,0,0:0:0:0:
90,116,246990,1,8,0:0:0:0:
90,116,247050,1,8,0:0:0:0:
179,142,247110,1,0,0:0:0:0:
205,94,247170,1,8,0:0:0:0:
208,90,247230,1,0,0:0:0:0:
178,89,247350,1,8,0:0:0:0:
174,75,247410,1,8,0:0:0:0:
173,75,247470,1,8,0:0:0:0:
276,200,247590,1,8,0:0:0:0:
364,212,247710,1,8,0:0:0:0:
220,167,247770,1,0,0:0:0:0:
220,167,247830,1,0,0:0:0:0:
137,156,247890,1,0,0:0:0:0:
137,156,247950,1,8,0:0:0:0:
137,156,248010,1,0,0:0:0:0:
137,156,248070,1,0,0:0:0:0:
137,156,248130,1,0,0:0:0:0:
137,156,248190,1,8,0:0:0:0:
137,156,248250,1,0,0:0:0:0:
137,156,248310,1,0,0:0:0:0:
137,156,248370,1,0,0:0:0:0:
139,161,248430,1,8,0:0:0:0:
194,154,248490,1,0,0:0:0:0:
152,153,248550,1,0,0:0:0:0:
151,149,248610,1,0,0:0:0:0:
146,150,248670,1,8,0:0:0:0:
243,143,248730,1,0,0:0:0:0:
73,116,248790,1,0,0:0:0:0:
76,97,248850,1,0,0:0:0:0:
76,97,248910,1,8,0:0:0:0:
76,97,248970,1,0,0:0:0:0:
123,167,249030,1,0,0:0:0:0:
113,145,249090,1,0,0:0:0:0:
113,138,249150,1,8,0:0:0:0:
113,138,249210,1,0,0:0:0:0:
113,138,249270,1,0,0:0:0:0:
113,138,249330,1,0,0:0:0:0:
113,138,249390,1,8,0:0:0:0:
113,138,249450,1,0,0:0:0:0:
113,138,249510,1,0,0:0:0:0:
113,138,249570,1,0,0:0:0:0:
235,232,249630,1,8,0:0:0:0:
271,164,249690,1,0,0:0:0:0:
183,82,249750,1,8,0:0:0:0:
95,64,249810,1,0,0:0:0:0:
95,64,249870,1,8,0:0:0:0:
95,64,249930,1,0,0:0:0:0:
95,64,249990,1,8,0:0:0:0:
95,64,250050,1,0,0:0:0:0:
95,64,250110,1,8,0:0:0:0:
95,64,250170,1,0,0:0:0:0:
95,64,250230,1,8,0:0:0:0:
165,171,250290,1,0,0:0:0:0:
165,163,250350,1,8,0:0:0:0:
165,161,250410,1,0,0:0:0:0:
165,161,250470,1,8,0:0:0:0:
165,161,250530,1,0,0:0:0:0:
165,161,250590,1,8,0:0:0:0:
321,159,250650,1,8,0:0:0:0:
186,131,250710,1,0,0:0:0:0:
229,88,250770,1,0,0:0:0:0:
229,88,250830,1,8,0:0:0:0:
229,88,250890,1,8,0:0:0:0:
229,88,250950,1,8,0:0:0:0:
229,88,251010,1,0,0:0:0:0:
173,79,251070,1,8,0:0:0:0:
117,48,251130,1,8,0:0:0:0:
101,136,251190,1,0,0:0:0:0:
246,169,251250,1,0,0:0:0:0:
147,153,251310,1,8,0:0:0:0:
143,137,251350,1,8,0:0:0:0:
80,112,251390,1,8,0:0:0:0:
80,112,251430,1,8,0:0:0:0:
80,112,251470,1,8,0:0:0:0:
80,106,251510,1,8,0:0:0:0:
78,106,251550,1,0,0:0:0:0:
205,183,253470,1,0,0:0:0:0:
224,222,254430,1,8,0:0:0:0:
245,234,255390,1,0,0:0:0:0:
249,182,257310,1,8,0:0:0:0:
297,247,258270,1,0,0:0:0:0:
250,181,259230,1,8,0:0:0:0:
223,168,261150,1,0,0:0:0:0:
272,204,262110,1,8,0:0:0:0:
277,196,263070,1,0,0:0:0:0:
173,128,264990,1,8,0:0:0:0:
265,138,265950,1,8,0:0:0:0:
241,185,266910,1,0,0:0:0:0:
128,134,266970,1,8,0:0:0:0:
159,127,267030,1,0,0:0:0:0:
159,127,267090,1,8,0:0:0:0:
159,127,267150,1,8,0:0:0:0:
128,134,267210,1,8,0:0:0:0:
159,127,267270,1,0,0:0:0:0:
159,127,267330,1,8,0:0:0:0:
159,127,267390,1,8,0:0:0:0:
128,134,267450,1,8,0:0:0:0:
159,127,267510,1,0,0:0:0:0:
159,127,267570,1,8,0:0:0:0:
159,127,267630,1,0,0:0:0:0:
128,134,267690,1,8,0:0:0:0:
159,127,267750,1,0,0:0:0:0:
159,127,267810,1,8,0:0:0:0:
159,127,267870,1,0,0:0:0:0:
128,134,267930,1,8,0:0:0:0:
159,127,267990,1,0,0:0:0:0:
159,127,268050,1,8,0:0:0:0:
159,127,268110,1,0,0:0:0:0:
128,134,268170,1,8,0:0:0:0:
159,127,268230,1,0,0:0:0:0:
159,127,268290,1,8,0:0:0:0:
159,127,268350,1,0,0:0:0:0:
128,134,268410,1,0,0:0:0:0:
159,127,268470,1,8,0:0:0:0:
159,127,268530,1,8,0:0:0:0:
159,127,268590,1,8,0:0:0:0:
128,134,268650,1,8,0:0:0:0:
159,127,268710,1,0,0:0:0:0:
159,127,268770,1,0,0:0:0:0:
159,127,268830,1,8,0:0:0:0:
128,134,268890,1,8,0:0:0:0:
159,127,268950,1,8,0:0:0:0:
159,127,269010,1,8,0:0:0:0:
159,127,269070,1,0,0:0:0:0:
128,134,269130,1,8,0:0:0:0:
159,127,269190,1,0,0:0:0:0:
159,127,269250,1,8,0:0:0:0:
159,127,269310,1,0,0:0:0:0:
128,134,269370,1,8,0:0:0:0:
159,127,269430,1,0,0:0:0:0:
159,127,269490,1,8,0:0:0:0:
159,127,269550,1,0,0:0:0:0:
128,134,269610,1,8,0:0:0:0:
159,127,269670,1,0,0:0:0:0:
159,127,269730,1,8,0:0:0:0:
159,127,269790,1,8,0:0:0:0:
73,128,269850,1,8,0:0:0:0:
88,116,269910,1,0,0:0:0:0:
84,115,269970,1,8,0:0:0:0:
73,113,270030,1,8,0:0:0:0:
73,113,270090,1,8,0:0:0:0:
72,113,270150,1,0,0:0:0:0:
71,113,270210,1,8,0:0:0:0:
162,160,270270,1,0,0:0:0:0:
313,193,270330,1,0,0:0:0:0:
241,145,270390,1,8,0:0:0:0:
230,134,270450,1,8,0:0:0:0:
202,111,270510,1,0,0:0:0:0:
305,145,270570,1,8,0:0:0:0:
367,363,270630,1,8,0:0:0:0:
295,112,270690,1,0,0:0:0:0:
347,274,270750,1,0,0:0:0:0:
41,112,270810,1,8,0:0:0:0:
41,112,270870,1,0,0:0:0:0:
41,112,270930,1,8,0:0:0:0:
41,112,270990,1,8,0:0:0:0:
41,112,271050,1,8,0:0:0:0:
41,112,271110,1,0,0:0:0:0:
41,112,271170,1,8,0:0:0:0:
41,112,271230,1,8,0:0:0:0:
41,112,271290,1,8,0:0:0:0:
41,112,271350,1,0,0:0:0:0:
41,112,271410,1,8,0:0:0:0:
41,112,271470,1,0,0:0:0:0:
41,112,271530,1,8,0:0:0:0:
41,112,271590,1,0,0:0:0:0:
41,112,271650,1,8,0:0:0:0:
41,112,271710,1,0,0:0:0:0:
41,112,271770,1,8,0:0:0:0:
41,112,271830,1,0,0:0:0:0:
41,112,271890,1,8,0:0:0:0:
41,112,271950,1,0,0:0:0:0:
41,112,272010,1,0,0:0:0:0:
41,112,272070,1,0,0:0:0:0:
41,112,272130,1,0,0:0:0:0:
41,112,272190,1,8,0:0:0:0:
41,112,272250,1,8,0:0:0:0:
41,112,272310,1,0,0:0:0:0:
41,112,272370,1,0,0:0:0:0:
41,112,272430,1,8,0:0:0:0:
41,112,272490,1,8,0:0:0:0:
41,112,272550,1,8,0:0:0:0:
41,112,272610,1,8,0:0:0:0:
41,112,272670,1,0,0:0:0:0:
41,112,272730,1,8,0:0:0:0:
41,112,272790,1,0,0:0:0:0:
41,112,272850,1,8,0:0:0:0:
41,112,272910,1,0,0:0:0:0:
41,112,272970,1,8,0:0:0:0:
41,112,273030,1,0,0:0:0:0:
41,112,273090,1,8,0:0:0:0:
41,112,273150,1,0,0:0:0:0:
41,112,273210,1,8,0:0:0:0:
41,112,273270,1,0,0:0:0:0:
41,112,273330,1,8,0:0:0:0:
41,112,273390,1,8,0:0:0:0:
83,146,273450,1,8,0:0:0:0:
276,234,273510,1,0,0:0:0:0:
83,146,273570,1,8,0:0:0:0:
100,197,273630,1,8,0:0:0:0:
205,160,273690,1,8,0:0:0:0:
165,125,273750,1,8,0:0:0:0:
165,125,273810,1,8,0:0:0:0:
165,125,273870,1,0,0:0:0:0:
159,159,273930,1,0,0:0:0:0:
190,136,273990,1,0,0:0:0:0:
159,159,274050,1,0,0:0:0:0:
227,170,274110,1,8,0:0:0:0:
227,170,274170,1,8,0:0:0:0:
227,170,274230,1,0,0:0:0:0:
314,237,274290,1,8,0:0:0:0:
227,170,274350,1,8,0:0:0:0:
83,146,274410,1,0,0:0:0:0:
252,219,274470,1,0,0:0:0:0:
99,127,274530,1,8,0:0:0:0:
132,219,274590,1,8,0:0:0:0:
152,142,274650,1,8,0:0:0:0:
153,102,274710,1,8,0:0:0:0:
147,101,274770,1,8,0:0:0:0:
143,99,274830,1,0,0:0:0:0:
161,131,274890,1,0,0:0:0:0:
157,128,274950,1,0,0:0:0:0:
154,128,275010,1,0,0:0:0:0:
148,131,275070,1,8,0:0:0:0:
148,131,275130,1,8,0:0:0:0:
139,132,275190,1,8,0:0:0:0:
138,134,275250,1,8,0:0:0:0:
137,136,275310,1,0,0:0:0:0:
137,136,275370,1,8,0:0:0:0:
129,137,275430,1,0,0:0:0:0:
129,137,275490,1,8,0:0:0:0:
219,157,275550,1,0,0:0:0:0:
217,145,275610,1,0,0:0:0:0:
214,145,275670,1,0,0:0:0:0:
213,145,275730,1,0,0:0:0:0:
181,155,275790,1,8,0:0:0:0:
181,155,275850,1,0,0:0:0:0:
181,155,275910,1,0,0:0:0:0:
181,155,275970,1,0,0:0:0:0:
174,159,276030,1,8,0:0:0:0:
161,163,276090,1,0,0:0:0:0:
58,85,276150,1,0,0:0:0:0:
58,85,276210,1,0,0:0:0:0:
58,85,276270,1,8,0:0:0:0:
58,85,276330,1,8,0:0:0:0:
58,85,276390,1,8,0:0:0:0:
58,85,276450,1,8,0:0:0:0:
52,86,276510,1,0,0:0:0:0:
137,105,276570,1,8,0:0:0:0:
117,53,276630,1,0,0:0:0:0:
117,53,276690,1,8,0:0:0:0:
117,53,276750,1,0,0:0:0:0:
246,127,276810,1,0,0:0:0:0:
51,150,276870,1,0,0:0:0:0:
79,135,276930,1,0,0:0:0:0:
79,135,276990,1,8,0:0:0:0:
79,135,277050,1,8,0:0:0:0:
79,135,277110,1,0,0:0:0:0:
79,135,277170,1,8,0:0:0:0:
199,182,277230,1,0,0:0:0:0:
199,182,277290,1,0,0:0:0:0:
199,182,277350,1,0,0:0:0:0:
199,182,277410,1,0,0:0:0:0:
199,182,277470,1,8,0:0:0:0:
199,182,277530,1,8,0:0:0:0:
199,182,277590,1,0,0:0:0:0:
199,182,277650,1,0,0:0:0:0:
199,182,277710,1,8,0:0:0:0:
199,182,277770,1,0,0:0:0:0:
199,182,277830,1,8,0:0:0:0:
236,227,277890,1,8,0:0:0:0:
183,144,277950,1,0,0:0:0:0:
332,246,278010,1,0,0:0:0:0:
50,111,278070,1,8,0:0:0:0:
50,111,278130,1,8,0:0:0:0:
50,111,278190,1,8,0:0:0:0:
302,230,278250,1,0,0:0:0:0:
61,116,278310,1,8,0:0:0:0:
210,99,278370,1,8,0:0:0:0:
292,227,278430,1,0,0:0:0:0:
268,127,278490,1,0,0:0:0:0:
213,133,278550,1,0,0:0:0:0:
159,141,278610,1,0,0:0:0:0:
159,141,278670,1,8,0:0:0:0:
133,72,278730,1,8,0:0:0:0:
161,105,278790,1,8,0:0:0:0:
326,163,278850,1,8,0:0:0:0:
280,171,278910,1,0,0:0:0:0:
275,172,278970,1,0,0:0:0:0:
268,171,279030,1,0,0:0:0:0:
244,182,279090,1,0,0:0:0:0:
244,182,279150,1,8,0:0:0:0:
244,182,279210,1,8,0:0:0:0:
244,182,279270,1,8,0:0:0:0:
244,182,279330,1,8,0:0:0:0:
244,182,279390,1,0,0:0:0:0:
199,183,279450,1,0,0:0:0:0:
169,139,279510,1,8,0:0:0:0:
163,123,279570,1,8,0:0:0:0:
134,130,279630,1,0,0:0:0:0:
134,130,279690,1,0,0:0:0:0:
134,130,279750,1,8,0:0:0:0:
134,130,279810,1,8,0:0:0:0:
134,130,279870,1,0,0:0:0:0:
128,122,279930,1,0,0:0:0:0:
128,122,279990,1,8,0:0:0:0:
261,155,280050,1,8,0:0:0:0:
182,125,280110,1,0,0:0:0:0:
182,116,280170,1,8,0:0:0:0:
182,116,280230,1,0,0:0:0:0:
181,118,280290,1,8,0:0:0:0:
180,119,280350,1,0,0:0:0:0:
245,213,280410,1,0,0:0:0:0:
182,150,280470,1,0,0:0:0:0:
169,160,280530,1,0,0:0:0:0:
164,160,280590,1,8,0:0:0:0:
164,160,280650,1,8,0:0:0:0:
155,112,280710,1,0,0:0:0:0:
155,112,280770,1,0,0:0:0:0:
155,112,280830,1,8,0:0:0:0:
155,112,280890,1,8,0:0:0:0:
155,112,280950,1,0,0:0:0:0:
150,107,281010,1,8,0:0:0:0:
51,130,281070,1,0,0:0:0:0:
216,191,281130,1,0,0:0:0:0:
207,172,281190,1,0,0:0:0:0:
200,167,281250,1,0,0:0:0:0:
158,179,281310,1,8,0:0:0:0:
157,176,281370,1,8,0:0:0:0:
147,176,281430,1,0,0:0:0:0:
147,176,281490,1,0,0:0:0:0:
147,176,281550,1,8,0:0:0:0:
149,176,281610,1,8,0:0:0:0:
148,176,281670,1,0,0:0:0:0:
148,175,281730,1,8,0:0:0:0:
148,175,281790,1,0,0:0:0:0:
148,175,281850,1,8,0:0:0:0:
285,228,281910,1,0,0:0:0:0:
233,160,281970,1,8,0:0:0:0:
214,163,282030,1,8,0:0:0:0:
207,160,282090,1,8,0:0:0:0:
206,159,282150,1,8,0:0:0:0:
206,159,282210,1,8,0:0:0:0:
142,185,282270,1,0,0:0:0:0:
41,142,282330,1,0,0:0:0:0:
53,120,282390,1,0,0:0:0:0:
53,120,282450,1,0,0:0:0:0:
53,120,282510,1,0,0:0:0:0:
48,120,282570,1,0,0:0:0:0:
40,113,282630,1,0,0:0:0:0:
40,113,282690,1,0,0:0:0:0:
265,187,282750,1,8,0:0:0:0:
250,185,282810,1,8,0:0:0:0:
228,165,282870,1,8,0:0:0:0:
209,164,282930,1,8,0:0:0:0:
182,171,282990,1,8,0:0:0:0:
172,168,283050,1,8,0:0:0:0:
160,174,283110,1,8,0:0:0:0:
159,172,283170,1,8,0:0:0:0:
158,172,283230,1,0,0:0:0:0:
97,108,283290,1,0,0:0:0:0:
193,73,283350,1,0,0:0:0:0:
193,73,283410,1,0,0:0:0:0:
174,72,283470,1,8,0:0:0:0:
174,72,283530,1,8,0:0:0:0:
174,72,283590,1,8,0:0:0:0:
174,72,283650,1,8,0:0:0:0:
173,72,283710,1,0,0:0:0:0:
275,131,283770,1,0,0:0:0:0:
270,99,283830,1,8,0:0:0:0:
237,98,283890,1,8,0:0:0:0:
226,101,283950,1,0,0:0:0:0:
226,101,284010,1,0,0:0:0:0:
94,121,284070,1,8,0:0:0:0:
97,108,284130,1,8,0:0:0:0:
227,174,284190,1,0,0:0:0:0:
247,164,284250,1,0,0:0:0:0:
133,132,284310,1,0,0:0:0:0:
133,132,284370,1,0,0:0:0:0:
128,134,284430,1,0,0:0:0:0:
104,145,284490,1,0,0:0:0:0:
104,145,284550,1,0,0:0:0:0:
104,145,284610,1,0,0:0:0:0:
99,143,284670,1,8,0:0:0:0:
91,142,284730,1,8,0:0:0:0:
88,143,284790,1,8,0:0:0:0:
88,144,284850,1,8,0:0:0:0:
88,145,284910,1,8,0:0:0:0:
84,145,284970,1,8,0:0:0:0:
84,143,285030,1,8,0:0:0:0:
84,144,285090,1,8,0:0:0:0:
276,229,285150,1,0,0:0:0:0:
232,131,285210,1,0,0:0:0:0:
170,97,285270,1,8,0:0:0:0:
170,97,285330,1,8,0:0:0:0:
165,101,285390,1,0,0:0:0:0:
157,102,285450,1,0,0:0:0:0:
156,102,285510,1,8,0:0:0:0:
156,102,285570,1,8,0:0:0:0:
156,102,285630,1,0,0:0:0:0:
187,161,285690,1,0,0:0:0:0:
171,159,285750,1,0,0:0:0:0:
165,161,285810,1,0,0:0:0:0:
165,161,285870,1,8,0:0:0:0:
156,162,285930,1,8,0:0:0:0:
154,161,285990,1,8,0:0:0:0:
154,161,286050,1,8,0:0:0:0:
279,187,286110,1,0,0:0:0:0:
256,124,286170,1,0,0:0:0:0:
193,106,286230,1,0,0:0:0:0:
136,87,286290,1,0,0:0:0:0:
127,90,286350,1,0,0:0:0:0:
302,170,286410,1,0,0:0:0:0:
293,149,286470,1,0,0:0:0:0:
289,148,286530,1,0,0:0:0:0:
272,144,286590,1,8,0:0:0:0:
270,141,286650,1,8,0:0:0:0:
256,147,286710,1,8,0:0:0:0:
255,148,286770,1,8,0:0:0:0:
255,149,286830,1,8,0:0:0:0:
255,148,286890,1,8,0:0:0:0:
255,150,286950,1,8,0:0:0:0:
255,151,287010,1,8,0:0:0:0:
255,151,287070,1,0,0:0:0:0:
169,190,287130,1,0,0:0:0:0:
178,102,287190,1,0,0:0:0:0:
138,100,287250,1,0,0:0:0:0:
138,100,287310,1,8,0:0:0:0:
122,105,287370,1,0,0:0:0:0:
116,108,287430,1,0,0:0:0:0:
116,108,287490,1,0,0:0:0:0:
115,111,287550,1,8,0:0:0:0:
115,111,287610,1,0,0:0:0:0:
115,112,287670,1,8,0:0:0:0:
116,116,287730,1,0,0:0:0:0:
116,116,287790,1,8,0:0:0:0:
287,160,287850,1,8,0:0:0:0:
227,142,287910,1,8,0:0:0:0:
224,152,287970,1,8,0:0:0:0:
243,155,288030,1,0,0:0:0:0:
142,159,288090,1,0,0:0:0:0:
131,152,288150,1,0,0:0:0:0:
130,152,288210,1,0,0:0:0:0:
110,157,288270,1,0,0:0:0:0:
108,156,288330,1,0,0:0:0:0:
106,156,288390,1,0,0:0:0:0:
106,156,288450,1,0,0:0:0:0:
102,158,288510,1,8,0:0:0:0:
101,159,288570,1,8,0:0:0:0:
100,159,288630,1,8,0:0:0:0:
100,160,288690,1,8,0:0:0:0:
100,160,288750,1,8,0:0:0:0:
100,160,288810,1,8,0:0:0:0:
100,160,288870,1,8,0:0:0:0:
100,160,288930,1,8,0:0:0:0:
260,204,288990,1,0,0:0:0:0:
257,139,289050,1,0,0:0:0:0:
158,123,289110,1,0,0:0:0:0:
158,123,289170,1,0,0:0:0:0:
158,123,289230,1,8,0:0:0:0:
150,123,289290,1,8,0:0:0:0:
146,123,289350,1,8,0:0:0:0:
145,124,289410,1,8,0:0:0:0:
145,130,289470,1,0,0:0:0:0:
144,142,289530,1,0,0:0:0:0:
143,142,289590,1,8,0:0:0:0:
143,142,289650,1,8,0:0:0:0:
143,142,289710,1,0,0:0:0:0:
143,142,289770,1,0,0:0:0:0:
143,141,289830,1,8,0:0:0:0:
98,131,289890,1,8,0:0:0:0:
221,194,289950,1,0,0:0:0:0:
242,152,290010,1,0,0:0:0:0:
232,145,290070,1,0,0:0:0:0:
182,139,290130,1,0,0:0:0:0:
176,138,290190,1,0,0:0:0:0:
165,131,290250,1,0,0:0:0:0:
155,131,290310,1,0,0:0:0:0:
128,138,290370,1,0,0:0:0:0:
128,138,290430,1,8,0:0:0:0:
128,138,290490,1,8,0:0:0:0:
120,136,290550,1,0,0:0:0:0:
187,171,290610,1,0,0:0:0:0:
91,168,290670,1,0,0:0:0:0:
91,168,290730,1,0,0:0:0:0:
91,168,290790,1,8,0:0:0:0:
91,168,290850,1,8,0:0:0:0:
258,203,290910,1,0,0:0:0:0:
222,158,290970,1,8,0:0:0:0:
214,159,291030,1,8,0:0:0:0:
213,159,291090,1,8,0:0:0:0:
269,149,291150,1,0,0:0:0:0:
229,157,291210,1,8,0:0:0:0:
228,157,291270,1,8,0:0:0:0:
222,158,291330,1,8,0:0:0:0:
202,153,291390,1,0,0:0:0:0:
224,171,291450,1,0,0:0:0:0:
224,171,291510,1,0,0:0:0:0:
224,171,291570,1,0,0:0:0:0:
222,171,291630,1,8,0:0:0:0:
219,170,291690,1,8,0:0:0:0:
218,170,291750,1,8,0:0:0:0:
218,170,291810,1,8,0:0:0:0:
251,174,291870,1,0,0:0:0:0:
217,186,291930,1,0,0:0:0:0:
216,183,291990,1,0,0:0:0:0:
215,182,292050,1,0,0:0:0:0:
214,182,292110,1,0,0:0:0:0:
210,182,292170,1,0,0:0:0:0:
208,185,292230,1,0,0:0:0:0:
207,186,292290,1,0,0:0:0:0:
206,186,292350,1,8,0:0:0:0:
206,188,292410,1,8,0:0:0:0:
201,189,292470,1,8,0:0:0:0:
201,189,292530,1,8,0:0:0:0:
199,189,292590,1,8,0:0:0:0:
199,190,292650,1,8,0:0:0:0:
199,190,292710,1,8,0:0:0:0:
316,155,292770,1,8,0:0:0:0:
249,202,292830,1,0,0:0:0:0:
297,205,292890,1,8,0:0:0:0:
165,168,292950,1,0,0:0:0:0:
111,110,293010,1,8,0:0:0:0:
111,110,293070,1,0,0:0:0:0:
106,108,293130,1,8,0:0:0:0:
105,107,293190,1,0,0:0:0:0:
81,119,293250,1,8,0:0:0:0:
81,119,293310,1,0,0:0:0:0:
137,134,293370,1,8,0:0:0:0:
137,134,293430,1,8,0:0:0:0:
137,134,293490,1,8,0:0:0:0:
135,129,293550,1,0,0:0:0:0:
135,129,293610,1,8,0:0:0:0:
134,129,293670,1,8,0:0:0:0:
134,129,293730,1,8,0:0:0:0:
285,223,293790,1,0,0:0:0:0:
177,159,293850,1,0,0:0:0:0:
165,144,293910,1,0,0:0:0:0:
163,145,293970,1,0,0:0:0:0:
162,146,294030,1,0,0:0:0:0:
161,146,294090,1,0,0:0:0:0:
154,149,294150,1,0,0:0:0:0:
154,149,294210,1,0,0:0:0:0:
154,149,294270,1,8,0:0:0:0:
151,147,294330,1,8,0:0:0:0:
151,147,294390,1,8,0:0:0:0:
151,147,294450,1,8,0:0:0:0:
151,147,294510,1,8,0:0:0:0:
151,147,294570,1,8,0:0:0:0:
151,147,294630,1,8,0:0:0:0:
151,147,294690,1,8,0:0:0:0:
149,149,294750,1,0,0:0:0:0:
149,149,294810,1,0,0:0:0:0:
149,149,294870,1,0,0:0:0:0:
177,174,294930,1,0,0:0:0:0:
172,167,294990,1,8,0:0:0:0:
172,167,295050,1,8,0:0:0:0:
172,167,295110,1,8,0:0:0:0:
172,167,295170,1,8,0:0:0:0:
172,167,295230,1,0,0:0:0:0:
172,168,295290,1,0,0:0:0:0:
172,167,295350,1,8,0:0:0:0:
172,168,295410,1,8,0:0:0:0:
172,168,295470,1,0,0:0:0:0:
172,168,295530,1,0,0:0:0:0:
172,168,295590,1,8,0:0:0:0:
172,168,295650,1,8,0:0:0:0:
256,204,295710,1,0,0:0:0:0:
125,146,295770,1,0,0:0:0:0:
125,146,295830,1,0,0:0:0:0:
125,146,295890,1,0,0:0:0:0:
110,149,295950,1,0,0:0:0:0:
110,150,296010,1,0,0:0:0:0:
109,150,296070,1,0,0:0:0:0:
108,150,296130,1,0,0:0:0:0:
108,150,296190,1,8,0:0:0:0:
108,150,296250,1,8,0:0:0:0:
108,150,296310,1,8,0:0:0:0:
107,150,296370,1,8,0:0:0:0:
107,150,296430,1,0,0:0:0:0:
106,150,296490,1,0,0:0:0:0:
106,150,296550,1,0,0:0:0:0:
106,150,296610,1,0,0:0:0:0:
274,242,296670,1,8,0:0:0:0:
123,198,296730,1,0,0:0:0:0:
128,159,296790,1,0,0:0:0:0:
128,159,296850,1,0,0:0:0:0:
128,159,296910,1,8,0:0:0:0:
128,159,296970,1,0,0:0:0:0:
128,159,297030,1,0,0:0:0:0:
124,164,297090,1,0,0:0:0:0:
123,164,297150,1,8,0:0:0:0:
123,165,297210,1,8,0:0:0:0:
41,143,297270,1,0,0:0:0:0:
54,133,297330,1,0,0:0:0:0:
54,133,297390,1,8,0:0:0:0:
54,133,297450,1,8,0:0:0:0:
165,216,297510,1,0,0:0:0:0:
165,216,297570,1,0,0:0:0:0:
250,198,297630,1,8,0:0:0:0:
146,131,297690,1,8,0:0:0:0:
175,108,297750,1,8,0:0:0:0:
175,108,297810,1,8,0:0:0:0:
169,104,297870,1,8,0:0:0:0:
250,198,297930,1,8,0:0:0:0:
146,131,297990,1,8,0:0:0:0:
175,108,298050,1,8,0:0:0:0:
175,108,298110,1,8,0:0:0:0:
169,104,298170,1,8,0:0:0:0:
250,198,298230,1,8,0:0:0:0:
146,131,298290,1,8,0:0:0:0:
175,108,298350,1,8,0:0:0:0:
175,108,298410,1,8,0:0:0:0:
169,104,298470,1,8,0:0:0:0:
250,198,298530,1,8,0:0:0:0:
146,131,298590,1,8,0:0:0:0:
175,108,298650,1,8,0:0:0:0:
175,108,298710,1,8,0:0:0:0:
169,104,298770,1,8,0:0:0:0:
250,198,298830,1,8,0:0:0:0:
146,131,298890,1,8,0:0:0:0:
175,108,298950,1,8,0:0:0:0:
175,108,299010,1,8,0:0:0:0:
169,104,299070,1,8,0:0:0:0:
250,198,299130,1,8,0:0:0:0:
146,131,299190,1,8,0:0:0:0:
175,108,299250,1,8,0:0:0:0:
175,108,299310,1,8,0:0:0:0:
169,104,299370,1,8,0:0:0:0:
250,198,299430,1,8,0:0:0:0:
146,131,299490,1,8,0:0:0:0:
175,108,299550,1,0,0:0:0:0:
175,108,299610,1,0,0:0:0:0:
169,104,299670,1,0,0:0:0:0:
250,198,299730,1,0,0:0:0:0:
146,131,299790,1,0,0:0:0:0:
175,108,299850,1,0,0:0:0:0:
175,108,299910,1,0,0:0:0:0:
169,104,299970,1,0,0:0:0:0:
250,198,300030,1,0,0:0:0:0:
146,131,300090,1,0,0:0:0:0:
175,108,300150,1,0,0:0:0:0:
175,108,300210,1,0,0:0:0:0:
169,104,300270,1,0,0:0:0:0:
250,198,300330,1,0,0:0:0:0:
146,131,300390,1,0,0:0:0:0:
175,108,300450,1,0,0:0:0:0:
175,108,300510,1,8,0:0:0:0:
169,104,300570,1,8,0:0:0:0:
250,198,300630,1,8,0:0:0:0:
146,131,300690,1,8,0:0:0:0:
175,108,300750,1,8,0:0:0:0:
175,108,300810,1,8,0:0:0:0:
169,104,300870,1,8,0:0:0:0:
250,198,300930,1,8,0:0:0:0:
146,131,300990,1,8,0:0:0:0:
175,108,301050,1,8,0:0:0:0:
175,108,301110,1,8,0:0:0:0:
169,104,301170,1,8,0:0:0:0:
250,198,301230,1,8,0:0:0:0:
146,131,301290,1,8,0:0:0:0:
175,108,301350,1,8,0:0:0:0:
175,108,301410,1,8,0:0:0:0:
169,104,301470,1,0,0:0:0:0:
250,198,301530,1,0,0:0:0:0:
146,131,301590,1,0,0:0:0:0:
175,108,301650,1,0,0:0:0:0:
175,108,301710,1,0,0:0:0:0:
169,104,301770,1,0,0:0:0:0:
250,198,301830,1,0,0:0:0:0:
146,131,301890,1,0,0:0:0:0:
175,108,301950,1,0,0:0:0:0:
175,108,302010,1,0,0:0:0:0:
169,104,302070,1,0,0:0:0:0:
250,198,302130,1,0,0:0:0:0:
146,131,302190,1,0,0:0:0:0:
175,108,302250,1,0,0:0:0:0:
175,108,302310,1,0,0:0:0:0:
169,104,302370,1,0,0:0:0:0:
250,198,302430,1,0,0:0:0:0:
146,131,302490,1,0,0:0:0:0:
175,108,302550,1,0,0:0:0:0:
175,108,302610,1,0,0:0:0:0:
169,104,302670,1,0,0:0:0:0:
250,198,302730,1,0,0:0:0:0:
146,131,302790,1,0,0:0:0:0:
175,108,302850,1,0,0:0:0:0:
175,108,302910,1,0,0:0:0:0:
169,104,302970,1,0,0:0:0:0:
250,198,303030,1,0,0:0:0:0:
146,131,303090,1,0,0:0:0:0:
175,108,303150,1,0,0:0:0:0:
175,108,303210,1,0,0:0:0:0:
169,104,303270,1,0,0:0:0:0:
250,198,303330,1,0,0:0:0:0:
146,131,303390,1,8,0:0:0:0:
175,108,303450,1,8,0:0:0:0:
175,108,303510,1,8,0:0:0:0:
169,104,303570,1,8,0:0:0:0:
250,198,303630,1,8,0:0:0:0:
146,131,303690,1,8,0:0:0:0:
175,108,303750,1,8,0:0:0:0:
175,108,303810,1,8,0:0:0:0:
169,104,303870,1,8,0:0:0:0:
250,198,303930,1,8,0:0:0:0:
146,131,303990,1,8,0:0:0:0:
175,108,304050,1,8,0:0:0:0:
175,108,304110,1,8,0:0:0:0:
169,104,304170,1,8,0:0:0:0:
250,198,304230,1,8,0:0:0:0:
146,131,304290,1,8,0:0:0:0:
175,108,304350,1,0,0:0:0:0:
175,108,304410,1,0,0:0:0:0:
169,104,304470,1,0,0:0:0:0:
250,198,304530,1,0,0:0:0:0:
146,131,304590,1,0,0:0:0:0:
175,108,304650,1,0,0:0:0:0:
175,108,304710,1,0,0:0:0:0:
169,104,304770,1,0,0:0:0:0:
250,198,304830,1,0,0:0:0:0:
146,131,304890,1,0,0:0:0:0:
175,108,304950,1,0,0:0:0:0:
175,108,305010,1,0,0:0:0:0:
169,104,305070,1,0,0:0:0:0:
250,198,305130,1,0,0:0:0:0:
146,131,305190,1,0,0:0:0:0:
175,108,305250,1,0,0:0:0:0:
175,108,305310,1,8,0:0:0:0:
169,104,305370,1,8,0:0:0:0:
250,198,305430,1,8,0:0:0:0:
146,131,305490,1,8,0:0:0:0:
175,108,305550,1,8,0:0:0:0:
175,108,305610,1,8,0:0:0:0:
169,104,305670,1,8,0:0:0:0:
250,198,305730,1,8,0:0:0:0:
146,131,305790,1,8,0:0:0:0:
175,108,305850,1,8,0:0:0:0:
175,108,305910,1,8,0:0:0:0:
169,104,305970,1,8,0:0:0:0:
250,198,306030,1,8,0:0:0:0:
146,131,306090,1,8,0:0:0:0:
175,108,306150,1,8,0:0:0:0:
175,108,306210,1,8,0:0:0:0:
169,104,306270,1,8,0:0:0:0:
250,198,306330,1,8,0:0:0:0:
146,131,306390,1,8,0:0:0:0:
175,108,306450,1,8,0:0:0:0:
175,108,306510,1,8,0:0:0:0:
169,104,306570,1,8,0:0:0:0:
250,198,306630,1,8,0:0:0:0:
146,131,306690,1,8,0:0:0:0:
175,108,306750,1,8,0:0:0:0:
175,108,306810,1,8,0:0:0:0:
169,104,306870,1,8,0:0:0:0:
250,198,306930,1,8,0:0:0:0:
146,131,306990,1,8,0:0:0:0:
175,108,307050,1,8,0:0:0:0:
175,108,307110,1,8,0:0:0:0:
169,104,307170,1,8,0:0:0:0:
250,198,307230,1,0,0:0:0:0:
146,131,307290,1,0,0:0:0:0:
175,108,307350,1,0,0:0:0:0:
175,108,307410,1,0,0:0:0:0:
169,104,307470,1,0,0:0:0:0:
250,198,307530,1,0,0:0:0:0:
146,131,307590,1,0,0:0:0:0:
175,108,307650,1,0,0:0:0:0:
175,108,307710,1,0,0:0:0:0:
169,104,307770,1,0,0:0:0:0:
250,198,307830,1,0,0:0:0:0:
146,131,307890,1,0,0:0:0:0:
175,108,307950,1,0,0:0:0:0:
175,108,308010,1,0,0:0:0:0:
169,104,308070,1,0,0:0:0:0:
250,198,308130,1,0,0:0:0:0:
146,131,308190,1,0,0:0:0:0:
175,108,308250,1,8,0:0:0:0:
175,108,308310,1,8,0:0:0:0:
169,104,308370,1,8,0:0:0:0:
250,198,308430,1,8,0:0:0:0:
146,131,308490,1,8,0:0:0:0:
175,108,308550,1,8,0:0:0:0:
175,108,308610,1,8,0:0:0:0:
169,104,308670,1,8,0:0:0:0:
250,198,308730,1,8,0:0:0:0:
146,131,308790,1,8,0:0:0:0:
175,108,308850,1,8,0:0:0:0:
175,108,308910,1,8,0:0:0:0:
169,104,308970,1,8,0:0:0:0:
250,198,309030,1,8,0:0:0:0:
146,131,309090,1,8,0:0:0:0:
175,108,309150,1,0,0:0:0:0:
175,108,309210,1,0,0:0:0:0:
169,104,309270,1,0,0:0:0:0:
250,198,309330,1,0,0:0:0:0:
146,131,309390,1,0,0:0:0:0:
175,108,309450,1,0,0:0:0:0:
175,108,309510,1,0,0:0:0:0:
169,104,309570,1,0,0:0:0:0:
250,198,309630,1,0,0:0:0:0:
146,131,309690,1,0,0:0:0:0:
175,108,309750,1,0,0:0:0:0:
175,108,309810,1,0,0:0:0:0:
169,104,309870,1,0,0:0:0:0:
250,198,309930,1,0,0:0:0:0:
146,131,309990,1,0,0:0:0:0:
175,108,310050,1,0,0:0:0:0:
175,108,310110,1,0,0:0:0:0:
169,104,310170,1,0,0:0:0:0:
250,198,310230,1,0,0:0:0:0:
146,131,310290,1,0,0:0:0:0:
175,108,310350,1,0,0:0:0:0:
175,108,310410,1,0,0:0:0:0:
169,104,310470,1,0,0:0:0:0:
250,198,310530,1,0,0:0:0:0:
146,131,310590,1,0,0:0:0:0:
175,108,310650,1,0,0:0:0:0:
175,108,310710,1,0,0:0:0:0:
169,104,310770,1,0,0:0:0:0:
250,198,310830,1,0,0:0:0:0:
146,131,310890,1,0,0:0:0:0:
175,108,310950,1,0,0:0:0:0:
175,108,311010,1,0,0:0:0:0:
169,104,311070,1,0,0:0:0:0:
250,198,311130,1,8,0:0:0:0:
146,131,311190,1,8,0:0:0:0:
175,108,311250,1,8,0:0:0:0:
175,108,311310,1,8,0:0:0:0:
169,104,311370,1,8,0:0:0:0:
250,198,311430,1,8,0:0:0:0:
146,131,311490,1,8,0:0:0:0:
175,108,311550,1,8,0:0:0:0:
175,108,311610,1,8,0:0:0:0:
169,104,311670,1,8,0:0:0:0:
250,198,311730,1,8,0:0:0:0:
146,131,311790,1,8,0:0:0:0:
175,108,311850,1,8,0:0:0:0:
175,108,311910,1,8,0:0:0:0:
169,104,311970,1,8,0:0:0:0:
250,198,312030,1,0,0:0:0:0:
146,131,312090,1,0,0:0:0:0:
175,108,312150,1,0,0:0:0:0:
175,108,312210,1,0,0:0:0:0:
169,104,312270,1,0,0:0:0:0:
250,198,312330,1,0,0:0:0:0:
146,131,312390,1,0,0:0:0:0:
175,108,312450,1,0,0:0:0:0:
175,108,312510,1,0,0:0:0:0:
169,104,312570,1,0,0:0:0:0:
207,142,312630,1,0,0:0:0:0:
207,142,312690,1,0,0:0:0:0:
207,142,312750,1,0,0:0:0:0:
200,145,312810,1,0,0:0:0:0:
195,152,312870,1,0,0:0:0:0:
195,152,312930,1,0,0:0:0:0:
283,207,312990,1,4,0:0:0:0:
