osu file format v14

[General]
AudioFilename: 06. Sewing Machine.mp3
AudioLeadIn: 0
PreviewTime: 39668
Countdown: 0
SampleSet: None
StackLeniency: 0.7
Mode: 2
LetterboxInBreaks: 0
WidescreenStoryboard: 1

[Editor]
DistanceSpacing: 2
BeatDivisor: 8
GridSize: 8
TimelineZoom: 1.050272

[Metadata]
Title:Sewing Machine
TitleUnicode:Sewing Machine
Artist:yak_won
ArtistUnicode:yak_won
Creator:ExGon
Version:Madness
Source:EZ2DJ AEIC
Tags:ORIGINAL SOUND TRACK : 4CD ~Spiral~ SQUARE PIXELS
BeatmapID:988072
BeatmapSetID:461353

[Difficulty]
HPDrainRate:3
CircleSize:5
OverallDifficulty:9.1
ApproachRate:9.1
SliderMultiplier:1.6
SliderTickRate:1

[Events]
//Background and Video events
0,0,"A BG.jpg",0,0
//Break Periods
//Storyboard Layer 0 (Background)
//Storyboard Layer 1 (Fail)
//Storyboard Layer 2 (Pass)
//Storyboard Layer 3 (Foreground)
//Storyboard Sound Samples

[TimingPoints]
1268,200,4,2,1,80,1,0
7668,50,4,2,1,60,1,0
7718,-100,4,2,1,5,0,0
7768,-100,4,2,1,60,0,0
7818,-100,4,2,1,5,0,0
7868,-100,4,2,1,60,0,0
7918,-100,4,2,1,5,0,0
7968,-100,4,2,1,60,0,0
8018,-100,4,2,1,5,0,0
8068,-100,4,2,1,60,0,0
8118,-100,4,2,1,5,0,0
8168,-100,4,2,1,60,0,0
8218,-100,4,2,1,5,0,0
8268,-100,4,2,1,60,0,0
8318,-100,4,2,1,5,0,0
8368,-100,4,2,1,60,0,0
8418,-100,4,2,1,5,0,0
8468,-100,4,2,1,60,0,0
8518,-100,4,2,1,5,0,0
8568,-100,4,2,1,60,0,0
8618,-100,4,2,1,5,0,0
8668,-100,4,2,1,60,0,0
8718,-100,4,2,1,5,0,0
8768,-100,4,2,1,60,0,0
8818,-100,4,2,1,5,0,0
8868,-100,4,2,1,60,0,0
8918,-100,4,2,1,5,0,0
8968,-100,4,2,1,60,0,0
9018,-100,4,2,1,5,0,0
9068,-100,4,2,1,60,0,0
9118,-100,4,2,1,5,0,0
9168,-100,4,2,1,60,0,0
9218,-100,4,2,1,5,0,0
9268,-100,4,2,1,60,0,0
9318,-100,4,2,1,5,0,0
9368,-100,4,2,1,60,0,0
9418,-100,4,2,1,5,0,0
9468,-100,4,2,1,60,0,0
9518,-100,4,2,1,5,0,0
9568,-100,4,2,1,60,0,0
9618,-100,4,2,1,5,0,0
9668,-100,4,2,1,60,0,0
9718,-100,4,2,1,5,0,0
9768,-100,4,2,1,60,0,0
9818,-100,4,2,1,5,0,0
9868,-100,4,2,1,60,0,0
9918,-100,4,2,1,5,0,0
9968,-100,4,2,1,60,0,0
10018,-100,4,2,1,5,0,0
10068,-100,4,2,1,60,0,0
10118,-100,4,2,1,5,0,0
10168,-100,4,2,1,60,0,0
10218,-100,4,2,1,5,0,0
10268,-100,4,2,1,60,0,0
10318,-100,4,2,1,5,0,0
10368,-100,4,2,1,60,0,0
10418,-100,4,2,1,5,0,0
10468,-100,4,2,1,60,0,0
10518,-100,4,2,1,5,0,0
10568,-100,4,2,1,60,0,0
10618,-100,4,2,1,5,0,0
10668,-100,4,2,1,60,0,0
10718,-100,4,2,1,5,0,0
10768,-100,4,2,1,60,0,0
10818,-100,4,2,1,5,0,0
10868,-100,4,2,1,60,0,0
14118,-100,4,2,1,5,0,0
14168,-100,4,2,1,60,0,0
14218,-100,4,2,1,5,0,0
14268,-100,4,2,1,60,0,0
14318,-100,4,2,1,5,0,0
14368,-100,4,2,1,60,0,0
14418,-100,4,2,1,5,0,0
14468,-100,4,2,1,60,0,0
14518,-100,4,2,1,5,0,0
14568,-100,4,2,1,60,0,0
14618,-100,4,2,1,5,0,0
14668,-100,4,2,1,60,0,0
14718,-100,4,2,1,5,0,0
14768,-100,4,2,1,60,0,0
14818,-100,4,2,1,5,0,0
14868,-100,4,2,1,60,0,0
14918,-100,4,2,1,5,0,0
14968,-100,4,2,1,60,0,0
15018,-100,4,2,1,5,0,0
15068,-100,4,2,1,60,0,0
15118,-100,4,2,1,5,0,0
15168,-100,4,2,1,60,0,0
15218,-100,4,2,1,5,0,0
15268,-100,4,2,1,60,0,0
15318,-100,4,2,1,5,0,0
15368,-100,4,2,1,60,0,0
15418,-100,4,2,1,5,0,0
15468,-100,4,2,1,60,0,0
15518,-100,4,2,1,5,0,0
15568,-100,4,2,1,60,0,0
15618,-100,4,2,1,5,0,0
15668,-100,4,2,1,60,0,0
15718,-100,4,2,1,5,0,0
15768,-100,4,2,1,60,0,0
15818,-100,4,2,1,5,0,0
15868,-100,4,2,1,60,0,0
15918,-100,4,2,1,5,0,0
15968,-100,4,2,1,60,0,0
16018,-100,4,2,1,5,0,0
16068,-100,4,2,1,60,0,0
16118,-100,4,2,1,5,0,0
16168,-100,4,2,1,60,0,0
16218,-100,4,2,1,5,0,0
16268,-100,4,2,1,60,0,0
16318,-100,4,2,1,5,0,0
16368,-100,4,2,1,60,0,0
16418,-100,4,2,1,5,0,0
16468,-100,4,2,1,60,0,0
16518,-100,4,2,1,5,0,0
16568,-100,4,2,1,60,0,0
16618,-100,4,2,1,5,0,0
16668,-100,4,2,1,60,0,0
16718,-100,4,2,1,5,0,0
16768,-100,4,2,1,60,0,0
16818,-100,4,2,1,5,0,0
16868,-100,4,2,1,60,0,0
16918,-100,4,2,1,5,0,0
16968,-100,4,2,1,60,0,0
17018,-100,4,2,1,5,0,0
17068,-100,4,2,1,60,0,0
17118,-100,4,2,1,5,0,0
17168,-100,4,2,1,60,0,0
17218,-100,4,2,1,5,0,0
17268,-100,4,2,1,60,0,0
20468,200,4,2,1,80,1,0
22068,-83.3333333333333,4,2,1,80,0,0
23668,-66.6666666666667,4,2,1,80,0,0
24468,-50,4,2,1,80,0,0
25268,50,4,2,1,80,1,0
25318,-100,4,2,1,5,0,0
25368,-100,4,2,1,80,0,0
25518,-100,4,2,1,5,0,0
25568,-100,4,2,1,80,0,0
25718,-100,4,2,1,5,0,0
25768,-100,4,2,1,80,0,0
25918,-100,4,2,1,5,0,0
25968,-100,4,2,1,80,0,0
26068,-62.5,4,2,1,80,0,0
26118,-62.5,4,2,1,5,0,0
26168,-62.5,4,2,1,80,0,0
26318,-62.5,4,2,1,5,0,0
26368,-62.5,4,2,1,80,0,0
26518,-62.5,4,2,1,5,0,0
26568,-62.5,4,2,1,80,0,0
26718,-62.5,4,2,1,5,0,0
26768,-62.5,4,2,1,80,0,0
26868,200,4,2,1,80,1,0
28468,-83.3333333333333,4,2,1,80,0,0
30068,-66.6666666666667,4,2,1,80,0,0
30868,-50,4,2,1,80,0,0
31668,50,4,2,1,80,1,0
31718,-100,4,2,1,5,0,0
31768,-100,4,2,1,80,0,0
31918,-100,4,2,1,5,0,0
31968,-100,4,2,1,80,0,0
32118,-100,4,2,1,5,0,0
32168,-100,4,2,1,80,0,0
32318,-100,4,2,1,5,0,0
32368,-100,4,2,1,80,0,0
32468,-62.5,4,2,1,80,0,0
32518,-62.5,4,2,1,5,0,0
32568,-62.5,4,2,1,80,0,0
32718,-62.5,4,2,1,5,0,0
32768,-62.5,4,2,1,80,0,0
32918,-62.5,4,2,1,5,0,0
32968,-62.5,4,2,1,80,0,0
33118,-62.5,4,2,1,5,0,0
33168,-62.5,4,2,1,80,0,0
33268,200,4,2,1,80,1,0
39668,-100,4,2,1,90,0,1
42868,-83.3333333333333,4,2,1,90,0,1
46068,-76.9230769230769,4,2,1,90,0,1
52268,-76.9230769230769,4,2,1,90,0,0
52468,-100,4,2,1,90,0,1
55668,-83.3333333333333,4,2,1,90,0,1
65268,-100,4,2,1,80,0,0
68543,-100,4,2,1,5,0,0
68568,-100,4,2,1,80,0,0
68643,-100,4,2,1,5,0,0
68668,-100,4,2,1,80,0,0
68743,-100,4,2,1,5,0,0
68768,-100,4,2,1,80,0,0
68843,-100,4,2,1,5,0,0
68868,-100,4,2,1,80,0,0
68943,-100,4,2,1,5,0,0
68968,-100,4,2,1,80,0,0
69043,-100,4,2,1,5,0,0
69068,-100,4,2,1,80,0,0
69143,-100,4,2,1,5,0,0
69168,-100,4,2,1,80,0,0
69243,-100,4,2,1,5,0,0
69268,-100,4,2,1,80,0,0
69343,-100,4,2,1,5,0,0
69368,-100,4,2,1,80,0,0
69443,-100,4,2,1,5,0,0
69468,-100,4,2,1,80,0,0
69543,-100,4,2,1,5,0,0
69568,-100,4,2,1,80,0,0
69643,-100,4,2,1,5,0,0
69668,-100,4,2,1,80,0,0
69743,-100,4,2,1,5,0,0
69768,-100,4,2,1,80,0,0
69843,-100,4,2,1,5,0,0
69868,-100,4,2,1,80,0,0
69943,-100,4,2,1,5,0,0
69968,-100,4,2,1,80,0,0
70043,-100,4,2,1,5,0,0
70068,-100,4,2,1,80,0,0
70143,-100,4,2,1,5,0,0
70168,-100,4,2,1,80,0,0
70243,-100,4,2,1,5,0,0
70268,-100,4,2,1,80,0,0
70343,-100,4,2,1,5,0,0
70368,-100,4,2,1,80,0,0
70443,-100,4,2,1,5,0,0
70468,-100,4,2,1,80,0,0
70543,-100,4,2,1,5,0,0
70568,-100,4,2,1,80,0,0
70643,-100,4,2,1,5,0,0
70668,-100,4,2,1,80,0,0
70743,-100,4,2,1,5,0,0
70768,-100,4,2,1,80,0,0
70843,-100,4,2,1,5,0,0
70868,-100,4,2,1,80,0,0
70943,-100,4,2,1,5,0,0
70968,-100,4,2,1,80,0,0
71043,-100,4,2,1,5,0,0
71068,-100,4,2,1,80,0,0
71143,-100,4,2,1,5,0,0
71168,-100,4,2,1,80,0,0
71243,-100,4,2,1,5,0,0
71268,-100,4,2,1,80,0,0
71343,-100,4,2,1,5,0,0
71368,-100,4,2,1,80,0,0
71443,-100,4,2,1,5,0,0
71468,-100,4,2,1,80,0,0
71543,-100,4,2,1,5,0,0
71568,-100,4,2,1,80,0,0
71643,-100,4,2,1,5,0,0
71668,-100,4,2,1,80,0,0
71743,-100,4,2,1,5,0,0
71768,-100,4,2,1,80,0,0
78068,-100,4,2,1,90,0,1
81343,-100,4,2,1,5,0,1
81368,-100,4,2,1,90,0,1
81443,-100,4,2,1,5,0,1
81468,-100,4,2,1,90,0,1
81543,-100,4,2,1,5,0,1
81568,-100,4,2,1,90,0,1
81643,-100,4,2,1,5,0,1
81668,-100,4,2,1,90,0,1
81743,-100,4,2,1,5,0,1
81768,-100,4,2,1,90,0,1
81843,-100,4,2,1,5,0,1
81868,-100,4,2,1,90,0,1
81943,-100,4,2,1,5,0,1
81968,-100,4,2,1,90,0,1
82043,-100,4,2,1,5,0,1
82068,-100,4,2,1,90,0,1
82143,-100,4,2,1,5,0,1
82168,-100,4,2,1,90,0,1
82243,-100,4,2,1,5,0,1
82268,-100,4,2,1,90,0,1
82343,-100,4,2,1,5,0,1
82368,-100,4,2,1,90,0,1
82443,-100,4,2,1,5,0,1
82468,-100,4,2,1,90,0,1
82543,-100,4,2,1,5,0,1
82568,-100,4,2,1,90,0,1
82643,-100,4,2,1,5,0,1
82668,-100,4,2,1,90,0,1
82743,-100,4,2,1,5,0,1
82768,-100,4,2,1,90,0,1
82843,-100,4,2,1,5,0,1
82868,-100,4,2,1,90,0,1
82943,-100,4,2,1,5,0,1
82968,-100,4,2,1,90,0,1
83043,-100,4,2,1,5,0,1
83068,-100,4,2,1,90,0,1
83143,-100,4,2,1,5,0,1
83168,-100,4,2,1,90,0,1
83243,-100,4,2,1,5,0,1
83268,-100,4,2,1,90,0,1
83343,-100,4,2,1,5,0,1
83368,-100,4,2,1,90,0,1
83443,-100,4,2,1,5,0,1
83468,-100,4,2,1,90,0,1
83543,-100,4,2,1,5,0,1
83568,-100,4,2,1,90,0,1
83643,-100,4,2,1,5,0,1
83668,-100,4,2,1,90,0,1
83743,-100,4,2,1,5,0,1
83768,-100,4,2,1,90,0,1
83843,-100,4,2,1,5,0,1
83868,-100,4,2,1,90,0,1
83943,-100,4,2,1,5,0,1
83968,-100,4,2,1,90,0,1
84043,-100,4,2,1,5,0,1
84068,-100,4,2,1,90,0,1
84143,-100,4,2,1,5,0,1
84168,-100,4,2,1,90,0,1
84243,-100,4,2,1,5,0,1
84268,-100,4,2,1,90,0,1
84343,-100,4,2,1,5,0,1
84368,-100,4,2,1,90,0,1
84443,-100,4,2,1,5,0,1
84468,-100,4,2,1,90,0,1
90868,-90.9090909090909,4,2,1,70,0,0
97268,-100,4,2,1,70,0,0
103668,400,4,2,1,60,1,0
113268,-50,4,2,1,60,0,0
117268,-50,4,2,1,5,0,0
118068,200,4,2,1,80,1,0
118534,-100,4,2,1,5,0,0
118568,-100,4,2,1,80,0,0
118634,-100,4,2,1,5,0,0
118668,-100,4,2,1,80,0,0
118734,-100,4,2,1,5,0,0
118768,-100,4,2,1,80,0,0
118834,-100,4,2,1,5,0,0
118868,-100,4,2,1,80,0,0
119334,-100,4,2,1,5,0,0
119368,-100,4,2,1,80,0,0
119434,-100,4,2,1,5,0,0
119468,-100,4,2,1,80,0,0
119534,-100,4,2,1,5,0,0
119568,-100,4,2,1,80,0,0
119634,-100,4,2,1,5,0,0
119668,-100,4,2,1,80,0,0
120134,-100,4,2,1,5,0,0
120168,-100,4,2,1,80,0,0
120234,-100,4,2,1,5,0,0
120268,-100,4,2,1,80,0,0
120334,-100,4,2,1,5,0,0
120368,-100,4,2,1,80,0,0
120434,-100,4,2,1,5,0,0
120468,-100,4,2,1,80,0,0
120934,-100,4,2,1,5,0,0
120968,-100,4,2,1,80,0,0
121034,-100,4,2,1,5,0,0
121068,-100,4,2,1,80,0,0
121134,-100,4,2,1,5,0,0
121168,-100,4,2,1,80,0,0
121234,-100,4,2,1,5,0,0
121268,-100,4,2,1,80,0,0
121718,-100,4,2,1,5,0,0
121768,-100,4,2,1,80,0,0
121818,-100,4,2,1,5,0,0
121868,-100,4,2,1,80,0,0
121918,-100,4,2,1,5,0,0
121968,-100,4,2,1,80,0,0
122018,-100,4,2,1,5,0,0
122068,-100,4,2,1,80,0,0
122518,-100,4,2,1,5,0,0
122568,-100,4,2,1,80,0,0
122618,-100,4,2,1,5,0,0
122668,-100,4,2,1,80,0,0
122718,-100,4,2,1,5,0,0
122768,-100,4,2,1,80,0,0
122818,-100,4,2,1,5,0,0
122868,-100,4,2,1,80,0,0

[Colours]
Combo1 : 121,121,255
Combo2 : 205,205,205
Combo3 : 18,124,255
Combo4 : 146,36,255

[HitObjects]
64,72,1268,5,4,1:0:0:0:
224,352,1468,1,0,0:0:0:0:
512,280,1668,1,10,0:0:0:0:
416,280,1768,1,2,0:0:0:0:
320,280,1868,1,2,0:0:0:0:
224,280,1968,1,2,0:0:0:0:
64,72,2068,5,0,1:0:0:0:
224,352,2268,1,0,0:0:0:0:
512,280,2468,1,10,0:0:0:0:
408,280,2568,1,2,0:0:0:0:
304,280,2668,1,2,0:0:0:0:
200,280,2768,1,2,0:0:0:0:
64,312,2868,5,0,1:0:0:0:
288,32,3068,1,0,0:0:0:0:
0,104,3268,1,10,0:0:0:0:
96,104,3368,1,2,0:0:0:0:
192,104,3468,1,2,0:0:0:0:
288,104,3568,1,2,0:0:0:0:
448,312,3668,5,0,1:0:0:0:
288,32,3868,1,0,0:0:0:0:
0,104,4068,1,10,0:0:0:0:
104,104,4168,1,2,0:0:0:0:
208,104,4268,1,2,0:0:0:0:
312,104,4368,1,2,0:0:0:0:
512,192,4468,5,0,1:0:0:0:
0,192,4668,1,0,0:0:0:0:
264,232,4868,2,0,L|248:152,3,80,10|2|2|2,0:0|0:0|0:0|0:0,0:0:0:0:
0,192,5268,5,0,1:0:0:0:
512,192,5468,1,0,0:0:0:0:
248,232,5668,2,0,L|264:152,3,80,10|2|2|2,0:0|0:0|0:0|0:0,0:0:0:0:
512,192,6068,6,0,L|352:192,1,160,0|0,1:0|0:0,0:0:0:0:
448,80,6468,2,0,L|464:0,4,80,10|2|2|2|0,0:0|0:0|0:0|0:0|1:0,0:0:0:0:
288,80,6968,6,0,L|272:158,1,80,0|0,3:0|3:0,0:0:0:0:
110,158,7168,2,0,L|94:236,1,80,0|10,3:0|0:0,0:0:0:0:
253,236,7368,2,0,L|269:314,1,80,2|2,0:0|0:0,0:0:0:0:
429,314,7568,1,2,0:0:0:0:
444,260,7668,6,0,L|280:260,1,160,4|0,1:0|0:0,0:0:0:0:
252,236,7768,2,0,L|416:236,1,160,0|0,0:0|0:0,0:0:0:0:
443,214,7868,2,0,L|279:214,1,160,0|0,0:0|0:0,0:0:0:0:
248,192,7968,2,0,L|412:192,1,160,0|0,0:0|0:0,0:0:0:0:
432,168,8068,6,0,L|268:168,1,160,8|0,0:0|0:0,0:0:0:0:
240,144,8168,2,0,L|404:144,1,160,0|0,0:0|0:0,0:0:0:0:
431,122,8268,2,0,L|267:122,1,160,0|0,0:0|0:0,0:0:0:0:
236,100,8368,2,0,L|400:100,1,160,0|0,0:0|0:0,0:0:0:0:
420,260,8468,6,0,L|256:260,1,160,0|0,3:0|0:0,0:0:0:0:
228,236,8568,2,0,L|392:236,1,160,0|0,0:0|0:0,0:0:0:0:
419,214,8668,2,0,L|255:214,1,160,0|0,0:0|0:0,0:0:0:0:
224,192,8768,2,0,L|388:192,1,160,0|0,0:0|0:0,0:0:0:0:
408,168,8868,6,0,L|244:168,1,160,8|0,0:0|0:0,0:0:0:0:
216,144,8968,2,0,L|380:144,1,160,0|0,0:0|0:0,0:0:0:0:
407,122,9068,2,0,L|243:122,1,160,0|0,0:0|0:0,0:0:0:0:
212,100,9168,2,0,L|376:100,1,160,0|0,0:0|0:0,0:0:0:0:
396,260,9268,6,0,L|232:260,1,160,0|0,3:0|0:0,0:0:0:0:
204,236,9368,2,0,L|368:236,1,160,0|0,0:0|0:0,0:0:0:0:
395,214,9468,2,0,L|231:214,1,160,0|0,0:0|0:0,0:0:0:0:
200,192,9568,2,0,L|364:192,1,160,0|0,0:0|0:0,0:0:0:0:
384,168,9668,6,0,L|220:168,1,160,0|0,0:0|0:0,0:0:0:0:
192,144,9768,2,0,L|356:144,1,160,0|0,0:0|0:0,0:0:0:0:
383,122,9868,2,0,L|219:122,1,160,0|0,0:0|0:0,0:0:0:0:
188,100,9968,2,0,L|352:100,1,160,0|0,0:0|0:0,0:0:0:0:
372,260,10068,6,0,L|208:260,1,160,0|0,3:0|0:0,0:0:0:0:
180,236,10168,2,0,L|344:236,1,160,0|0,0:0|0:0,0:0:0:0:
371,214,10268,2,0,L|207:214,1,160,0|0,0:0|0:0,0:0:0:0:
176,192,10368,2,0,L|340:192,1,160,0|0,3:0|0:0,0:0:0:0:
360,168,10468,6,0,L|196:168,1,160,8|0,0:0|0:0,0:0:0:0:
168,144,10568,2,0,L|332:144,1,160,0|0,3:0|0:0,0:0:0:0:
359,122,10668,2,0,L|195:122,1,160,0|0,0:0|0:0,0:0:0:0:
164,100,10768,2,0,L|328:100,1,160,0|0,0:0|0:0,0:0:0:0:
360,44,10868,5,0,3:0:0:0:
264,44,10968,1,0,0:0:0:0:
368,44,11068,1,0,0:0:0:0:
272,44,11168,1,0,0:0:0:0:
376,340,11268,5,8,0:0:0:0:
280,340,11368,1,0,0:0:0:0:
384,340,11468,1,0,0:0:0:0:
288,340,11568,1,0,0:0:0:0:
392,44,11668,5,0,3:0:0:0:
296,44,11768,1,0,0:0:0:0:
400,340,11868,1,0,0:0:0:0:
304,340,11968,1,0,0:0:0:0:
408,44,12068,5,8,0:0:0:0:
312,340,12168,1,0,0:0:0:0:
416,340,12268,1,0,0:0:0:0:
320,44,12368,1,0,0:0:0:0:
152,44,12468,5,0,3:0:0:0:
248,44,12568,1,0,0:0:0:0:
144,44,12668,1,0,0:0:0:0:
240,44,12768,1,0,0:0:0:0:
136,340,12868,5,8,0:0:0:0:
232,340,12968,1,0,0:0:0:0:
128,340,13068,1,0,0:0:0:0:
224,340,13168,1,0,0:0:0:0:
120,44,13268,5,0,3:0:0:0:
216,44,13368,1,0,0:0:0:0:
112,340,13468,1,0,0:0:0:0:
208,340,13568,1,0,3:0:0:0:
104,44,13668,5,8,0:0:0:0:
200,340,13768,1,0,3:0:0:0:
96,340,13868,1,0,0:0:0:0:
192,44,13968,1,0,0:0:0:0:
68,260,14068,6,0,L|232:260,1,160,0|0,3:0|0:0,0:0:0:0:
260,236,14168,2,0,L|96:236,1,160,0|0,0:0|0:0,0:0:0:0:
69,214,14268,2,0,L|233:214,1,160,0|0,0:0|0:0,0:0:0:0:
264,192,14368,2,0,L|100:192,1,160,0|0,0:0|0:0,0:0:0:0:
80,168,14468,6,0,L|244:168,1,160,8|0,0:0|0:0,0:0:0:0:
272,144,14568,2,0,L|108:144,1,160,0|0,0:0|0:0,0:0:0:0:
81,122,14668,2,0,L|245:122,1,160,0|0,0:0|0:0,0:0:0:0:
276,100,14768,2,0,L|112:100,1,160,0|0,0:0|0:0,0:0:0:0:
92,260,14868,6,0,L|256:260,1,160,0|0,3:0|0:0,0:0:0:0:
284,236,14968,2,0,L|120:236,1,160,0|0,0:0|0:0,0:0:0:0:
93,214,15068,2,0,L|257:214,1,160,0|0,0:0|0:0,0:0:0:0:
288,192,15168,2,0,L|124:192,1,160,0|0,0:0|0:0,0:0:0:0:
104,168,15268,6,0,L|268:168,1,160,8|0,0:0|0:0,0:0:0:0:
296,144,15368,2,0,L|132:144,1,160,0|0,0:0|0:0,0:0:0:0:
105,122,15468,2,0,L|269:122,1,160,0|0,0:0|0:0,0:0:0:0:
300,100,15568,2,0,L|136:100,1,160,0|0,0:0|0:0,0:0:0:0:
116,260,15668,6,0,L|280:260,1,160,0|0,3:0|0:0,0:0:0:0:
308,236,15768,2,0,L|144:236,1,160,0|0,0:0|0:0,0:0:0:0:
117,214,15868,2,0,L|281:214,1,160,0|0,0:0|0:0,0:0:0:0:
312,192,15968,2,0,L|148:192,1,160,0|0,0:0|0:0,0:0:0:0:
128,168,16068,6,0,L|292:168,1,160,8|0,0:0|0:0,0:0:0:0:
320,144,16168,2,0,L|156:144,1,160,0|0,0:0|0:0,0:0:0:0:
129,122,16268,2,0,L|293:122,1,160,0|0,0:0|0:0,0:0:0:0:
324,100,16368,2,0,L|160:100,1,160,0|0,0:0|0:0,0:0:0:0:
140,260,16468,6,0,L|304:260,1,160,0|0,3:0|0:0,0:0:0:0:
332,236,16568,2,0,L|168:236,1,160,0|0,0:0|0:0,0:0:0:0:
141,214,16668,2,0,L|305:214,1,160,0|0,0:0|0:0,0:0:0:0:
336,192,16768,2,0,L|172:192,1,160,0|0,3:0|0:0,0:0:0:0:
152,168,16868,6,0,L|316:168,1,160,8|0,0:0|0:0,0:0:0:0:
344,144,16968,2,0,L|180:144,1,160,0|0,3:0|0:0,0:0:0:0:
153,122,17068,2,0,L|317:122,1,160,0|0,0:0|0:0,0:0:0:0:
348,100,17168,2,0,L|184:100,1,160,0|0,0:0|0:0,0:0:0:0:
156,64,17268,5,0,3:0:0:0:
252,64,17368,1,0,0:0:0:0:
148,64,17468,1,0,0:0:0:0:
244,64,17568,1,0,0:0:0:0:
140,320,17668,5,8,0:0:0:0:
236,320,17768,1,0,0:0:0:0:
132,320,17868,1,0,0:0:0:0:
228,320,17968,1,0,0:0:0:0:
356,64,18068,5,0,3:0:0:0:
260,64,18168,1,0,0:0:0:0:
364,64,18268,1,0,0:0:0:0:
268,64,18368,1,0,0:0:0:0:
372,320,18468,5,8,0:0:0:0:
276,320,18568,1,0,0:0:0:0:
380,320,18668,1,0,0:0:0:0:
284,320,18768,1,0,0:0:0:0:
128,64,18868,5,0,3:0:0:0:
32,64,18968,1,0,0:0:0:0:
136,64,19068,1,0,0:0:0:0:
40,64,19168,1,0,0:0:0:0:
144,320,19268,5,8,0:0:0:0:
48,320,19368,1,0,0:0:0:0:
152,320,19468,1,0,0:0:0:0:
56,320,19568,1,0,0:0:0:0:
384,64,19668,5,0,3:0:0:0:
480,64,19768,1,0,0:0:0:0:
376,64,19868,1,0,0:0:0:0:
472,64,19968,1,0,3:0:0:0:
368,320,20068,5,8,0:0:0:0:
464,320,20168,1,0,3:0:0:0:
360,320,20268,1,0,0:0:0:0:
456,320,20368,1,0,0:0:0:0:
512,72,20468,6,0,L|432:72,1,80,4|0,1:0|0:0,0:0:0:0:
432,312,20668,2,0,L|352:312,1,80
352,72,20868,2,0,L|272:72,1,80,8|0,0:0|0:0,0:0:0:0:
272,312,21068,2,0,L|192:312,1,80
0,312,21268,6,0,L|80:312,1,80,0|0,1:0|0:0,0:0:0:0:
80,72,21468,2,0,L|160:72,1,80
160,312,21668,2,0,L|240:312,1,80,8|0,0:0|0:0,0:0:0:0:
240,72,21868,2,0,L|320:72,1,80
512,248,22068,6,0,L|412:248,1,95.9999970703126,2|0,1:2|0:0,0:0:0:0:
416,136,22268,2,0,L|316:136,1,95.9999970703126,0|0,0:0|0:0,0:0:0:0:
320,136,22468,2,0,L|220:136,1,95.9999970703126,8|0,0:0|0:0,0:0:0:0:
224,248,22668,2,0,L|124:248,1,95.9999970703126
0,136,22868,6,0,L|100:136,1,95.9999970703126,0|0,1:0|3:0,0:0:0:0:
96,248,23068,2,0,L|196:248,1,95.9999970703126,0|0,3:0|0:0,0:0:0:0:
192,248,23268,2,0,L|292:248,1,95.9999970703126,8|0,1:2|0:0,0:0:0:0:
288,136,23468,2,0,L|388:136,1,95.9999970703126,0|0,1:0|0:0,0:0:0:0:
512,44,23668,6,0,L|388:44,1,120.000004577637,2|0,1:2|0:0,0:0:0:0:
392,116,23868,2,0,L|516:116,1,120.000004577637,0|0,0:0|0:0,0:0:0:0:
512,80,24068,2,0,L|388:80,1,120.000004577637,8|0,0:0|0:0,0:0:0:0:
392,152,24268,2,0,L|516:152,1,120.000004577637,0|0,0:0|0:0,0:0:0:0:
512,176,24468,6,0,L|348:176,1,160,0|0,1:0|0:0,0:0:0:0:
352,236,24668,2,0,L|516:236,1,160,0|0,0:0|0:0,0:0:0:0:
512,296,24868,2,0,L|348:296,1,160,8|0,0:0|0:0,0:0:0:0:
352,356,25068,2,0,L|516:356,1,160,0|0,0:0|0:0,0:0:0:0:
512,64,25268,6,0,L|192:64,1,320,2|0,1:2|0:0,0:0:0:0:
192,124,25468,2,0,L|512:124,1,320,0|0,0:0|0:0,0:0:0:0:
512,184,25668,2,0,L|192:184,1,320,8|0,0:0|0:0,0:0:0:0:
192,244,25868,2,0,L|512:244,1,320,0|0,0:0|0:0,0:0:0:0:
512,336,26068,6,0,L|-4:336,1,512,0|0,1:0|3:0,0:0:0:0:
0,48,26268,2,0,L|516:48,1,512,0|0,3:0|0:0,0:0:0:0:
512,336,26468,2,0,L|-4:336,1,512,8|0,1:2|0:0,0:0:0:0:
0,48,26668,2,0,L|516:48,1,512,0|0,1:0|0:0,0:0:0:0:
0,72,26868,6,0,L|80:72,1,80,2|0,1:2|0:0,0:0:0:0:
80,312,27068,2,0,L|160:312,1,80
160,312,27268,2,0,L|240:312,1,80,8|0,0:0|0:0,0:0:0:0:
240,312,27468,2,0,L|320:312,1,80
512,312,27668,6,0,L|432:312,1,80,0|0,1:0|0:0,0:0:0:0:
432,72,27868,2,0,L|352:72,1,80
352,72,28068,2,0,L|272:72,1,80,8|0,0:0|0:0,0:0:0:0:
272,72,28268,2,0,L|192:72,1,80,0|0,0:0|0:0,0:0:0:0:
0,136,28468,6,0,L|100:136,1,95.9999970703126,2|0,1:2|0:0,0:0:0:0:
96,248,28668,2,0,L|196:248,1,95.9999970703126,0|0,0:0|0:0,0:0:0:0:
192,136,28868,2,0,L|292:136,1,95.9999970703126,8|0,0:0|0:0,0:0:0:0:
288,136,29068,2,0,L|388:136,1,95.9999970703126,0|0,0:0|0:0,0:0:0:0:
512,248,29268,6,0,L|412:248,1,95.9999970703126,0|0,1:0|0:0,0:0:0:0:
416,136,29468,2,0,L|316:136,1,95.9999970703126
320,248,29668,2,0,L|220:248,1,95.9999970703126,8|0,1:2|0:0,0:0:0:0:
224,248,29868,2,0,L|124:248,1,95.9999970703126,0|0,1:2|0:0,0:0:0:0:
0,44,30068,6,0,L|124:44,1,120.000004577637,2|0,1:2|0:0,0:0:0:0:
120,116,30268,2,0,L|-4:116,1,120.000004577637,0|0,0:0|0:0,0:0:0:0:
0,80,30468,2,0,L|124:80,1,120.000004577637,8|0,0:0|0:0,0:0:0:0:
120,152,30668,2,0,L|-4:152,1,120.000004577637,0|0,0:0|0:0,0:0:0:0:
0,176,30868,6,0,L|164:176,1,160,0|0,1:0|0:0,0:0:0:0:
160,236,31068,2,0,L|-4:236,1,160,0|0,0:0|0:0,0:0:0:0:
0,296,31268,2,0,L|164:296,1,160,8|0,1:2|0:0,0:0:0:0:
160,356,31468,2,0,L|-4:356,1,160,0|0,1:2|0:0,0:0:0:0:
0,64,31668,6,0,L|320:64,1,320,2|0,1:2|0:0,0:0:0:0:
320,124,31868,2,0,L|0:124,1,320,0|0,0:0|0:0,0:0:0:0:
0,184,32068,2,0,L|320:184,1,320,8|0,0:0|0:0,0:0:0:0:
320,244,32268,2,0,L|0:244,1,320,0|0,0:0|0:0,0:0:0:0:
0,336,32468,6,0,L|516:336,1,512,0|0,1:0|0:0,0:0:0:0:
512,48,32668,2,0,L|-4:48,1,512,0|0,0:0|1:0,0:0:0:0:
0,336,32868,2,0,L|516:336,1,512,8|0,1:2|0:0,0:0:0:0:
512,48,33068,2,0,L|-4:48,1,512,0|0,1:2|0:0,0:0:0:0:
496,368,33268,5,4,1:0:0:0:
16,16,33668,1,8,1:2:0:0:
496,224,34068,1,0,1:2:0:0:
16,160,34468,1,8,1:2:0:0:
496,16,34868,5,0,1:2:0:0:
16,368,35268,1,8,1:2:0:0:
496,160,35668,1,0,1:2:0:0:
16,224,36068,1,8,1:2:0:0:
384,64,36268,1,0,1:0:0:0:
128,288,36468,5,0,1:2:0:0:
384,128,36668,1,0,1:2:0:0:
128,224,36868,1,8,1:2:0:0:
384,192,37068,1,0,1:2:0:0:
128,160,37268,5,0,1:2:0:0:
384,256,37468,1,0,1:2:0:0:
128,96,37668,1,8,1:2:0:0:
384,320,37868,1,0,1:2:0:0:
176,64,38068,5,0,1:2:0:0:
336,256,38168,1,0,1:2:0:0:
176,80,38268,1,0,1:2:0:0:
336,248,38368,1,0,1:2:0:0:
176,96,38468,5,8,1:2:0:0:
336,240,38568,1,0,1:2:0:0:
176,112,38668,1,0,1:2:0:0:
336,232,38768,1,0,1:2:0:0:
176,128,38868,5,0,1:2:0:0:
336,224,38968,1,0,1:2:0:0:
176,144,39068,1,0,1:2:0:0:
336,216,39168,1,0,1:2:0:0:
176,160,39268,5,8,1:2:0:0:
336,208,39368,1,0,1:2:0:0:
176,176,39468,1,0,1:2:0:0:
336,200,39568,1,0,1:2:0:0:
136,136,39668,5,4,1:0:0:0:
40,56,39768,2,0,L|40:136,2,80,2|2|0,0:0|0:0|0:0,0:0:0:0:
209,225,40068,1,8,1:2:0:0:
113,145,40168,2,0,L|113:225,2,80,0|0|0,0:0|0:0|0:0,0:0:0:0:
282,314,40468,5,2,1:2:0:0:
186,234,40568,2,0,L|186:314,2,80,2|2|0,0:2|0:2|0:2,0:0:0:0:
355,64,40868,1,8,1:2:0:0:
259,144,40968,2,0,L|259:64,2,80,0|0|0,0:2|0:2|0:2,0:0:0:0:
376,136,41268,5,2,1:2:0:0:
472,56,41368,2,0,L|472:136,2,80,2|2|0,0:2|0:2|0:2,0:0:0:0:
303,225,41668,1,8,1:2:0:0:
399,145,41768,2,0,L|399:225,2,80,0|0|0,0:2|0:2|0:2,0:0:0:0:
230,314,42068,5,2,1:2:0:0:
326,234,42168,2,0,L|326:314,2,80,2|2|0,0:2|0:2|0:2,0:0:0:0:
157,64,42468,1,8,1:2:0:0:
253,144,42568,2,0,L|253:64,2,80,0|0|0,0:2|1:2|0:2,0:0:0:0:
256,224,42868,6,0,L|156:224,1,95.9999970703126,2|0,1:2|0:2,0:0:0:0:
160,160,43068,2,0,L|60:160,1,95.9999970703126,0|0,0:2|0:2,0:0:0:0:
64,224,43268,2,0,L|164:224,1,95.9999970703126,8|0,1:2|0:2,0:0:0:0:
160,160,43468,2,0,L|260:160,1,95.9999970703126,2|0,0:2|0:2,0:0:0:0:
256,96,43668,6,0,L|156:96,1,95.9999970703126,0|0,1:2|0:2,0:0:0:0:
160,288,43868,2,0,L|60:288,1,95.9999970703126,0|0,0:2|0:2,0:0:0:0:
64,96,44068,2,0,L|164:96,1,95.9999970703126,8|0,1:2|0:2,0:0:0:0:
160,288,44268,2,0,L|260:288,1,95.9999970703126,0|0,0:2|0:2,0:0:0:0:
256,224,44468,6,0,L|356:224,1,95.9999970703126,2|0,1:2|0:2,0:0:0:0:
352,160,44668,2,0,L|452:160,1,95.9999970703126,0|0,0:2|0:2,0:0:0:0:
448,224,44868,2,0,L|348:224,1,95.9999970703126,8|0,1:2|0:2,0:0:0:0:
352,160,45068,2,0,L|252:160,1,95.9999970703126,2|0,0:2|0:2,0:0:0:0:
256,96,45268,6,0,L|356:96,1,95.9999970703126,0|0,1:2|0:2,0:0:0:0:
352,288,45468,2,0,L|452:288,1,95.9999970703126,0|0,0:2|0:2,0:0:0:0:
448,96,45668,2,0,L|348:96,1,95.9999970703126,8|0,1:2|0:2,0:0:0:0:
352,288,45868,2,0,L|252:288,1,95.9999970703126,0|0,1:2|0:2,0:0:0:0:
256,160,46068,6,0,L|148:160,1,103.999995239258,2|0,1:2|0:2,0:0:0:0:
52,128,46268,2,0,L|160:128,1,103.999995239258,0|0,0:2|0:2,0:0:0:0:
272,224,46468,2,0,L|164:224,1,103.999995239258,10|0,1:2|0:2,0:0:0:0:
68,256,46668,2,0,L|176:256,1,103.999995239258,2|0,0:2|0:2,0:0:0:0:
288,160,46868,6,0,L|180:160,1,103.999995239258,0|0,1:2|0:2,0:0:0:0:
84,128,47068,2,0,L|192:128,1,103.999995239258,0|0,0:2|0:2,0:0:0:0:
304,224,47268,2,0,L|196:224,1,103.999995239258,8|0,1:2|0:2,0:0:0:0:
100,256,47468,2,0,L|208:256,1,103.999995239258,0|0,0:2|0:2,0:0:0:0:
320,160,47668,6,0,L|212:160,1,103.999995239258,2|0,1:2|0:2,0:0:0:0:
116,128,47868,2,0,L|224:128,1,103.999995239258,0|0,0:2|0:2,0:0:0:0:
336,224,48068,2,0,L|228:224,1,103.999995239258,10|0,1:2|0:2,0:0:0:0:
132,256,48268,2,0,L|240:256,1,103.999995239258,2|0,0:2|0:2,0:0:0:0:
352,160,48468,6,0,L|244:160,1,103.999995239258,0|0,1:2|0:2,0:0:0:0:
148,128,48668,2,0,L|256:128,1,103.999995239258,0|0,0:2|0:2,0:0:0:0:
368,224,48868,2,0,L|260:224,1,103.999995239258,8|0,1:2|0:2,0:0:0:0:
164,256,49068,2,0,L|272:256,1,103.999995239258,0|0,1:2|0:2,0:0:0:0:
256,160,49268,6,0,L|364:160,1,103.999995239258,2|0,1:2|0:2,0:0:0:0:
460,256,49468,2,0,L|352:256,1,103.999995239258,0|0,0:2|0:2,0:0:0:0:
240,224,49668,2,0,L|348:224,1,103.999995239258,10|0,1:2|0:2,0:0:0:0:
444,128,49868,2,0,L|336:128,1,103.999995239258,2|0,0:2|0:2,0:0:0:0:
224,224,50068,6,0,L|332:224,1,103.999995239258,0|0,1:2|0:2,0:0:0:0:
428,128,50268,2,0,L|320:128,1,103.999995239258,0|0,0:2|0:2,0:0:0:0:
208,160,50468,2,0,L|316:160,1,103.999995239258,8|0,1:2|0:2,0:0:0:0:
412,256,50668,2,0,L|304:256,1,103.999995239258,0|0,0:2|0:2,0:0:0:0:
192,160,50868,6,0,L|300:160,1,103.999995239258,2|0,1:2|0:2,0:0:0:0:
396,256,51068,2,0,L|288:256,1,103.999995239258,0|0,0:2|0:2,0:0:0:0:
176,224,51268,2,0,L|284:224,1,103.999995239258,10|0,1:2|0:2,0:0:0:0:
380,128,51468,2,0,L|272:128,1,103.999995239258,2|0,0:2|0:2,0:0:0:0:
160,224,51668,6,0,L|268:224,7,103.999995239258,2|2|2|2|10|2|2|2,1:2|0:2|0:2|0:2|1:2|0:2|1:2|0:2,0:0:0:0:
456,192,52468,6,0,L|372:192,1,80,4|2,1:0|0:0,0:0:0:0:
56,192,52668,2,0,L|140:192,1,80,2|0,0:0|0:0,0:0:0:0:
397,333,52868,2,0,L|338:274,1,80,8|0,1:2|0:0,0:0:0:0:
114,50,53068,2,0,L|173:109,1,80,0|0,0:0|0:0,0:0:0:0:
256,392,53268,6,0,L|255:308,1,80,0|2,1:0|0:0,0:0:0:0:
256,0,53468,2,0,L|256:76,1,80,2|0,0:0|0:0,0:0:0:0:
114,333,53668,2,0,L|173:274,1,80,8|0,1:2|0:0,0:0:0:0:
397,50,53868,2,0,L|338:109,1,80,0|0,0:0|0:0,0:0:0:0:
96,313,54068,6,0,B|129:315|129:315|170:276,1,80,0|2,1:0|0:0,0:0:0:0:
414,70,54268,2,0,B|380:68|380:68|340:107,1,80,2|0,0:0|0:0,0:0:0:0:
56,166,54468,2,0,B|78:190|78:190|133:191,1,80,8|0,1:2|0:0,0:0:0:0:
453,218,54668,2,0,B|430:192|430:192|375:192,1,80,0|0,0:0|0:0,0:0:0:0:
138,39,54868,6,0,B|131:66|131:66|170:106,1,80,2|2,1:2|0:2,0:0:0:0:
376,350,55068,2,0,B|379:317|379:317|339:277,1,80,2|0,0:2|0:2,0:0:0:0:
280,0,55268,2,0,B|255:15|255:15|254:71,1,80,8|0,1:2|0:2,0:0:0:0:
228,391,55468,2,0,B|253:367|253:367|254:312,1,80,0|0,1:2|0:2,0:0:0:0:
336,64,55668,6,0,L|432:64,1,95.9999970703126,2|0,1:2|0:2,0:0:0:0:
176,96,55868,2,0,L|80:96,1,95.9999970703126,0|0,0:2|0:2,0:0:0:0:
320,128,56068,2,0,L|416:128,1,95.9999970703126,8|0,1:2|0:2,0:0:0:0:
192,64,56268,2,0,L|96:64,1,95.9999970703126,2|0,0:2|0:2,0:0:0:0:
304,96,56468,6,0,L|400:96,1,95.9999970703126,0|0,1:2|0:2,0:0:0:0:
208,128,56668,2,0,L|112:128,1,95.9999970703126,0|0,0:2|0:2,0:0:0:0:
256,64,56868,2,0,L|256:160,1,95.9999970703126,8|0,1:2|0:2,0:0:0:0:
256,320,57068,2,0,L|256:224,1,95.9999970703126,0|0,0:2|0:2,0:0:0:0:
176,320,57268,6,0,L|80:320,1,95.9999970703126,2|0,1:2|0:2,0:0:0:0:
336,288,57468,2,0,L|432:288,1,95.9999970703126,0|0,0:2|0:2,0:0:0:0:
192,256,57668,2,0,L|96:256,1,95.9999970703126,8|0,1:2|0:2,0:0:0:0:
320,320,57868,2,0,L|416:320,1,95.9999970703126,2|0,0:2|0:2,0:0:0:0:
208,288,58068,6,0,L|112:288,1,95.9999970703126,0|0,1:2|0:2,0:0:0:0:
304,256,58268,2,0,L|400:256,1,95.9999970703126,0|0,0:2|0:2,0:0:0:0:
256,320,58468,2,0,L|256:224,1,95.9999970703126,8|0,1:2|0:2,0:0:0:0:
256,64,58668,2,0,L|256:160,1,95.9999970703126,0|0,1:2|0:2,0:0:0:0:
408,64,58868,6,0,L|512:64,1,95.9999970703126,2|0,1:2|0:2,0:0:0:0:
408,128,59068,2,0,L|512:128,1,95.9999970703126,0|0,0:2|0:2,0:0:0:0:
192,200,59268,2,0,L|296:200,1,95.9999970703126,10|0,1:2|0:2,0:0:0:0:
104,288,59468,2,0,L|208:288,1,95.9999970703126,2|0,0:2|0:2,0:0:0:0:
104,64,59668,6,0,L|0:64,1,95.9999970703126,0|0,1:2|0:2,0:0:0:0:
104,128,59868,2,0,L|0:128,1,95.9999970703126,0|0,0:2|0:2,0:0:0:0:
320,200,60068,2,0,L|216:200,1,95.9999970703126,8|0,1:2|0:2,0:0:0:0:
408,288,60268,2,0,L|304:288,1,95.9999970703126,0|0,0:2|0:2,0:0:0:0:
0,48,60468,6,0,L|96:48,1,95.9999970703126,2|0,1:2|0:2,0:0:0:0:
360,192,60668,2,0,L|256:192,1,95.9999970703126,0|0,0:2|0:2,0:0:0:0:
152,192,60868,2,0,L|256:192,1,95.9999970703126,10|0,1:2|0:2,0:0:0:0:
512,336,61068,2,0,L|416:336,1,95.9999970703126,2|0,0:2|0:2,0:0:0:0:
320,104,61268,6,0,L|416:104,1,95.9999970703126,0|0,1:2|0:2,0:0:0:0:
512,104,61468,2,0,L|416:104,1,95.9999970703126,0|0,0:2|0:2,0:0:0:0:
0,280,61668,2,0,L|96:280,1,95.9999970703126,8|0,1:2|0:2,0:0:0:0:
192,280,61868,2,0,L|96:280,1,95.9999970703126,0|0,1:2|0:2,0:0:0:0:
312,336,62068,5,2,1:2:0:0:
376,352,62168,1,0,0:2:0:0:
336,324,62268,1,0,0:2:0:0:
401,328,62368,1,0,0:2:0:0:
357,308,62468,1,10,1:2:0:0:
423,301,62568,1,0,0:2:0:0:
376,288,62668,1,2,0:2:0:0:
439,270,62768,1,0,0:2:0:0:
384,240,62868,5,0,1:2:0:0:
449,246,62968,1,0,0:2:0:0:
362,224,63068,1,0,0:2:0:0:
427,219,63168,1,0,0:2:0:0:
338,212,63268,1,8,1:2:0:0:
401,196,63368,1,0,0:2:0:0:
312,204,63468,1,0,0:2:0:0:
372,177,63568,1,0,0:2:0:0:
200,336,63668,5,2,1:2:0:0:
136,352,63768,1,0,0:2:0:0:
176,324,63868,1,0,0:2:0:0:
111,328,63968,1,0,0:2:0:0:
155,308,64068,1,10,1:2:0:0:
89,301,64168,1,0,0:2:0:0:
136,288,64268,1,2,0:2:0:0:
73,270,64368,1,0,0:2:0:0:
128,240,64468,5,2,1:2:0:0:
63,246,64568,1,2,0:2:0:0:
150,224,64668,1,2,0:2:0:0:
85,219,64768,1,2,0:2:0:0:
174,212,64868,1,10,1:2:0:0:
111,196,64968,1,2,0:2:0:0:
200,204,65068,1,2,1:2:0:0:
140,177,65168,1,2,0:2:0:0:
512,72,65268,5,4,1:0:0:0:
472,72,65368,1,0,0:2:0:0:
432,72,65468,1,0,0:2:0:0:
392,72,65568,1,0,0:2:0:0:
0,192,65668,1,0,1:2:0:0:
40,192,65768,1,0,0:2:0:0:
80,192,65868,1,0,0:2:0:0:
120,192,65968,1,0,0:2:0:0:
512,312,66068,5,0,1:2:0:0:
472,312,66168,1,0,0:2:0:0:
432,312,66268,1,0,0:2:0:0:
392,312,66368,1,0,0:2:0:0:
0,312,66468,1,0,1:2:0:0:
40,312,66568,1,0,0:2:0:0:
80,312,66668,1,0,0:2:0:0:
120,312,66768,1,0,0:2:0:0:
512,192,66868,5,0,1:2:0:0:
472,192,66968,1,0,0:2:0:0:
432,192,67068,1,0,0:2:0:0:
392,192,67168,1,0,0:2:0:0:
0,72,67268,1,0,1:2:0:0:
40,72,67368,1,0,0:2:0:0:
80,72,67468,1,0,0:2:0:0:
120,72,67568,1,0,0:2:0:0:
512,112,67668,5,0,1:2:0:0:
472,272,67768,1,0,0:2:0:0:
432,112,67868,1,0,0:2:0:0:
392,272,67968,1,0,0:2:0:0:
0,192,68068,1,0,1:2:0:0:
40,192,68168,1,0,0:2:0:0:
512,192,68268,1,0,1:2:0:0:
472,192,68368,1,0,0:2:0:0:
28,148,68468,6,0,L|52:84,1,60,2|0,1:2|0:0,0:0:0:0:
133,176,68568,2,0,L|157:112,1,60,2|0,0:2|0:0,0:0:0:0:
242,208,68668,2,0,L|266:144,1,60,2|0,0:2|0:0,0:0:0:0:
347,236,68768,2,0,L|371:172,1,60,2|0,0:2|0:0,0:0:0:0:
484,148,68868,2,0,L|460:84,1,60,2|0,1:2|0:0,0:0:0:0:
379,176,68968,2,0,L|355:112,1,60,2|0,0:2|0:0,0:0:0:0:
270,208,69068,2,0,L|246:144,1,60,2|0,0:2|0:0,0:0:0:0:
165,236,69168,2,0,L|141:172,1,60,2|0,0:2|0:0,0:0:0:0:
28,236,69268,6,0,L|52:300,1,60,2|0,1:2|0:0,0:0:0:0:
133,208,69368,2,0,L|157:272,1,60,0|0,0:2|0:0,0:0:0:0:
242,176,69468,2,0,L|266:240,1,60,0|0,0:2|0:0,0:0:0:0:
347,148,69568,2,0,L|371:212,1,60,0|0,0:2|0:0,0:0:0:0:
484,236,69668,2,0,L|460:300,1,60,0|0,1:2|0:0,0:0:0:0:
379,208,69768,2,0,L|355:272,1,60,0|0,0:2|0:0,0:0:0:0:
270,176,69868,2,0,L|246:240,1,60,0|0,0:2|0:0,0:0:0:0:
165,148,69968,2,0,L|141:212,1,60,0|0,0:2|0:0,0:0:0:0:
16,136,70068,6,0,L|56:76,1,60,0|0,1:2|0:0,0:0:0:0:
134,170,70168,2,0,L|174:110,1,60,0|0,0:2|0:0,0:0:0:0:
252,204,70268,2,0,L|292:144,1,60,0|0,0:2|0:0,0:0:0:0:
370,238,70368,2,0,L|410:178,1,60,0|0,0:2|0:0,0:0:0:0:
496,136,70468,2,0,L|456:76,1,60,0|0,1:2|0:0,0:0:0:0:
378,170,70568,2,0,L|338:110,1,60,0|0,0:2|0:0,0:0:0:0:
260,204,70668,2,0,L|220:144,1,60,0|0,0:2|0:0,0:0:0:0:
142,238,70768,2,0,L|102:178,1,60,0|0,0:2|0:0,0:0:0:0:
16,248,70868,6,0,L|56:308,1,60,0|0,1:2|0:0,0:0:0:0:
134,214,70968,2,0,L|174:274,1,60,0|0,0:2|0:0,0:0:0:0:
252,180,71068,2,0,L|292:240,1,60,0|0,0:2|0:0,0:0:0:0:
370,146,71168,2,0,L|410:206,1,60,0|0,0:2|0:0,0:0:0:0:
496,248,71268,2,0,L|456:308,1,60,0|0,1:2|0:0,0:0:0:0:
378,214,71368,2,0,L|338:274,1,60,0|0,0:2|0:0,0:0:0:0:
16,248,71468,2,0,L|56:308,1,60,0|0,1:2|0:0,0:0:0:0:
134,214,71568,2,0,L|174:274,1,60,0|0,0:2|0:0,0:0:0:0:
496,136,71668,6,0,L|456:76,1,60,0|0,1:2|0:0,0:0:0:0:
0,64,71768,1,0,0:2:0:0:
0,96,71868,1,0,0:2:0:0:
0,128,71968,1,0,0:2:0:0:
0,160,72068,1,0,1:2:0:0:
256,160,72168,1,0,0:2:0:0:
256,192,72268,1,0,0:2:0:0:
256,224,72368,1,0,0:2:0:0:
256,192,72468,5,2,1:2:0:0:
512,64,72568,1,2,0:2:0:0:
512,96,72668,1,2,0:2:0:0:
512,128,72768,1,2,0:2:0:0:
512,160,72868,1,0,1:2:0:0:
128,224,72968,1,0,0:2:0:0:
128,160,73068,1,0,0:2:0:0:
128,192,73168,1,0,0:2:0:0:
128,128,73268,5,0,1:2:0:0:
384,224,73368,1,0,0:2:0:0:
384,160,73468,1,0,0:2:0:0:
384,192,73568,1,0,0:2:0:0:
384,128,73668,1,2,1:2:0:0:
64,128,73768,1,2,0:2:0:0:
64,160,73868,1,2,0:2:0:0:
64,96,73968,1,2,0:2:0:0:
64,192,74068,5,0,1:2:0:0:
448,128,74168,1,0,0:2:0:0:
448,160,74268,1,0,0:2:0:0:
448,96,74368,1,0,0:2:0:0:
448,192,74468,1,0,1:2:0:0:
160,192,74568,1,0,0:2:0:0:
160,192,74668,1,0,1:2:0:0:
352,192,74768,1,0,0:2:0:0:
352,192,74868,5,2,1:2:0:0:
0,128,74968,1,2,0:2:0:0:
0,160,75068,1,2,0:2:0:0:
0,192,75168,1,2,0:2:0:0:
0,224,75268,1,2,1:2:0:0:
160,96,75368,1,2,0:2:0:0:
160,128,75468,1,2,0:2:0:0:
160,160,75568,1,2,0:2:0:0:
160,192,75668,5,2,1:2:0:0:
352,96,75768,1,0,0:2:0:0:
352,128,75868,1,0,0:2:0:0:
352,160,75968,1,0,0:2:0:0:
352,192,76068,1,0,1:2:0:0:
512,128,76168,1,0,0:2:0:0:
512,160,76268,1,0,0:2:0:0:
512,192,76368,1,0,0:2:0:0:
512,224,76468,5,2,1:2:0:0:
128,320,76568,1,2,0:2:0:0:
128,256,76668,1,2,0:2:0:0:
128,192,76768,1,2,0:2:0:0:
128,128,76868,1,2,1:2:0:0:
384,320,76968,1,2,0:2:0:0:
384,256,77068,1,2,0:2:0:0:
384,192,77168,1,2,0:2:0:0:
384,128,77268,5,2,1:2:0:0:
32,64,77468,1,2,0:2:0:0:
192,192,77568,1,2,0:2:0:0:
352,320,77668,1,2,1:2:0:0:
32,320,77768,1,2,0:2:0:0:
192,192,77868,1,2,1:2:0:0:
352,64,77968,1,2,0:2:0:0:
472,75,78068,6,0,L|389:60,1,80,4|0,1:0|0:2,0:0:0:0:
472,75,78268,2,0,L|389:60,1,80,0|0,0:2|0:2,0:0:0:0:
204,220,78468,2,0,L|121:234,1,80,8|0,1:2|0:2,0:0:0:0:
204,220,78668,2,0,L|121:234,1,80,0|0,0:2|0:2,0:0:0:0:
408,152,78868,6,0,L|325:137,1,80,2|2,1:2|0:2,0:0:0:0:
408,152,79068,2,0,L|325:137,1,80,2|2,0:2|0:2,0:0:0:0:
87,156,79268,2,0,L|169:170,1,80,10|0,1:2|0:2,0:0:0:0:
87,156,79468,2,0,L|169:170,1,80,0|0,0:2|0:2,0:0:0:0:
384,240,79668,6,0,L|456:282,1,80,2|0,1:2|0:2,0:0:0:0:
384,240,79868,2,0,L|456:282,1,80,0|0,0:2|0:2,0:0:0:0:
236,296,80068,2,0,L|164:254,1,80,10|2,1:2|0:2,0:0:0:0:
236,296,80268,2,0,L|164:254,1,80,2|2,0:2|0:2,0:0:0:0:
356,64,80468,6,0,L|286:104,1,80,2|2,1:2|0:2,0:0:0:0:
356,64,80668,2,0,L|286:104,1,80,2|2,0:2|0:2,0:0:0:0:
34,79,80868,2,0,L|104:120,1,80,8|0,1:2|0:2,0:0:0:0:
477,79,81068,2,0,L|408:120,1,80,0|0,1:2|0:2,0:0:0:0:
80,192,81268,6,0,L|104:128,1,60,2|0,1:2|0:0,0:0:0:0:
224,192,81368,2,0,L|200:128,1,60,2|0,0:2|0:0,0:0:0:0:
88,192,81468,2,0,L|112:128,1,60,2|0,0:2|0:0,0:0:0:0:
232,192,81568,2,0,L|208:128,1,60,2|0,0:2|0:0,0:0:0:0:
96,192,81668,2,0,L|120:128,1,60,10|0,1:2|0:0,0:0:0:0:
240,192,81768,2,0,L|216:128,1,60,2|0,0:2|0:0,0:0:0:0:
104,192,81868,2,0,L|128:128,1,60,2|0,0:2|0:0,0:0:0:0:
248,192,81968,2,0,L|224:128,1,60,2|0,0:2|0:0,0:0:0:0:
112,192,82068,6,0,L|136:128,1,60,0|0,1:2|0:0,0:0:0:0:
256,192,82168,2,0,L|232:128,1,60,0|0,0:2|0:0,0:0:0:0:
120,192,82268,2,0,L|144:128,1,60,0|0,0:2|0:0,0:0:0:0:
264,192,82368,2,0,L|240:128,1,60,0|0,0:2|0:0,0:0:0:0:
128,192,82468,2,0,L|152:128,1,60,10|0,1:2|0:0,0:0:0:0:
272,192,82568,2,0,L|248:128,1,60,0|0,0:2|0:0,0:0:0:0:
136,192,82668,2,0,L|160:128,1,60,0|0,0:2|0:0,0:0:0:0:
288,192,82768,2,0,L|312:128,1,60,0|0,0:2|0:0,0:0:0:0:
432,192,82868,6,0,L|408:128,1,60,2|0,1:2|0:0,0:0:0:0:
288,192,82968,2,0,L|312:128,1,60,0|0,0:2|0:0,0:0:0:0:
424,192,83068,2,0,L|400:128,1,60,0|0,0:2|0:0,0:0:0:0:
280,192,83168,2,0,L|304:128,1,60,0|0,0:2|0:0,0:0:0:0:
416,192,83268,2,0,L|392:128,1,60,8|0,1:2|0:0,0:0:0:0:
272,192,83368,2,0,L|296:128,1,60,0|0,0:2|0:0,0:0:0:0:
408,192,83468,2,0,L|384:128,1,60,0|0,0:2|0:0,0:0:0:0:
264,192,83568,2,0,L|288:128,1,60,0|0,0:2|0:0,0:0:0:0:
400,192,83668,6,0,L|376:128,1,60,0|0,1:2|0:0,0:0:0:0:
256,192,83768,2,0,L|280:128,1,60,0|0,3:2|0:0,0:0:0:0:
392,192,83868,2,0,L|368:128,1,60,0|0,3:2|0:0,0:0:0:0:
248,192,83968,2,0,L|272:128,1,60,0|0,0:2|0:0,0:0:0:0:
384,192,84068,2,0,L|360:128,1,60,8|0,1:2|0:0,0:0:0:0:
240,192,84168,2,0,L|264:128,1,60,0|0,0:2|0:0,0:0:0:0:
376,192,84268,2,0,L|352:128,1,60,0|0,1:2|0:0,0:0:0:0:
224,192,84368,2,0,L|200:128,1,60,0|0,0:2|0:0,0:0:0:0:
12,192,84468,5,2,1:2:0:0:
43,118,84568,1,0,0:2:0:0:
117,87,84668,1,0,0:2:0:0:
191,118,84768,1,0,0:2:0:0:
221,192,84868,1,8,1:2:0:0:
191,266,84968,1,0,0:2:0:0:
117,296,85068,1,0,0:2:0:0:
43,265,85168,1,0,0:2:0:0:
500,192,85268,5,2,1:2:0:0:
464,103,85368,1,2,0:2:0:0:
375,66,85468,1,2,0:2:0:0:
286,103,85568,1,2,0:2:0:0:
249,192,85668,1,8,1:2:0:0:
286,281,85768,1,0,0:2:0:0:
375,317,85868,1,0,0:2:0:0:
464,281,85968,1,0,0:2:0:0:
0,192,86068,5,2,1:2:0:0:
42,295,86168,1,0,0:2:0:0:
146,338,86268,1,0,0:2:0:0:
249,295,86368,1,0,0:2:0:0:
292,192,86468,1,10,1:2:0:0:
249,89,86568,1,2,0:2:0:0:
146,46,86668,1,2,0:2:0:0:
42,88,86768,1,2,0:2:0:0:
512,191,86868,5,2,1:2:0:0:
464,309,86968,1,2,0:2:0:0:
345,358,87068,1,2,0:2:0:0:
227,309,87168,1,2,0:2:0:0:
178,191,87268,1,8,1:2:0:0:
227,73,87368,1,0,0:2:0:0:
345,24,87468,1,0,1:2:0:0:
464,72,87568,1,0,0:2:0:0:
209,272,87668,5,2,1:2:0:0:
209,111,87768,1,2,0:2:0:0:
348,192,87868,1,2,0:2:0:0:
165,208,87968,1,2,0:2:0:0:
287,105,88068,1,10,1:2:0:0:
315,262,88168,1,2,0:2:0:0:
185,132,88268,1,2,0:2:0:0:
342,160,88368,1,2,0:2:0:0:
239,282,88468,5,0,1:2:0:0:
256,99,88568,1,0,0:2:0:0:
336,238,88668,1,0,0:2:0:0:
175,238,88768,1,0,0:2:0:0:
326,132,88868,1,8,1:2:0:0:
272,282,88968,1,0,0:2:0:0:
169,160,89068,1,0,0:2:0:0:
346,208,89168,1,0,0:2:0:0:
196,262,89268,5,2,1:2:0:0:
224,105,89368,1,2,0:2:0:0:
219,88,89468,1,2,0:2:0:0:
331,273,89568,1,2,0:2:0:0:
314,100,89668,1,10,1:2:0:0:
242,303,89768,1,2,0:2:0:0:
364,183,89868,1,2,0:2:0:0:
160,250,89968,1,2,0:2:0:0:
151,154,90068,5,2,1:2:0:0:
324,105,90168,1,2,0:2:0:0:
231,299,90268,1,2,0:2:0:0:
366,192,90368,1,2,0:2:0:0:
156,240,90468,1,10,1:2:0:0:
324,278,90568,1,2,0:2:0:0:
156,143,90668,1,2,0:2:0:0:
231,84,90768,1,2,0:2:0:0:
0,92,90868,6,0,L|92:92,2,88.000002685547,4|2|2,1:0|0:0|0:2,0:0:0:0:
88,292,91168,1,0,0:2:0:0:
88,292,91268,2,0,L|180:292,2,88.000002685547,8|0|0,0:2|0:2|0:2,0:0:0:0:
176,92,91568,1,0,0:2:0:0:
176,92,91668,6,0,L|268:92,2,88.000002685547,2|2|2,0:2|0:2|0:2,0:0:0:0:
264,292,91968,1,0,0:2:0:0:
264,292,92068,2,0,L|356:292,2,88.000002685547,8|0|0,0:2|0:2|0:2,0:0:0:0:
352,92,92368,1,0,0:2:0:0:
512,292,92468,6,0,L|420:292,2,88.000002685547,2|2|2,0:2|0:2|0:2,0:0:0:0:
424,92,92768,1,0,0:2:0:0:
424,92,92868,2,0,L|332:92,2,88.000002685547,8|0|0,0:2|0:2|0:2,0:0:0:0:
336,292,93168,1,0,0:2:0:0:
336,292,93268,6,0,L|244:292,2,88.000002685547,2|2|2,0:2|0:2|0:2,0:0:0:0:
248,92,93568,1,0,0:2:0:0:
248,92,93668,2,0,L|156:92,2,88.000002685547,8|0|0,0:2|0:2|0:2,0:0:0:0:
160,292,93968,1,0,0:2:0:0:
0,128,94068,6,0,L|92:128,2,88.000002685547,2|2|2,0:2|0:2|0:2,0:0:0:0:
256,192,94368,1,0,0:2:0:0:
368,224,94468,2,0,L|276:224,2,88.000002685547,10|0|2,0:2|0:2|0:2,0:0:0:0:
256,192,94768,1,0,0:2:0:0:
144,160,94868,6,0,L|236:160,2,88.000002685547,0|0|0,0:2|0:2|0:2,0:0:0:0:
400,224,95168,1,0,0:2:0:0:
512,256,95268,2,0,L|420:256,2,88.000002685547,8|0|0,0:2|0:2|0:2,0:0:0:0:
256,256,95568,1,0,0:2:0:0:
144,256,95668,6,0,L|236:256,2,88.000002685547,2|2|2,0:2|0:2|0:2,0:0:0:0:
400,192,95968,1,0,0:2:0:0:
512,160,96068,2,0,L|420:160,2,88.000002685547,10|0|2,0:2|0:2|0:2,0:0:0:0:
112,208,96368,1,0,0:2:0:0:
0,224,96468,6,0,L|92:224,2,88.000002685547,0|0|0,0:2|0:2|0:2,0:0:0:0:
256,160,96768,1,0,0:2:0:0:
368,128,96868,2,0,L|276:128,2,88.000002685547,8|0|0,0:2|0:2|0:2,0:0:0:0:
76,52,97268,5,2,0:2:0:0:
100,76,97368,1,2,0:2:0:0:
124,100,97468,1,2,0:2:0:0:
99,124,97568,1,0,0:2:0:0:
74,148,97668,1,10,0:2:0:0:
49,172,97768,1,0,0:2:0:0:
24,196,97868,1,2,0:2:0:0:
200,192,97968,1,0,0:2:0:0:
48,220,98068,5,2,0:2:0:0:
72,244,98168,1,0,0:2:0:0:
96,268,98268,1,0,0:2:0:0:
272,268,98368,1,0,0:2:0:0:
247,292,98468,1,10,0:2:0:0:
271,267,98568,1,0,0:2:0:0:
295,242,98668,1,0,0:2:0:0:
436,332,98868,5,2,0:2:0:0:
412,308,98968,1,2,0:2:0:0:
388,284,99068,1,2,0:2:0:0:
413,260,99168,1,0,0:2:0:0:
438,236,99268,1,10,0:2:0:0:
463,212,99368,1,0,0:2:0:0:
488,188,99468,1,2,0:2:0:0:
312,192,99568,1,0,0:2:0:0:
464,164,99668,5,2,0:2:0:0:
440,140,99768,1,0,0:2:0:0:
416,116,99868,1,0,0:2:0:0:
240,116,99968,1,0,0:2:0:0:
265,92,100068,1,10,0:2:0:0:
241,117,100168,1,0,0:2:0:0:
217,142,100268,1,0,0:2:0:0:
64,320,100468,5,2,0:2:0:0:
66,258,100568,1,2,0:2:0:0:
48,195,100668,1,2,0:2:0:0:
114,184,100768,1,0,0:2:0:0:
110,131,100868,1,10,0:2:0:0:
143,96,100968,1,0,0:2:0:0:
170,99,101068,1,2,0:2:0:0:
166,177,101168,1,0,0:2:0:0:
407,224,101268,5,2,0:2:0:0:
487,228,101368,1,0,0:2:0:0:
460,214,101468,1,0,0:2:0:0:
385,186,101568,1,0,0:2:0:0:
375,130,101668,1,10,0:2:0:0:
295,135,101768,1,0,0:2:0:0:
220,108,101868,1,0,0:2:0:0:
238,87,101968,1,0,0:2:0:0:
271,82,102068,5,2,0:2:0:0:
298,106,102168,1,2,0:2:0:0:
224,134,102268,1,0,0:2:0:0:
144,132,102368,1,0,0:2:0:0:
133,183,102468,1,10,0:2:0:0:
59,213,102568,1,0,0:2:0:0:
20,227,102668,1,2,0:2:0:0:
100,225,102768,1,0,0:2:0:0:
347,183,102868,5,2,0:2:0:0:
340,105,102968,1,0,0:2:0:0:
366,92,103068,1,0,0:2:0:0:
402,125,103168,1,0,0:2:0:0:
392,187,103268,1,10,0:2:0:0:
461,190,103368,1,0,0:2:0:0:
451,257,103468,1,0,0:2:0:0:
447,320,103568,1,0,0:2:0:0:
416,224,103668,6,0,B|416:128|416:128|320:112|288:32|288:32|320:192|192:192|224:32|224:32|192:112|96:128|96:128|96:224,1,800,2|0,0:2|0:2,0:0:0:0:
404,256,106068,2,0,B|356:200|340:192|356:184|404:128|404:128,1,160,2|0,0:2|0:2,0:0:0:0:
140,96,106868,6,0,B|204:76|184:152|184:152|96:132|112:64|112:64|164:28|200:40|200:40|180:72|236:48|236:48|224:88|224:88|260:68|260:68|252:52,1,480,2|0,0:2|0:2,0:0:0:0:
372,288,108468,2,0,B|308:308|328:232|328:232|416:252|400:320|400:320|348:356|312:344|312:344|332:312|276:336|276:336|288:296|288:296|252:316|252:316|260:332,1,480,2|0,0:2|0:2,0:0:0:0:
336,224,110068,6,0,B|256:156|224:192|224:192|284:160|284:160|256:224|228:160|228:160|288:192|288:192|256:160|176:224,1,480,2|0,0:2|0:2,0:0:0:0:
404,256,111668,2,0,B|356:200|340:192|356:184|404:128|404:128,1,160,2|0,0:2|0:0,0:0:0:0:
108,256,112468,2,0,B|156:200|172:192|156:184|108:128|108:128,1,160,2|0,0:2|0:2,0:0:0:0:
448,64,113268,6,0,B|396:128|464:128|464:128|480:256|384:192|384:192|432:336|368:288|368:288|352:324|352:324|288:128|512:160|512:160|316:192|384:256|384:256|288:236|272:256|192:288|192:288|240:272|256:336|256:336|272:272|320:288|320:288|240:256|224:236|128:256|128:256|196:192|0:160|0:160|224:128|160:324|160:324|144:288|144:288|80:336|128:192|128:192|32:256|48:128|48:128|116:128|64:64|64:64,1,2480,2|0,0:2|0:2,0:0:0:0:
256,192,117268,12,0,118043,0:0:0:0:
256,192,118068,5,4,1:0:0:0:
384,192,118268,1,0,0:2:0:0:
512,192,118468,1,10,0:2:0:0:
384,160,118534,1,0,0:0:0:0:
384,192,118568,1,2,0:2:0:0:
256,128,118634,1,0,0:0:0:0:
256,192,118668,1,2,0:2:0:0:
128,96,118734,1,0,0:0:0:0:
128,192,118768,1,2,0:2:0:0:
0,64,118834,1,0,0:0:0:0:
0,192,118868,5,0,1:2:0:0:
128,192,119068,1,0,0:2:0:0:
0,192,119268,1,10,0:2:0:0:
128,224,119334,1,0,0:0:0:0:
128,192,119368,1,2,0:2:0:0:
256,256,119434,1,0,0:0:0:0:
256,192,119468,1,2,0:2:0:0:
384,288,119534,1,0,0:0:0:0:
384,192,119568,1,2,0:2:0:0:
512,320,119634,1,0,0:0:0:0:
512,192,119668,5,0,1:2:0:0:
384,192,119868,1,0,0:2:0:0:
512,192,120068,1,10,0:2:0:0:
384,160,120134,1,0,0:0:0:0:
384,224,120168,1,2,0:2:0:0:
256,112,120234,1,0,0:0:0:0:
256,272,120268,1,2,0:2:0:0:
128,160,120334,1,0,0:0:0:0:
128,224,120368,1,2,0:2:0:0:
0,192,120434,1,0,0:0:0:0:
0,192,120468,5,0,1:2:0:0:
128,192,120668,1,0,0:2:0:0:
0,192,120868,1,10,0:2:0:0:
128,96,120934,1,0,0:0:0:0:
128,288,120968,1,2,0:2:0:0:
256,176,121034,1,0,0:0:0:0:
256,208,121068,1,2,0:2:0:0:
384,96,121134,1,0,0:0:0:0:
384,288,121168,1,2,0:2:0:0:
512,192,121234,1,0,0:0:0:0:
512,192,121268,5,0,1:2:0:0:
384,192,121468,1,0,0:2:0:0:
512,0,121668,1,10,0:2:0:0:
384,48,121718,1,0,0:0:0:0:
256,96,121768,1,2,0:2:0:0:
128,144,121818,1,0,0:0:0:0:
0,192,121868,1,2,0:2:0:0:
128,240,121918,1,0,0:0:0:0:
256,288,121968,1,2,0:2:0:0:
384,336,122018,1,0,0:0:0:0:
512,384,122068,5,0,1:2:0:0:
128,192,122268,1,0,0:2:0:0:
0,64,122468,1,10,0:2:0:0:
128,96,122518,1,0,0:0:0:0:
256,224,122568,1,2,0:2:0:0:
384,256,122618,1,0,0:0:0:0:
512,64,122668,1,2,0:2:0:0:
384,96,122718,1,0,0:0:0:0:
256,224,122768,1,2,0:2:0:0:
128,256,122818,1,0,0:0:0:0:
0,192,122868,5,0,1:2:0:0:
384,192,123068,1,0,0:2:0:0:
64,80,123268,2,0,L|48:0,4,80,10|2|2|2|0,0:2|0:2|0:2|0:2|1:2,0:0:0:0:
224,80,123768,6,0,L|240:158,1,80,0|0,3:2|3:2,0:0:0:0:
402,158,123968,2,0,L|418:236,1,80,0|10,3:2|0:2,0:0:0:0:
259,236,124168,2,0,L|243:314,1,80,2|2,0:2|0:2,0:0:0:0:
83,314,124368,1,2,0:2:0:0:
