osu file format v14

[General]
AudioFilename: audio.mp3
AudioLeadIn: 0
PreviewTime: 39665
Countdown: 0
SampleSet: Soft
StackLeniency: 0.7
Mode: 3
LetterboxInBreaks: 0
SpecialStyle: 0
WidescreenStoryboard: 0

[Editor]
Bookmarks: 1265,7665,20465,33265,39665,65265,90865,103665,116465,118065,124465
DistanceSpacing: 1.1
BeatDivisor: 4
GridSize: 8
TimelineZoom: 2.1

[Metadata]
Title:Sewing Machine
TitleUnicode:Sewing Machine
Artist:yak_won
ArtistUnicode:yak_won
Creator:DealerOfMelons
Version:Space Mix SHD
Source:EZ2DJ : AEIC
Tags:Azure Expression ~INTEGRAL COMPOSITION~ Arcade 7th TraX Original Sound Track OST AmuseWorld Square Pixels Space Mix EZ2AC 14K MANIAC EZ2ON 에주어 익스프레션 14k2s 14k+2 14+2k n+2 scratch Video Rhythm Game VGM Electronic Instrumental Trance Hugged
BeatmapID:4196025
BeatmapSetID:2015672

[Difficulty]
HPDrainRate:6
CircleSize:16
OverallDifficulty:6
ApproachRate:5
SliderMultiplier:1.4
SliderTickRate:1

[Events]
//Background and Video events
0,0,"sewing machine.jpg",0,0
//Break Periods
//Storyboard Layer 0 (Background)
//Storyboard Layer 1 (Fail)
//Storyboard Layer 2 (Pass)
//Storyboard Layer 3 (Foreground)
//Storyboard Layer 4 (Overlay)
//Storyboard Sound Samples

[TimingPoints]
1265,400,4,2,1,30,1,0

[HitObjects]
16,192,1265,5,0,0:0:0:0:
272,192,1265,1,0,0:0:0:0:
464,192,1465,1,0,0:0:0:0:
336,192,1565,1,0,0:0:0:0:
80,192,1665,1,0,0:0:0:0:
400,192,1665,1,0,0:0:0:0:
144,192,1765,1,0,0:0:0:0:
80,192,1865,1,0,0:0:0:0:
400,192,1865,1,0,0:0:0:0:
144,192,1965,1,0,0:0:0:0:
336,192,2065,1,0,0:0:0:0:
464,192,2265,1,0,0:0:0:0:
368,192,2465,1,0,0:0:0:0:
112,192,2465,1,0,0:0:0:0:
432,192,2565,1,0,0:0:0:0:
368,192,2665,1,0,0:0:0:0:
112,192,2665,1,0,0:0:0:0:
432,192,2765,1,0,0:0:0:0:
112,192,2865,1,0,0:0:0:0:
464,192,3065,1,0,0:0:0:0:
336,192,3165,1,0,0:0:0:0:
80,192,3265,1,0,0:0:0:0:
400,192,3265,1,0,0:0:0:0:
144,192,3365,1,0,0:0:0:0:
80,192,3465,1,0,0:0:0:0:
400,192,3465,1,0,0:0:0:0:
144,192,3565,1,0,0:0:0:0:
336,192,3665,1,0,0:0:0:0:
464,192,3865,1,0,0:0:0:0:
368,192,4065,1,0,0:0:0:0:
112,192,4065,1,0,0:0:0:0:
432,192,4165,1,0,0:0:0:0:
368,192,4265,1,0,0:0:0:0:
112,192,4265,1,0,0:0:0:0:
432,192,4365,1,0,0:0:0:0:
112,192,4465,1,0,0:0:0:0:
48,192,4665,1,0,0:0:0:0:
176,192,4765,1,0,0:0:0:0:
432,192,4865,1,0,0:0:0:0:
112,192,4865,1,0,0:0:0:0:
368,192,4965,1,0,0:0:0:0:
432,192,5065,1,0,0:0:0:0:
112,192,5065,1,0,0:0:0:0:
368,192,5165,1,0,0:0:0:0:
176,192,5265,1,0,0:0:0:0:
48,192,5465,1,0,0:0:0:0:
144,192,5665,1,0,0:0:0:0:
400,192,5665,1,0,0:0:0:0:
80,192,5765,1,0,0:0:0:0:
144,192,5865,1,0,0:0:0:0:
400,192,5865,1,0,0:0:0:0:
80,192,5965,1,0,0:0:0:0:
400,192,6065,1,0,0:0:0:0:
48,192,6265,1,0,0:0:0:0:
176,192,6365,1,0,0:0:0:0:
432,192,6465,1,0,0:0:0:0:
112,192,6465,1,0,0:0:0:0:
368,192,6565,1,0,0:0:0:0:
432,192,6665,1,0,0:0:0:0:
112,192,6665,1,0,0:0:0:0:
368,192,6765,1,0,0:0:0:0:
176,192,6865,1,0,0:0:0:0:
48,192,7065,1,0,0:0:0:0:
144,192,7265,1,0,0:0:0:0:
400,192,7265,1,0,0:0:0:0:
80,192,7365,1,0,0:0:0:0:
144,192,7465,1,0,0:0:0:0:
400,192,7465,1,0,0:0:0:0:
80,192,7565,1,0,0:0:0:0:
496,192,7665,1,0,0:0:0:0:
144,192,7665,1,0,0:0:0:0:
304,192,8065,1,0,0:0:0:0:
272,192,8165,1,0,0:0:0:0:
240,192,8265,1,0,0:0:0:0:
208,192,8365,1,0,0:0:0:0:
304,192,8465,1,0,0:0:0:0:
272,192,8565,1,0,0:0:0:0:
240,192,8665,1,0,0:0:0:0:
208,192,8765,1,0,0:0:0:0:
464,192,8865,1,0,0:0:0:0:
336,192,8865,1,0,0:0:0:0:
48,192,9065,1,0,0:0:0:0:
176,192,9165,1,0,0:0:0:0:
496,192,9265,1,0,0:0:0:0:
80,192,9665,1,0,0:0:0:0:
144,192,9765,1,0,0:0:0:0:
368,192,9865,1,0,0:0:0:0:
432,192,9965,1,0,0:0:0:0:
80,192,10065,1,0,0:0:0:0:
144,192,10165,1,0,0:0:0:0:
368,192,10265,1,0,0:0:0:0:
432,192,10365,1,0,0:0:0:0:
208,192,10465,1,0,0:0:0:0:
240,192,10465,1,0,0:0:0:0:
272,192,10565,1,0,0:0:0:0:
304,192,10565,1,0,0:0:0:0:
16,192,10865,1,0,0:0:0:0:
304,192,11265,1,0,0:0:0:0:
272,192,11365,1,0,0:0:0:0:
208,192,11465,1,0,0:0:0:0:
272,192,11565,1,0,0:0:0:0:
240,192,11665,1,0,0:0:0:0:
304,192,11765,1,0,0:0:0:0:
240,192,11865,1,0,0:0:0:0:
208,192,11965,1,0,0:0:0:0:
432,192,12065,1,0,0:0:0:0:
368,192,12065,1,0,0:0:0:0:
144,192,12265,1,0,0:0:0:0:
80,192,12365,1,0,0:0:0:0:
496,192,12465,1,0,0:0:0:0:
336,192,12865,1,0,0:0:0:0:
400,192,12965,1,0,0:0:0:0:
464,192,13065,1,0,0:0:0:0:
336,192,13165,1,0,0:0:0:0:
176,192,13265,1,0,0:0:0:0:
112,192,13365,1,0,0:0:0:0:
48,192,13465,1,0,0:0:0:0:
176,192,13565,1,0,0:0:0:0:
304,192,13665,1,0,0:0:0:0:
272,192,13665,1,0,0:0:0:0:
240,192,13765,1,0,0:0:0:0:
208,192,13765,1,0,0:0:0:0:
16,192,14065,1,0,0:0:0:0:
432,192,14465,1,0,0:0:0:0:
80,192,14565,1,0,0:0:0:0:
144,192,14665,1,0,0:0:0:0:
368,192,14765,1,0,0:0:0:0:
432,192,14865,1,0,0:0:0:0:
144,192,14965,1,0,0:0:0:0:
80,192,15065,1,0,0:0:0:0:
144,192,15165,1,0,0:0:0:0:
304,192,15265,1,0,0:0:0:0:
272,192,15265,1,0,0:0:0:0:
240,192,15465,1,0,0:0:0:0:
208,192,15565,1,0,0:0:0:0:
496,192,15665,1,0,0:0:0:0:
208,192,16065,1,0,0:0:0:0:
240,192,16165,1,0,0:0:0:0:
304,192,16265,1,0,0:0:0:0:
240,192,16365,1,0,0:0:0:0:
272,192,16465,1,0,0:0:0:0:
208,192,16565,1,0,0:0:0:0:
272,192,16665,1,0,0:0:0:0:
304,192,16765,1,0,0:0:0:0:
48,192,16865,1,0,0:0:0:0:
176,192,16865,1,0,0:0:0:0:
368,192,16965,1,0,0:0:0:0:
432,192,16965,1,0,0:0:0:0:
16,192,17265,1,0,0:0:0:0:
240,192,17665,1,0,0:0:0:0:
272,192,17765,1,0,0:0:0:0:
208,192,17865,1,0,0:0:0:0:
272,192,17965,1,0,0:0:0:0:
240,192,18065,1,0,0:0:0:0:
304,192,18165,1,0,0:0:0:0:
240,192,18265,1,0,0:0:0:0:
272,192,18365,1,0,0:0:0:0:
48,192,18465,1,0,0:0:0:0:
176,192,18465,1,0,0:0:0:0:
336,192,18665,1,0,0:0:0:0:
464,192,18765,1,0,0:0:0:0:
16,192,18865,1,0,0:0:0:0:
48,192,19265,1,0,0:0:0:0:
112,192,19365,1,0,0:0:0:0:
176,192,19465,1,0,0:0:0:0:
336,192,19565,1,0,0:0:0:0:
400,192,19665,1,0,0:0:0:0:
336,192,19765,1,0,0:0:0:0:
176,192,19865,1,0,0:0:0:0:
48,192,19965,1,0,0:0:0:0:
304,192,20065,1,0,0:0:0:0:
272,192,20065,1,0,0:0:0:0:
240,192,20165,1,0,0:0:0:0:
208,192,20165,1,0,0:0:0:0:
16,192,20465,1,0,0:0:0:0:
400,192,20465,1,0,0:0:0:0:
432,192,20665,1,0,0:0:0:0:
368,192,20865,1,0,0:0:0:0:
144,192,20865,1,0,0:0:0:0:
368,192,21065,1,0,0:0:0:0:
336,192,21265,1,0,0:0:0:0:
400,192,21265,1,0,0:0:0:0:
112,192,21365,1,0,0:0:0:0:
464,192,21465,1,0,0:0:0:0:
272,192,21665,1,0,0:0:0:0:
240,192,21665,1,0,0:0:0:0:
272,192,21865,1,0,0:0:0:0:
16,192,22065,1,0,0:0:0:0:
304,192,22065,1,0,0:0:0:0:
144,192,22265,1,0,0:0:0:0:
80,192,22465,1,0,0:0:0:0:
432,192,22465,1,0,0:0:0:0:
80,192,22665,1,0,0:0:0:0:
48,192,22865,1,0,0:0:0:0:
112,192,22865,1,0,0:0:0:0:
400,192,22965,1,0,0:0:0:0:
176,192,23065,1,0,0:0:0:0:
240,192,23265,1,0,0:0:0:0:
272,192,23265,1,0,0:0:0:0:
240,192,23465,1,0,0:0:0:0:
496,192,23665,1,0,0:0:0:0:
208,192,23665,1,0,0:0:0:0:
432,192,23865,1,0,0:0:0:0:
368,192,24065,1,0,0:0:0:0:
144,192,24065,1,0,0:0:0:0:
368,192,24265,1,0,0:0:0:0:
336,192,24465,1,0,0:0:0:0:
400,192,24465,1,0,0:0:0:0:
112,192,24565,1,0,0:0:0:0:
464,192,24665,1,0,0:0:0:0:
272,192,24865,1,0,0:0:0:0:
240,192,24865,1,0,0:0:0:0:
272,192,25065,1,0,0:0:0:0:
16,192,25265,1,0,0:0:0:0:
304,192,25265,1,0,0:0:0:0:
432,192,25465,1,0,0:0:0:0:
368,192,25665,1,0,0:0:0:0:
144,192,25665,1,0,0:0:0:0:
368,192,25865,1,0,0:0:0:0:
336,192,26065,1,0,0:0:0:0:
400,192,26065,1,0,0:0:0:0:
112,192,26165,1,0,0:0:0:0:
464,192,26265,1,0,0:0:0:0:
272,192,26465,1,0,0:0:0:0:
240,192,26465,1,0,0:0:0:0:
272,192,26665,1,0,0:0:0:0:
16,192,26865,1,0,0:0:0:0:
304,192,26865,1,0,0:0:0:0:
464,192,27065,1,0,0:0:0:0:
336,192,27265,1,0,0:0:0:0:
176,192,27265,1,0,0:0:0:0:
336,192,27465,1,0,0:0:0:0:
368,192,27665,1,0,0:0:0:0:
432,192,27665,1,0,0:0:0:0:
144,192,27765,1,0,0:0:0:0:
368,192,27865,1,0,0:0:0:0:
304,192,28065,1,0,0:0:0:0:
208,192,28065,1,0,0:0:0:0:
304,192,28265,1,0,0:0:0:0:
496,192,28465,1,0,0:0:0:0:
112,192,28465,1,0,0:0:0:0:
176,192,28665,1,0,0:0:0:0:
48,192,28865,1,0,0:0:0:0:
464,192,28865,1,0,0:0:0:0:
48,192,29065,1,0,0:0:0:0:
80,192,29265,1,0,0:0:0:0:
144,192,29265,1,0,0:0:0:0:
336,192,29365,1,0,0:0:0:0:
176,192,29465,1,0,0:0:0:0:
208,192,29665,1,0,0:0:0:0:
304,192,29665,1,0,0:0:0:0:
208,192,29865,1,0,0:0:0:0:
16,192,30065,1,0,0:0:0:0:
400,192,30065,1,0,0:0:0:0:
464,192,30265,1,0,0:0:0:0:
336,192,30465,1,0,0:0:0:0:
176,192,30465,1,0,0:0:0:0:
336,192,30665,1,0,0:0:0:0:
368,192,30865,1,0,0:0:0:0:
432,192,30865,1,0,0:0:0:0:
112,192,30965,1,0,0:0:0:0:
400,192,31065,1,0,0:0:0:0:
304,192,31265,1,0,0:0:0:0:
208,192,31265,1,0,0:0:0:0:
304,192,31465,1,0,0:0:0:0:
496,192,31665,1,0,0:0:0:0:
112,192,31665,1,0,0:0:0:0:
176,192,31865,1,0,0:0:0:0:
48,192,32065,1,0,0:0:0:0:
464,192,32065,1,0,0:0:0:0:
48,192,32265,1,0,0:0:0:0:
80,192,32465,1,0,0:0:0:0:
144,192,32465,1,0,0:0:0:0:
336,192,32565,1,0,0:0:0:0:
176,192,32665,1,0,0:0:0:0:
336,192,32765,1,0,0:0:0:0:
240,192,32865,1,0,0:0:0:0:
208,192,32865,1,0,0:0:0:0:
208,192,33065,1,0,0:0:0:0:
240,192,33065,1,0,0:0:0:0:
16,192,33265,1,0,0:0:0:0:
304,192,33265,1,0,0:0:0:0:
496,192,33665,1,0,0:0:0:0:
16,192,34065,1,0,0:0:0:0:
496,192,34465,1,0,0:0:0:0:
16,192,34865,1,0,0:0:0:0:
496,192,35265,1,0,0:0:0:0:
16,192,35665,1,0,0:0:0:0:
496,192,36065,1,0,0:0:0:0:
16,192,36465,1,0,0:0:0:0:
16,192,36665,1,0,0:0:0:0:
496,192,36865,1,0,0:0:0:0:
496,192,37065,1,0,0:0:0:0:
16,192,37265,1,0,0:0:0:0:
16,192,37465,1,0,0:0:0:0:
496,192,37665,1,0,0:0:0:0:
496,192,37865,1,0,0:0:0:0:
208,192,38065,1,0,0:0:0:0:
272,192,38165,1,0,0:0:0:0:
240,192,38265,1,0,0:0:0:0:
304,192,38365,1,0,0:0:0:0:
208,192,38465,1,0,0:0:0:0:
240,192,38465,1,0,0:0:0:0:
272,192,38565,1,0,0:0:0:0:
240,192,38665,1,0,0:0:0:0:
304,192,38765,1,0,0:0:0:0:
208,192,38865,1,0,0:0:0:0:
240,192,38965,1,0,0:0:0:0:
272,192,39065,1,0,0:0:0:0:
304,192,39165,1,0,0:0:0:0:
208,192,39265,1,0,0:0:0:0:
240,192,39365,1,0,0:0:0:0:
272,192,39465,1,0,0:0:0:0:
304,192,39565,1,0,0:0:0:0:
16,192,39665,1,0,0:0:0:0:
496,192,39665,1,0,0:0:0:0:
336,192,39865,1,0,0:0:0:0:
464,192,40065,1,0,0:0:0:0:
176,192,40065,1,0,0:0:0:0:
336,192,40265,1,0,0:0:0:0:
208,192,40465,1,0,0:0:0:0:
304,192,40665,1,0,0:0:0:0:
464,192,40865,1,0,0:0:0:0:
336,192,40865,1,0,0:0:0:0:
48,192,41065,1,0,0:0:0:0:
176,192,41165,1,0,0:0:0:0:
336,192,41265,1,0,0:0:0:0:
464,192,41265,1,0,0:0:0:0:
464,192,41465,1,0,0:0:0:0:
400,192,41665,1,0,0:0:0:0:
112,192,41665,1,0,0:0:0:0:
336,192,41865,1,0,0:0:0:0:
240,192,42065,1,0,0:0:0:0:
272,192,42165,1,0,0:0:0:0:
304,192,42265,1,0,0:0:0:0:
176,192,42465,1,0,0:0:0:0:
48,192,42465,1,0,0:0:0:0:
336,192,42665,1,0,0:0:0:0:
464,192,42665,1,0,0:0:0:0:
176,192,42865,1,0,0:0:0:0:
48,192,42865,1,0,0:0:0:0:
144,192,43065,1,0,0:0:0:0:
80,192,43265,1,0,0:0:0:0:
432,192,43265,1,0,0:0:0:0:
368,192,43465,1,0,0:0:0:0:
272,192,43665,1,0,0:0:0:0:
240,192,43865,1,0,0:0:0:0:
432,192,44065,1,0,0:0:0:0:
368,192,44065,1,0,0:0:0:0:
80,192,44265,1,0,0:0:0:0:
144,192,44365,1,0,0:0:0:0:
432,192,44465,1,0,0:0:0:0:
368,192,44465,1,0,0:0:0:0:
464,192,44665,1,0,0:0:0:0:
400,192,44865,1,0,0:0:0:0:
112,192,44865,1,0,0:0:0:0:
336,192,45065,1,0,0:0:0:0:
208,192,45265,1,0,0:0:0:0:
240,192,45365,1,0,0:0:0:0:
272,192,45465,1,0,0:0:0:0:
48,192,45665,1,0,0:0:0:0:
176,192,45665,1,0,0:0:0:0:
368,192,45865,1,0,0:0:0:0:
432,192,45865,1,0,0:0:0:0:
80,192,46065,1,0,0:0:0:0:
144,192,46065,1,0,0:0:0:0:
48,192,46265,1,0,0:0:0:0:
176,192,46465,1,0,0:0:0:0:
336,192,46465,1,0,0:0:0:0:
112,192,46665,1,0,0:0:0:0:
304,192,46865,1,0,0:0:0:0:
208,192,47065,1,0,0:0:0:0:
336,192,47265,1,0,0:0:0:0:
464,192,47265,1,0,0:0:0:0:
48,192,47465,1,0,0:0:0:0:
112,192,47565,1,0,0:0:0:0:
176,192,47665,1,0,0:0:0:0:
336,192,47665,1,0,0:0:0:0:
144,192,47865,1,0,0:0:0:0:
368,192,48065,1,0,0:0:0:0:
432,192,48065,1,0,0:0:0:0:
144,192,48265,1,0,0:0:0:0:
272,192,48465,1,0,0:0:0:0:
240,192,48565,1,0,0:0:0:0:
208,192,48665,1,0,0:0:0:0:
80,192,48865,1,0,0:0:0:0:
144,192,48865,1,0,0:0:0:0:
368,192,49065,1,0,0:0:0:0:
432,192,49065,1,0,0:0:0:0:
176,192,49265,1,0,0:0:0:0:
336,192,49265,1,0,0:0:0:0:
400,192,49465,1,0,0:0:0:0:
112,192,49665,1,0,0:0:0:0:
464,192,49665,1,0,0:0:0:0:
400,192,49865,1,0,0:0:0:0:
240,192,50065,1,0,0:0:0:0:
272,192,50265,1,0,0:0:0:0:
48,192,50465,1,0,0:0:0:0:
176,192,50465,1,0,0:0:0:0:
336,192,50665,1,0,0:0:0:0:
464,192,50765,1,0,0:0:0:0:
48,192,50865,1,0,0:0:0:0:
176,192,50865,1,0,0:0:0:0:
464,192,51065,1,0,0:0:0:0:
400,192,51265,1,0,0:0:0:0:
112,192,51265,1,0,0:0:0:0:
336,192,51465,5,0,0:0:0:0:
304,192,51665,1,0,0:0:0:0:
272,192,51765,1,0,0:0:0:0:
240,192,51865,1,0,0:0:0:0:
208,192,51965,1,0,0:0:0:0:
304,192,52065,1,0,0:0:0:0:
272,192,52065,1,0,0:0:0:0:
240,192,52265,1,0,0:0:0:0:
208,192,52265,1,0,0:0:0:0:
496,192,52465,1,0,0:0:0:0:
112,192,52465,1,0,0:0:0:0:
176,192,52665,1,0,0:0:0:0:
48,192,52865,1,0,0:0:0:0:
336,192,52865,1,0,0:0:0:0:
176,192,53065,1,0,0:0:0:0:
304,192,53265,1,0,0:0:0:0:
208,192,53465,1,0,0:0:0:0:
48,192,53665,1,0,0:0:0:0:
176,192,53665,1,0,0:0:0:0:
464,192,53865,1,0,0:0:0:0:
336,192,53965,1,0,0:0:0:0:
176,192,54065,1,0,0:0:0:0:
48,192,54065,1,0,0:0:0:0:
48,192,54265,1,0,0:0:0:0:
112,192,54465,1,0,0:0:0:0:
400,192,54465,1,0,0:0:0:0:
176,192,54665,1,0,0:0:0:0:
304,192,54865,1,0,0:0:0:0:
272,192,54965,1,0,0:0:0:0:
240,192,55065,1,0,0:0:0:0:
336,192,55265,1,0,0:0:0:0:
464,192,55265,1,0,0:0:0:0:
176,192,55465,1,0,0:0:0:0:
48,192,55465,1,0,0:0:0:0:
336,192,55665,1,0,0:0:0:0:
464,192,55665,1,0,0:0:0:0:
368,192,55865,1,0,0:0:0:0:
432,192,56065,1,0,0:0:0:0:
80,192,56065,1,0,0:0:0:0:
144,192,56265,1,0,0:0:0:0:
240,192,56465,1,0,0:0:0:0:
272,192,56665,1,0,0:0:0:0:
80,192,56865,1,0,0:0:0:0:
144,192,56865,1,0,0:0:0:0:
432,192,57065,1,0,0:0:0:0:
368,192,57165,1,0,0:0:0:0:
80,192,57265,1,0,0:0:0:0:
144,192,57265,1,0,0:0:0:0:
48,192,57465,1,0,0:0:0:0:
112,192,57665,1,0,0:0:0:0:
400,192,57665,1,0,0:0:0:0:
176,192,57865,1,0,0:0:0:0:
304,192,58065,1,0,0:0:0:0:
272,192,58165,1,0,0:0:0:0:
240,192,58265,1,0,0:0:0:0:
464,192,58465,1,0,0:0:0:0:
336,192,58465,1,0,0:0:0:0:
144,192,58665,1,0,0:0:0:0:
80,192,58665,1,0,0:0:0:0:
432,192,58865,1,0,0:0:0:0:
368,192,58865,1,0,0:0:0:0:
464,192,59065,1,0,0:0:0:0:
336,192,59265,1,0,0:0:0:0:
176,192,59265,1,0,0:0:0:0:
400,192,59465,1,0,0:0:0:0:
208,192,59665,1,0,0:0:0:0:
304,192,59865,1,0,0:0:0:0:
176,192,60065,1,0,0:0:0:0:
48,192,60065,1,0,0:0:0:0:
464,192,60265,1,0,0:0:0:0:
400,192,60365,1,0,0:0:0:0:
336,192,60465,1,0,0:0:0:0:
176,192,60465,1,0,0:0:0:0:
368,192,60665,1,0,0:0:0:0:
144,192,60865,1,0,0:0:0:0:
80,192,60865,1,0,0:0:0:0:
368,192,61065,1,0,0:0:0:0:
240,192,61265,1,0,0:0:0:0:
272,192,61365,1,0,0:0:0:0:
304,192,61465,1,0,0:0:0:0:
432,192,61665,1,0,0:0:0:0:
368,192,61665,1,0,0:0:0:0:
144,192,61865,1,0,0:0:0:0:
80,192,61865,1,0,0:0:0:0:
336,192,62065,1,0,0:0:0:0:
176,192,62065,1,0,0:0:0:0:
112,192,62265,1,0,0:0:0:0:
400,192,62465,1,0,0:0:0:0:
48,192,62465,1,0,0:0:0:0:
112,192,62665,1,0,0:0:0:0:
272,192,62865,1,0,0:0:0:0:
240,192,63065,1,0,0:0:0:0:
464,192,63265,1,0,0:0:0:0:
336,192,63265,1,0,0:0:0:0:
176,192,63465,1,0,0:0:0:0:
48,192,63565,1,0,0:0:0:0:
464,192,63665,1,0,0:0:0:0:
336,192,63665,1,0,0:0:0:0:
48,192,63865,1,0,0:0:0:0:
112,192,64065,1,0,0:0:0:0:
400,192,64065,1,0,0:0:0:0:
176,192,64265,1,0,0:0:0:0:
208,192,64465,1,0,0:0:0:0:
240,192,64565,1,0,0:0:0:0:
272,192,64665,1,0,0:0:0:0:
304,192,64765,1,0,0:0:0:0:
208,192,64865,1,0,0:0:0:0:
240,192,64865,1,0,0:0:0:0:
272,192,65065,1,0,0:0:0:0:
304,192,65065,1,0,0:0:0:0:
16,192,65265,1,0,0:0:0:0:
304,192,65265,1,0,0:0:0:0:
304,192,65665,128,0,66065:0:0:0:0:
272,192,65665,128,0,66065:0:0:0:0:
144,192,66065,1,0,0:0:0:0:
80,192,66165,1,0,0:0:0:0:
144,192,66265,1,0,0:0:0:0:
80,192,66365,1,0,0:0:0:0:
432,192,66465,1,0,0:0:0:0:
368,192,66565,1,0,0:0:0:0:
432,192,66665,1,0,0:0:0:0:
368,192,66765,1,0,0:0:0:0:
80,192,66865,1,0,0:0:0:0:
144,192,66965,1,0,0:0:0:0:
368,192,67065,1,0,0:0:0:0:
432,192,67165,1,0,0:0:0:0:
144,192,67265,1,0,0:0:0:0:
80,192,67365,1,0,0:0:0:0:
432,192,67465,1,0,0:0:0:0:
368,192,67565,1,0,0:0:0:0:
112,192,67665,1,0,0:0:0:0:
400,192,67765,1,0,0:0:0:0:
112,192,67865,1,0,0:0:0:0:
400,192,67965,1,0,0:0:0:0:
144,192,68065,1,0,0:0:0:0:
80,192,68065,1,0,0:0:0:0:
432,192,68265,1,0,0:0:0:0:
368,192,68265,1,0,0:0:0:0:
208,192,68465,1,0,0:0:0:0:
240,192,68565,1,0,0:0:0:0:
272,192,68665,1,0,0:0:0:0:
304,192,68765,1,0,0:0:0:0:
240,192,68865,1,0,0:0:0:0:
208,192,68965,1,0,0:0:0:0:
304,192,69065,1,0,0:0:0:0:
272,192,69165,1,0,0:0:0:0:
48,192,69265,1,0,0:0:0:0:
176,192,69365,1,0,0:0:0:0:
336,192,69465,1,0,0:0:0:0:
464,192,69565,1,0,0:0:0:0:
144,192,69665,1,0,0:0:0:0:
80,192,69765,1,0,0:0:0:0:
432,192,69865,1,0,0:0:0:0:
368,192,69965,1,0,0:0:0:0:
240,192,70065,1,0,0:0:0:0:
304,192,70165,1,0,0:0:0:0:
240,192,70265,1,0,0:0:0:0:
304,192,70365,1,0,0:0:0:0:
208,192,70465,1,0,0:0:0:0:
272,192,70565,1,0,0:0:0:0:
208,192,70665,1,0,0:0:0:0:
272,192,70765,1,0,0:0:0:0:
48,192,70865,1,0,0:0:0:0:
176,192,70965,1,0,0:0:0:0:
48,192,71065,1,0,0:0:0:0:
176,192,71165,1,0,0:0:0:0:
464,192,71265,1,0,0:0:0:0:
336,192,71265,1,0,0:0:0:0:
464,192,71465,1,0,0:0:0:0:
336,192,71465,1,0,0:0:0:0:
80,192,71665,1,0,0:0:0:0:
112,192,71765,1,0,0:0:0:0:
144,192,71865,1,0,0:0:0:0:
176,192,71965,1,0,0:0:0:0:
304,192,72065,1,0,0:0:0:0:
272,192,72165,1,0,0:0:0:0:
240,192,72265,1,0,0:0:0:0:
208,192,72365,1,0,0:0:0:0:
432,192,72465,1,0,0:0:0:0:
368,192,72565,1,0,0:0:0:0:
432,192,72665,1,0,0:0:0:0:
368,192,72765,1,0,0:0:0:0:
176,192,72865,1,0,0:0:0:0:
48,192,72965,1,0,0:0:0:0:
176,192,73065,1,0,0:0:0:0:
48,192,73165,1,0,0:0:0:0:
304,192,73265,1,0,0:0:0:0:
272,192,73365,1,0,0:0:0:0:
208,192,73465,1,0,0:0:0:0:
240,192,73565,1,0,0:0:0:0:
272,192,73665,1,0,0:0:0:0:
208,192,73765,1,0,0:0:0:0:
272,192,73865,1,0,0:0:0:0:
208,192,73965,1,0,0:0:0:0:
336,192,74065,1,0,0:0:0:0:
464,192,74165,1,0,0:0:0:0:
48,192,74265,1,0,0:0:0:0:
176,192,74365,1,0,0:0:0:0:
368,192,74465,1,0,0:0:0:0:
432,192,74465,1,0,0:0:0:0:
368,192,74665,1,0,0:0:0:0:
432,192,74665,1,0,0:0:0:0:
432,192,74865,1,0,0:0:0:0:
368,192,74965,1,0,0:0:0:0:
432,192,75065,1,0,0:0:0:0:
144,192,75165,1,0,0:0:0:0:
368,192,75265,1,0,0:0:0:0:
80,192,75365,1,0,0:0:0:0:
368,192,75465,1,0,0:0:0:0:
80,192,75565,1,0,0:0:0:0:
336,192,75665,1,0,0:0:0:0:
464,192,75765,1,0,0:0:0:0:
336,192,75865,1,0,0:0:0:0:
464,192,75965,1,0,0:0:0:0:
208,192,76065,1,0,0:0:0:0:
240,192,76165,1,0,0:0:0:0:
304,192,76265,1,0,0:0:0:0:
272,192,76365,1,0,0:0:0:0:
80,192,76465,1,0,0:0:0:0:
144,192,76565,1,0,0:0:0:0:
80,192,76665,1,0,0:0:0:0:
144,192,76765,1,0,0:0:0:0:
464,192,76865,1,0,0:0:0:0:
336,192,76965,1,0,0:0:0:0:
464,192,77065,1,0,0:0:0:0:
336,192,77165,1,0,0:0:0:0:
144,192,77265,1,0,0:0:0:0:
80,192,77265,1,0,0:0:0:0:
208,192,77465,1,0,0:0:0:0:
304,192,77565,1,0,0:0:0:0:
208,192,77665,1,0,0:0:0:0:
304,192,77765,1,0,0:0:0:0:
208,192,77865,1,0,0:0:0:0:
304,192,77965,1,0,0:0:0:0:
16,192,78065,1,0,0:0:0:0:
272,192,78065,1,0,0:0:0:0:
240,192,78465,128,0,78865:0:0:0:0:
208,192,78465,128,0,78865:0:0:0:0:
368,192,78865,1,0,0:0:0:0:
432,192,78965,1,0,0:0:0:0:
368,192,79065,1,0,0:0:0:0:
432,192,79165,1,0,0:0:0:0:
80,192,79265,1,0,0:0:0:0:
144,192,79365,1,0,0:0:0:0:
80,192,79465,1,0,0:0:0:0:
144,192,79565,1,0,0:0:0:0:
432,192,79665,1,0,0:0:0:0:
368,192,79765,1,0,0:0:0:0:
144,192,79865,1,0,0:0:0:0:
80,192,79965,1,0,0:0:0:0:
368,192,80065,1,0,0:0:0:0:
432,192,80165,1,0,0:0:0:0:
80,192,80265,1,0,0:0:0:0:
144,192,80365,1,0,0:0:0:0:
400,192,80465,1,0,0:0:0:0:
112,192,80565,1,0,0:0:0:0:
400,192,80665,1,0,0:0:0:0:
112,192,80765,1,0,0:0:0:0:
432,192,80865,1,0,0:0:0:0:
368,192,80865,1,0,0:0:0:0:
144,192,81065,1,0,0:0:0:0:
80,192,81065,1,0,0:0:0:0:
304,192,81265,1,0,0:0:0:0:
272,192,81365,1,0,0:0:0:0:
240,192,81465,1,0,0:0:0:0:
208,192,81565,1,0,0:0:0:0:
272,192,81665,1,0,0:0:0:0:
304,192,81765,1,0,0:0:0:0:
208,192,81865,1,0,0:0:0:0:
240,192,81965,1,0,0:0:0:0:
464,192,82065,1,0,0:0:0:0:
336,192,82165,1,0,0:0:0:0:
176,192,82265,1,0,0:0:0:0:
48,192,82365,1,0,0:0:0:0:
368,192,82465,1,0,0:0:0:0:
432,192,82565,1,0,0:0:0:0:
80,192,82665,1,0,0:0:0:0:
144,192,82765,1,0,0:0:0:0:
272,192,82865,1,0,0:0:0:0:
208,192,82965,1,0,0:0:0:0:
272,192,83065,1,0,0:0:0:0:
208,192,83165,1,0,0:0:0:0:
304,192,83265,1,0,0:0:0:0:
240,192,83365,1,0,0:0:0:0:
304,192,83465,1,0,0:0:0:0:
240,192,83565,1,0,0:0:0:0:
464,192,83665,1,0,0:0:0:0:
336,192,83765,1,0,0:0:0:0:
464,192,83865,1,0,0:0:0:0:
336,192,83965,1,0,0:0:0:0:
176,192,84065,1,0,0:0:0:0:
48,192,84065,1,0,0:0:0:0:
176,192,84265,1,0,0:0:0:0:
48,192,84265,1,0,0:0:0:0:
432,192,84465,1,0,0:0:0:0:
400,192,84565,1,0,0:0:0:0:
368,192,84665,1,0,0:0:0:0:
336,192,84765,1,0,0:0:0:0:
208,192,84865,1,0,0:0:0:0:
240,192,84965,1,0,0:0:0:0:
272,192,85065,1,0,0:0:0:0:
304,192,85165,1,0,0:0:0:0:
80,192,85265,1,0,0:0:0:0:
144,192,85365,1,0,0:0:0:0:
80,192,85465,1,0,0:0:0:0:
144,192,85565,1,0,0:0:0:0:
336,192,85665,1,0,0:0:0:0:
464,192,85765,1,0,0:0:0:0:
336,192,85865,1,0,0:0:0:0:
464,192,85965,1,0,0:0:0:0:
208,192,86065,1,0,0:0:0:0:
240,192,86165,1,0,0:0:0:0:
304,192,86265,1,0,0:0:0:0:
272,192,86365,1,0,0:0:0:0:
240,192,86465,1,0,0:0:0:0:
208,192,86565,1,0,0:0:0:0:
272,192,86665,1,0,0:0:0:0:
304,192,86765,1,0,0:0:0:0:
176,192,86865,1,0,0:0:0:0:
48,192,86965,1,0,0:0:0:0:
464,192,87065,1,0,0:0:0:0:
336,192,87165,1,0,0:0:0:0:
80,192,87265,1,0,0:0:0:0:
144,192,87265,1,0,0:0:0:0:
80,192,87465,1,0,0:0:0:0:
144,192,87465,1,0,0:0:0:0:
80,192,87665,1,0,0:0:0:0:
144,192,87765,1,0,0:0:0:0:
80,192,87865,1,0,0:0:0:0:
368,192,87965,1,0,0:0:0:0:
144,192,88065,1,0,0:0:0:0:
432,192,88165,1,0,0:0:0:0:
144,192,88265,1,0,0:0:0:0:
432,192,88365,1,0,0:0:0:0:
176,192,88465,1,0,0:0:0:0:
48,192,88565,1,0,0:0:0:0:
176,192,88665,1,0,0:0:0:0:
48,192,88765,1,0,0:0:0:0:
304,192,88865,1,0,0:0:0:0:
272,192,88965,1,0,0:0:0:0:
208,192,89065,1,0,0:0:0:0:
240,192,89165,1,0,0:0:0:0:
432,192,89265,1,0,0:0:0:0:
368,192,89365,1,0,0:0:0:0:
432,192,89465,1,0,0:0:0:0:
368,192,89565,1,0,0:0:0:0:
48,192,89665,1,0,0:0:0:0:
176,192,89765,1,0,0:0:0:0:
48,192,89865,1,0,0:0:0:0:
176,192,89965,1,0,0:0:0:0:
304,192,90065,1,0,0:0:0:0:
240,192,90165,1,0,0:0:0:0:
304,192,90265,1,0,0:0:0:0:
240,192,90365,1,0,0:0:0:0:
272,192,90465,1,0,0:0:0:0:
208,192,90565,1,0,0:0:0:0:
272,192,90665,1,0,0:0:0:0:
208,192,90765,1,0,0:0:0:0:
496,192,90865,1,0,0:0:0:0:
240,192,90865,1,0,0:0:0:0:
464,192,91065,1,0,0:0:0:0:
400,192,91165,1,0,0:0:0:0:
336,192,91265,1,0,0:0:0:0:
336,192,91465,1,0,0:0:0:0:
208,192,91665,128,0,91865:0:0:0:0:
304,192,91865,128,0,92065:0:0:0:0:
176,192,92065,1,0,0:0:0:0:
48,192,92265,1,0,0:0:0:0:
176,192,92465,1,0,0:0:0:0:
176,192,92665,1,0,0:0:0:0:
112,192,92765,1,0,0:0:0:0:
48,192,92865,1,0,0:0:0:0:
48,192,93065,1,0,0:0:0:0:
208,192,93265,128,0,93465:0:0:0:0:
304,192,93465,1,0,0:0:0:0:
304,192,93565,1,0,0:0:0:0:
48,192,93665,1,0,0:0:0:0:
48,192,93865,1,0,0:0:0:0:
368,192,94065,1,0,0:0:0:0:
432,192,94265,1,0,0:0:0:0:
368,192,94365,1,0,0:0:0:0:
144,192,94465,1,0,0:0:0:0:
144,192,94665,1,0,0:0:0:0:
240,192,94865,128,0,95065:0:0:0:0:
272,192,95065,128,0,95265:0:0:0:0:
144,192,95265,1,0,0:0:0:0:
144,192,95465,1,0,0:0:0:0:
144,192,95665,1,0,0:0:0:0:
80,192,95865,1,0,0:0:0:0:
144,192,95965,1,0,0:0:0:0:
368,192,96065,1,0,0:0:0:0:
368,192,96265,1,0,0:0:0:0:
272,192,96465,128,0,96665:0:0:0:0:
240,192,96665,128,0,96865:0:0:0:0:
368,192,96865,1,0,0:0:0:0:
368,192,97065,1,0,0:0:0:0:
368,192,97265,1,0,0:0:0:0:
48,192,97465,1,0,0:0:0:0:
112,192,97565,1,0,0:0:0:0:
176,192,97665,1,0,0:0:0:0:
176,192,97865,1,0,0:0:0:0:
304,192,98065,128,0,98265:0:0:0:0:
208,192,98265,128,0,98465:0:0:0:0:
336,192,98465,1,0,0:0:0:0:
464,192,98665,1,0,0:0:0:0:
336,192,98865,1,0,0:0:0:0:
336,192,99065,1,0,0:0:0:0:
400,192,99165,1,0,0:0:0:0:
464,192,99265,1,0,0:0:0:0:
464,192,99465,1,0,0:0:0:0:
304,192,99665,128,0,99865:0:0:0:0:
208,192,99865,1,0,0:0:0:0:
208,192,99965,1,0,0:0:0:0:
464,192,100065,1,0,0:0:0:0:
464,192,100265,1,0,0:0:0:0:
144,192,100465,1,0,0:0:0:0:
80,192,100665,1,0,0:0:0:0:
144,192,100765,1,0,0:0:0:0:
368,192,100865,1,0,0:0:0:0:
368,192,101065,1,0,0:0:0:0:
272,192,101265,128,0,101465:0:0:0:0:
240,192,101465,128,0,101665:0:0:0:0:
368,192,101665,1,0,0:0:0:0:
368,192,101865,1,0,0:0:0:0:
368,192,102065,1,0,0:0:0:0:
432,192,102265,1,0,0:0:0:0:
368,192,102365,1,0,0:0:0:0:
144,192,102465,1,0,0:0:0:0:
144,192,102665,1,0,0:0:0:0:
240,192,102865,128,0,103065:0:0:0:0:
272,192,103065,128,0,103265:0:0:0:0:
144,192,103265,1,0,0:0:0:0:
144,192,103465,1,0,0:0:0:0:
208,192,103665,128,0,106065:0:0:0:0:
464,192,103665,1,0,0:0:0:0:
400,192,103865,1,0,0:0:0:0:
336,192,104065,1,0,0:0:0:0:
432,192,104465,1,0,0:0:0:0:
400,192,104665,1,0,0:0:0:0:
368,192,104865,1,0,0:0:0:0:
464,192,105265,1,0,0:0:0:0:
400,192,105465,1,0,0:0:0:0:
336,192,105665,1,0,0:0:0:0:
304,192,106065,128,0,106865:0:0:0:0:
80,192,106265,1,0,0:0:0:0:
144,192,106465,1,0,0:0:0:0:
80,192,106665,1,0,0:0:0:0:
272,192,106865,128,0,108465:0:0:0:0:
48,192,107065,1,0,0:0:0:0:
176,192,107265,1,0,0:0:0:0:
112,192,107465,1,0,0:0:0:0:
48,192,107865,1,0,0:0:0:0:
176,192,108065,1,0,0:0:0:0:
112,192,108265,1,0,0:0:0:0:
240,192,108465,128,0,110065:0:0:0:0:
336,192,108665,1,0,0:0:0:0:
400,192,108865,1,0,0:0:0:0:
464,192,109065,1,0,0:0:0:0:
336,192,109465,1,0,0:0:0:0:
400,192,109665,1,0,0:0:0:0:
464,192,109865,1,0,0:0:0:0:
272,192,110065,128,0,111665:0:0:0:0:
176,192,110265,1,0,0:0:0:0:
112,192,110465,1,0,0:0:0:0:
48,192,110665,1,0,0:0:0:0:
176,192,111065,1,0,0:0:0:0:
112,192,111265,1,0,0:0:0:0:
48,192,111465,1,0,0:0:0:0:
208,192,111665,128,0,112465:0:0:0:0:
368,192,111865,1,0,0:0:0:0:
432,192,112065,1,0,0:0:0:0:
368,192,112265,1,0,0:0:0:0:
240,192,112465,128,0,113265:0:0:0:0:
336,192,112665,1,0,0:0:0:0:
400,192,112865,1,0,0:0:0:0:
464,192,113065,1,0,0:0:0:0:
272,192,113265,128,0,114865:0:0:0:0:
48,192,113465,1,0,0:0:0:0:
112,192,113665,1,0,0:0:0:0:
176,192,113865,1,0,0:0:0:0:
48,192,114265,1,0,0:0:0:0:
112,192,114465,1,0,0:0:0:0:
176,192,114665,1,0,0:0:0:0:
304,192,114865,128,0,116465:0:0:0:0:
80,192,115065,1,0,0:0:0:0:
144,192,115265,1,0,0:0:0:0:
80,192,115465,1,0,0:0:0:0:
144,192,115865,1,0,0:0:0:0:
80,192,116065,1,0,0:0:0:0:
144,192,116265,1,0,0:0:0:0:
496,192,118065,5,0,0:0:0:0:
240,192,118065,1,0,0:0:0:0:
48,192,118265,1,0,0:0:0:0:
176,192,118365,1,0,0:0:0:0:
432,192,118465,1,0,0:0:0:0:
112,192,118465,1,0,0:0:0:0:
368,192,118565,1,0,0:0:0:0:
432,192,118665,1,0,0:0:0:0:
112,192,118665,1,0,0:0:0:0:
368,192,118765,1,0,0:0:0:0:
176,192,118865,1,0,0:0:0:0:
48,192,119065,1,0,0:0:0:0:
144,192,119265,1,0,0:0:0:0:
400,192,119265,1,0,0:0:0:0:
80,192,119365,1,0,0:0:0:0:
144,192,119465,1,0,0:0:0:0:
400,192,119465,1,0,0:0:0:0:
80,192,119565,1,0,0:0:0:0:
400,192,119665,1,0,0:0:0:0:
48,192,119865,1,0,0:0:0:0:
176,192,119965,1,0,0:0:0:0:
432,192,120065,1,0,0:0:0:0:
112,192,120065,1,0,0:0:0:0:
368,192,120165,1,0,0:0:0:0:
432,192,120265,1,0,0:0:0:0:
112,192,120265,1,0,0:0:0:0:
368,192,120365,1,0,0:0:0:0:
176,192,120465,1,0,0:0:0:0:
48,192,120665,1,0,0:0:0:0:
144,192,120865,1,0,0:0:0:0:
400,192,120865,1,0,0:0:0:0:
80,192,120965,1,0,0:0:0:0:
144,192,121065,1,0,0:0:0:0:
400,192,121065,1,0,0:0:0:0:
80,192,121165,1,0,0:0:0:0:
400,192,121265,1,0,0:0:0:0:
464,192,121465,1,0,0:0:0:0:
336,192,121565,1,0,0:0:0:0:
80,192,121665,1,0,0:0:0:0:
400,192,121665,1,0,0:0:0:0:
144,192,121765,1,0,0:0:0:0:
80,192,121865,1,0,0:0:0:0:
400,192,121865,1,0,0:0:0:0:
144,192,121965,1,0,0:0:0:0:
336,192,122065,1,0,0:0:0:0:
464,192,122265,1,0,0:0:0:0:
368,192,122465,1,0,0:0:0:0:
112,192,122465,1,0,0:0:0:0:
432,192,122565,1,0,0:0:0:0:
368,192,122665,1,0,0:0:0:0:
112,192,122665,1,0,0:0:0:0:
432,192,122765,1,0,0:0:0:0:
112,192,122865,1,0,0:0:0:0:
464,192,123065,1,0,0:0:0:0:
336,192,123165,1,0,0:0:0:0:
80,192,123265,1,0,0:0:0:0:
400,192,123265,1,0,0:0:0:0:
144,192,123365,1,0,0:0:0:0:
80,192,123465,1,0,0:0:0:0:
400,192,123465,1,0,0:0:0:0:
144,192,123565,1,0,0:0:0:0:
336,192,123665,1,0,0:0:0:0:
464,192,123865,1,0,0:0:0:0:
368,192,124065,1,0,0:0:0:0:
112,192,124065,1,0,0:0:0:0:
432,192,124165,1,0,0:0:0:0:
368,192,124265,1,0,0:0:0:0:
112,192,124265,1,0,0:0:0:0:
432,192,124365,1,0,0:0:0:0:
