osu file format v14

[General]
AudioFilename: audio.mp3
AudioLeadIn: 0
PreviewTime: 39665
Countdown: 0
SampleSet: Soft
StackLeniency: 0.7
Mode: 3
LetterboxInBreaks: 0
SpecialStyle: 0
WidescreenStoryboard: 1

[Editor]
Bookmarks: 1265,7665,20465,33265,39665,65265,90865,103665,116465,118065,124465
DistanceSpacing: 1.1
BeatDivisor: 1
GridSize: 8
TimelineZoom: 0.2999996

[Metadata]
Title:Sewing Machine
TitleUnicode:Sewing Machine
Artist:yak_won
ArtistUnicode:yak_won
Creator:DealerOfMelons
Version:Space Mix NM
Source:EZ2DJ : AEIC
Tags:Azure Expression ~INTEGRAL COMPOSITION~ Arcade 7th TraX Original Sound Track OST AmuseWorld Square Pixels Space Mix EZ2AC 14K MANIAC EZ2ON 에주어 익스프레션 14k2s 14k+2 14+2k n+2 scratch Video Rhythm Game VGM Electronic Instrumental Trance Hugged
BeatmapID:4197852
BeatmapSetID:2015672

[Difficulty]
HPDrainRate:5
CircleSize:16
OverallDifficulty:5
ApproachRate:5
SliderMultiplier:1.4
SliderTickRate:1

[Events]
//Background and Video events
0,0,"sewing machine.jpg",0,0
//Break Periods
//Storyboard Layer 0 (Background)
//Storyboard Layer 1 (Fail)
//Storyboard Layer 2 (Pass)
//Storyboard Layer 3 (Foreground)
//Storyboard Layer 4 (Overlay)
//Storyboard Sound Samples

[TimingPoints]
1265,400,4,2,1,30,1,0

[HitObjects]
16,192,1265,5,0,0:0:0:0:
80,192,1665,1,0,0:0:0:0:
144,192,1865,1,0,0:0:0:0:
368,192,2065,1,0,0:0:0:0:
432,192,2465,1,0,0:0:0:0:
368,192,2665,1,0,0:0:0:0:
144,192,2865,1,0,0:0:0:0:
80,192,3265,1,0,0:0:0:0:
144,192,3465,1,0,0:0:0:0:
368,192,3665,1,0,0:0:0:0:
432,192,4065,1,0,0:0:0:0:
368,192,4265,1,0,0:0:0:0:
112,192,4465,1,0,0:0:0:0:
48,192,4865,1,0,0:0:0:0:
176,192,5065,1,0,0:0:0:0:
400,192,5265,1,0,0:0:0:0:
464,192,5665,1,0,0:0:0:0:
336,192,5865,1,0,0:0:0:0:
112,192,6065,1,0,0:0:0:0:
48,192,6465,1,0,0:0:0:0:
176,192,6665,1,0,0:0:0:0:
400,192,6865,1,0,0:0:0:0:
112,192,7065,1,0,0:0:0:0:
464,192,7265,1,0,0:0:0:0:
336,192,7265,1,0,0:0:0:0:
112,192,7465,1,0,0:0:0:0:
496,192,7665,1,0,0:0:0:0:
80,192,8065,1,0,0:0:0:0:
144,192,8265,1,0,0:0:0:0:
368,192,8465,1,0,0:0:0:0:
432,192,8665,1,0,0:0:0:0:
112,192,8865,1,0,0:0:0:0:
176,192,9065,1,0,0:0:0:0:
16,192,9265,1,0,0:0:0:0:
272,192,9665,1,0,0:0:0:0:
304,192,9865,1,0,0:0:0:0:
208,192,10065,1,0,0:0:0:0:
240,192,10265,1,0,0:0:0:0:
272,192,10465,1,0,0:0:0:0:
304,192,10665,1,0,0:0:0:0:
496,192,10865,1,0,0:0:0:0:
208,192,11265,1,0,0:0:0:0:
272,192,11465,1,0,0:0:0:0:
240,192,11665,1,0,0:0:0:0:
304,192,11865,1,0,0:0:0:0:
208,192,12065,1,0,0:0:0:0:
272,192,12265,1,0,0:0:0:0:
496,192,12465,1,0,0:0:0:0:
432,192,12865,1,0,0:0:0:0:
368,192,13065,1,0,0:0:0:0:
144,192,13265,1,0,0:0:0:0:
80,192,13465,1,0,0:0:0:0:
400,192,13665,1,0,0:0:0:0:
336,192,13865,1,0,0:0:0:0:
16,192,14065,1,0,0:0:0:0:
304,192,14465,1,0,0:0:0:0:
272,192,14665,1,0,0:0:0:0:
208,192,14865,1,0,0:0:0:0:
240,192,15065,1,0,0:0:0:0:
272,192,15265,1,0,0:0:0:0:
304,192,15465,1,0,0:0:0:0:
496,192,15665,1,0,0:0:0:0:
48,192,16065,1,0,0:0:0:0:
112,192,16265,1,0,0:0:0:0:
176,192,16465,1,0,0:0:0:0:
336,192,16665,1,0,0:0:0:0:
400,192,16865,1,0,0:0:0:0:
464,192,17065,1,0,0:0:0:0:
16,192,17265,1,0,0:0:0:0:
208,192,17665,1,0,0:0:0:0:
240,192,17865,1,0,0:0:0:0:
304,192,18065,1,0,0:0:0:0:
208,192,18265,1,0,0:0:0:0:
272,192,18465,1,0,0:0:0:0:
304,192,18665,1,0,0:0:0:0:
496,192,18865,1,0,0:0:0:0:
112,192,19265,1,0,0:0:0:0:
176,192,19465,1,0,0:0:0:0:
432,192,19665,1,0,0:0:0:0:
368,192,19865,1,0,0:0:0:0:
144,192,20065,1,0,0:0:0:0:
80,192,20265,1,0,0:0:0:0:
496,192,20465,1,0,0:0:0:0:
464,192,20865,1,0,0:0:0:0:
336,192,21065,1,0,0:0:0:0:
336,192,21265,1,0,0:0:0:0:
80,192,21465,1,0,0:0:0:0:
144,192,21665,1,0,0:0:0:0:
80,192,21865,1,0,0:0:0:0:
464,192,22065,1,0,0:0:0:0:
48,192,22465,1,0,0:0:0:0:
176,192,22665,1,0,0:0:0:0:
176,192,22865,1,0,0:0:0:0:
368,192,23065,1,0,0:0:0:0:
144,192,23265,1,0,0:0:0:0:
368,192,23465,1,0,0:0:0:0:
48,192,23665,1,0,0:0:0:0:
208,192,24065,1,0,0:0:0:0:
304,192,24265,1,0,0:0:0:0:
304,192,24465,1,0,0:0:0:0:
240,192,24665,1,0,0:0:0:0:
272,192,24865,1,0,0:0:0:0:
240,192,25065,1,0,0:0:0:0:
400,192,25265,1,0,0:0:0:0:
240,192,25665,1,0,0:0:0:0:
272,192,25865,1,0,0:0:0:0:
272,192,26065,1,0,0:0:0:0:
208,192,26265,1,0,0:0:0:0:
304,192,26465,1,0,0:0:0:0:
208,192,26665,1,0,0:0:0:0:
144,192,26865,1,0,0:0:0:0:
368,192,27265,1,0,0:0:0:0:
432,192,27465,1,0,0:0:0:0:
368,192,27665,1,0,0:0:0:0:
144,192,27865,1,0,0:0:0:0:
176,192,28065,1,0,0:0:0:0:
176,192,28265,1,0,0:0:0:0:
432,192,28465,1,0,0:0:0:0:
144,192,28865,1,0,0:0:0:0:
80,192,29065,1,0,0:0:0:0:
144,192,29265,1,0,0:0:0:0:
368,192,29465,1,0,0:0:0:0:
336,192,29665,1,0,0:0:0:0:
336,192,29865,1,0,0:0:0:0:
240,192,30065,1,0,0:0:0:0:
48,192,30465,1,0,0:0:0:0:
464,192,30665,1,0,0:0:0:0:
464,192,30865,1,0,0:0:0:0:
112,192,31065,1,0,0:0:0:0:
400,192,31265,1,0,0:0:0:0:
112,192,31465,1,0,0:0:0:0:
272,192,31665,1,0,0:0:0:0:
432,192,32065,1,0,0:0:0:0:
80,192,32265,1,0,0:0:0:0:
80,192,32465,1,0,0:0:0:0:
368,192,32665,1,0,0:0:0:0:
144,192,32865,1,0,0:0:0:0:
368,192,33065,1,0,0:0:0:0:
16,192,33265,1,0,0:0:0:0:
16,192,33665,1,0,0:0:0:0:
496,192,34065,1,0,0:0:0:0:
16,192,34465,1,0,0:0:0:0:
496,192,34865,1,0,0:0:0:0:
16,192,35265,1,0,0:0:0:0:
496,192,35665,1,0,0:0:0:0:
16,192,36065,1,0,0:0:0:0:
208,192,36465,1,0,0:0:0:0:
208,192,36865,1,0,0:0:0:0:
208,192,37265,1,0,0:0:0:0:
208,192,37665,1,0,0:0:0:0:
304,192,38065,1,0,0:0:0:0:
208,192,38265,1,0,0:0:0:0:
304,192,38465,1,0,0:0:0:0:
208,192,38665,1,0,0:0:0:0:
304,192,38865,1,0,0:0:0:0:
208,192,39065,1,0,0:0:0:0:
304,192,39265,128,0,39665:0:0:0:0:
16,192,39665,1,0,0:0:0:0:
336,192,40065,1,0,0:0:0:0:
464,192,40265,1,0,0:0:0:0:
112,192,40465,1,0,0:0:0:0:
400,192,40665,1,0,0:0:0:0:
48,192,40865,1,0,0:0:0:0:
176,192,41065,1,0,0:0:0:0:
336,192,41265,1,0,0:0:0:0:
464,192,41265,1,0,0:0:0:0:
432,192,41665,1,0,0:0:0:0:
368,192,41865,1,0,0:0:0:0:
144,192,42065,1,0,0:0:0:0:
432,192,42265,1,0,0:0:0:0:
80,192,42465,1,0,0:0:0:0:
368,192,42665,1,0,0:0:0:0:
80,192,42865,1,0,0:0:0:0:
144,192,42865,1,0,0:0:0:0:
240,192,43265,1,0,0:0:0:0:
272,192,43465,1,0,0:0:0:0:
304,192,43665,1,0,0:0:0:0:
208,192,43865,1,0,0:0:0:0:
304,192,44065,1,0,0:0:0:0:
208,192,44265,1,0,0:0:0:0:
272,192,44465,1,0,0:0:0:0:
304,192,44465,1,0,0:0:0:0:
208,192,44865,1,0,0:0:0:0:
240,192,45065,1,0,0:0:0:0:
272,192,45265,1,0,0:0:0:0:
304,192,45465,1,0,0:0:0:0:
272,192,45665,1,0,0:0:0:0:
240,192,45865,1,0,0:0:0:0:
304,192,46065,1,0,0:0:0:0:
208,192,46065,1,0,0:0:0:0:
48,192,46465,1,0,0:0:0:0:
112,192,46665,1,0,0:0:0:0:
176,192,46865,1,0,0:0:0:0:
432,192,47065,1,0,0:0:0:0:
368,192,47265,1,0,0:0:0:0:
144,192,47465,1,0,0:0:0:0:
432,192,47665,1,0,0:0:0:0:
368,192,47665,1,0,0:0:0:0:
80,192,48065,1,0,0:0:0:0:
144,192,48265,1,0,0:0:0:0:
368,192,48465,1,0,0:0:0:0:
48,192,48665,1,0,0:0:0:0:
176,192,48865,1,0,0:0:0:0:
400,192,49065,1,0,0:0:0:0:
48,192,49265,1,0,0:0:0:0:
176,192,49265,1,0,0:0:0:0:
304,192,49665,1,0,0:0:0:0:
272,192,49865,1,0,0:0:0:0:
240,192,50065,1,0,0:0:0:0:
272,192,50265,1,0,0:0:0:0:
240,192,50465,1,0,0:0:0:0:
304,192,50665,1,0,0:0:0:0:
240,192,50865,1,0,0:0:0:0:
208,192,50865,1,0,0:0:0:0:
304,192,51265,1,0,0:0:0:0:
240,192,51465,1,0,0:0:0:0:
304,192,51665,1,0,0:0:0:0:
272,192,51865,1,0,0:0:0:0:
240,192,52065,1,0,0:0:0:0:
208,192,52265,1,0,0:0:0:0:
496,192,52465,1,0,0:0:0:0:
176,192,52865,1,0,0:0:0:0:
48,192,53065,1,0,0:0:0:0:
400,192,53265,1,0,0:0:0:0:
112,192,53465,1,0,0:0:0:0:
464,192,53665,1,0,0:0:0:0:
336,192,53865,1,0,0:0:0:0:
176,192,54065,1,0,0:0:0:0:
48,192,54065,1,0,0:0:0:0:
80,192,54465,1,0,0:0:0:0:
144,192,54665,1,0,0:0:0:0:
368,192,54865,1,0,0:0:0:0:
80,192,55065,1,0,0:0:0:0:
432,192,55265,1,0,0:0:0:0:
144,192,55465,1,0,0:0:0:0:
432,192,55665,1,0,0:0:0:0:
368,192,55665,1,0,0:0:0:0:
272,192,56065,1,0,0:0:0:0:
240,192,56265,1,0,0:0:0:0:
208,192,56465,1,0,0:0:0:0:
304,192,56665,1,0,0:0:0:0:
208,192,56865,1,0,0:0:0:0:
304,192,57065,1,0,0:0:0:0:
240,192,57265,1,0,0:0:0:0:
208,192,57265,1,0,0:0:0:0:
304,192,57665,1,0,0:0:0:0:
272,192,57865,1,0,0:0:0:0:
240,192,58065,1,0,0:0:0:0:
208,192,58265,1,0,0:0:0:0:
240,192,58465,1,0,0:0:0:0:
272,192,58665,1,0,0:0:0:0:
208,192,58865,1,0,0:0:0:0:
304,192,58865,1,0,0:0:0:0:
464,192,59265,1,0,0:0:0:0:
400,192,59465,1,0,0:0:0:0:
336,192,59665,1,0,0:0:0:0:
80,192,59865,1,0,0:0:0:0:
144,192,60065,1,0,0:0:0:0:
368,192,60265,1,0,0:0:0:0:
80,192,60465,1,0,0:0:0:0:
144,192,60465,1,0,0:0:0:0:
432,192,60865,1,0,0:0:0:0:
368,192,61065,1,0,0:0:0:0:
144,192,61265,1,0,0:0:0:0:
464,192,61465,1,0,0:0:0:0:
336,192,61665,1,0,0:0:0:0:
112,192,61865,1,0,0:0:0:0:
464,192,62065,1,0,0:0:0:0:
336,192,62065,1,0,0:0:0:0:
208,192,62465,1,0,0:0:0:0:
240,192,62665,1,0,0:0:0:0:
272,192,62865,1,0,0:0:0:0:
240,192,63065,1,0,0:0:0:0:
272,192,63265,1,0,0:0:0:0:
208,192,63465,1,0,0:0:0:0:
272,192,63665,1,0,0:0:0:0:
304,192,63665,1,0,0:0:0:0:
208,192,64065,1,0,0:0:0:0:
272,192,64265,1,0,0:0:0:0:
208,192,64465,1,0,0:0:0:0:
240,192,64665,1,0,0:0:0:0:
272,192,64865,1,0,0:0:0:0:
304,192,65065,1,0,0:0:0:0:
16,192,65265,1,0,0:0:0:0:
144,192,65665,128,0,66065:0:0:0:0:
272,192,66065,128,0,66465:0:0:0:0:
304,192,66465,128,0,66865:0:0:0:0:
48,192,66865,128,0,67665:0:0:0:0:
368,192,67265,1,0,0:0:0:0:
464,192,67665,128,0,68465:0:0:0:0:
144,192,68065,1,0,0:0:0:0:
240,192,68465,128,0,70065:0:0:0:0:
400,192,68865,1,0,0:0:0:0:
400,192,69265,1,0,0:0:0:0:
400,192,69665,1,0,0:0:0:0:
208,192,70065,128,0,71665:0:0:0:0:
368,192,70465,1,0,0:0:0:0:
368,192,70865,1,0,0:0:0:0:
368,192,71265,1,0,0:0:0:0:
336,192,71665,128,0,73265:0:0:0:0:
48,192,72065,1,0,0:0:0:0:
48,192,72465,1,0,0:0:0:0:
48,192,72865,1,0,0:0:0:0:
112,192,73265,128,0,74065:0:0:0:0:
304,192,73665,1,0,0:0:0:0:
304,192,74065,128,0,74865:0:0:0:0:
144,192,74465,1,0,0:0:0:0:
144,192,74865,128,0,76465:0:0:0:0:
400,192,75265,1,0,0:0:0:0:
400,192,75665,1,0,0:0:0:0:
400,192,76065,1,0,0:0:0:0:
272,192,76465,128,0,76865:0:0:0:0:
208,192,76865,128,0,77265:0:0:0:0:
304,192,77265,128,0,77665:0:0:0:0:
240,192,77665,128,0,78065:0:0:0:0:
496,192,78065,1,0,0:0:0:0:
368,192,78465,128,0,78865:0:0:0:0:
144,192,78465,1,0,0:0:0:0:
240,192,78865,128,0,79265:0:0:0:0:
208,192,79265,128,0,79665:0:0:0:0:
304,192,79265,1,0,0:0:0:0:
464,192,79665,128,0,80465:0:0:0:0:
144,192,80065,1,0,0:0:0:0:
80,192,80065,1,0,0:0:0:0:
48,192,80465,128,0,81265:0:0:0:0:
464,192,80865,1,0,0:0:0:0:
336,192,80865,1,0,0:0:0:0:
272,192,81265,128,0,82865:0:0:0:0:
48,192,81665,1,0,0:0:0:0:
176,192,81665,1,0,0:0:0:0:
48,192,82465,1,0,0:0:0:0:
176,192,82465,1,0,0:0:0:0:
304,192,82865,128,0,84465:0:0:0:0:
80,192,83265,1,0,0:0:0:0:
144,192,83265,1,0,0:0:0:0:
80,192,84065,1,0,0:0:0:0:
144,192,84065,1,0,0:0:0:0:
176,192,84465,128,0,86065:0:0:0:0:
336,192,84865,1,0,0:0:0:0:
464,192,84865,1,0,0:0:0:0:
336,192,85665,1,0,0:0:0:0:
464,192,85665,1,0,0:0:0:0:
400,192,86065,128,0,86865:0:0:0:0:
176,192,86465,1,0,0:0:0:0:
48,192,86465,1,0,0:0:0:0:
208,192,86865,128,0,87665:0:0:0:0:
368,192,87265,1,0,0:0:0:0:
432,192,87265,1,0,0:0:0:0:
464,192,87665,128,0,89265:0:0:0:0:
48,192,88065,1,0,0:0:0:0:
176,192,88065,1,0,0:0:0:0:
48,192,88865,1,0,0:0:0:0:
176,192,88865,1,0,0:0:0:0:
240,192,89265,128,0,89665:0:0:0:0:
304,192,89665,128,0,90065:0:0:0:0:
272,192,89665,1,0,0:0:0:0:
208,192,90065,128,0,90465:0:0:0:0:
272,192,90465,128,0,90865:0:0:0:0:
240,192,90465,1,0,0:0:0:0:
16,192,90865,1,0,0:0:0:0:
464,192,91265,1,0,0:0:0:0:
336,192,91465,1,0,0:0:0:0:
464,192,91665,1,0,0:0:0:0:
336,192,91865,1,0,0:0:0:0:
208,192,92065,1,0,0:0:0:0:
208,192,92265,1,0,0:0:0:0:
208,192,92465,1,0,0:0:0:0:
432,192,92865,1,0,0:0:0:0:
144,192,93065,1,0,0:0:0:0:
432,192,93265,1,0,0:0:0:0:
144,192,93465,1,0,0:0:0:0:
272,192,93665,1,0,0:0:0:0:
240,192,93865,1,0,0:0:0:0:
272,192,94065,1,0,0:0:0:0:
48,192,94465,1,0,0:0:0:0:
176,192,94665,1,0,0:0:0:0:
336,192,94865,1,0,0:0:0:0:
464,192,95065,1,0,0:0:0:0:
208,192,95265,1,0,0:0:0:0:
208,192,95465,1,0,0:0:0:0:
208,192,95665,1,0,0:0:0:0:
432,192,96065,1,0,0:0:0:0:
400,192,96265,1,0,0:0:0:0:
368,192,96465,1,0,0:0:0:0:
336,192,96665,1,0,0:0:0:0:
208,192,96865,1,0,0:0:0:0:
304,192,97065,1,0,0:0:0:0:
208,192,97265,1,0,0:0:0:0:
48,192,97665,1,0,0:0:0:0:
112,192,97865,1,0,0:0:0:0:
176,192,98065,1,0,0:0:0:0:
336,192,98265,1,0,0:0:0:0:
240,192,98465,1,0,0:0:0:0:
240,192,98665,1,0,0:0:0:0:
240,192,98865,1,0,0:0:0:0:
432,192,99265,1,0,0:0:0:0:
368,192,99465,1,0,0:0:0:0:
368,192,99665,1,0,0:0:0:0:
432,192,99865,1,0,0:0:0:0:
240,192,100065,1,0,0:0:0:0:
272,192,100265,1,0,0:0:0:0:
240,192,100465,1,0,0:0:0:0:
464,192,100865,1,0,0:0:0:0:
336,192,101065,1,0,0:0:0:0:
48,192,101265,1,0,0:0:0:0:
176,192,101465,1,0,0:0:0:0:
272,192,101665,1,0,0:0:0:0:
304,192,101865,1,0,0:0:0:0:
272,192,102065,1,0,0:0:0:0:
80,192,102465,1,0,0:0:0:0:
144,192,102665,1,0,0:0:0:0:
336,192,102865,1,0,0:0:0:0:
464,192,103065,1,0,0:0:0:0:
208,192,103265,1,0,0:0:0:0:
240,192,103465,1,0,0:0:0:0:
336,192,103665,128,0,106065:0:0:0:0:
464,192,106065,128,0,106865:0:0:0:0:
240,192,106865,128,0,108465:0:0:0:0:
208,192,108465,128,0,110065:0:0:0:0:
368,192,110065,128,0,111665:0:0:0:0:
48,192,111665,128,0,112465:0:0:0:0:
112,192,112465,128,0,113265:0:0:0:0:
176,192,113265,128,0,114865:0:0:0:0:
304,192,114865,128,0,116465:0:0:0:0:
496,192,118065,5,0,0:0:0:0:
80,192,118465,1,0,0:0:0:0:
144,192,118665,1,0,0:0:0:0:
368,192,118865,1,0,0:0:0:0:
432,192,119265,1,0,0:0:0:0:
368,192,119465,1,0,0:0:0:0:
144,192,119665,1,0,0:0:0:0:
80,192,120065,1,0,0:0:0:0:
144,192,120265,1,0,0:0:0:0:
368,192,120465,1,0,0:0:0:0:
432,192,120865,1,0,0:0:0:0:
368,192,121065,1,0,0:0:0:0:
112,192,121265,1,0,0:0:0:0:
48,192,121665,1,0,0:0:0:0:
176,192,121865,1,0,0:0:0:0:
400,192,122065,1,0,0:0:0:0:
464,192,122465,1,0,0:0:0:0:
336,192,122665,1,0,0:0:0:0:
112,192,122865,1,0,0:0:0:0:
48,192,123265,1,0,0:0:0:0:
176,192,123465,1,0,0:0:0:0:
400,192,123665,1,0,0:0:0:0:
112,192,123865,1,0,0:0:0:0:
336,192,124065,1,0,0:0:0:0:
464,192,124065,1,0,0:0:0:0:
48,192,124265,1,0,0:0:0:0:
176,192,124265,1,0,0:0:0:0:
