osu file format v14

[General]
AudioFilename: audio.ogg
AudioLeadIn: 0
PreviewTime: 81886
Countdown: 0
SampleSet: Soft
StackLeniency: 0.7
Mode: 3
LetterboxInBreaks: 0
SpecialStyle: 0
WidescreenStoryboard: 1

[Editor]
Bookmarks: 5236,10036,14836,34036,43636,53236,62836,82036,101236,110836
DistanceSpacing: 0.8
BeatDivisor: 4
GridSize: 4
TimelineZoom: 3.2

[Metadata]
Title:Core
TitleUnicode:Core
Artist:yak_won
ArtistUnicode:yak_won
Creator:xBomb72
Version:Normal
Source:EZ2DJ : AZURE EXPRESSION
Tags:electronic instrumental classic d'n'b dnb drum and bass breakbeat piano rhythm video arcade game music vgm EZ2AC EZ2ON 에주어 익스프레션
BeatmapID:3945801
BeatmapSetID:1912862

[Difficulty]
HPDrainRate:7
CircleSize:10
OverallDifficulty:7
ApproachRate:5
SliderMultiplier:1.4
SliderTickRate:1

[Events]
//Background and Video events
0,0,"maxresdefault.jpg",0,0
//Break Periods
//Storyboard Layer 0 (Background)
//Storyboard Layer 1 (Fail)
//Storyboard Layer 2 (Pass)
//Storyboard Layer 3 (Foreground)
//Storyboard Layer 4 (Overlay)
//Storyboard Sound Samples

[TimingPoints]
436,300,4,2,1,25,1,0

[HitObjects]
230,192,5236,5,0,0:0:0:0:
25,192,5236,1,0,0:0:0:0:
384,192,5536,1,0,0:0:0:0:
128,192,5836,1,0,0:0:0:0:
384,192,6136,1,0,0:0:0:0:
332,192,6436,1,0,0:0:0:0:
179,192,6436,1,0,0:0:0:0:
128,192,6736,1,0,0:0:0:0:
384,192,7036,1,0,0:0:0:0:
128,192,7336,1,0,0:0:0:0:
486,192,7636,1,0,0:0:0:0:
281,192,7636,1,0,0:0:0:0:
384,192,7936,1,0,0:0:0:0:
128,192,8236,1,0,0:0:0:0:
384,192,8536,1,0,0:0:0:0:
332,192,8836,1,0,0:0:0:0:
179,192,8836,1,0,0:0:0:0:
384,192,9136,1,0,0:0:0:0:
128,192,9436,1,0,0:0:0:0:
384,192,9736,1,0,0:0:0:0:
281,192,10036,1,0,0:0:0:0:
486,192,10036,1,0,0:0:0:0:
332,192,10336,1,0,0:0:0:0:
179,192,10486,1,0,0:0:0:0:
128,192,10561,1,0,0:0:0:0:
76,192,10636,1,0,0:0:0:0:
384,192,10786,1,0,0:0:0:0:
179,192,10936,1,0,0:0:0:0:
332,192,11086,1,0,0:0:0:0:
230,192,11236,1,0,0:0:0:0:
25,192,11236,1,0,0:0:0:0:
332,192,11386,1,0,0:0:0:0:
76,192,11536,1,0,0:0:0:0:
435,192,11686,1,0,0:0:0:0:
179,192,11836,1,0,0:0:0:0:
332,192,11986,1,0,0:0:0:0:
76,192,12136,1,0,0:0:0:0:
435,192,12286,1,0,0:0:0:0:
230,192,12436,1,0,0:0:0:0:
25,192,12436,1,0,0:0:0:0:
384,192,12736,1,0,0:0:0:0:
76,192,12886,1,0,0:0:0:0:
128,192,12961,1,0,0:0:0:0:
179,192,13036,1,0,0:0:0:0:
435,192,13186,1,0,0:0:0:0:
128,192,13336,1,0,0:0:0:0:
384,192,13486,1,0,0:0:0:0:
230,192,13636,1,0,0:0:0:0:
25,192,13636,1,0,0:0:0:0:
332,192,13786,1,0,0:0:0:0:
179,192,13936,1,0,0:0:0:0:
486,192,14086,1,0,0:0:0:0:
332,192,14236,1,0,0:0:0:0:
25,192,14386,1,0,0:0:0:0:
230,192,14536,1,0,0:0:0:0:
384,192,14686,1,0,0:0:0:0:
230,192,14836,128,0,16036:0:0:0:0:
25,192,14836,1,0,0:0:0:0:
128,192,15136,1,0,0:0:0:0:
435,192,15286,1,0,0:0:0:0:
332,192,15361,1,0,0:0:0:0:
76,192,15436,1,0,0:0:0:0:
179,192,15586,1,0,0:0:0:0:
332,192,15736,1,0,0:0:0:0:
384,192,15886,1,0,0:0:0:0:
128,192,16036,128,0,17236:0:0:0:0:
435,192,16036,1,0,0:0:0:0:
332,192,16336,1,0,0:0:0:0:
179,192,16486,1,0,0:0:0:0:
384,192,16636,1,0,0:0:0:0:
179,192,16786,1,0,0:0:0:0:
486,192,16936,1,0,0:0:0:0:
384,192,17086,1,0,0:0:0:0:
25,192,17236,128,0,19036:0:0:0:0:
281,192,17236,1,0,0:0:0:0:
435,192,17536,1,0,0:0:0:0:
128,192,17686,1,0,0:0:0:0:
230,192,17761,1,0,0:0:0:0:
384,192,17836,1,0,0:0:0:0:
332,192,17986,1,0,0:0:0:0:
179,192,18136,1,0,0:0:0:0:
230,192,18286,1,0,0:0:0:0:
332,192,18436,1,0,0:0:0:0:
486,192,18436,1,0,0:0:0:0:
384,192,18586,1,0,0:0:0:0:
179,192,18736,1,0,0:0:0:0:
384,192,18886,1,0,0:0:0:0:
128,192,19036,128,0,19636:0:0:0:0:
332,192,19186,1,0,0:0:0:0:
179,192,19336,1,0,0:0:0:0:
230,192,19486,1,0,0:0:0:0:
486,192,19636,128,0,20836:0:0:0:0:
281,192,19636,1,0,0:0:0:0:
179,192,19936,1,0,0:0:0:0:
384,192,20086,1,0,0:0:0:0:
332,192,20161,1,0,0:0:0:0:
76,192,20236,1,0,0:0:0:0:
179,192,20386,1,0,0:0:0:0:
332,192,20536,1,0,0:0:0:0:
128,192,20686,1,0,0:0:0:0:
384,192,20836,128,0,22036:0:0:0:0:
179,192,20836,1,0,0:0:0:0:
76,192,20986,1,0,0:0:0:0:
281,192,21136,1,0,0:0:0:0:
179,192,21286,1,0,0:0:0:0:
332,192,21436,1,0,0:0:0:0:
128,192,21586,1,0,0:0:0:0:
435,192,21736,1,0,0:0:0:0:
25,192,21886,1,0,0:0:0:0:
281,192,22036,128,0,23836:0:0:0:0:
179,192,22036,1,0,0:0:0:0:
384,192,22336,1,0,0:0:0:0:
76,192,22486,1,0,0:0:0:0:
179,192,22561,1,0,0:0:0:0:
435,192,22636,1,0,0:0:0:0:
384,192,22786,1,0,0:0:0:0:
128,192,22936,1,0,0:0:0:0:
76,192,23086,1,0,0:0:0:0:
384,192,23236,1,0,0:0:0:0:
435,192,23236,1,0,0:0:0:0:
25,192,23386,1,0,0:0:0:0:
128,192,23536,1,0,0:0:0:0:
230,192,23686,1,0,0:0:0:0:
384,192,23836,128,0,24436:0:0:0:0:
179,192,23986,1,0,0:0:0:0:
128,192,24136,1,0,0:0:0:0:
76,192,24286,1,0,0:0:0:0:
25,192,24436,1,0,0:0:0:0:
230,192,24436,1,0,0:0:0:0:
435,192,24736,1,0,0:0:0:0:
76,192,24886,1,0,0:0:0:0:
179,192,24961,1,0,0:0:0:0:
281,192,25036,1,0,0:0:0:0:
128,192,25186,1,0,0:0:0:0:
384,192,25336,1,0,0:0:0:0:
128,192,25486,1,0,0:0:0:0:
332,192,25636,1,0,0:0:0:0:
486,192,25636,1,0,0:0:0:0:
230,192,25786,1,0,0:0:0:0:
435,192,25936,1,0,0:0:0:0:
76,192,26086,1,0,0:0:0:0:
332,192,26236,1,0,0:0:0:0:
128,192,26386,1,0,0:0:0:0:
384,192,26536,1,0,0:0:0:0:
179,192,26686,1,0,0:0:0:0:
332,192,26836,1,0,0:0:0:0:
486,192,26836,1,0,0:0:0:0:
76,192,27136,1,0,0:0:0:0:
435,192,27286,1,0,0:0:0:0:
332,192,27361,1,0,0:0:0:0:
230,192,27436,1,0,0:0:0:0:
384,192,27586,1,0,0:0:0:0:
128,192,27736,1,0,0:0:0:0:
384,192,27886,1,0,0:0:0:0:
230,192,28036,1,0,0:0:0:0:
76,192,28036,1,0,0:0:0:0:
332,192,28186,1,0,0:0:0:0:
179,192,28336,1,0,0:0:0:0:
384,192,28486,1,0,0:0:0:0:
230,192,28636,1,0,0:0:0:0:
435,192,28786,1,0,0:0:0:0:
76,192,28936,1,0,0:0:0:0:
128,192,29086,1,0,0:0:0:0:
179,192,29236,1,0,0:0:0:0:
230,192,29236,1,0,0:0:0:0:
332,192,29536,1,0,0:0:0:0:
179,192,29686,1,0,0:0:0:0:
281,192,29761,1,0,0:0:0:0:
384,192,29836,1,0,0:0:0:0:
128,192,29986,1,0,0:0:0:0:
332,192,30136,1,0,0:0:0:0:
128,192,30286,1,0,0:0:0:0:
486,192,30436,1,0,0:0:0:0:
435,192,30436,1,0,0:0:0:0:
332,192,30586,1,0,0:0:0:0:
179,192,30736,1,0,0:0:0:0:
128,192,30886,1,0,0:0:0:0:
332,192,31036,1,0,0:0:0:0:
384,192,31186,1,0,0:0:0:0:
25,192,31336,1,0,0:0:0:0:
179,192,31486,1,0,0:0:0:0:
332,192,31636,1,0,0:0:0:0:
435,192,31636,1,0,0:0:0:0:
179,192,31936,1,0,0:0:0:0:
332,192,32086,1,0,0:0:0:0:
230,192,32161,1,0,0:0:0:0:
128,192,32236,1,0,0:0:0:0:
435,192,32386,1,0,0:0:0:0:
179,192,32536,1,0,0:0:0:0:
435,192,32686,1,0,0:0:0:0:
230,192,32836,1,0,0:0:0:0:
384,192,32836,1,0,0:0:0:0:
128,192,32986,1,0,0:0:0:0:
281,192,33136,1,0,0:0:0:0:
384,192,33286,1,0,0:0:0:0:
128,192,33436,1,0,0:0:0:0:
25,192,33586,1,0,0:0:0:0:
384,192,33736,1,0,0:0:0:0:
486,192,33886,1,0,0:0:0:0:
179,192,34036,1,0,0:0:0:0:
76,192,34036,1,0,0:0:0:0:
384,192,34336,1,0,0:0:0:0:
76,192,34636,1,0,0:0:0:0:
179,192,34786,1,0,0:0:0:0:
76,192,34936,1,0,0:0:0:0:
179,192,35086,1,0,0:0:0:0:
486,192,35236,1,0,0:0:0:0:
281,192,35236,1,0,0:0:0:0:
128,192,35536,1,0,0:0:0:0:
435,192,35836,1,0,0:0:0:0:
332,192,35986,1,0,0:0:0:0:
435,192,36136,1,0,0:0:0:0:
332,192,36286,1,0,0:0:0:0:
230,192,36436,1,0,0:0:0:0:
25,192,36436,1,0,0:0:0:0:
384,192,36736,1,0,0:0:0:0:
25,192,37036,1,0,0:0:0:0:
179,192,37186,1,0,0:0:0:0:
25,192,37336,1,0,0:0:0:0:
179,192,37486,1,0,0:0:0:0:
281,192,37636,1,0,0:0:0:0:
486,192,37636,1,0,0:0:0:0:
128,192,37936,1,0,0:0:0:0:
486,192,38236,1,0,0:0:0:0:
332,192,38386,1,0,0:0:0:0:
486,192,38536,1,0,0:0:0:0:
76,192,38836,1,0,0:0:0:0:
179,192,38836,1,0,0:0:0:0:
332,192,39136,1,0,0:0:0:0:
25,192,39436,1,0,0:0:0:0:
76,192,39586,1,0,0:0:0:0:
128,192,39736,1,0,0:0:0:0:
179,192,39886,1,0,0:0:0:0:
230,192,40036,1,0,0:0:0:0:
486,192,40036,1,0,0:0:0:0:
128,192,40336,1,0,0:0:0:0:
486,192,40636,1,0,0:0:0:0:
435,192,40786,1,0,0:0:0:0:
384,192,40936,1,0,0:0:0:0:
332,192,41086,1,0,0:0:0:0:
281,192,41236,1,0,0:0:0:0:
25,192,41236,1,0,0:0:0:0:
384,192,41536,1,0,0:0:0:0:
230,192,41836,1,0,0:0:0:0:
179,192,41986,1,0,0:0:0:0:
128,192,42136,1,0,0:0:0:0:
76,192,42286,1,0,0:0:0:0:
25,192,42436,1,0,0:0:0:0:
281,192,42436,1,0,0:0:0:0:
128,192,42736,1,0,0:0:0:0:
281,192,43036,1,0,0:0:0:0:
332,192,43186,1,0,0:0:0:0:
384,192,43336,1,0,0:0:0:0:
435,192,43486,1,0,0:0:0:0:
486,192,43636,1,0,0:0:0:0:
230,192,43636,128,0,44836:0:0:0:0:
179,192,43936,1,0,0:0:0:0:
435,192,44086,1,0,0:0:0:0:
384,192,44161,1,0,0:0:0:0:
332,192,44236,1,0,0:0:0:0:
76,192,44386,1,0,0:0:0:0:
384,192,44536,1,0,0:0:0:0:
128,192,44686,1,0,0:0:0:0:
179,192,44836,128,0,46036:0:0:0:0:
435,192,44836,1,0,0:0:0:0:
384,192,44986,1,0,0:0:0:0:
25,192,45136,1,0,0:0:0:0:
76,192,45286,1,0,0:0:0:0:
332,192,45436,1,0,0:0:0:0:
384,192,45586,1,0,0:0:0:0:
128,192,45736,1,0,0:0:0:0:
435,192,45886,1,0,0:0:0:0:
25,192,46036,128,0,47836:0:0:0:0:
332,192,46036,1,0,0:0:0:0:
435,192,46336,1,0,0:0:0:0:
179,192,46486,1,0,0:0:0:0:
281,192,46561,1,0,0:0:0:0:
384,192,46636,1,0,0:0:0:0:
230,192,46786,1,0,0:0:0:0:
332,192,46936,1,0,0:0:0:0:
230,192,47086,1,0,0:0:0:0:
435,192,47236,1,0,0:0:0:0:
486,192,47236,1,0,0:0:0:0:
332,192,47386,1,0,0:0:0:0:
179,192,47536,1,0,0:0:0:0:
230,192,47686,1,0,0:0:0:0:
76,192,47836,128,0,48436:0:0:0:0:
435,192,47986,1,0,0:0:0:0:
179,192,48136,1,0,0:0:0:0:
332,192,48286,1,0,0:0:0:0:
486,192,48436,128,0,49636:0:0:0:0:
230,192,48436,1,0,0:0:0:0:
179,192,48736,1,0,0:0:0:0:
332,192,48886,1,0,0:0:0:0:
230,192,48961,1,0,0:0:0:0:
128,192,49036,1,0,0:0:0:0:
281,192,49186,1,0,0:0:0:0:
76,192,49336,1,0,0:0:0:0:
281,192,49486,1,0,0:0:0:0:
435,192,49636,128,0,50836:0:0:0:0:
128,192,49636,1,0,0:0:0:0:
332,192,49786,1,0,0:0:0:0:
76,192,49936,1,0,0:0:0:0:
281,192,50086,1,0,0:0:0:0:
25,192,50236,1,0,0:0:0:0:
281,192,50386,1,0,0:0:0:0:
76,192,50536,1,0,0:0:0:0:
332,192,50686,1,0,0:0:0:0:
281,192,50836,128,0,53236:0:0:0:0:
179,192,50836,1,0,0:0:0:0:
384,192,51136,1,0,0:0:0:0:
76,192,51286,1,0,0:0:0:0:
128,192,51361,1,0,0:0:0:0:
179,192,51436,1,0,0:0:0:0:
435,192,51586,1,0,0:0:0:0:
128,192,51736,1,0,0:0:0:0:
435,192,51886,1,0,0:0:0:0:
76,192,52036,1,0,0:0:0:0:
25,192,52036,1,0,0:0:0:0:
384,192,52186,1,0,0:0:0:0:
128,192,52336,1,0,0:0:0:0:
384,192,52486,1,0,0:0:0:0:
179,192,52636,1,0,0:0:0:0:
435,192,52786,1,0,0:0:0:0:
128,192,52936,1,0,0:0:0:0:
435,192,53086,1,0,0:0:0:0:
25,192,53236,1,0,0:0:0:0:
230,192,53236,1,0,0:0:0:0:
179,192,53536,1,0,0:0:0:0:
435,192,53686,1,0,0:0:0:0:
384,192,53836,1,0,0:0:0:0:
332,192,53986,1,0,0:0:0:0:
179,192,54136,1,0,0:0:0:0:
76,192,54436,1,0,0:0:0:0:
76,192,54736,1,0,0:0:0:0:
332,192,54886,1,0,0:0:0:0:
384,192,55036,1,0,0:0:0:0:
435,192,55186,1,0,0:0:0:0:
76,192,55336,1,0,0:0:0:0:
435,192,55636,1,0,0:0:0:0:
435,192,55936,1,0,0:0:0:0:
179,192,56086,1,0,0:0:0:0:
128,192,56236,1,0,0:0:0:0:
76,192,56386,1,0,0:0:0:0:
435,192,56536,1,0,0:0:0:0:
332,192,56836,1,0,0:0:0:0:
332,192,57136,1,0,0:0:0:0:
76,192,57286,1,0,0:0:0:0:
128,192,57436,1,0,0:0:0:0:
179,192,57586,1,0,0:0:0:0:
332,192,57736,1,0,0:0:0:0:
128,192,58036,1,0,0:0:0:0:
128,192,58336,1,0,0:0:0:0:
486,192,58486,1,0,0:0:0:0:
435,192,58636,1,0,0:0:0:0:
384,192,58786,1,0,0:0:0:0:
128,192,58936,1,0,0:0:0:0:
25,192,59236,1,0,0:0:0:0:
25,192,59536,1,0,0:0:0:0:
281,192,59686,1,0,0:0:0:0:
332,192,59836,1,0,0:0:0:0:
384,192,59986,1,0,0:0:0:0:
25,192,60136,1,0,0:0:0:0:
486,192,60436,1,0,0:0:0:0:
486,192,60736,1,0,0:0:0:0:
25,192,60886,1,0,0:0:0:0:
76,192,61036,1,0,0:0:0:0:
128,192,61186,1,0,0:0:0:0:
486,192,61336,1,0,0:0:0:0:
384,192,61636,1,0,0:0:0:0:
384,192,61936,1,0,0:0:0:0:
230,192,62086,1,0,0:0:0:0:
179,192,62236,1,0,0:0:0:0:
128,192,62386,1,0,0:0:0:0:
384,192,62536,1,0,0:0:0:0:
230,192,62836,128,0,64036:0:0:0:0:
435,192,62836,1,0,0:0:0:0:
435,192,63136,1,0,0:0:0:0:
435,192,63736,1,0,0:0:0:0:
128,192,64036,128,0,65236:0:0:0:0:
332,192,64036,1,0,0:0:0:0:
332,192,64336,1,0,0:0:0:0:
332,192,64936,1,0,0:0:0:0:
25,192,65236,128,0,67036:0:0:0:0:
486,192,65236,1,0,0:0:0:0:
486,192,65536,1,0,0:0:0:0:
486,192,66136,1,0,0:0:0:0:
384,192,66436,1,0,0:0:0:0:
384,192,66736,1,0,0:0:0:0:
179,192,67036,128,0,67636:0:0:0:0:
384,192,67336,1,0,0:0:0:0:
486,192,67636,128,0,68836:0:0:0:0:
128,192,67636,1,0,0:0:0:0:
128,192,67936,1,0,0:0:0:0:
128,192,68536,1,0,0:0:0:0:
384,192,68836,128,0,70036:0:0:0:0:
25,192,68836,1,0,0:0:0:0:
25,192,69136,1,0,0:0:0:0:
25,192,69736,1,0,0:0:0:0:
281,192,70036,128,0,71836:0:0:0:0:
179,192,70036,1,0,0:0:0:0:
179,192,70336,1,0,0:0:0:0:
179,192,70936,1,0,0:0:0:0:
76,192,71236,1,0,0:0:0:0:
76,192,71536,1,0,0:0:0:0:
435,192,71836,128,0,72436:0:0:0:0:
76,192,72136,1,0,0:0:0:0:
281,192,72436,1,0,0:0:0:0:
230,192,72586,1,0,0:0:0:0:
332,192,72736,1,0,0:0:0:0:
179,192,72886,1,0,0:0:0:0:
281,192,73036,1,0,0:0:0:0:
230,192,73186,1,0,0:0:0:0:
384,192,73336,1,0,0:0:0:0:
128,192,73486,1,0,0:0:0:0:
332,192,73636,1,0,0:0:0:0:
179,192,73786,1,0,0:0:0:0:
384,192,73936,1,0,0:0:0:0:
128,192,74086,1,0,0:0:0:0:
332,192,74236,1,0,0:0:0:0:
179,192,74386,1,0,0:0:0:0:
435,192,74536,1,0,0:0:0:0:
76,192,74686,1,0,0:0:0:0:
384,192,74836,1,0,0:0:0:0:
128,192,74986,1,0,0:0:0:0:
435,192,75136,1,0,0:0:0:0:
76,192,75286,1,0,0:0:0:0:
384,192,75436,1,0,0:0:0:0:
128,192,75586,1,0,0:0:0:0:
486,192,75736,1,0,0:0:0:0:
25,192,75886,1,0,0:0:0:0:
384,192,76036,1,0,0:0:0:0:
281,192,76186,1,0,0:0:0:0:
128,192,76336,1,0,0:0:0:0:
230,192,76486,1,0,0:0:0:0:
332,192,76636,1,0,0:0:0:0:
486,192,76786,1,0,0:0:0:0:
179,192,76936,1,0,0:0:0:0:
25,192,77086,1,0,0:0:0:0:
230,192,77236,1,0,0:0:0:0:
281,192,77386,1,0,0:0:0:0:
179,192,77536,1,0,0:0:0:0:
332,192,77686,1,0,0:0:0:0:
230,192,77836,1,0,0:0:0:0:
281,192,77986,1,0,0:0:0:0:
128,192,78136,1,0,0:0:0:0:
384,192,78286,1,0,0:0:0:0:
179,192,78436,1,0,0:0:0:0:
332,192,78586,1,0,0:0:0:0:
128,192,78736,1,0,0:0:0:0:
384,192,78886,1,0,0:0:0:0:
179,192,79036,1,0,0:0:0:0:
332,192,79186,1,0,0:0:0:0:
76,192,79336,1,0,0:0:0:0:
435,192,79486,1,0,0:0:0:0:
128,192,79636,1,0,0:0:0:0:
384,192,79786,1,0,0:0:0:0:
76,192,79936,1,0,0:0:0:0:
435,192,80086,1,0,0:0:0:0:
128,192,80236,1,0,0:0:0:0:
384,192,80386,1,0,0:0:0:0:
25,192,80536,1,0,0:0:0:0:
486,192,80686,1,0,0:0:0:0:
179,192,80836,1,0,0:0:0:0:
179,192,81136,1,0,0:0:0:0:
332,192,81436,1,0,0:0:0:0:
332,192,81736,1,0,0:0:0:0:
230,192,82036,1,0,0:0:0:0:
25,192,82036,1,0,0:0:0:0:
76,192,82036,1,0,0:0:0:0:
332,192,82186,1,0,0:0:0:0:
384,192,82336,1,0,0:0:0:0:
435,192,82486,1,0,0:0:0:0:
128,192,82486,1,0,0:0:0:0:
128,192,82636,1,0,0:0:0:0:
281,192,82786,1,0,0:0:0:0:
384,192,82936,1,0,0:0:0:0:
486,192,83086,1,0,0:0:0:0:
128,192,83086,1,0,0:0:0:0:
230,192,83236,1,0,0:0:0:0:
281,192,83236,1,0,0:0:0:0:
76,192,83386,1,0,0:0:0:0:
128,192,83536,1,0,0:0:0:0:
179,192,83686,1,0,0:0:0:0:
384,192,83686,1,0,0:0:0:0:
384,192,83836,1,0,0:0:0:0:
25,192,83986,1,0,0:0:0:0:
128,192,84136,1,0,0:0:0:0:
230,192,84286,1,0,0:0:0:0:
384,192,84286,1,0,0:0:0:0:
486,192,84436,1,0,0:0:0:0:
332,192,84436,1,0,0:0:0:0:
76,192,84586,1,0,0:0:0:0:
179,192,84736,1,0,0:0:0:0:
76,192,84886,1,0,0:0:0:0:
384,192,84886,1,0,0:0:0:0:
384,192,85036,1,0,0:0:0:0:
25,192,85186,1,0,0:0:0:0:
230,192,85336,1,0,0:0:0:0:
25,192,85486,1,0,0:0:0:0:
384,192,85486,1,0,0:0:0:0:
179,192,85636,1,0,0:0:0:0:
281,192,85636,1,0,0:0:0:0:
435,192,85786,1,0,0:0:0:0:
332,192,85936,1,0,0:0:0:0:
435,192,86086,1,0,0:0:0:0:
128,192,86086,1,0,0:0:0:0:
179,192,86236,1,0,0:0:0:0:
486,192,86386,1,0,0:0:0:0:
128,192,86386,1,0,0:0:0:0:
281,192,86536,1,0,0:0:0:0:
486,192,86686,1,0,0:0:0:0:
128,192,86686,1,0,0:0:0:0:
332,192,86836,1,0,0:0:0:0:
25,192,86836,1,0,0:0:0:0:
179,192,86986,1,0,0:0:0:0:
128,192,87136,1,0,0:0:0:0:
76,192,87286,1,0,0:0:0:0:
332,192,87286,1,0,0:0:0:0:
332,192,87436,1,0,0:0:0:0:
230,192,87586,1,0,0:0:0:0:
128,192,87736,1,0,0:0:0:0:
25,192,87886,1,0,0:0:0:0:
332,192,87886,1,0,0:0:0:0:
179,192,88036,1,0,0:0:0:0:
281,192,88036,1,0,0:0:0:0:
435,192,88186,1,0,0:0:0:0:
384,192,88336,1,0,0:0:0:0:
332,192,88486,1,0,0:0:0:0:
179,192,88486,1,0,0:0:0:0:
179,192,88636,1,0,0:0:0:0:
486,192,88786,1,0,0:0:0:0:
384,192,88936,1,0,0:0:0:0:
281,192,89086,1,0,0:0:0:0:
179,192,89086,1,0,0:0:0:0:
435,192,89236,1,0,0:0:0:0:
486,192,89236,1,0,0:0:0:0:
179,192,89386,1,0,0:0:0:0:
76,192,89536,1,0,0:0:0:0:
179,192,89686,1,0,0:0:0:0:
332,192,89686,1,0,0:0:0:0:
332,192,89836,1,0,0:0:0:0:
230,192,89986,1,0,0:0:0:0:
25,192,90136,1,0,0:0:0:0:
230,192,90286,1,0,0:0:0:0:
76,192,90436,1,0,0:0:0:0:
25,192,90436,1,0,0:0:0:0:
332,192,90586,1,0,0:0:0:0:
179,192,90586,1,0,0:0:0:0:
435,192,90736,1,0,0:0:0:0:
179,192,90736,1,0,0:0:0:0:
332,192,90886,1,0,0:0:0:0:
179,192,91036,1,0,0:0:0:0:
281,192,91186,1,0,0:0:0:0:
179,192,91186,1,0,0:0:0:0:
486,192,91336,1,0,0:0:0:0:
281,192,91486,1,0,0:0:0:0:
179,192,91486,1,0,0:0:0:0:
435,192,91636,1,0,0:0:0:0:
76,192,91636,1,0,0:0:0:0:
25,192,91636,1,0,0:0:0:0:
128,192,91786,1,0,0:0:0:0:
179,192,91936,1,0,0:0:0:0:
230,192,92086,1,0,0:0:0:0:
435,192,92086,1,0,0:0:0:0:
25,192,92236,1,0,0:0:0:0:
76,192,92236,1,0,0:0:0:0:
384,192,92386,1,0,0:0:0:0:
332,192,92536,1,0,0:0:0:0:
76,192,92536,1,0,0:0:0:0:
281,192,92686,1,0,0:0:0:0:
486,192,92836,1,0,0:0:0:0:
25,192,92836,1,0,0:0:0:0:
76,192,92986,1,0,0:0:0:0:
128,192,93136,1,0,0:0:0:0:
179,192,93286,1,0,0:0:0:0:
332,192,93286,1,0,0:0:0:0:
25,192,93436,1,0,0:0:0:0:
435,192,93586,1,0,0:0:0:0:
384,192,93736,1,0,0:0:0:0:
179,192,93736,1,0,0:0:0:0:
332,192,93886,1,0,0:0:0:0:
179,192,93886,1,0,0:0:0:0:
486,192,94036,1,0,0:0:0:0:
281,192,94036,1,0,0:0:0:0:
25,192,94186,1,0,0:0:0:0:
128,192,94336,1,0,0:0:0:0:
230,192,94486,1,0,0:0:0:0:
332,192,94486,1,0,0:0:0:0:
76,192,94636,1,0,0:0:0:0:
332,192,94636,1,0,0:0:0:0:
486,192,94786,1,0,0:0:0:0:
384,192,94936,1,0,0:0:0:0:
179,192,94936,1,0,0:0:0:0:
281,192,95086,1,0,0:0:0:0:
179,192,95086,1,0,0:0:0:0:
486,192,95236,1,0,0:0:0:0:
76,192,95236,1,0,0:0:0:0:
230,192,95386,1,0,0:0:0:0:
128,192,95536,1,0,0:0:0:0:
25,192,95686,1,0,0:0:0:0:
384,192,95686,1,0,0:0:0:0:
179,192,95836,1,0,0:0:0:0:
281,192,95986,1,0,0:0:0:0:
128,192,95986,1,0,0:0:0:0:
384,192,96136,1,0,0:0:0:0:
486,192,96286,1,0,0:0:0:0:
128,192,96286,1,0,0:0:0:0:
332,192,96436,1,0,0:0:0:0:
128,192,96436,1,0,0:0:0:0:
179,192,96586,1,0,0:0:0:0:
332,192,96736,1,0,0:0:0:0:
179,192,96886,1,0,0:0:0:0:
76,192,96886,1,0,0:0:0:0:
384,192,97036,1,0,0:0:0:0:
281,192,97186,1,0,0:0:0:0:
128,192,97336,1,0,0:0:0:0:
76,192,97336,1,0,0:0:0:0:
230,192,97486,1,0,0:0:0:0:
76,192,97636,1,0,0:0:0:0:
332,192,97636,1,0,0:0:0:0:
384,192,97786,1,0,0:0:0:0:
128,192,97936,1,0,0:0:0:0:
384,192,98086,1,0,0:0:0:0:
435,192,98086,1,0,0:0:0:0:
76,192,98236,1,0,0:0:0:0:
179,192,98386,1,0,0:0:0:0:
230,192,98386,1,0,0:0:0:0:
435,192,98536,1,0,0:0:0:0:
332,192,98686,1,0,0:0:0:0:
281,192,98686,1,0,0:0:0:0:
486,192,98836,1,0,0:0:0:0:
179,192,98836,1,0,0:0:0:0:
76,192,98986,1,0,0:0:0:0:
435,192,99136,1,0,0:0:0:0:
76,192,99286,1,0,0:0:0:0:
179,192,99286,1,0,0:0:0:0:
486,192,99436,1,0,0:0:0:0:
179,192,99436,1,0,0:0:0:0:
281,192,99586,1,0,0:0:0:0:
25,192,99736,1,0,0:0:0:0:
128,192,99886,1,0,0:0:0:0:
230,192,100036,1,0,0:0:0:0:
332,192,100036,1,0,0:0:0:0:
435,192,100186,1,0,0:0:0:0:
486,192,100186,1,0,0:0:0:0:
76,192,100336,1,0,0:0:0:0:
435,192,100486,1,0,0:0:0:0:
332,192,100486,1,0,0:0:0:0:
25,192,100636,1,0,0:0:0:0:
332,192,100636,1,0,0:0:0:0:
179,192,100786,1,0,0:0:0:0:
486,192,100936,1,0,0:0:0:0:
332,192,101086,1,0,0:0:0:0:
76,192,101236,1,0,0:0:0:0:
179,192,101236,1,0,0:0:0:0:
128,192,101236,1,0,0:0:0:0:
384,192,101536,1,0,0:0:0:0:
281,192,101686,1,0,0:0:0:0:
230,192,101836,1,0,0:0:0:0:
128,192,101986,1,0,0:0:0:0:
384,192,102136,1,0,0:0:0:0:
281,192,102286,1,0,0:0:0:0:
179,192,102436,1,0,0:0:0:0:
76,192,102436,1,0,0:0:0:0:
128,192,102736,1,0,0:0:0:0:
230,192,102886,1,0,0:0:0:0:
281,192,103036,1,0,0:0:0:0:
384,192,103186,1,0,0:0:0:0:
128,192,103336,1,0,0:0:0:0:
230,192,103486,1,0,0:0:0:0:
332,192,103636,1,0,0:0:0:0:
435,192,103636,1,0,0:0:0:0:
332,192,103936,1,0,0:0:0:0:
486,192,104086,1,0,0:0:0:0:
230,192,104236,1,0,0:0:0:0:
281,192,104386,1,0,0:0:0:0:
25,192,104536,1,0,0:0:0:0:
179,192,104686,1,0,0:0:0:0:
384,192,104836,1,0,0:0:0:0:
128,192,104836,1,0,0:0:0:0:
435,192,105136,1,0,0:0:0:0:
281,192,105286,1,0,0:0:0:0:
179,192,105436,1,0,0:0:0:0:
25,192,105436,1,0,0:0:0:0:
76,192,105736,1,0,0:0:0:0:
230,192,105886,1,0,0:0:0:0:
486,192,106036,1,0,0:0:0:0:
332,192,106036,1,0,0:0:0:0:
230,192,106336,1,0,0:0:0:0:
486,192,106486,1,0,0:0:0:0:
128,192,106636,1,0,0:0:0:0:
384,192,106786,1,0,0:0:0:0:
25,192,106936,1,0,0:0:0:0:
281,192,107086,1,0,0:0:0:0:
76,192,107236,1,0,0:0:0:0:
179,192,107236,1,0,0:0:0:0:
281,192,107536,1,0,0:0:0:0:
25,192,107686,1,0,0:0:0:0:
384,192,107836,1,0,0:0:0:0:
128,192,107986,1,0,0:0:0:0:
486,192,108136,1,0,0:0:0:0:
230,192,108286,1,0,0:0:0:0:
332,192,108436,1,0,0:0:0:0:
435,192,108436,1,0,0:0:0:0:
128,192,108736,1,0,0:0:0:0:
384,192,108886,1,0,0:0:0:0:
25,192,109036,1,0,0:0:0:0:
486,192,109186,1,0,0:0:0:0:
179,192,109336,1,0,0:0:0:0:
332,192,109486,1,0,0:0:0:0:
230,192,109636,1,0,0:0:0:0:
25,192,109636,1,0,0:0:0:0:
179,192,109936,1,0,0:0:0:0:
332,192,110086,1,0,0:0:0:0:
435,192,110236,1,0,0:0:0:0:
332,192,110386,1,0,0:0:0:0:
76,192,110536,1,0,0:0:0:0:
179,192,110686,1,0,0:0:0:0:
384,192,110836,1,0,0:0:0:0:
486,192,111436,1,0,0:0:0:0:
332,192,111736,1,0,0:0:0:0:
179,192,112036,1,0,0:0:0:0:
435,192,112636,1,0,0:0:0:0:
281,192,112936,1,0,0:0:0:0:
128,192,113236,1,0,0:0:0:0:
76,192,113236,1,0,0:0:0:0:
384,192,113836,1,0,0:0:0:0:
230,192,114136,1,0,0:0:0:0:
76,192,114436,1,0,0:0:0:0:
25,192,114436,1,0,0:0:0:0:
332,192,115036,1,0,0:0:0:0:
179,192,115336,1,0,0:0:0:0:
25,192,115636,1,0,0:0:0:0:
486,192,115636,1,0,0:0:0:0:
76,192,115636,1,0,0:0:0:0:
435,192,115636,1,0,0:0:0:0:
