osu file format v14

[General]
AudioFilename: audio.mp3
AudioLeadIn: 0
PreviewTime: 35180
Countdown: 0
SampleSet: Soft
StackLeniency: 0.7
Mode: 0
LetterboxInBreaks: 0
WidescreenStoryboard: 1

[Editor]
Bookmarks: 35318,70227,105136,122591,140045,174954,209864
DistanceSpacing: 0.1
BeatDivisor: 8
GridSize: 4
TimelineZoom: 3.899999

[Metadata]
Title:natsu wa kodomotachi no tameni
TitleUnicode:夏は子どもたちのために
Artist:y0c1e
ArtistUnicode:y0c1e
Creator:Cyllinus
Version:yeah dude
Source:
Tags:
BeatmapID:2267891
BeatmapSetID:424620

[Difficulty]
HPDrainRate:7
CircleSize:4
OverallDifficulty:8
ApproachRate:9.3
SliderMultiplier:1.65
SliderTickRate:1

[Events]
//Background and Video events
0,0,"Konachan.com - 211233 car clouds drink fan flowers hat landscape leaves nauimusuka original ponytail scenic shade shorts sky summer sunflower.jpg",0,0
//Break Periods
2,105335,121490
2,138062,139490
//Storyboard Layer 0 (Background)
//Storyboard Layer 1 (Fail)
//Storyboard Layer 2 (Pass)
//Storyboard Layer 3 (Foreground)
//Storyboard Layer 4 (Overlay)
//Storyboard Sound Samples

[TimingPoints]
408,545.454545454546,4,2,0,48,1,0
17862,-66.6666666666667,4,2,0,64,0,0
35317,-66.6666666666667,4,2,0,80,0,0
105135,-100,4,2,0,48,0,0
122589,-66.6666666666667,4,2,0,64,0,0
140044,-66.6666666666667,4,2,0,80,0,1
140862,-40,4,2,0,80,0,1
141135,-66.6666666666667,4,2,0,80,0,1
141817,-40,4,2,0,80,0,1
142226,-66.6666666666667,4,2,0,80,0,1
143998,-40,4,2,0,80,0,1
144408,-66.6666666666667,4,2,0,80,0,1
145226,-33.3333333333333,4,2,0,80,0,1
145498,-66.6666666666667,4,2,0,80,0,1
146317,-33.3333333333333,4,2,0,80,0,1
146589,-50,4,2,0,80,0,1
148771,-66.6666666666667,4,2,0,80,0,1
149317,-50,4,2,0,80,0,1
149589,-40,4,2,0,80,0,1
149862,-50,4,2,0,80,0,1
150544,-40,4,2,0,80,0,1
150953,-50,4,2,0,80,0,1
152726,-40,4,2,0,80,0,1
153135,-50,4,2,0,80,0,1
158317,-40,4,2,0,80,0,1
158589,-50,4,2,0,80,0,1
159271,-40,4,2,0,80,0,1
159680,-50,4,2,0,80,0,1
161453,-40,4,2,0,80,0,1
161862,-50,4,2,0,80,0,1
167044,-40,4,2,0,80,0,1
167317,-50,4,2,0,80,0,1
167998,-40,4,2,0,80,0,1
168408,-50,4,2,0,80,0,1
170180,-40,4,2,0,80,0,1
170589,-50,4,2,0,80,0,1
174953,-66.6666666666667,4,2,0,80,0,0
177135,-50,4,2,0,80,0,1
178908,-40,4,2,0,80,0,1
179317,-66.6666666666667,4,2,0,80,0,1
179862,-33.3333333333333,4,2,0,80,0,1
180135,-50,4,2,0,80,0,1
181226,-33.3333333333333,4,2,0,80,0,1
181498,-50,4,2,0,80,0,1
181771,-25,4,2,0,80,0,1
182044,-50,4,2,0,80,0,1
184498,-40,4,2,0,80,0,1
184771,-50,4,2,0,80,0,1
185453,-40,4,2,0,80,0,1
185862,-66.6666666666667,4,2,0,80,0,1
186408,-50,4,2,0,80,0,1
187635,-40,4,2,0,80,0,1
188044,-50,4,2,0,80,0,1
189135,-133.333333333333,4,2,0,80,0,1
189408,-40,4,2,0,80,0,1
189680,-50,4,2,0,80,0,1
190498,-40,4,2,0,80,0,1
190771,-50,4,2,0,80,0,1
193226,-40,4,2,0,80,0,1
193498,-50,4,2,0,80,0,1
194180,-40,4,2,0,80,0,1
194589,-66.6666666666667,4,2,0,80,0,1
195135,-50,4,2,0,80,0,1
196362,-40,4,2,0,80,0,1
196771,-50,4,2,0,80,0,1
197317,-33.3333333333333,4,2,0,80,0,1
197589,-50,4,2,0,80,0,1
199226,-25,4,2,0,80,0,1
199498,-50,4,2,0,80,0,1
201953,-40,4,2,0,80,0,1
202226,-50,4,2,0,80,0,1
202908,-40,4,2,0,80,0,1
203317,-66.6666666666667,4,2,0,80,0,1
203862,-50,4,2,0,80,0,1
205089,-40,4,2,0,80,0,1
205498,-66.6666666666667,4,2,0,80,0,1
206044,-33.3333333333333,4,2,0,80,0,1
206317,-50,4,2,0,80,0,1
206589,-133.333333333333,4,2,0,80,0,1
206862,-40,4,2,0,80,0,1
207135,-50,4,2,0,80,0,1
207408,-33.3333333333333,4,2,0,80,0,1
207680,-50,4,2,0,80,0,1
209862,-76.9230769230769,4,2,0,64,0,0
227317,-100,4,2,0,48,0,0
244226,-100,4,2,0,8,0,0

[HitObjects]
76,228,408,6,0,P|84:264|75:338,1,82.5,2|2,0:0|0:0,0:0:0:0:
224,216,817,2,0,P|188:204|129:160,1,82.5,2|0,0:0|0:0,0:0:0:0:
160,350,1226,1,2,0:0:0:0:
160,350,1498,2,0,P|187:325|255:295,1,82.5,2|0,0:0|0:0,0:0:0:0:
76,228,1908,5,2,0:0:0:0:
76,228,2044,1,2,0:0:0:0:
76,228,2317,1,2,0:0:0:0:
157,98,2589,6,0,L|149:180,1,82.5,2|2,0:0|0:0,0:0:0:0:
324,132,2998,2,0,L|242:124,1,82.5,2|0,0:0|0:0,0:0:0:0:
272,292,3408,1,2,0:0:0:0:
340,116,3680,5,0,0:0:0:0:
340,116,3817,1,0,0:0:0:0:
364,200,3953,1,0,0:0:0:0:
364,200,4089,1,0,0:0:0:0:
280,210,4226,2,0,L|272:292,1,82.5,2|2,0:0|0:0,0:0:0:0:
420,114,4771,6,0,P|379:107|334:118,1,82.5,2|2,0:0|0:0,0:0:0:0:
504,252,5180,2,0,P|502:210|485:168,1,82.5,2|0,0:0|0:0,0:0:0:0:
280,210,5589,1,2,0:0:0:0:
140,114,5862,5,2,0:0:0:0:
140,114,5998,2,0,P|181:107|226:118,1,82.5,2|0,0:0|0:0,0:0:0:0:
56,252,6408,2,0,P|58:210|75:168,1,82.5,2|2,0:0|0:0,0:0:0:0:
280,210,6953,6,0,L|272:292,1,82.5,2|0,0:0|0:0,0:0:0:0:
320,49,7362,2,0,L|312:131,1,82.5,2|2,0:0|0:0,0:0:0:0:
291,308,7771,5,2,0:0:0:0:
326,147,8044,1,2,0:0:0:0:
291,308,8453,6,0,L|312:324,5,20.625,2|2|2|2|2|2,0:0|0:0|0:0|0:0|0:0|0:0,0:0:0:0:
324,340,8862,2,0,L|396:336,1,61.875,2|0,0:0|0:0,0:0:0:0:
408,347,9135,6,0,P|415:307|407:267,1,82.5,2|2,0:0|0:0,0:0:0:0:
487,155,9544,2,0,P|480:195|488:236,1,82.5,2|0,0:0|0:0,0:0:0:0:
396,180,9953,2,0,L|392:152,3,20.625,2|0|0|0,0:0|0:0|0:0|0:0,0:0:0:0:
372,144,10226,5,2,0:0:0:0:
236,204,10498,6,0,P|239:182|236:147,1,41.25,2|2,0:0|0:0,0:0:0:0:
284,348,10771,2,0,P|279:307|291:263,1,82.5,2|2,0:0|0:0,0:0:0:0:
160,340,11317,6,0,L|72:336,1,82.5,2|2,0:0|0:0,0:0:0:0:
128,228,11726,2,0,P|161:251|210:263,1,82.5,2|0,0:0|0:0,0:0:0:0:
44,256,12135,1,2,0:0:0:0:
72,112,12408,5,0,0:0:0:0:
72,112,12544,1,0,0:0:0:0:
148,148,12680,1,0,0:0:0:0:
148,148,12817,1,0,0:0:0:0:
200,80,12953,2,0,P|239:92|293:87,1,82.5,2|2,0:0|0:0,0:0:0:0:
416,24,13498,5,2,0:0:0:0:
472,160,13771,1,2,0:0:0:0:
472,160,13908,2,0,P|461:203|468:258,1,82.5,2|0,0:0|0:0,0:0:0:0:
432,320,14317,1,2,0:0:0:0:
300,252,14589,5,2,0:0:0:0:
300,252,14726,2,0,L|308:156,1,82.5,2|0,0:0|0:0,0:0:0:0:
133,213,15135,2,0,L|216:220,1,82.5,2|2,0:0|0:0,0:0:0:0:
344,92,15680,6,0,P|303:85|259:97,1,82.5,2|0,0:0|0:0,0:0:0:0:
96,88,16089,2,0,P|135:97|180:88,1,82.5,2|2,0:0|0:0,0:0:0:0:
224,16,16498,1,2,0:0:0:0:
96,88,16771,6,0,L|102:170,1,82.5,2|2,0:0|0:0,0:0:0:0:
44,236,17180,1,0,0:0:0:0:
196,256,17317,5,0,1:0:0:0:
196,256,17385,1,0,0:0:0:0:
196,256,17453,1,4,0:3:0:0:
196,256,17521,1,0,0:0:0:0:
196,256,17589,2,0,P|204:296|197:335,1,61.875,2|0,0:3|0:0,0:0:0:0:
272,360,17862,6,0,P|325:345|396:356,1,123.750004720688,4|0,1:0|0:0,0:0:0:0:
484,328,18271,2,0,B|475:267|475:267|484:237,1,92.812503540516,0|0,1:0|0:0,0:0:0:0:
506,161,18544,2,0,P|458:162|414:200,1,92.812503540516,4|0,0:3|0:0,0:0:0:0:
483,237,18817,1,0,1:0:0:0:
416,48,19089,5,4,0:3:0:0:
356,128,19226,1,0,1:0:0:0:
272,76,19362,1,4,0:3:0:0:
272,76,19498,2,0,P|280:44|277:7,1,61.875002360344,0|0,0:0|1:0,0:0:0:0:
120,132,19771,2,0,P|165:141|216:128,1,92.812503540516,4|0,0:3|0:0,0:0:0:0:
276,292,20044,6,0,B|267:209|267:209|284:171,1,123.750004720688,4|0,1:0|0:0,0:0:0:0:
468,236,20453,2,0,P|400:214|349:227,1,123.750004720688,0|0,1:0|0:0,0:0:0:0:
356,360,20862,5,4,0:3:0:0:
354,230,20998,1,0,1:0:0:0:
279,367,21271,5,4,0:3:0:0:
354,230,21408,1,0,1:0:0:0:
194,328,21680,5,4,0:3:0:0:
354,230,21817,1,0,1:0:0:0:
200,169,21953,5,0,0:0:0:0:
274,279,22089,1,4,0:3:0:0:
434,181,22226,2,0,P|440:125|408:45,1,123.750004720688,0|0,1:0|0:0,0:0:0:0:
326,193,22635,2,0,P|357:157|365:123,1,61.875002360344,0|0,1:0|0:0,0:0:0:0:
340,28,22908,1,4,0:3:0:0:
280,120,23044,1,0,0:0:0:0:
192,60,23180,2,0,L|130:66,1,61.875002360344,0|0,1:0|0:0,0:0:0:0:
88,156,23453,5,4,0:3:0:0:
280,120,23589,1,0,1:0:0:0:
130,66,23726,1,4,0:3:0:0:
148,232,23862,2,0,P|178:232|220:212,1,61.875002360344,0|0,0:0|1:0,0:0:0:0:
280,120,24135,2,0,P|295:160|290:215,1,92.812503540516,4|0,0:3|0:0,0:0:0:0:
378,259,24408,6,0,B|308:297|308:297|264:292,1,123.750004720688,4|0,1:0|0:0,0:0:0:0:
366,119,24817,2,0,B|329:193|329:193|292:209,1,123.750004720688,0|0,1:0|0:0,0:0:0:0:
96,188,25226,5,4,0:3:0:0:
148,48,25362,1,0,1:0:0:0:
52,175,25635,5,4,0:3:0:0:
191,60,25771,1,0,1:0:0:0:
15,135,26044,5,4,0:3:0:0:
228,100,26180,1,0,1:0:0:0:
96,188,26317,5,0,0:0:0:0:
148,48,26453,1,4,0:3:0:0:
331,79,26589,2,0,P|348:112|336:220,1,123.750004720688,0|0,1:0|0:0,0:0:0:0:
268,256,26998,2,0,L|272:372,1,92.812503540516,0|0,1:0|0:0,0:0:0:0:
196,376,27271,2,0,L|192:260,1,92.812503540516,4|0,0:3|0:0,0:0:0:0:
116,264,27544,2,0,L|119:352,1,61.875002360344,0|0,1:0|0:0,0:0:0:0:
160,172,27817,5,4,0:3:0:0:
116,264,27953,1,0,1:0:0:0:
20,240,28089,1,4,0:3:0:0:
20,240,28226,2,0,P|10:211|12:168,1,61.875002360344,0|0,0:0|1:0,0:0:0:0:
64,44,28498,2,0,B|91:66|91:66|159:57,1,92.812503540516,4|0,0:3|0:0,0:0:0:0:
308,40,28771,6,0,P|249:53|215:108,1,123.750004720688,4|0,1:0|0:0,0:0:0:0:
387,186,29180,2,0,P|354:135|291:121,1,123.750004720688,0|0,1:0|0:0,0:0:0:0:
168,180,29589,5,4,0:3:0:0:
304,204,29726,1,0,1:0:0:0:
164,254,29998,5,4,0:3:0:0:
330,286,30135,1,0,1:0:0:0:
160,328,30408,5,4,0:3:0:0:
356,368,30544,1,0,1:0:0:0:
304,204,30680,5,0,0:0:0:0:
262,352,30817,1,4,0:3:0:0:
414,300,30953,2,0,B|448:271|448:271|444:192,1,123.750004720688,0|0,1:0|0:0,0:0:0:0:
450,115,31362,2,0,P|419:118|392:132,1,61.875002360344,0|0,1:0|0:0,0:0:0:0:
304,204,31635,1,4,0:3:0:0:
296,104,31771,1,0,0:0:0:0:
148,144,31908,2,0,P|178:141|231:168,1,61.875002360344,0|0,1:0|0:0,0:0:0:0:
304,204,32180,5,4,0:3:0:0:
296,104,32317,1,0,1:0:0:0:
231,274,32453,1,4,0:3:0:0:
148,144,32589,2,0,P|139:114|157:58,1,61.875002360344,0|0,0:0|1:0,0:0:0:0:
351,43,32862,2,0,P|323:97|271:99,1,92.812503540516,4|0,0:3|0:0,0:0:0:0:
196,20,33135,5,4,1:0:0:0:
256,192,35317,6,0,P|240:228|251:297,1,92.812503540516,4|0,1:2|0:0,0:0:0:0:
344,200,35589,2,0,P|313:189|266:191,1,61.875002360344,0|4,0:0|0:3,0:0:0:0:
160,288,35862,2,0,B|152:360|152:360|126:334,1,92.812503540516,0|0,1:0|0:0,0:0:0:0:
108,216,36135,1,4,0:3:0:0:
243,280,36271,1,0,1:0:0:0:
44,280,36408,6,0,P|24:248|34:173,1,92.812503540516,0|0,0:0|0:0,0:0:0:0:
120,56,36680,2,0,B|116:112|116:112|78:139,1,92.812503540516,4|0,0:3|0:0,0:0:0:0:
108,216,36953,1,0,1:0:0:0:
288,136,37089,2,0,B|226:131|226:131|177:167,1,123.750004720688,4|0,0:3|0:0,0:0:0:0:
208,312,37498,6,0,P|272:313|328:268,1,123.750004720688,0|0,1:0|0:0,0:0:0:0:
288,136,37908,1,4,0:3:0:0:
288,136,37976,1,0,0:0:0:0:
288,136,38044,2,0,P|276:104|284:58,1,61.875002360344,0|0,1:0|0:0,0:0:0:0:
416,8,38317,1,4,0:3:0:0:
364,92,38453,1,0,1:0:0:0:
504,56,38589,5,0,0:0:0:0:
504,56,38658,1,0,0:0:0:0:
504,56,38726,1,0,0:0:0:0:
364,92,38862,1,4,0:3:0:0:
504,56,39135,5,0,1:0:0:0:
364,92,39271,2,0,B|301:76|310:121|239:102,1,123.750004720688,4|0,0:3|0:0,0:0:0:0:
112,24,39680,6,0,P|151:46|158:97,1,92.812503540516,0|0,1:0|0:0,0:0:0:0:
100,152,39953,2,0,L|108:224,1,61.875002360344,0|4,0:0|0:3,0:0:0:0:
268,240,40226,2,0,B|222:230|222:230|180:248,1,92.812503540516,0|0,1:0|0:0,0:0:0:0:
228,316,40498,1,4,0:3:0:0:
256,152,40635,1,0,1:0:0:0:
440,248,40771,6,0,P|395:238|352:254,1,92.812503540516,0|0,0:0|0:0,0:0:0:0:
368,372,41044,2,0,P|389:350|400:321,1,61.875002360344,4|0,0:3|0:0,0:0:0:0:
268,240,41317,1,0,1:0:0:0:
440,248,41453,1,4,0:3:0:0:
294,156,41589,1,0,0:0:0:0:
294,156,41658,1,0,0:0:0:0:
294,156,41726,1,0,0:0:0:0:
294,156,41794,1,0,0:0:0:0:
294,156,41862,6,0,P|341:193|352:253,1,123.750004720688,0|0,1:0|0:0,0:0:0:0:
392,112,42271,1,4,0:3:0:0:
440,248,42408,2,0,P|440:212|458:174,1,61.875002360344,0|0,1:0|0:0,0:0:0:0:
472,52,42680,1,4,0:3:0:0:
392,112,42817,1,0,1:0:0:0:
304,64,42953,6,0,L|296:0,1,61.875002360344
200,152,43226,2,0,P|213:103|210:49,1,92.812503540516,4|0,0:3|0:0,0:0:0:0:
294,156,43498,2,0,L|301:217,1,61.875002360344,0|0,1:0|0:0,0:0:0:0:
116,240,43771,1,4,0:3:0:0:
200,152,43908,1,4,0:3:0:0:
168,308,44044,6,0,P|224:323|284:292,1,123.750004720688,4|0,1:2|0:0,0:0:0:0:
380,172,44453,1,4,0:3:0:0:
356,344,44589,2,0,P|394:366|440:364,1,61.875002360344,0|0,1:0|0:0,0:0:0:0:
476,184,44862,1,4,0:3:0:0:
412,292,44998,1,0,1:0:0:0:
380,172,45135,6,0,B|387:97|387:97|362:118,1,92.812503540516,0|0,0:0|0:0,0:0:0:0:
224,100,45408,2,0,P|269:107|296:145,1,92.812503540516,4|0,0:3|0:0,0:0:0:0:
324,40,45680,1,0,1:0:0:0:
260,219,45817,2,0,P|200:208|166:158,1,123.750004720688,4|0,0:3|0:0,0:0:0:0:
16,200,46226,6,0,B|97:206|97:206|124:250,1,123.750004720688,0|0,1:0|0:0,0:0:0:0:
260,219,46635,1,4,0:3:0:0:
192,344,46771,2,0,P|234:366|296:356,1,92.812503540516,0|0,1:0|0:0,0:0:0:0:
344,244,47044,2,0,P|350:278|342:316,1,61.875002360344,4|0,0:3|1:0,0:0:0:0:
480,308,47317,6,0,P|436:320|415:373,1,92.812503540516,0|0,0:0|0:0,0:0:0:0:
432,224,47589,2,0,B|423:189|423:189|440:128,1,92.812503540516,4|0,0:3|0:0,0:0:0:0:
508,88,47862,1,0,1:0:0:0:
348,140,47998,2,0,B|279:152|292:109|209:126,1,123.750004720688,4|0,0:3|0:0,0:0:0:0:
280,308,48408,6,0,P|282:243|240:200,1,123.750004720688,0|0,1:0|0:0,0:0:0:0:
116,280,48817,1,4,0:3:0:0:
116,280,48885,1,0,0:0:0:0:
116,280,48953,2,0,L|120:368,1,61.875002360344,0|0,1:0|0:0,0:0:0:0:
280,308,49226,1,4,0:3:0:0:
244,202,49362,1,0,1:0:0:0:
208,376,49498,6,0,P|246:351|292:353,1,92.812503540516,0|0,0:0|0:0,0:0:0:0:
364,331,49771,2,0,P|319:333|281:308,1,92.812503540516,4|0,0:3|0:0,0:0:0:0:
320,156,50044,1,0,1:0:0:0:
340,252,50180,1,4,0:3:0:0:
257,91,50317,1,0,0:0:0:0:
257,91,50385,1,0,0:0:0:0:
257,91,50453,1,0,0:0:0:0:
257,91,50521,1,0,0:0:0:0:
257,91,50589,6,0,B|277:149|277:149|243:202,1,123.750004720688,0|0,1:0|0:0,0:0:0:0:
120,112,50998,1,4,0:3:0:0:
120,112,51067,1,0,0:0:0:0:
120,112,51135,2,0,P|150:116|183:139,1,61.875002360344,0|0,1:0|0:0,0:0:0:0:
188,280,51408,1,4,0:3:0:0:
120,196,51544,1,0,1:0:0:0:
136,356,51680,6,0,B|193:366|193:366|226:356,1,92.812503540516,0|0,0:0|0:0,0:0:0:0:
284,296,51953,2,0,P|309:340|306:375,1,61.875002360344,4|0,0:3|0:0,0:0:0:0:
188,280,52226,1,0,1:0:0:0:
400,224,52362,1,0,1:0:0:0:
400,224,52430,1,0,0:0:0:0:
400,224,52498,2,2,P|378:267|392:320,1,92.812503540516,4|0,0:3|0:0,0:1:0:0:
316,94,52771,6,0,B|325:174|325:174|304:212,1,123.750004720688,4|0,1:2|0:0,0:0:0:0:
393,60,53180,1,4,0:3:0:0:
393,60,53248,1,0,0:0:0:0:
393,60,53317,2,0,B|402:140,1,61.875002360344,0|0,1:0|0:0,0:0:0:0:
240,60,53589,1,4,0:3:0:0:
304,211,53726,1,0,1:0:0:0:
400,122,53862,6,0,P|360:97|315:94,1,92.812503540516,0|0,0:0|0:0,0:0:0:0:
240,60,54135,2,0,B|233:88|233:88|240:151,1,92.812503540516,4|0,0:3|0:0,0:0:0:0:
304,211,54408,1,0,1:0:0:0:
100,64,54544,2,0,B|153:98|153:98|160:159,1,123.750004720688,4|0,0:3|0:0,0:0:0:0:
4,220,54953,6,0,P|22:161|80:147,1,123.750004720688,0|0,1:0|0:0,0:0:0:0:
168,244,55362,1,4,0:3:0:0:
168,244,55430,1,0,0:3:0:0:
168,244,55498,2,0,P|137:241|99:221,1,61.875002360344,0|0,1:0|0:0,0:0:0:0:
177,329,55771,1,4,0:3:0:0:
159,158,55908,1,0,1:0:0:0:
336,264,56044,6,0,B|279:258|279:258|249:275,1,92.812503540516,0|0,0:0|0:0,0:0:0:0:
240,180,56317,2,0,P|240:134|216:96,1,92.812503540516,4|0,0:3|0:0,0:0:0:0:
304,72,56589,1,0,1:0:0:0:
332,176,56726,2,0,B|394:174|382:216|456:204,1,123.750004720688,4|0,0:3|0:0,0:0:0:0:
448,36,57135,6,0,P|426:76|440:131,1,92.812503540516,0|0,1:0|0:0,0:0:0:0:
304,72,57408,2,0,P|332:57|358:17,1,61.875002360344,0|4,0:0|0:3,0:0:0:0:
336,264,57680,2,0,B|348:236|348:236|332:176,1,92.812503540516,0|0,1:0|0:0,0:0:0:0:
204,128,57953,1,4,0:3:0:0:
256,228,58089,1,0,1:0:0:0:
143,223,58226,6,0,P|188:221|228:244,1,92.812503540516,0|0,0:0|0:0,0:0:0:0:
265,315,58498,2,0,P|247:273|256:228,1,92.812503540516,4|0,0:3|0:0,0:0:0:0:
166,307,58771,1,0,1:0:0:0:
336,264,58908,1,4,0:3:0:0:
172,107,59044,1,0,0:1:0:0:
172,107,59112,1,0,0:0:0:0:
172,107,59180,1,0,0:1:0:0:
172,107,59248,1,0,0:0:0:0:
172,107,59317,6,0,B|168:190|168:190|143:222,1,123.750004720688,0|0,1:0|0:0,0:0:0:0:
256,164,59726,1,4,0:3:0:0:
208,28,59862,2,0,P|178:20|121:34,1,61.875002360344,0|0,1:0|0:0,0:0:0:0:
142,222,60135,1,4,0:3:0:0:
172,107,60271,1,0,1:0:0:0:
256,164,60408,6,0,P|286:166|340:141,1,61.875002360344,0|0,0:0|0:0,0:0:0:0:
396,48,60680,2,0,P|407:92|394:149,1,92.812503540516,4|0,0:3|0:0,0:0:0:0:
496,52,60953,2,0,P|488:88|492:128,1,61.875002360344,0|0,1:0|0:0,0:0:0:0:
401,297,61226,1,4,0:3:0:0:
399,138,61362,1,4,0:3:0:0:
303,250,61498,6,0,B|315:285|315:285|409:298,1,123.750004720688,4|0,1:2|0:0,0:0:0:0:
320,376,61908,1,4,0:3:0:0:
168,288,62044,2,0,P|202:286|244:304,1,61.875002360344,0|0,1:0|0:0,0:0:0:0:
88,244,62317,1,4,0:3:0:0:
192,364,62453,1,0,1:0:0:0:
303,250,62589,6,0,B|311:227|311:227|303:159,1,92.812503540516,0|0,0:0|0:0,0:0:0:0:
224,120,62862,2,0,B|216:143|216:143|224:211,1,92.812503540516,4|0,0:3|0:0,0:0:0:0:
152,72,63135,1,0,1:0:0:0:
88,244,63271,2,0,P|113:189|81:125,1,123.750004720688,4|0,0:3|0:0,0:0:0:0:
8,312,63680,6,0,B|19:383|19:383|44:363,1,92.812503540516,0|0,1:0|0:0,0:0:0:0:
115,330,63953,2,0,P|145:323|176:328,1,61.875002360344,0|4,0:0|0:3,0:0:0:0:
344,336,64226,2,0,P|299:327|254:358,1,92.812503540516,0|0,1:0|0:0,0:0:0:0:
228,268,64498,1,4,0:3:0:0:
412,384,64635,1,0,1:0:0:0:
338,243,64771,6,0,L|346:362,1,92.812503540516,0|0,0:0|0:0,0:0:0:0:
420,300,65044,2,0,L|415:222,1,61.875002360344,4|0,0:3|0:0,0:0:0:0:
408,64,65317,1,0,1:0:0:0:
372,148,65453,2,0,P|419:155|484:112,1,123.750004720688,4|0,0:3|0:0,0:0:0:0:
275,54,65862,6,0,P|261:113|288:168,1,123.750004720688,0|0,1:0|0:0,0:0:0:0:
408,64,66271,1,4,0:3:0:0:
408,64,66339,1,0,0:0:0:0:
408,64,66408,2,0,L|403:2,1,61.875002360344,0|0,1:0|0:0,0:0:0:0:
372,148,66680,1,4,0:3:0:0:
275,54,66817,1,0,1:0:0:0:
280,260,66953,6,0,L|287:167,1,92.812503540516,0|0,0:0|0:0,0:0:0:0:
282,339,67226,2,0,P|312:332|348:300,1,61.875002360344,4|0,0:3|0:0,0:0:0:0:
372,148,67498,1,0,1:0:0:0:
280,260,67635,1,4,0:3:0:0:
312,84,67771,1,0,0:0:0:0:
312,84,67839,1,0,0:0:0:0:
312,84,67908,1,0,0:0:0:0:
312,84,67976,1,0,0:0:0:0:
312,84,68044,6,0,B|274:133|274:133|190:130,1,123.750004720688,0|0,1:0|0:0,0:0:0:0:
92,44,68453,1,4,0:3:0:0:
92,44,68521,1,0,0:0:0:0:
92,44,68589,2,0,P|98:80|82:129,1,61.875002360344,0|0,1:0|0:0,0:0:0:0:
24,236,68862,1,4,0:3:0:0:
16,76,68998,1,0,1:3:0:0:
139,231,69135,6,0,P|169:236|226:216,1,61.875002360344,0|0,0:0|0:0,0:0:0:0:
429,121,69408,2,0,P|399:116|342:136,1,61.875002360344,4|0,0:3|0:0,0:0:0:0:
284,176,69680,1,0,1:0:0:0:
284,176,69748,1,0,0:0:0:0:
284,176,69817,1,0,1:0:0:0:
284,176,69885,1,0,0:0:0:0:
284,176,69953,1,4,0:3:0:0:
284,176,70021,1,0,0:0:0:0:
284,176,70089,1,4,0:3:0:0:
284,176,70158,1,0,0:0:0:0:
284,176,70226,5,4,1:2:0:0:
284,176,71726,1,4,0:3:0:0:
284,176,71794,1,4,0:3:0:0:
284,176,71862,1,4,1:0:0:0:
348,284,72044,1,4,1:0:0:0:
316,56,72226,1,4,1:0:0:0:
284,176,72408,6,0,P|342:192|387:140,1,123.750004720688,4|0,1:2|0:0,0:0:0:0:
440,304,72817,1,4,0:3:0:0:
440,304,72885,1,0,0:0:0:0:
440,304,72953,2,0,L|433:242,1,61.875002360344,0|0,1:0|0:0,0:0:0:0:
284,176,73226,1,4,0:3:0:0:
348,284,73362,1,0,1:0:0:0:
390,62,73498,6,0,B|397:124|397:124|385:151,1,92.812503540516,0|0,0:0|0:0,0:0:0:0:
252,104,73771,2,0,P|280:97|330:112,1,61.875002360344,4|0,0:3|0:0,0:0:0:0:
433,242,74044,1,0,1:0:0:0:
228,236,74180,2,0,P|204:181|232:112,1,123.750004720688,4|0,0:3|0:0,0:0:0:0:
128,276,74589,6,0,P|132:244|120:200,1,61.875002360344,0|0,1:0|0:0,0:0:0:0:
4,128,74862,1,0,0:0:0:0:
128,276,75135,6,0,P|132:244|120:200,1,61.875002360344,0|0,1:0|0:0,0:0:0:0:
4,128,75408,1,4,0:3:0:0:
48,248,75544,1,0,1:0:0:0:
222,122,75680,6,0,B|196:105|196:105|114:118,1,92.812503540516,0|0,0:0|0:0,0:0:0:0:
288,176,75953,2,0,P|304:140|288:68,1,92.812503540516,4|0,0:3|0:0,0:0:0:0:
377,53,76226,1,0,1:0:0:0:
222,122,76362,1,4,0:3:0:0:
456,120,76498,1,0,0:0:0:0:
456,120,76567,1,0,0:0:0:0:
456,120,76635,1,0,0:0:0:0:
456,120,76703,1,0,0:0:0:0:
456,120,76771,6,0,P|394:150|388:224,1,123.750004720688,0|2,1:0|0:1,0:0:0:0:
377,53,77180,1,4,0:3:0:0:
460,284,77317,2,0,B|472:228|472:228|456:192,1,92.812503540516,0|0,1:0|0:0,0:0:0:0:
303,202,77589,1,4,0:3:0:0:
456,120,77726,1,0,1:0:0:0:
344,272,77862,6,0,P|302:283|241:254,1,92.812503540516,0|0,0:0|0:0,0:0:0:0:
196,208,78135,2,0,B|204:136|204:136|176:160,1,92.812503540516,4|0,0:3|0:0,0:0:0:0:
80,72,78408,2,0,P|110:81|152:76,1,61.875002360344,0|0,1:0|0:0,0:0:0:0:
303,202,78680,1,4,0:3:0:0:
256,20,78817,1,4,0:3:0:0:
188,149,78953,6,0,B|224:176|224:176|304:164,1,123.750004720688,4|0,1:2|0:0,0:0:0:0:
307,292,79362,1,0,0:0:0:0:
307,292,79430,1,0,0:0:0:0:
307,292,79498,2,0,P|296:247|303:201,1,92.812503540516,0|0,1:0|0:0,0:0:0:0:
384,160,79771,1,4,0:3:0:0:
256,60,79908,1,0,1:0:0:0:
444,40,80044,6,0,B|428:56|428:56|348:60,1,92.812503540516,0|0,0:0|0:0,0:0:0:0:
256,60,80317,2,0,B|185:63|185:63|169:79,1,92.812503540516,4|0,0:3|0:0,0:0:0:0:
136,160,80589,1,0,1:0:0:0:
72,4,80726,2,0,P|88:68|44:124,1,123.750004720688,4|0,0:3|0:0,0:0:0:0:
181,262,81135,6,0,P|180:202|130:158,1,123.750004720688,0|0,1:0|0:0,0:0:0:0:
24,312,81544,1,4,0:3:0:0:
24,312,81612,1,0,0:0:0:0:
24,312,81680,2,0,P|24:342|38:384,1,61.875002360344,0|0,1:0|0:0,0:0:0:0:
274,299,81953,1,4,0:3:0:0:
108,332,82089,1,0,1:0:0:0:
344,352,82226,6,0,P|317:315|272:299,1,92.812503540516,0|0,0:0|0:0,0:0:0:0:
184,368,82498,2,0,B|204:389|204:389|267:381,1,92.812503540516,4|0,0:3|0:0,0:0:0:0:
420,323,82771,1,0,1:0:0:0:
300,96,82908,2,0,B|322:164|283:154|304:227,1,123.750004720688,4|0,0:3|0:0,0:0:0:0:
116,164,83317,6,0,P|184:168|228:124,1,123.750004720688,0|0,1:0|0:0,0:0:0:0:
376,54,83726,1,4,0:3:0:0:
168,4,83862,2,0,B|144:64|144:64|152:92,1,92.812503540516,0|0,1:0|0:0,0:0:0:0:
116,164,84135,1,4,0:3:0:0:
300,96,84271,1,0,1:0:0:0:
64,100,84408,6,0,P|36:140|40:208,1,92.812503540516,0|0,0:0|0:0,0:0:0:0:
96,248,84680,2,0,P|126:250|176:228,1,61.875002360344,4|0,0:3|0:0,0:0:0:0:
116,164,84953,1,0,1:0:0:0:
160,328,85089,1,4,0:3:0:0:
332,192,85226,1,0,0:0:0:0:
332,192,85294,1,0,0:0:0:0:
332,192,85362,1,0,0:0:0:0:
332,192,85430,1,0,0:0:0:0:
332,192,85498,6,0,B|252:168|252:168|216:184,1,123.750004720688,0|2,1:0|0:3,0:0:0:0:
160,328,85908,1,4,0:3:0:0:
260,256,86044,2,0,L|363:288,1,92.812503540516,0|0,1:0|0:0,0:0:0:0:
412,224,86317,1,4,0:3:0:0:
260,256,86453,1,0,1:0:0:0:
287,117,86589,6,0,P|322:148|331:197,1,92.812503540516,0|0,0:0|0:0,0:0:0:0:
456,96,86862,2,0,P|420:104|370:89,1,61.875002360344,4|0,0:3|0:0,0:0:0:0:
280,4,87135,1,0,1:0:0:0:
424,16,87271,1,0,1:0:0:0:
287,117,87408,2,2,B|256:122|256:122|176:98,1,92.812503540516,4|0,0:3|0:0,0:1:0:0:
88,24,87680,6,0,P|124:66|80:128,1,123.750004720688,4|0,1:2|0:0,0:0:0:0:
16,248,88089,1,4,0:3:0:0:
164,276,88226,2,0,P|177:303|168:368,1,92.812503540516,0|0,1:0|0:0,0:0:0:0:
96,324,88498,1,4,0:3:0:0:
160,192,88635,1,0,1:0:0:0:
262,297,88771,6,0,B|308:304|308:304|352:276,1,92.812503540516,0|0,0:0|0:0,0:0:0:0:
328,196,89044,2,0,P|282:193|238:217,1,92.812503540516,4|0,0:3|0:0,0:0:0:0:
280,380,89317,1,0,1:0:0:0:
408,220,89453,2,0,B|420:147|380:167|391:86,1,123.750004720688,4|0,0:3|0:0,0:0:0:0:
504,12,89862,6,0,P|510:70|468:116,1,123.750004720688,0|0,1:0|0:0,0:0:0:0:
320,56,90271,1,4,0:3:0:0:
320,56,90339,1,0,0:0:0:0:
320,56,90408,2,0,P|348:28|380:17,1,61.875002360344,0|0,1:0|0:0,0:0:0:0:
408,220,90680,1,4,0:3:0:0:
468,116,90817,1,0,1:0:0:0:
276,136,90953,6,0,B|244:148|244:148|160:128,1,92.812503540516,0|0,0:0|0:0,0:0:0:0:
144,56,91226,2,0,B|176:44|176:44|260:64,1,92.812503540516,4|0,0:3|0:0,0:0:0:0:
269,198,91498,1,0,1:0:0:0:
102,162,91635,2,0,P|104:101|144:56,1,123.750004720688,4|0,0:3|0:0,0:0:0:0:
276,136,92044,6,0,B|268:204,1,61.875002360344,0|0,1:0|0:0,0:0:0:0:
332,332,92317,1,0,0:0:0:0:
276,136,92589,6,0,B|268:204,1,61.875002360344,0|0,1:0|0:0,0:0:0:0:
332,332,92862,1,4,0:3:0:0:
208,252,92998,1,0,1:0:0:0:
356,144,93135,6,0,B|344:245,1,92.812503540516,0|0,0:0|0:0,0:0:0:0:
508,224,93408,2,0,B|472:192|472:192|428:204,1,92.812503540516,4|0,0:3|0:0,0:0:0:0:
436,112,93680,1,0,1:0:0:0:
448,284,93817,1,4,0:3:0:0:
390,38,93953,1,0,0:0:0:0:
390,38,94021,1,0,0:0:0:0:
390,38,94089,1,0,0:0:0:0:
390,38,94158,1,0,0:0:0:0:
390,38,94226,6,0,P|395:98|356:144,1,123.750004720688,0|2,1:0|0:1,0:0:0:0:
172,104,94635,1,4,0:3:0:0:
316,72,94771,2,0,B|248:68|248:68|224:24,1,92.812503540516,0|0,1:0|0:0,0:0:0:0:
96,64,95044,1,4,0:3:0:0:
316,72,95180,1,0,1:0:0:0:
172,104,95317,6,0,B|164:124|164:124|172:208,1,92.812503540516,0|0,0:0|0:0,0:0:0:0:
259,308,95589,2,0,P|264:253|239:216,1,92.812503540516,4|0,0:3|0:0,0:0:0:0:
128,268,95862,2,0,P|152:276|204:272,1,61.875002360344,0|0,1:0|0:0,0:0:0:0:
360,296,96135,1,4,0:3:0:0:
356,144,96271,1,4,0:3:0:0:
316,368,96408,6,0,B|356:384|356:384|440:352,1,123.750004720688,4|0,1:2|0:0,0:0:0:0:
440,148,96817,1,0,0:0:0:0:
440,148,96885,1,0,0:0:0:0:
440,148,96953,2,0,P|432:180|396:220,1,61.875002360344,0|0,1:0|0:0,0:0:0:0:
428,12,97226,1,4,0:3:0:0:
356,144,97362,1,0,1:0:0:0:
308,4,97498,6,0,P|260:-4|207:25,1,92.812503540516,0|0,0:0|0:0,0:0:0:0:
78,68,97771,2,0,P|123:63|172:90,1,92.812503540516,4|0,0:3|0:0,0:0:0:0:
272,76,98044,1,0,1:0:0:0:
112,144,98180,2,0,B|104:224|104:224|140:280,1,123.750004720688,4|0,0:3|0:0,0:0:0:0:
300,228,98589,6,0,P|244:236|184:196,1,123.750004720688,0|0,1:0|0:0,0:0:0:0:
272,76,98998,1,4,0:3:0:0:
272,76,99067,1,0,0:0:0:0:
272,76,99135,2,0,L|352:68,1,61.875002360344,0|0,1:0|0:0,0:0:0:0:
476,116,99408,1,4,0:3:0:0:
333,70,99544,1,0,1:0:0:0:
396,212,99680,6,0,B|400:288|400:288|424:272,1,92.812503540516,0|0,0:0|0:0,0:0:0:0:
308,356,99953,2,0,P|321:313|304:248,1,92.812503540516,4|0,0:3|0:0,0:0:0:0:
168,180,100226,1,0,1:0:0:0:
132,324,100362,2,0,P|188:340|240:308,1,123.750004720688,4|0,0:3|0:0,0:0:0:0:
92,128,100771,6,0,B|72:166|72:166|84:264,1,123.750004720688,0|0,1:0|0:0,0:0:0:0:
227,166,101180,1,4,0:3:0:0:
227,166,101248,1,0,0:0:0:0:
227,166,101317,2,0,P|193:169|157:188,1,61.875002360344,0|0,1:0|0:0,0:0:0:0:
132,324,101589,1,4,0:3:0:0:
92,128,101726,1,0,1:0:0:0:
304,120,101862,6,0,B|315:164|315:164|300:220,1,92.812503540516,0|0,0:0|0:0,0:0:0:0:
344,288,102135,2,0,P|376:304|436:296,1,92.812503540516,4|0,0:3|0:0,0:0:0:0:
396,220,102408,1,0,1:0:0:0:
292,356,102544,1,4,0:3:0:0:
468,296,102680,1,0,0:0:0:0:
468,296,102748,1,0,0:0:0:0:
468,296,102817,1,0,0:0:0:0:
468,296,102885,1,0,0:0:0:0:
468,296,102953,6,0,L|461:366,1,61.875002360344,0|4,1:0|0:3,0:0:0:0:
256,192,103362,1,4,0:3:0:0:
44,296,103498,6,0,L|51:366,1,61.875002360344,0|4,1:0|0:3,0:0:0:0:
256,148,103908,1,4,0:3:0:0:
474,234,104044,6,0,L|467:304,1,61.875002360344,0|4,1:0|0:3,0:0:0:0:
256,104,104453,1,4,0:3:0:0:
38,234,104589,5,0,1:0:0:0:
38,241,104657,1,0,0:0:0:0:
39,249,104725,1,4,0:3:0:0:
40,257,104793,1,0,0:0:0:0:
41,264,104861,1,0,1:0:0:0:
41,272,104929,1,0,0:0:0:0:
42,280,104998,1,4,0:3:0:0:
43,287,105066,1,0,0:0:0:0:
44,295,105135,5,4,1:2:0:0:
132,56,122044,5,0,1:0:0:0:
132,56,122112,1,0,0:0:0:0:
132,56,122180,1,4,0:3:0:0:
132,56,122248,1,0,0:0:0:0:
132,56,122317,2,0,L|128:136,1,61.875,2|0,0:3|0:0,0:0:0:0:
176,192,122589,6,0,P|228:156|296:164,1,123.750004720688,4|0,1:0|0:0,0:0:0:0:
400,188,122998,2,0,B|412:212|412:212|406:277,1,92.812503540516,0|0,1:0|0:0,0:0:0:0:
323,296,123271,2,0,L|328:234,1,61.875002360344,4|0,0:3|0:0,0:0:0:0:
388,92,123544,1,0,1:0:0:0:
328,234,123817,5,4,0:3:0:0:
388,92,123953,1,0,1:0:0:0:
286,159,124089,1,4,0:3:0:0:
430,167,124226,2,0,P|453:146|472:100,1,61.875002360344,0|0,0:0|1:0,0:0:0:0:
380,3,124498,2,0,P|395:46|388:91,1,92.812503540516,4|0,0:3|0:0,0:0:0:0:
196,48,124771,6,0,B|280:33|280:33|312:53,1,123.750004720688,4|0,1:0|0:0,0:0:0:0:
200,132,125180,2,0,B|116:117|116:117|84:137,1,123.750004720688,0|0,1:0|0:0,0:0:0:0:
56,312,125589,5,4,0:3:0:0:
132,208,125726,1,0,1:0:0:0:
156,362,125998,5,4,0:3:0:0:
132,208,126135,1,0,1:0:0:0:
284,319,126408,5,4,0:3:0:0:
132,208,126545,1,0,1:0:0:0:
156,362,126680,5,0,0:0:0:0:
267,210,126817,1,4,0:3:0:0:
356,364,126953,2,0,B|396:380|396:380|484:360,1,123.750004720688,0|0,1:0|0:0,0:0:0:0:
400,204,127362,2,0,P|387:251|408:304,1,92.812503540516,0|0,1:0|0:0,0:0:0:0:
512,272,127635,2,0,P|506:223|470:180,1,92.812503540516,4|0,0:3|0:0,0:0:0:0:
336,140,127908,2,0,L|249:149,1,61.875002360344,0|0,1:0|0:0,0:0:0:0:
400,204,128180,5,4,0:3:0:0:
372,56,128317,1,0,1:0:0:0:
481,188,128453,1,4,0:3:0:0:
336,140,128589,2,0,L|249:149,1,61.875002360344,0|0,0:0|1:0,0:0:0:0:
114,186,128862,2,0,L|210:196,1,92.812503540516,4|0,0:3|0:0,0:0:0:0:
219,83,129135,6,0,P|191:138|207:197,1,123.750004720688,4|0,1:0|0:0,0:0:0:0:
272,344,129544,2,0,P|300:289|284:230,1,123.750004720688,0|0,1:0|0:0,0:0:0:0:
114,186,129953,5,4,0:3:0:0:
217,281,130089,1,0,1:0:0:0:
58,241,130362,5,4,0:3:0:0:
200,300,130498,1,0,1:0:0:0:
24,317,130771,5,4,0:3:0:0:
192,324,130907,1,0,1:0:0:0:
114,186,131044,5,0,0:0:0:0:
24,317,131180,1,4,0:3:0:0:
200,300,131317,2,0,B|228:272|228:272|216:168,1,123.750004720688,0|0,1:0|0:0,0:0:0:0:
220,40,131726,2,0,P|249:27|320:32,1,92.812503540516,0|0,1:0|0:0,0:0:0:0:
432,120,131998,2,0,P|403:107|332:112,1,92.812503540516,4|0,0:3|0:0,0:0:0:0:
308,184,132271,2,0,P|304:216|324:264,1,61.875002360344,0|0,1:0|0:0,0:0:0:0:
392,320,132544,5,4,0:3:0:0:
388,208,132680,1,0,1:0:0:0:
488,260,132817,1,4,0:3:0:0:
372,336,132953,2,0,L|288:328,1,61.875002360344,0|0,0:0|1:0,0:0:0:0:
212,356,133226,2,0,L|102:345,1,92.812503540516,4|0,0:3|0:0,0:0:0:0:
76,276,133498,6,0,B|100:240|100:240|96:148,1,123.750004720688,4|0,1:0|0:0,0:0:0:0:
208,87,133908,2,0,B|184:123|184:123|188:215,1,123.750004720688,0|0,1:0|0:0,0:0:0:0:
388,208,134317,5,4,0:3:0:0:
268,148,134453,1,0,1:0:0:0:
408,200,134726,5,4,0:3:0:0:
260,240,134862,1,0,1:0:0:0:
428,192,135135,5,4,0:3:0:0:
252,333,135271,1,0,1:0:0:0:
268,148,135408,5,0,0:0:0:0:
337,294,135544,1,4,0:3:0:0:
360,124,135680,2,0,P|413:96|486:113,1,123.750004720688,0|0,1:0|0:0,0:0:0:0:
308,32,136089,2,0,L|384:24,1,61.875002360344,0|0,1:0|0:0,0:0:0:0:
428,192,136362,2,0,B|436:224|436:224|424:288,1,92.812503540516,4|0,0:3|0:0,0:0:0:0:
356,332,136635,2,0,P|322:326|268:329,1,61.875002360344,0|0,1:0|0:0,0:0:0:0:
148,348,136908,5,4,0:3:0:0:
264,248,137044,1,0,1:0:0:0:
228,380,137180,1,4,0:3:0:0:
172,256,137317,2,0,P|177:219|194:183,1,61.875002360344,0|0,0:0|1:0,0:0:0:0:
344,152,137589,2,0,P|301:139|231:151,1,92.812503540516,4|0,0:3|0:0,0:0:0:0:
264,248,137862,5,0,1:0:0:0:
264,248,140044,5,4,1:2:0:0:
148,348,140180,1,0,0:0:0:0:
119,197,140317,1,0,0:0:0:0:
177,264,140453,1,4,0:3:0:0:
43,315,140589,2,0,P|21:343|16:397,1,61.875002360344,0|0,1:0|0:0,0:0:0:0:
177,264,140862,2,2,B|151:221|151:221|23:232,1,154.68750590086,4|0,0:3|0:0,0:1:0:0:
46,229,141135,5,0,0:0:0:0:
229,181,141271,1,0,0:0:0:0:
20,106,141408,2,0,P|49:127|103:138,1,61.875002360344,4|0,0:3|0:0,0:0:0:0:
187,31,141680,1,0,1:0:0:0:
73,135,141817,2,0,B|225:167|172:56|334:89,1,257.8125,4|0,0:3|0:0,0:0:0:0:
432,24,142226,6,0,L|436:110,1,61.875002360344,0|0,1:0|0:0,0:0:0:0:
450,192,142498,1,0,0:0:0:0:
450,192,142567,1,0,0:0:0:0:
450,192,142635,1,4,0:3:0:0:
258,244,142771,1,0,1:0:0:0:
245,89,142908,1,0,0:0:0:0:
349,157,143044,1,4,0:3:0:0:
349,172,143112,1,0,0:0:0:0:
350,187,143180,1,0,1:0:0:0:
351,203,143248,1,0,0:0:0:0:
351,218,143316,5,0,0:0:0:0:
183,174,143453,1,0,0:0:0:0:
424,279,143589,6,0,P|396:300|349:306,1,61.875002360344,4|0,0:3|0:0,0:0:0:0:
247,275,143862,1,0,1:0:0:0:
492,321,143998,2,0,B|340:347|378:256|245:274,1,257.8125,4|0,0:3|0:0,0:0:0:0:
150,255,144408,6,0,L|164:379,1,123.750004720688,0|0,1:0|0:0,0:0:0:0:
11,347,144817,1,4,0:3:0:0:
226,186,144953,2,0,P|228:146|208:106,1,61.875002360344,0|0,1:0|0:0,0:0:0:0:
8,35,145226,2,0,P|27:104|147:98,1,185.625007081032,4|0,0:3|0:0,0:0:0:0:
128,115,145498,5,0,0:0:0:0:
296,30,145635,1,0,0:0:0:0:
433,154,145771,1,4,0:3:0:0:
428,178,145839,1,0,0:0:0:0:
423,202,145908,1,0,0:0:0:0:
479,337,146044,5,0,1:0:0:0:
286,263,146180,1,4,0:3:0:0:
423,202,146317,2,0,B|456:226|499:224|499:224|469:214|457:188,1,123.750004720688,0|0,0:0|0:0,0:0:0:0:
264,367,146589,6,0,L|109:353,1,123.75,0|0,1:0|0:0,0:0:0:0:
140,355,146862,2,0,L|62:348,1,41.25,0|0,0:0|0:0,0:0:0:0:
244,267,146998,1,4,0:3:0:0:
15,118,147135,2,0,B|77:150|77:150|66:247,1,165,0|4,1:0|0:3,0:0:0:0:
87,46,147544,1,0,1:0:0:0:
241,178,147680,6,0,B|201:214|160:197|160:197|165:144,1,123.75,0|0,0:0|0:0,0:0:0:0:
179,15,147953,2,0,P|234:32|203:95,1,123.75,4|0,0:3|0:0,0:0:0:0:
371,201,148226,1,0,1:0:0:0:
339,41,148362,1,0,0:0:0:0:
512,92,148498,1,4,0:3:0:0:
442,147,148635,1,4,0:3:0:0:
403,371,148771,5,4,1:2:0:0:
509,257,148908,1,0,0:0:0:0:
336,299,149044,1,0,0:0:0:0:
484,253,149180,1,4,0:3:0:0:
257,233,149317,2,0,P|241:209|238:135,1,82.5,0|0,1:0|0:0,0:0:0:0:
477,24,149589,6,2,B|426:52|426:52|402:212,1,206.25,4|0,0:3|0:0,0:1:0:0:
484,253,149998,1,0,0:0:0:0:
307,16,150135,2,0,L|324:117,1,82.5,4|0,0:3|0:0,0:0:0:0:
411,161,150408,1,0,1:0:0:0:
307,16,150544,2,0,B|349:150|240:124|281:263,1,257.8125,4|0,0:3|0:0,0:0:0:0:
23,123,150953,6,0,L|129:114,1,82.5,0|0,1:0|0:0,0:0:0:0:
225,60,151226,1,0,0:0:0:0:
225,60,151294,1,0,0:0:0:0:
225,60,151362,1,4,0:3:0:0:
135,319,151498,2,0,B|74:331|74:331|5:273,1,123.75,0|0,1:0|0:0,0:0:0:0:
46,206,151771,2,0,B|107:194|107:194|176:252,1,123.75,4|0,0:3|0:0,0:0:0:0:
224,301,152044,1,0,0:0:0:0:
248,298,152112,1,0,0:0:0:0:
272,295,152180,1,0,0:0:0:0:
10,93,152317,6,0,L|124:104,1,82.5,4|0,0:3|0:0,0:0:0:0:
290,122,152589,1,0,1:0:0:0:
10,93,152726,2,0,B|150:72|79:203|231:185,1,257.8125,4|0,0:3|0:0,0:0:0:0:
78,6,153135,6,0,P|115:39|118:150,1,165,0|0,1:0|0:0,0:0:0:0:
33,216,153544,1,4,0:3:0:0:
279,97,153680,2,0,P|243:77|224:41,1,82.5,0|0,1:0|0:0,0:0:0:0:
154,309,153953,2,0,P|188:287|229:289,1,82.5,4|0,0:3|1:0,0:0:0:0:
120,147,154226,5,0,0:0:0:0:
301,206,154362,1,0,0:0:0:0:
483,265,154498,2,0,B|479:358|479:358|444:327,1,123.75,4|0,0:3|0:0,0:0:0:0:
408,160,154771,2,0,L|505:181,1,82.5,0|4,1:0|0:3,0:0:0:0:
320,333,155044,1,0,0:0:0:0:
279,97,155180,1,0,0:0:0:0:
216,365,155317,6,0,B|291:371|291:371|319:332,1,123.75,0|0,1:0|0:0,0:0:0:0:
439,165,155589,2,0,L|385:240,1,82.5,0|4,0:0|0:3,0:0:0:0:
110,352,155862,2,0,L|29:239,1,123.75,0|0,1:0|0:0,0:0:0:0:
0,160,156135,2,0,L|81:173,1,82.5,4|0,0:3|1:0,0:0:0:0:
291,199,156408,2,0,B|257:112|257:112|274:74,1,123.75,0|0,0:0|0:0,0:0:0:0:
108,15,156680,2,0,L|199:57,1,82.5,4|0,0:3|0:0,0:0:0:0:
425,151,156953,5,0,1:0:0:0:
497,22,157089,1,0,1:0:0:0:
270,84,157226,1,4,0:3:0:0:
451,252,157362,1,4,0:3:0:0:
185,132,157498,6,0,P|173:66|248:-12,1,165,4|0,1:2|0:0,0:0:0:0:
75,65,157908,1,4,0:3:0:0:
144,220,158044,2,0,P|110:195|90:160,1,82.5,0|0,1:0|0:0,0:0:0:0:
198,309,158317,2,2,B|87:338|104:258|0:288,1,206.25,4|0,0:3|0:0,0:1:0:0:
255,216,158726,5,0,0:0:0:0:
37,100,158862,2,0,P|70:124|90:159,1,82.5,4|0,0:3|0:0,0:0:0:0:
0,288,159135,1,0,1:0:0:0:
219,125,159271,2,0,P|125:58|96:169,1,257.8125,4|0,0:3|0:0,0:0:0:0:
211,357,159680,6,0,L|220:260,1,82.5,0|0,1:0|0:0,0:0:0:0:
80,250,159953,1,0,0:0:0:0:
99,257,160021,1,0,0:0:0:0:
118,264,160089,1,4,0:3:0:0:
302,182,160226,2,0,P|320:101|285:39,1,123.75,0|0,1:0|0:0,0:0:0:0:
306,65,160498,2,0,P|367:121|438:121,1,123.75,4|0,0:3|0:0,0:0:0:0:
484,79,160771,1,0,0:0:0:0:
481,58,160839,1,0,0:0:0:0:
477,37,160908,1,0,0:0:0:0:
209,43,161044,6,0,L|219:130,1,82.5,4|0,0:3|0:0,0:0:0:0:
405,127,161317,1,0,1:0:0:0:
112,21,161453,2,0,B|136:195|136:195|192:205|220:267,1,257.8125,4|0,0:3|0:0,0:0:0:0:
28,370,161862,2,0,P|30:317|130:292,1,165,0|0,1:0|0:0,0:0:0:0:
213,335,162271,1,4,0:3:0:0:
15,212,162408,2,0,P|39:179|38:139,1,82.5,0|0,1:0|0:0,0:0:0:0:
278,184,162680,2,0,P|297:236|276:288,1,82.5,4|0,0:3|1:0,0:0:0:0:
369,370,162953,5,0,0:0:0:0:
482,229,163089,1,0,0:0:0:0:
430,305,163226,1,4,0:3:0:0:
430,305,163294,1,0,0:0:0:0:
430,305,163362,1,0,0:0:0:0:
430,305,163430,1,0,0:0:0:0:
430,305,163498,1,0,1:0:0:0:
507,370,163635,1,4,0:3:0:0:
381,185,163771,1,0,0:1:0:0:
213,335,163908,1,0,0:1:0:0:
255,153,164044,6,0,B|288:178|288:178|292:261,1,123.75,0|0,1:0|0:0,0:0:0:0:
113,47,164317,2,0,L|179:97,1,82.5,0|4,0:0|0:3,0:0:0:0:
0,195,164589,2,0,B|95:153|95:153|127:172,1,123.75,0|0,1:0|0:0,0:0:0:0:
83,344,164862,2,0,L|86:255,1,82.5,4|0,0:3|1:0,0:0:0:0:
305,347,165135,2,0,L|180:342,1,123.75,0|0,0:0|0:0,0:0:0:0:
373,210,165408,2,0,L|377:292,1,82.5,4|0,0:3|0:0,0:0:0:0:
369,92,165680,5,0,1:0:0:0:
502,17,165817,1,0,0:0:0:0:
269,59,165953,1,4,0:3:0:0:
469,129,166089,1,4,0:3:0:0:
296,258,166226,6,0,P|357:345|426:341,1,165,4|0,1:2|0:0,0:0:0:0:
507,287,166635,1,4,0:3:0:0:
205,314,166771,2,0,P|201:267|201:232,1,82.5,0|0,1:0|0:0,0:0:0:0:
29,25,167044,6,2,L|37:245,1,206.25,4|0,0:3|0:0,0:1:0:0:
128,67,167453,1,0,0:0:0:0:
128,67,167589,2,0,L|129:161,1,82.5,4|0,0:3|0:0,0:0:0:0:
296,258,167862,1,0,1:0:0:0:
493,39,167998,2,0,P|401:38|356:180,1,257.8125,4|0,0:3|0:0,0:0:0:0:
443,14,168408,6,0,P|402:19|348:68,1,82.5,0|0,1:0|0:0,0:0:0:0:
450,131,168680,1,0,0:0:0:0:
450,131,168748,1,0,0:0:0:0:
450,131,168817,1,4,0:3:0:0:
268,17,168953,2,0,P|242:49|239:122,1,82.5,0|0,1:0|0:0,0:0:0:0:
354,176,169226,1,4,0:3:0:0:
354,176,169294,1,0,0:0:0:0:
354,176,169362,1,0,1:0:0:0:
354,176,169430,1,0,0:0:0:0:
354,176,169498,1,0,0:0:0:0:
450,131,169635,1,0,0:0:0:0:
146,142,169771,6,0,P|150:183|199:236,1,82.5,4|0,0:3|0:0,0:0:0:0:
314,280,170044,1,0,1:0:0:0:
146,142,170180,2,0,B|107:291|217:246|191:384,1,257.8125,4|0,0:3|0:0,0:0:0:0:
65,308,170589,6,0,P|128:310|192:387,1,165,0|0,1:0|0:0,0:0:0:0:
32,212,170998,1,4,0:3:0:0:
240,193,171135,2,0,L|322:208,1,82.5,0|0,1:0|0:0,0:0:0:0:
491,301,171408,6,0,L|327:318,1,165,4|0,0:3|0:0,0:0:0:0:
314,96,171817,1,0,0:0:0:0:
458,119,171953,2,0,L|449:232,1,82.5,4|0,0:3|0:0,0:0:0:0:
240,193,172226,1,0,1:0:0:0:
211,12,172362,1,4,0:3:0:0:
98,189,172498,1,0,0:0:0:0:
119,53,172634,1,0,0:0:0:0:
512,137,172771,6,0,P|501:197|490:261,1,123.75,0|0,1:0|0:0,0:0:0:0:
485,286,173044,1,0,0:0:0:0:
353,213,173180,1,4,0:3:0:0:
422,366,173317,2,0,P|388:361|325:356,1,82.5,0|0,1:0|0:0,0:0:0:0:
241,284,173589,2,0,P|200:287|160:293,1,82.5,4|0,0:3|1:3,0:0:0:0:
353,213,173862,6,0,P|365:164|373:117,1,82.5,0|0,0:0|0:0,0:0:0:0:
157,147,174135,2,0,P|147:107|140:66,1,82.5,4|0,0:3|0:0,0:0:0:0:
29,318,174408,1,0,1:0:0:0:
29,318,174476,1,0,0:0:0:0:
29,318,174544,1,0,1:0:0:0:
29,318,174612,1,0,0:0:0:0:
29,318,174680,1,4,0:3:0:0:
29,318,174748,1,0,0:0:0:0:
29,318,174817,1,4,0:3:0:0:
29,318,174885,1,0,0:0:0:0:
29,318,174953,5,4,1:2:0:0:
29,318,176453,5,4,0:3:0:0:
29,318,176521,1,4,0:3:0:0:
29,318,176589,5,4,1:0:0:0:
188,273,176771,1,4,1:0:0:0:
314,380,176953,1,4,1:0:0:0:
501,196,177135,6,0,P|489:131|487:21,1,165,4|0,1:2|0:0,0:0:0:0:
306,34,177544,1,4,0:3:0:0:
313,165,177680,2,0,L|404:158,1,82.5,0|0,1:0|0:0,0:0:0:0:
204,100,177953,1,4,0:3:0:0:
111,36,178089,1,0,1:0:0:0:
111,36,178158,1,0,0:0:0:0:
111,36,178226,1,0,0:0:0:0:
25,119,178362,1,0,0:0:0:0:
129,235,178498,6,0,P|129:278|119:333,1,82.5,4|0,0:3|0:0,0:0:0:0:
8,237,178771,1,0,1:0:0:0:
230,153,178908,2,0,P|225:287|117:315,1,257.8125,4|0,0:3|0:0,0:0:0:0:
4,133,179317,6,0,P|73:126|134:110,1,123.750004720688,0|0,1:0|0:0,0:0:0:0:
205,59,179726,1,0,0:0:0:0:
365,220,179862,2,0,P|277:227|230:153,1,185.625007081032,0|0,1:0|0:0,0:0:0:0:
358,28,180135,2,0,B|338:86|338:86|387:139,1,123.75,4|0,0:3|0:0,0:0:0:0:
453,64,180408,5,0,0:0:0:0:
469,191,180544,1,0,0:0:0:0:
501,333,180680,1,4,0:3:0:0:
501,333,180748,1,0,0:0:0:0:
501,333,180817,1,0,0:0:0:0:
501,333,180885,1,0,0:0:0:0:
501,333,180953,1,0,1:0:0:0:
349,273,181089,1,4,0:3:0:0:
469,191,181226,1,0,0:0:0:0:
501,333,181362,1,0,0:0:0:0:
342,61,181498,6,0,P|390:54|455:105,1,123.75,0|0,1:0|0:0,0:0:0:0:
342,61,181771,6,0,B|303:31|309:-25|309:-25|345:40|299:136,1,247.5,2|0,0:1|0:0,0:0:0:0:
252,192,182044,6,0,P|221:153|233:72,1,123.75,0|0,1:0|0:0,0:0:0:0:
411,205,182317,6,0,P|393:250|316:280,1,123.75,4|0,0:3|0:0,0:0:0:0:
249,359,182589,5,0,0:0:0:0:
44,331,182726,1,0,0:0:0:0:
103,175,182862,2,0,L|117:263,1,82.5,4|0,0:3|0:0,0:0:0:0:
252,192,183135,5,0,1:0:0:0:
85,77,183271,1,0,0:0:0:0:
44,331,183408,1,4,0:3:0:0:
252,192,183544,1,4,0:3:0:0:
19,29,183680,6,0,P|4:89|99:157,1,165,4|0,1:2|0:0,0:0:0:0:
247,41,184089,1,0,0:0:0:0:
85,77,184226,2,0,P|120:78|178:86,1,82.5,0|0,1:0|0:0,0:0:0:0:
486,46,184498,6,2,B|447:51|406:27|406:27|410:117|331:153,1,206.25,4|0,0:3|0:0,0:1:0:0:
445,292,184908,1,0,0:0:0:0:
512,162,185044,2,0,P|478:169|428:212,1,82.5,4|0,0:3|0:0,0:0:0:0:
358,355,185317,1,0,1:0:0:0:
512,162,185453,2,0,B|410:185|506:303|309:315|299:199,1,257.8125,4|0,0:3|0:0,0:0:0:0:
254,166,185862,6,0,P|263:122|263:78,1,61.875002360344,0|0,1:0|0:0,0:0:0:0:
212,360,186135,1,0,0:0:0:0:
212,360,186203,1,0,0:0:0:0:
212,360,186271,1,4,0:3:0:0:
17,249,186408,2,0,P|60:253|142:280,1,123.75,0|0,1:0|0:0,0:0:0:0:
212,360,186680,1,4,0:3:0:0:
212,360,186748,1,0,0:0:0:0:
212,360,186817,1,0,1:0:0:0:
212,360,186885,1,0,0:0:0:0:
212,360,186953,1,0,0:0:0:0:
235,246,187089,1,0,0:0:0:0:
111,130,187226,6,0,P|59:143|16:166,1,82.5,4|0,0:3|0:0,0:0:0:0:
258,136,187498,1,0,1:0:0:0:
9,177,187635,2,0,B|71:142|139:136|139:136|106:84|106:17,1,257.8125,4|0,0:3|0:0,0:0:0:0:
316,42,188044,6,0,P|300:92|216:169,1,165,0|0,1:0|0:0,0:0:0:0:
11,70,188453,1,4,0:3:0:0:
105,20,188589,2,0,P|134:51|153:87,1,82.5,0|0,1:0|0:0,0:0:0:0:
19,328,188862,2,0,P|38:272|76:237,1,82.5,4|0,0:3|1:0,0:0:0:0:
338,288,189135,6,0,L|287:283,1,46.406251770258,0|0,0:0|0:0,0:0:0:0:
183,301,189408,6,0,L|355:286,1,154.6875,4|0,0:3|0:0,0:0:0:0:
449,276,189680,1,0,1:0:0:0:
286,190,189817,1,4,0:3:0:0:
441,91,189953,1,0,0:0:0:0:
337,287,190089,1,0,0:0:0:0:
503,368,190226,2,0,P|493:317|444:246,1,123.75,0|0,1:0|0:0,0:0:0:0:
321,291,190498,6,0,P|344:340|331:287,1,154.6875,2|0,0:3|0:0,0:0:0:0:
411,69,190771,6,0,P|401:120|352:191,1,123.75,0|0,1:0|0:0,0:0:0:0:
224,244,191044,1,4,0:3:0:0:
96,163,191180,1,0,1:0:0:0:
257,103,191317,1,0,0:0:0:0:
232,106,191385,1,0,0:0:0:0:
207,105,191453,1,0,0:0:0:0:
184,98,191521,1,0,0:0:0:0:
163,85,191589,1,4,0:3:0:0:
142,71,191657,1,0,0:0:0:0:
119,62,191726,1,0,0:0:0:0:
95,60,191794,1,0,0:0:0:0:
70,62,191862,5,0,1:0:0:0:
229,0,191998,1,0,1:0:0:0:
363,180,192135,1,4,0:3:0:0:
112,283,192271,1,0,0:0:0:0:
475,242,192408,6,0,P|482:322|411:370,1,165,4|0,1:2|0:0,0:0:0:0:
261,270,192817,1,4,0:3:0:0:
354,174,192953,2,0,L|374:261,1,82.5,0|0,1:0|0:0,0:0:0:0:
167,365,193226,6,2,B|170:291|116:256|116:256|118:207|154:184,1,206.25,4|0,0:3|0:0,0:1:0:0:
80,117,193635,1,0,0:0:0:0:
296,108,193771,2,0,P|278:146|216:172,1,82.5,4|0,0:3|0:0,0:0:0:0:
145,39,194044,1,0,1:0:0:0:
285,266,194180,2,0,B|136:279|186:178|47:192,1,257.8125,4|0,0:3|0:0,0:0:0:0:
3,103,194589,6,0,B|36:108|36:108|87:83,1,61.875002360344,0|0,1:0|0:0,0:0:0:0:
145,39,194862,1,0,0:0:0:0:
145,39,194930,1,0,0:0:0:0:
145,39,194998,1,4,0:3:0:0:
324,107,195135,2,0,P|354:62|452:43,1,123.75,0|0,1:0|0:0,0:0:0:0:
485,116,195408,2,0,P|455:161|357:180,1,123.75,4|0,0:3|0:0,0:0:0:0:
226,108,195680,1,0,0:0:0:0:
230,88,195748,1,0,0:0:0:0:
237,68,195817,1,0,0:0:0:0:
345,267,195953,6,0,L|338:361,1,82.5,4|0,0:3|0:0,0:0:0:0:
324,107,196226,1,0,1:0:0:0:
354,372,196362,2,0,B|339:234|441:289|419:134,1,257.8125,4|0,0:3|0:0,0:0:0:0:
467,21,196771,6,0,B|495:39|495:39|493:116|418:133,1,165,0|0,1:0|0:0,0:0:0:0:
237,68,197180,1,0,0:0:0:0:
375,353,197317,2,0,P|455:292|400:213,1,185.625007081032,0|0,1:0|0:0,0:0:0:0:
187,295,197589,2,0,P|231:310|257:239,1,123.75,4|0,0:3|0:0,0:0:0:0:
264,253,197862,5,0,0:0:0:0:
126,174,197998,1,0,0:0:0:0:
1,283,198135,1,4,0:3:0:0:
1,283,198203,1,0,0:0:0:0:
1,283,198271,1,0,0:0:0:0:
1,283,198339,1,0,0:0:0:0:
1,283,198408,5,0,1:0:0:0:
88,358,198544,1,4,0:3:0:0:
264,253,198680,1,0,0:0:0:0:
126,174,198816,1,0,0:0:0:0:
219,368,198953,6,0,P|229:330|268:247,1,123.75,0|0,1:0|0:0,0:0:0:0:
126,174,199226,6,0,B|114:174|95:171|87:108|104:104|104:104|121:100|66:192|170:241,1,247.5,2|0,0:1|0:0,0:0:0:0:
327,346,199498,6,0,P|385:327|464:324,1,123.75,0|0,1:0|0:0,0:0:0:0:
505,234,199771,6,0,P|466:229|373:181,1,123.75,4|0,0:3|0:0,0:0:0:0:
293,152,200044,6,0,P|283:114|244:31,1,123.75,0|0,0:0|0:0,0:0:0:0:
140,154,200317,6,0,P|157:102|160:50,1,82.5,4|0,0:3|0:0,0:0:0:0:
11,20,200589,5,0,1:0:0:0:
22,144,200726,1,0,0:0:0:0:
160,74,200862,1,4,0:3:0:0:
179,254,200998,1,4,0:3:0:0:
331,126,201135,6,0,P|378:171|486:163,1,165,4|0,1:2|0:0,0:0:0:0:
301,28,201544,1,0,0:0:0:0:
424,76,201680,2,0,P|463:66|494:39,1,82.5,0|0,1:0|0:0,0:0:0:0:
241,180,201953,6,2,B|188:143|188:143|202:-4,1,206.25,4|0,0:3|0:0,0:1:0:0:
300,27,202362,1,0,0:0:0:0:
16,75,202498,2,0,L|114:101,1,82.5,4|0,0:3|0:0,0:0:0:0:
300,27,202771,1,0,1:0:0:0:
16,75,202908,2,0,B|156:56|100:165|250:147,1,257.8125,4|0,0:3|0:0,0:0:0:0:
250,147,203317,6,0,P|213:174|169:168,1,92.812503540516,0|0,1:0|0:0,0:0:0:0:
202,32,203589,1,0,0:0:0:0:
221,30,203657,1,0,0:0:0:0:
240,36,203726,1,4,0:3:0:0:
50,168,203862,2,0,P|68:216|61:309,1,123.75,0|0,1:0|0:0,0:0:0:0:
67,287,204135,1,4,0:3:0:0:
67,287,204203,1,0,0:0:0:0:
67,287,204271,1,0,1:0:0:0:
67,287,204339,1,0,0:0:0:0:
67,287,204408,1,0,0:0:0:0:
266,244,204544,1,0,0:0:0:0:
238,24,204680,6,0,L|249:121,1,82.5,4|0,0:3|0:0,0:0:0:0:
266,244,204953,1,0,1:0:0:0:
379,1,205089,2,0,B|334:58|334:58|358:242,1,257.8125,4|0,0:3|0:0,0:0:0:0:
506,42,205498,6,0,P|474:46|436:122,1,123.750004720688,0|0,1:0|0:0,0:0:0:0:
458,294,205908,1,4,0:3:0:0:
331,101,206044,2,0,B|334:38|378:-12|378:-12|334:-24|278:37,1,185.625007081032,0|0,1:0|0:0,0:0:0:0:
250,137,206317,2,0,P|288:184|374:173,1,123.75,4|0,0:3|0:0,0:0:0:0:
48,85,206589,6,0,L|94:89,1,46.406251770258,0|0,0:0|0:0,0:0:0:0:
195,60,206862,6,0,B|116:45|127:98|46:84,1,154.6875,4|0,0:3|0:0,0:0:0:0:
321,0,207135,5,0,1:0:0:0:
250,137,207271,1,4,0:3:0:0:
477,25,207408,1,0,0:0:0:0:
379,267,207544,1,0,0:0:0:0:
19,41,207680,6,0,L|114:29,1,82.5,0|4,1:0|0:3,0:0:0:0:
100,30,208089,1,4,0:3:0:0:
493,41,208226,6,0,L|398:29,1,82.5,0|4,1:0|0:3,0:0:0:0:
412,30,208635,1,4,0:3:0:0:
79,238,208771,6,0,L|100:155,1,82.5,0|4,1:0|0:3,0:0:0:0:
99,158,209180,1,4,0:3:0:0:
433,238,209317,5,0,1:0:0:0:
430,228,209385,1,0,0:0:0:0:
427,218,209453,1,4,0:3:0:0:
425,208,209521,1,0,0:0:0:0:
422,198,209589,1,0,1:0:0:0:
420,188,209657,1,0,0:0:0:0:
417,178,209726,1,4,0:3:0:0:
415,168,209794,1,0,0:0:0:0:
412,158,209862,6,0,L|302:176,1,107.249995090485,4|0,1:2|0:0,0:0:0:0:
306,175,210408,2,0,L|315:99,1,53.6249975452424,8|0,0:0|0:0,0:0:0:0:
212,17,210680,2,0,L|222:140,1,107.249995090485,2|0,0:1|0:0,0:0:0:0:
220,123,211226,6,0,L|130:137,1,80.4374963178636,0|0,0:0|0:0,0:0:0:0:
62,149,211498,1,8,0:0:0:0:
275,176,211635,2,0,P|291:151|252:55,1,134.062493863106,0|0,0:0|0:0,0:0:0:0:
179,25,212044,6,0,P|156:63|70:77,1,134.062493863106,0|0,0:0|0:0,0:0:0:0:
4,22,212453,1,0,0:0:0:0:
85,170,212589,2,0,P|55:182|22:230,1,80.4374963178636,8|0,0:0|0:0,0:0:0:0:
143,314,212862,2,0,P|92:325|45:303,1,107.249995090485,0|0,0:0|0:0,0:0:0:0:
220,248,213408,6,0,P|238:273|244:307,1,53.6249975452424,0|0,0:0|0:0,0:0:0:0:
310,364,213680,1,8,0:0:0:0:
375,293,213817,2,0,P|381:265|484:211,1,134.062493863106,0|0,0:0|0:0,0:0:0:0:
467,301,214226,6,0,P|459:327|472:382,1,80.4374963178636,0|0,0:0|0:0,0:0:0:0:
469,378,214498,1,0,0:0:0:0:
310,364,214635,1,0,0:0:0:0:
462,208,214771,2,0,L|455:118,1,80.4374963178636,8|0,0:0|0:0,0:0:0:0:
366,81,215044,2,0,L|370:134,1,53.6249975452424,0|0,0:0|0:0,0:0:0:0:
272,243,215589,6,0,L|267:189,1,53.6249975452424,0|0,0:0|0:0,0:0:0:0:
259,88,215862,1,8,0:0:0:0:
175,146,215998,1,0,0:0:0:0:
49,53,216135,1,2,0:0:0:0:
22,151,216271,1,0,0:0:0:0:
100,216,216408,6,0,B|93:268|87:318,1,80.4374963178636,0|0,0:0|0:0,0:0:0:0:
175,146,216680,2,0,P|164:109|159:82,1,53.6249975452424,0|0,0:0|0:0,0:0:0:0:
49,53,216953,1,8,0:0:0:0:
191,240,217226,6,0,B|184:292|178:342,1,80.4374963178636,0|0,0:0|0:0,0:0:0:0:
354,293,217498,2,0,L|263:307,1,80.4374963178636,0|0,0:0|0:0,0:0:0:0:
87,334,217771,1,0,0:0:0:0:
87,334,218044,5,8,0:0:0:0:
200,245,218180,1,0,0:0:0:0:
99,233,218317,1,0,0:0:0:0:
188,346,218453,1,0,0:0:0:0:
407,207,218589,6,0,P|364:246|354:300,1,107.249995090485,4|0,0:0|0:0,0:0:0:0:
448,117,218998,1,0,0:0:0:0:
445,291,219135,2,0,P|462:308|498:317,1,53.6249975452424,8|0,0:0|0:0,0:0:0:0:
284,158,219408,6,0,P|319:152|359:77,1,107.249995090485,2|0,0:1|0:0,0:0:0:0:
265,252,219817,1,0,0:0:0:0:
283,3,219953,2,0,L|355:10,1,53.6249975452424,0|0,0:0|0:0,0:0:0:0:
437,20,220226,1,8,0:0:0:0:
230,82,220362,2,0,B|157:90|177:50|98:59,1,134.062493863106,0|0,0:0|0:0,0:0:0:0:
6,36,220771,6,0,L|19:165,1,107.249995090485,0|0,0:0|0:0,0:0:0:0:
105,192,221180,1,0,0:0:0:0:
22,252,221317,2,0,P|35:292|35:326,1,53.6249975452424,8|0,0:0|0:0,0:0:0:0:
118,140,221589,2,0,P|105:180|105:214,1,53.6249975452424,0|0,0:0|0:0,0:0:0:0:
200,368,222135,6,0,L|194:313,1,53.6249975452424,0|0,0:0|0:0,0:0:0:0:
236,221,222408,1,8,0:0:0:0:
293,373,222544,2,0,B|284:301|284:301|315:280|326:242,1,134.062493863106,0|0,0:0|0:0,0:0:0:0:
381,368,222953,6,0,P|381:331|444:298,1,107.249995090485,0|0,0:0|0:0,0:0:0:0:
321,253,223362,1,0,0:0:0:0:
478,217,223498,2,0,P|470:190|465:156,1,53.6249975452424,8|0,0:0|0:0,0:0:0:0:
345,43,223771,2,0,P|394:63|446:74,1,107.249995090485,0|0,0:0|0:0,0:0:0:0:
253,43,224317,6,0,P|262:76|271:101,1,53.6249975452424,0|0,0:0|0:0,0:0:0:0:
350,154,224589,1,8,0:0:0:0:
257,198,224726,1,0,0:0:0:0:
176,135,224862,1,2,0:0:0:0:
83,179,224998,1,0,0:0:0:0:
126,3,225135,6,0,P|114:41|92:75,1,80.4374963178636,0|0,0:0|0:0,0:0:0:0:
1,123,225408,2,0,L|-5:57,1,53.6249975452424,0|0,0:0|0:0,0:0:0:0:
176,135,225680,2,0,L|168:222,1,80.4374963178636,8|0,0:0|0:0,0:0:0:0:
168,215,225953,1,0,0:0:0:0:
256,32,226226,5,0,0:0:0:0:
389,185,226498,1,0,0:0:0:0:
505,17,226771,2,0,L|462:2,3,26.8124987726212,8|0|0|0,0:0|0:0|0:0|0:0,0:0:0:0:
505,17,227044,6,0,P|484:56|478:87,1,53.6249975452424,2|0,0:3|0:0,0:0:0:0:
414,245,227317,6,0,P|452:267|501:267,1,82.5,2|2,0:0|0:0,0:0:0:0:
351,152,227726,2,0,P|351:108|326:65,1,82.5,2|0,0:0|0:0,0:0:0:0:
302,254,228135,1,2,0:0:0:0:
302,254,228408,2,0,P|263:275|239:318,1,82.5,2|0,0:0|0:0,0:0:0:0:
414,245,228817,5,2,0:0:0:0:
414,245,228953,1,2,0:0:0:0:
414,245,229226,1,2,0:0:0:0:
243,307,229498,6,0,L|145:301,1,82.5,2|2,0:0|0:0,0:0:0:0:
170,133,229908,2,0,L|164:231,1,82.5,2|0,0:0|0:0,0:0:0:0:
66,211,230317,1,2,0:0:0:0:
37,381,230589,5,0,0:0:0:0:
37,381,230726,1,0,0:0:0:0:
101,323,230862,1,0,0:0:0:0:
101,323,230998,1,0,0:0:0:0:
47,254,231135,2,0,L|53:159,1,82.5,2|2,0:0|0:0,0:0:0:0:
172,302,231680,6,0,P|171:349|140:389,1,82.5,2|2,0:0|0:0,0:0:0:0:
47,254,232089,2,0,P|76:282|87:321,1,82.5,2|0,0:0|0:0,0:0:0:0:
27,384,232498,5,2,0:0:0:0:
340,302,232771,5,2,0:0:0:0:
340,302,232907,2,0,P|341:349|372:389,1,82.5,2|0,0:0|0:0,0:0:0:0:
465,254,233316,2,0,P|435:282|424:321,1,82.5,2|2,0:0|0:0,0:0:0:0:
256,191,233862,6,0,L|256:274,1,82.5,2|0,0:0|0:0,0:0:0:0:
256,21,234271,2,0,L|256:104,1,82.5,2|2,0:0|0:0,0:0:0:0:
256,274,234680,5,2,0:0:0:0:
256,104,234953,1,2,0:0:0:0:
257,277,235362,6,0,L|249:312,5,20.625,2|2|2|2|2|2,0:0|0:0|0:0|0:0|0:0|0:0,0:0:0:0:
234,314,235771,2,0,L|156:302,1,61.875,2|0,0:0|0:0,0:0:0:0:
150,314,236044,6,0,P|133:283|136:237,1,82.5,2|2,0:0|0:0,0:0:0:0:
64,129,236453,2,0,P|68:169|49:205,1,82.5,2|0,0:0|0:0,0:0:0:0:
185,155,236862,2,0,L|179:132,3,20.625,2|0|0|0,0:0|0:0|0:0|0:0,0:0:0:0:
163,115,237135,5,2,0:0:0:0:
69,34,237408,6,0,P|38:36|16:44,1,41.25,2|2,0:0|0:0,0:0:0:0:
244,33,237680,2,0,P|203:34|165:21,1,82.5,2|2,0:0|0:0,0:0:0:0:
353,167,238226,6,0,L|348:80,1,82.5,2|2,0:0|0:0,0:0:0:0:
469,4,238635,2,0,P|448:33|445:86,1,82.5,2|0,0:0|0:0,0:0:0:0:
454,167,239044,1,2,0:0:0:0:
367,299,239317,5,0,0:0:0:0:
367,299,239453,1,0,0:0:0:0:
436,264,239589,1,0,0:0:0:0:
436,264,239726,1,0,0:0:0:0:
504,301,239862,2,0,L|499:386,1,82.5,2|2,0:0|0:0,0:0:0:0:
292,342,240408,5,2,0:0:0:0:
146,283,240680,1,2,0:0:0:0:
146,283,240817,2,0,P|166:251|171:195,1,82.5,2|0,0:0|0:0,0:0:0:0:
235,146,241226,1,2,0:0:0:0:
67,105,241498,5,2,0:0:0:0:
67,105,241635,2,0,L|70:189,1,82.5,2|0,0:0|0:0,0:0:0:0:
235,146,242044,2,0,L|151:149,1,82.5,2|2,0:0|0:0,0:0:0:0:
11,269,242589,6,0,P|48:286|88:286,1,82.5,2|0,0:0|0:0,0:0:0:0:
244,265,242998,2,0,P|207:247|167:248,1,82.5,2|2,0:0|0:0,0:0:0:0:
165,335,243408,1,2,0:0:0:0:
11,269,243680,6,0,L|20:157,1,103.125,2|0,0:0|0:0,0:0:0:0:
89,122,244089,1,0,0:0:0:0:
88,117,244157,1,0,0:0:0:0:
88,112,244226,1,2,3:2:0:0:
87,107,244294,1,2,3:2:0:0:
86,103,244362,1,2,3:2:0:0:
85,98,244430,1,2,3:2:0:0:
84,93,244498,1,2,3:2:0:0:
82,89,244567,1,2,3:2:0:0:
80,85,244635,1,2,3:2:0:0:
77,81,244703,1,2,3:2:0:0:
75,77,244770,1,2,3:2:0:0:
72,73,244839,1,2,3:2:0:0:
69,69,244907,1,2,3:2:0:0:
66,66,244975,1,2,3:2:0:0:
63,62,245043,1,2,3:2:0:0:
60,58,245111,1,2,3:2:0:0:
58,54,245179,1,2,3:2:0:0:
55,50,245248,1,2,3:2:0:0:
53,45,245316,1,2,3:2:0:0:
51,41,245384,1,2,3:2:0:0:
50,37,245452,1,2,3:2:0:0:
49,32,245520,1,2,3:2:0:0:
48,27,245589,1,2,3:2:0:0:
47,23,245657,1,2,3:2:0:0:
46,18,245725,1,2,3:2:0:0:
46,13,245793,1,2,3:2:0:0:
46,8,245861,1,2,3:2:0:0:
