osu file format v14

[General]
AudioFilename: heiju-do.mp3
AudioLeadIn: 2000
PreviewTime: 69842
Countdown: 0
SampleSet: None
StackLeniency: 1
Mode: 0
LetterboxInBreaks: 0
WidescreenStoryboard: 1

[Editor]
Bookmarks: 45820,71978,98136,124294,141732,159353
DistanceSpacing: 1.6
BeatDivisor: 6
GridSize: 8
TimelineZoom: 3.799998

[Metadata]
Title:heiju-do
TitleUnicode:heiju-do
Artist:y0c1e
ArtistUnicode:y0c1e
Creator:Liiraye
Version:Ni
Source:
Tags:HanzeR Kyshiro Shiirn The Beatles Hey Jude 豊崎愛生 Aki Toyosaki cover remix glitch hop
BeatmapID:1595969
BeatmapSetID:124905

[Difficulty]
HPDrainRate:5
CircleSize:4
OverallDifficulty:5
ApproachRate:7
SliderMultiplier:1.6
SliderTickRate:1

[Events]
//Background and Video events
0,0,"heiju.jpg",0,0
//Break Periods
2,7824,18761
//Storyboard Layer 0 (Background)
//Storyboard Layer 1 (Fail)
//Storyboard Layer 2 (Pass)
//Storyboard Layer 3 (Foreground)
//Storyboard Sound Samples

[TimingPoints]
572,375,4,2,0,30,1,0
572,-133.333333333333,4,2,0,30,0,0
1312,375,4,2,0,30,1,0
1312,-133.333333333333,4,2,0,30,0,0
4312,-133.333333333333,4,2,0,15,0,0
5999,-133.333333333333,4,2,0,10,0,0
7624,-133.333333333333,4,2,0,5,0,0
18572,-133.333333333333,4,2,0,30,0,0
19661,545.454545454546,4,2,0,70,1,0
20206,-100,4,2,0,70,0,0
21842,-100,4,2,0,70,0,0
22388,-100,4,2,0,70,0,0
25297,-100,4,2,2,55,0,0
25570,-100,4,2,2,70,0,0
26206,-100,4,2,2,70,0,0
27297,-100,4,2,2,70,0,0
28297,-100,4,2,2,5,0,0
28388,-100,4,2,0,70,0,0
34933,-100,4,3,2,70,0,0
36570,-133.333333333333,4,2,0,70,0,0
37024,-100,4,2,0,70,0,0
37115,-100,4,2,2,90,0,0
37661,-100,4,2,2,90,0,0
38479,-100,4,2,2,90,0,0
39842,-100,4,2,2,90,0,0
40933,-100,4,2,2,90,0,0
41479,-100,4,2,2,90,0,0
42024,-100,4,2,2,90,0,0
42842,-100,4,2,2,90,0,0
45024,-100,4,2,2,70,0,0
45297,-100,4,2,2,90,0,0
46388,-100,4,2,2,90,0,0
47206,-100,4,2,2,90,0,0
48024,-100,4,2,2,90,0,0
48570,-100,4,2,2,90,0,0
49661,-100,4,2,2,90,0,0
50206,-100,4,2,2,90,0,0
50751,-100,4,2,2,90,0,0
51570,-100,4,2,2,90,0,0
52388,-100,4,2,2,80,0,0
52842,-100,4,2,2,5,0,0
52933,-100,4,2,2,100,0,0
53388,-100,4,2,2,5,0,0
53479,-100,4,2,2,90,0,0
53933,-100,4,2,2,5,0,0
54024,-133.333333333333,4,2,2,90,0,0
54570,-100,4,2,2,90,0,0
55115,-100,4,2,2,90,0,0
55933,-100,4,2,2,90,0,0
57297,-100,4,2,2,90,0,0
58115,-100,4,2,2,90,0,0
58933,-100,4,2,2,90,0,0
59479,-100,4,2,2,90,0,0
60297,-100,4,2,2,90,0,0
61661,-100,4,2,2,90,0,0
63024,-100,4,2,2,90,0,0
63297,-100,4,2,2,90,0,0
64115,-100,4,2,2,90,0,0
64661,-100,4,2,2,90,0,0
66024,-100,4,2,2,90,0,0
67115,-100,4,2,2,90,0,0
67661,-100,4,2,2,90,0,0
68206,-100,4,2,2,90,0,0
69024,-100,4,2,2,90,0,0
69842,-100,4,2,2,90,0,0
70297,-100,4,2,2,5,0,0
70388,-100,4,2,2,90,0,0
70842,-100,4,2,2,5,0,0
70933,-100,4,2,2,90,0,0
71388,-100,4,2,2,5,0,0
71479,-133.333333333333,4,2,2,90,0,0
72024,-100,4,2,2,90,0,1
72570,-100,4,2,2,90,0,1
73115,-100,4,2,2,90,0,1
73388,-100,4,2,2,90,0,1
74206,-100,4,2,2,90,0,1
74751,-100,4,2,2,90,0,1
75024,-100,4,2,2,90,0,1
75570,-100,4,2,2,90,0,1
76388,-100,4,2,2,90,0,1
76933,-100,4,2,2,90,0,1
77751,-100,4,2,2,90,0,1
78570,-100,4,2,2,90,0,1
78751,-100,4,2,2,90,0,1
79388,-100,4,2,2,90,0,1
80479,-100,4,2,2,90,0,0
80751,-100,4,2,2,90,0,1
82115,-100,4,2,2,90,0,1
82388,-100,4,2,2,90,0,1
82661,-100,4,2,2,90,0,1
83751,-100,4,2,2,90,0,1
84570,-100,4,2,2,90,0,1
84842,-100,4,2,2,90,0,1
85479,-100,4,2,2,90,0,1
85661,-100,4,2,2,90,0,1
86479,-100,4,2,2,90,0,1
87024,-100,4,2,2,90,0,1
87297,-100,4,2,2,90,0,1
87570,-100,4,2,2,90,0,1
88933,-133.333333333333,4,2,2,90,0,1
89479,-100,4,2,2,90,0,0
90024,-100,4,2,2,90,0,0
90570,-100,4,2,2,90,0,0
91115,-100,4,2,2,90,0,0
91388,-100,4,2,2,90,0,0
92479,-100,4,2,2,90,0,0
92751,-100,4,2,2,90,0,0
93842,-100,4,2,2,90,0,0
94933,-100,4,2,2,90,0,0
95479,-100,4,2,2,90,0,0
95751,-100,4,2,2,90,0,0
97933,-100,4,2,2,90,0,0
98206,-100,4,2,2,90,0,0
101388,-100,4,2,2,5,0,0
101479,-100,4,2,2,90,0,0
101933,-100,4,2,2,5,0,0
102024,-100,4,2,2,90,0,0
106933,-100,4,2,2,90,0,0
107479,-100,4,2,2,90,0,0
108297,-100,4,2,2,90,0,0
109661,-100,4,2,2,90,0,0
110751,-100,4,2,2,90,0,0
111297,-100,4,2,2,90,0,0
111842,-100,4,2,2,90,0,0
112661,-100,4,2,2,90,0,0
114024,-100,4,2,2,90,0,0
115115,-100,4,2,2,90,0,0
116206,-100,4,2,2,90,0,0
117024,-100,4,2,2,90,0,0
118388,-100,4,2,2,90,0,0
119206,-100,4,2,2,90,0,0
119479,-100,4,2,2,90,0,0
120024,-100,4,2,2,90,0,0
120570,-100,4,2,2,90,0,0
121388,-100,4,2,2,90,0,0
122206,-100,4,2,2,90,0,0
122661,-100,4,2,2,5,0,0
122751,-100,4,2,2,90,0,0
123206,-100,4,2,2,5,0,0
123297,-100,4,2,2,90,0,0
123751,-100,4,2,2,5,0,0
123842,-133.333333333333,4,2,2,90,0,0
124388,-100,4,2,2,90,0,0
124933,-100,4,2,2,90,0,0
126024,-100,4,2,2,90,0,0
127115,-100,4,2,2,90,0,0
128206,-100,4,2,2,90,0,0
129297,-100,4,2,2,90,0,0
130933,-100,4,2,2,90,0,0
131479,-100,4,2,2,90,0,0
132570,-100,4,2,2,90,0,0
132842,-100,4,2,2,90,0,0
133115,-100,4,2,2,90,0,0
133661,-100,4,2,2,90,0,0
134479,-100,4,2,2,90,0,0
135842,-100,4,2,2,90,0,0
136661,-100,4,2,2,90,0,0
136933,-100,4,2,2,90,0,0
137479,-100,4,2,2,90,0,0
138024,-100,4,2,2,90,0,0
138842,-100,4,2,2,90,0,0
139661,-100,4,2,2,90,0,0
140115,-100,4,2,2,5,0,0
140206,-100,4,2,2,90,0,0
140661,-100,4,2,2,5,0,0
140751,-100,4,2,2,90,0,0
141206,-100,4,2,2,5,0,0
141297,-133.333333333333,4,2,2,90,0,0
141842,-100,4,2,2,90,0,1
142388,-100,4,2,2,90,0,1
143206,-100,4,2,2,90,0,1
144024,-100,4,2,2,90,0,1
145388,-100,4,2,2,90,0,1
145661,-100,4,2,2,90,0,1
145933,-100,4,2,2,90,0,1
147570,-100,4,2,2,90,0,1
148388,-100,4,2,2,90,0,1
149206,-100,4,2,2,90,0,1
150024,-100,4,2,2,90,0,1
150297,-100,4,2,2,90,0,0
150570,-100,4,2,2,90,0,1
151115,-100,4,2,2,90,0,1
151933,-100,4,2,2,90,0,1
152205,-100,4,2,2,90,0,1
152751,-100,4,2,2,90,0,1
154114,-100,4,2,2,90,0,1
154387,-100,4,2,2,90,0,1
154660,-100,4,2,2,90,0,1
154933,-100,4,2,2,90,0,1
155478,-100,4,2,2,90,0,1
156296,-100,4,2,2,90,0,1
158751,-133.333333333333,4,2,2,90,0,1
159297,-100,4,2,2,90,0,1
159842,-100,4,2,2,90,0,1
160661,-100,4,2,2,90,0,1
161479,-100,4,2,2,90,0,1
162297,-100,4,2,2,90,0,1
162842,-100,4,2,2,90,0,1
165842,-100,4,2,2,90,0,1
166388,-100,4,2,2,90,0,1
167751,-100,4,2,2,90,0,0
168024,-100,4,2,2,90,0,1
168570,-100,4,2,2,90,0,1
169661,-100,4,2,2,90,0,1
169933,-100,4,2,2,90,0,1
171842,-100,4,2,2,90,0,1
172115,-100,4,2,2,90,0,1
174297,-100,4,2,2,90,0,1
174570,-100,4,2,2,90,0,1
175024,-100,4,2,2,5,0,1
175115,-100,4,2,2,90,0,1
175570,-100,4,2,2,5,0,1
175661,-100,4,2,2,90,0,1
176115,-100,4,2,2,5,0,1
176206,-133.333333333333,4,2,2,90,0,1
176751,-100,4,2,2,90,0,0

[Colours]
Combo1 : 255,181,145
Combo2 : 255,128,64
Combo3 : 249,81,0
Combo4 : 189,62,0

[HitObjects]
148,308,572,6,0,P|200:336|258:328,1,120.000004577637,2|8,0:0|0:0,0:0:0:0:
374,251,1312,6,0,P|322:223|264:231,1,120.000004577637,2|8,0:0|0:0,0:0:0:0:
166,122,2062,2,0,L|157:49,2,60.0000022888185,2|0|2,0:0|0:0|0:0,0:0:0:0:
96,248,2624,1,4,0:0:0:0:
256,192,2999,12,0,4374,0:0:0:0:
256,192,4687,12,0,5999,0:0:0:0:
256,192,6312,12,0,7624,0:0:0:0:
196,328,19661,6,0,B|256:264|256:264|256:176,1,160,4|2,1:0|0:0,0:0:0:0:
192,44,20751,2,0,P|168:80|168:136,1,80,8|0,0:0|1:0,0:0:0:0:
348,115,21297,2,0,P|342:76|320:44,1,80,8|2,0:0|0:0,0:0:0:0:
256,191,21842,6,0,B|256:264|256:264|316:328,1,160,4|2,1:0|0:0,0:0:0:0:
463,199,23024,2,0,L|457:272,1,53.3333333333333,2|2,0:0|0:0,0:0:0:0:
425,317,23297,2,0,L|430:353,2,26.6666666666667,8|0|8,0:0|0:0|0:0,0:0:0:0:
364,276,23570,2,0,B|359:251|359:251|363:223,1,53.3333333333333,2|8,0:0|0:0,0:0:0:0:
387,90,24024,38,0,P|327:63|268:89,1,133.333333333333,4|0,1:0|0:0,0:0:0:0:
244,129,24570,2,0,B|244:170|244:170|252:194|252:194|244:226|244:226|212:242|212:242|188:234|188:234|164:242|164:242|132:226|132:226|124:194|124:194|132:162|132:162|132:130,1,320,0|2,3:0|0:0,0:0:0:0:
62,347,26206,6,0,P|95:363|190:333,1,133.333333333333,4|0,1:0|0:0,0:0:0:0:
196,316,26751,2,0,P|256:291|316:316,1,133.333333333333,0|0,0:0|0:0,0:0:0:0:
333,335,27297,2,0,P|342:270|392:228,1,133.333333333333,0|0,0:0|0:0,0:0:0:0:
418,233,27842,2,0,B|433:243|448:261|448:261|435:192|463:131,1,160,2|6,3:0|0:0,0:0:0:0:
387,59,28661,5,2,3:0:0:0:
305,157,28933,2,0,L|216:165,1,80,2|2,0:0|3:0,0:0:0:0:
316,254,29479,2,0,L|236:261,1,80,4|2,3:0|3:0,0:0:0:0:
132,165,30024,2,0,L|125:246,1,80,2|2,0:0|3:0,0:0:0:0:
48,155,30570,6,0,P|60:118|90:92,1,80,4|2,3:0|3:0,0:0:0:0:
218,100,31115,2,0,P|258:103|310:78,1,80,4|2,3:0|3:0,0:0:0:0:
412,37,31661,2,0,L|424:137,1,80,8|2,3:0|3:0,0:0:0:0:
451,240,32206,2,0,B|410:244|410:244|358:230,1,80,2|2,3:0|3:0,0:0:0:0:
248,267,32751,38,0,B|242:222|242:222|258:173,1,80,4|2,3:0|3:0,0:0:0:0:
377,155,33297,2,0,B|382:199|382:199|371:233,1,80,4|2,3:0|3:0,0:0:0:0:
302,125,33842,2,0,B|255:114|255:114|207:120,1,80,4|2,3:0|3:0,0:0:0:0:
293,225,34388,2,0,B|340:236|340:236|388:230,1,80,4|2,3:0|3:0,0:0:0:0:
477,188,34933,6,0,L|513:158,5,26.6666666666667,0|0|0|0|0|0,0:0|0:0|0:0|0:0|0:0|0:0,0:0:0:0:
438,126,35479,2,0,L|467:84,5,26.6666666666667,4|4|4|4|4|4,0:0|0:0|0:0|0:0|0:0|0:0,0:0:0:0:
385,75,36024,2,0,L|392:28,5,26.6666666666667,2|2|2|2|2|2,0:0|0:0|0:0|0:0|0:0|0:0,0:0:0:0:
317,40,36570,6,0,P|271:24|221:26,1,100.000003814697,2|0,0:0|0:0,0:0:0:0:
162,74,37115,6,0,L|147:225,1,133.333333333333,4|0,1:0|0:0,0:0:0:0:
88,255,37661,2,0,B|82:292|82:292|85:307,1,53.3333333333333,2|8,0:0|0:0,0:0:0:0:
158,291,37933,2,0,P|197:293|235:283,1,80,8|2,0:0|3:0,0:0:0:0:
378,292,38388,1,4,3:0:0:0:
375,308,38479,2,0,P|408:338|463:351,1,80,8|2,2:0|0:0,0:0:0:0:
467,229,38933,1,2,0:0:0:0:
464,212,39024,2,0,L|458:157,1,53.3333333333333,2|2,0:0|0:0,0:0:0:0:
481,89,39297,6,0,P|441:86|407:105,1,80,4|0,1:0|0:0,0:0:0:0:
296,112,39842,1,8,0:0:0:0:
333,182,40024,2,0,P|345:175|355:166,1,26.6666666666667,8|2,0:0|0:0,0:0:0:0:
340,44,40388,2,0,P|304:32|244:48,1,80,2|4,3:0|1:0,0:0:0:0:
186,127,40842,1,0,0:0:0:0:
171,115,40933,2,0,B|127:127|127:127|99:163|99:163|59:179,1,133.333333333333,2|0,0:0|0:0,0:0:0:0:
18,118,41479,38,0,L|48:259,1,133.333333333333,4|0,1:0|0:0,0:0:0:0:
119,257,42024,2,0,L|134:318,1,53.3333333333333,2|8,0:0|0:0,0:0:0:0:
103,379,42297,2,0,B|67:354|67:354|59:312,1,80,8|2,0:0|3:0,0:0:0:0:
161,180,42751,1,4,3:0:0:0:
179,175,42842,2,0,P|223:171|274:183,1,80,8|2,2:0|0:0,0:0:0:0:
356,266,43297,1,2,0:0:0:0:
361,283,43388,2,0,P|366:319|366:349,1,53.3333333333333,2|2,0:0|0:0,0:0:0:0:
430,378,43661,6,0,B|438:344|438:344|437:310|437:310|448:274|448:274|450:237|450:237|459:201,1,160,4|8,1:0|3:0,0:0:0:0:
417,76,44388,1,4,3:0:0:0:
412,91,44479,2,0,L|395:141,1,53.3333333333333,2|2,0:0|0:0,0:0:0:0:
336,94,44751,2,0,P|303:77|259:73,1,80,2|2,3:0|0:0,0:0:0:0:
97,206,45297,2,0,L|92:232,2,26.6666666666667,4|4|4,3:0|3:0|3:0,0:0:0:0:
168,181,45570,2,0,L|230:177,1,53.3333333333333,8|2,2:0|3:0,0:0:0:0:
260,237,45842,6,0,P|282:297|253:355,1,133.333333333333,4|0,1:0|0:0,0:0:0:0:
183,335,46388,2,0,P|154:333|130:341,1,53.3333333333333,2|8,0:0|0:0,0:0:0:0:
59,364,46661,2,0,L|68:276,1,80,8|2,0:0|3:0,0:0:0:0:
70,179,47115,1,4,3:0:0:0:
63,165,47206,2,0,P|72:123|103:86,1,80,8|2,2:0|0:0,0:0:0:0:
206,126,47661,1,2,0:0:0:0:
223,122,47751,2,0,P|246:123|283:141,1,53.3333333333333,2|2,0:0|0:0,0:0:0:0:
294,208,48024,6,0,P|331:262|395:272,1,133.333333333333,4|0,1:0|0:0,0:0:0:0:
446,213,48570,2,0,P|465:233|473:258,1,53.3333333333333,8|8,0:0|0:0,0:0:0:0:
371,197,48842,2,0,P|387:161|420:140,1,80,2|2,0:0|3:0,0:0:0:0:
312,77,49388,2,0,L|294:137,1,53.3333333333333,4|2,1:0|0:0,0:0:0:0:
220,163,49661,2,0,L|196:26,1,133.333333333333,2|0,0:0|0:0,0:0:0:0:
196,31,50206,38,0,P|127:53|89:107,1,133.333333333333,4|0,1:0|0:0,0:0:0:0:
45,154,50751,2,0,P|38:193|48:224,1,53.3333333333333,2|8,0:0|0:0,0:0:0:0:
111,189,51024,2,0,P|149:200|181:223,1,80,8|2,0:0|3:0,0:0:0:0:
219,338,51479,1,4,3:0:0:0:
236,336,51570,2,0,L|319:328,1,80,8|2,0:0|0:0,0:0:0:0:
435,246,52024,1,2,0:0:0:0:
418,244,52115,2,0,L|365:237,1,53.3333333333333,2|2,0:0|0:0,0:0:0:0:
306,193,52388,6,0,B|293:136|293:136|301:86|301:86|286:22,2,160,4|8|4,1:0|3:0|0:0,0:0:0:0:
63,184,54024,6,0,P|54:134|79:93,1,100.000003814697,2|0,0:0|0:0,0:0:0:0:
133,148,54570,6,0,P|138:216|89:259,1,133.333333333333,4|0,1:0|0:0,0:0:0:0:
28,297,55115,2,0,P|25:323|32:349,1,53.3333333333333,2|8,0:0|0:0,0:0:0:0:
102,331,55388,2,0,P|139:319|179:322,1,80,8|2,0:0|3:0,0:0:0:0:
283,363,55842,1,4,3:0:0:0:
300,368,55933,2,0,L|293:286,1,80,8|2,0:0|0:0,0:0:0:0:
406,163,56388,1,2,0:0:0:0:
421,154,56479,2,0,L|411:213,1,53.3333333333333,2|2,0:0|0:0,0:0:0:0:
351,245,56751,38,0,P|286:233|253:177,1,133.333333333333,4|0,1:0|0:0,0:0:0:0:
199,129,57297,2,0,P|221:112|246:106,1,53.3333333333333,8|8,0:0|0:0,0:0:0:0:
297,54,57570,2,0,P|253:35|213:39,1,80,2|2,0:0|3:0,0:0:0:0:
112,136,58115,2,0,L|118:83,1,53.3333333333333,4|2,1:0|0:0,0:0:0:0:
42,98,58388,2,0,B|27:197|27:197|46:243,1,133.333333333333,2|0,0:0|0:0,0:0:0:0:
105,261,58933,6,0,B|137:265|137:265|209:237|209:237|239:242,1,133.333333333333,4|0,1:0|0:0,0:0:0:0:
289,286,59479,2,0,B|286:314|286:314|291:339,1,53.3333333333333,2|8,0:0|0:0,0:0:0:0:
371,303,59751,2,0,B|372:268|372:268|357:224,1,80,8|2,0:0|3:0,0:0:0:0:
232,152,60206,1,4,3:0:0:0:
234,136,60297,2,0,P|239:110|279:64,1,80,8|2,0:0|0:0,0:0:0:0:
355,146,60751,1,2,0:0:0:0:
371,148,60842,2,0,L|424:157,1,53.3333333333333,2|2,0:0|0:0,0:0:0:0:
476,208,61115,6,0,P|492:130|419:86,1,160,4|6,1:0|0:0,0:0:0:0:
286,105,61842,1,4,3:0:0:0:
286,105,61933,2,0,B|311:115|311:115|337:113,1,53.3333333333333,2|4,0:0|3:0,0:0:0:0:
328,38,62206,2,0,P|291:23|252:31,1,80,2|2,3:0|0:0,0:0:0:0:
198,208,62751,1,4,3:0:0:0:
197,226,62842,2,0,L|195:276,2,26.6666666666667,4|4|8,3:0|3:0|0:0,0:0:0:0:
123,324,63206,1,2,3:0:0:0:
137,342,63297,6,0,P|216:358|276:322,1,133.333333333333,4|0,1:0|0:0,0:0:0:0:
332,313,63842,2,0,L|345:359,2,26.6666666666667,0|0|0,3:0|3:0|3:0,0:0:0:0:
355,240,64115,2,0,L|357:151,1,80,2|4,0:0|0:3,0:0:0:0:
269,137,64570,1,8,0:3:0:0:
283,151,64661,2,0,P|311:167|368:150,1,80,4|2,0:3|0:0,0:0:0:0:
458,145,65115,1,0,3:0:0:0:
455,131,65206,2,0,L|446:78,1,53.3333333333333,0|2,3:0|2:0,0:0:0:0:
446,78,65479,38,0,P|398:47|305:55,1,133.333333333333,4|0,1:0|0:0,0:0:0:0:
263,83,66024,2,0,L|270:149,1,53.3333333333333,8|8,0:0|0:0,0:0:0:0:
196,127,66297,2,0,L|188:45,1,80,2|2,0:0|3:0,0:0:0:0:
106,173,66842,2,0,P|118:196|139:212,1,53.3333333333333,4|0,3:0|0:0,0:0:0:0:
212,216,67115,2,0,B|219:281|219:281|201:369,1,133.333333333333,2|0,3:0|0:0,0:0:0:0:
205,347,67661,6,0,B|305:344|305:344|340:314,1,133.333333333333,4|0,1:0|0:0,0:0:0:0:
390,282,68206,2,0,L|463:290,1,53.3333333333333,2|8,0:0|0:0,0:0:0:0:
468,219,68479,2,0,L|373:209,1,80,8|2,0:0|3:0,0:0:0:0:
334,122,68933,1,4,3:0:0:0:
331,105,69024,2,0,L|320:18,1,80,8|2,0:0|0:0,0:0:0:0:
180,39,69479,1,2,0:0:0:0:
178,56,69570,2,0,L|172:110,1,53.3333333333333,2|2,0:0|0:0,0:0:0:0:
167,145,69842,5,4,1:0:0:0:
442,296,70388,1,8,3:0:0:0:
106,351,70933,2,0,B|98:298|98:298|106:209,1,133.333333333333,4|0,0:0|0:0,0:0:0:0:
75,152,71479,38,0,P|122:165|167:146,1,100.000003814697,2|0,0:0|0:0,0:0:0:0:
246,89,72024,38,0,L|319:82,1,53.3333333333333,4|2,3:1|0:0,0:0:0:0:
364,148,72297,2,0,B|371:182|371:182|364:220,1,53.3333333333333,0|2,3:3|0:0,0:0:0:0:
329,281,72570,2,0,B|320:326|320:326|330:383,2,80,2|0|4,3:0|3:0|3:0,0:0:0:0:
449,336,73297,1,4,3:0:0:0:
449,336,73388,1,4,3:0:0:0:
243,289,73661,1,2,3:0:0:0:
49,341,73933,1,0,3:0:0:0:
148,373,74206,6,0,L|153:298,1,53.3333333333333,4|2,1:0|0:0,0:0:0:0:
154,279,74479,1,0,3:0:0:0:
145,177,74661,1,2,0:0:0:0:
145,177,74751,2,0,P|123:155|133:183,1,80,2|0,3:0|3:0,0:0:0:0:
328,166,75297,2,0,L|336:194,2,26.6666666666667,0|0|0,3:0|3:0|3:0,0:0:0:0:
375,95,75570,2,0,B|382:53|382:53|375:12,2,80,4|2|0,3:0|3:0|3:0,0:0:0:0:
225,73,76388,38,0,L|154:69,1,53.3333333333333,4|2,1:2|0:0,0:0:0:0:
109,108,76661,2,0,P|114:149|121:177,1,53.3333333333333,0|2,3:0|0:0,0:0:0:0:
123,232,76933,2,0,B|83:248|83:248|43:251,2,80,2|0|4,3:0|3:0|3:0,0:0:0:0:
171,70,77661,1,0,3:0:0:0:
171,70,77751,1,4,3:0:0:0:
256,221,78024,1,2,3:0:0:0:
367,67,78297,1,0,3:0:0:0:
263,137,78570,6,0,L|185:140,1,53.3333333333333,4|0,2:1|0:0,0:0:0:0:
166,216,78842,2,0,L|161:258,2,26.6666666666667,0|0|0,3:0|3:0|3:0,0:0:0:0:
256,221,79115,2,0,P|298:212|346:218,1,80,2|0,3:0|0:0,0:0:0:0:
487,342,79661,2,0,L|481:371,2,26.6666666666667,0|0|0,3:0|3:0|3:0,0:0:0:0:
396,320,79933,2,0,P|385:282|390:248,1,53.3333333333333,2|0,3:0|0:0,0:0:0:0:
471,208,80206,2,0,L|497:175,2,26.6666666666667,0|0|0,3:0|3:0|3:0,0:0:0:0:
439,116,80479,2,0,P|409:114|362:124,1,53.3333333333333,2|0,3:0|0:0,0:0:0:0:
304,153,80751,6,0,B|296:118|296:118|300:74,1,80,4|0,0:0|3:0,0:0:0:0:
181,99,81206,1,2,0:0:0:0:
163,106,81297,2,0,L|105:108,1,53.3333333333333,2|0,3:0|0:0,0:0:0:0:
69,190,81570,2,0,L|141:195,1,53.3333333333333,0|0,3:0|0:0,0:0:0:0:
205,229,81842,1,4,3:0:0:0:
356,155,82115,2,0,P|405:155|440:169,1,80,0|8,3:0|3:0,0:0:0:0:
445,361,82661,2,0,L|431:288,1,53.3333333333333,0|0,3:0|0:0,0:0:0:0:
384,233,82933,6,0,B|339:228|339:228|301:235,1,80,4|2,3:0|0:0,0:0:0:0:
208,324,83388,1,0,0:0:0:0:
200,305,83479,2,0,B|192:250|192:250|196:209,1,80,2|0,3:0|3:0,0:0:0:0:
325,121,84024,2,0,L|334:79,2,26.6666666666667,0|0|0,3:0|3:0|3:0,0:0:0:0:
238,152,84297,2,0,L|139:137,1,80,0|2,3:0|3:0,0:0:0:0:
46,249,84842,2,0,L|124:238,1,53.3333333333333,0|0,3:0|0:0,0:0:0:0:
184,273,85115,38,0,B|195:310|195:310|189:362,1,80,4|0,1:2|3:0,0:0:0:0:
261,224,85570,1,2,0:0:0:0:
252,202,85661,2,0,B|243:172|243:172|244:150,1,53.3333333333333,2|0,3:0|0:0,0:0:0:0:
322,104,85933,2,0,B|331:134|331:134|329:155,1,53.3333333333333,0|0,3:0|0:0,0:0:0:0:
378,232,86206,2,0,B|421:239|421:239|465:232,1,80,0|4,3:3|3:0,0:0:0:0:
416,70,86751,2,0,B|409:111|409:111|418:158,1,80,2|0,3:0|3:0,0:0:0:0:
371,331,87297,6,0,P|349:344|323:349,1,53.3333333333333,4|0,3:0|0:0,0:0:0:0:
270,299,87570,2,0,L|257:226,1,53.3333333333333,0|2,3:0|0:0,0:0:0:0:
223,185,87842,2,0,P|189:180|166:181,1,53.3333333333333,0|2,3:0|0:0,0:0:0:0:
104,213,88115,1,0,3:0:0:0:
72,92,88297,2,0,L|80:64,1,26.6666666666667,2|2,0:0|3:0,0:0:0:0:
295,197,88933,54,0,L|289:93,1,100.000003814697,2|0,0:0|3:0,0:0:0:0:
364,106,89479,6,0,B|417:112|417:112|462:101,1,80,4|0,2:0|0:0,0:0:0:0:
491,246,90024,2,0,P|465:237|439:236,1,53.3333333333333,10|2,2:0|0:0,0:0:0:0:
375,272,90297,2,0,L|367:329,1,53.3333333333333,2|8,0:0|2:0,0:0:0:0:
367,324,90570,2,0,B|311:333|311:333|202:315,1,160,4|8,1:0|0:0,0:0:0:0:
244,229,91297,1,0,0:0:0:0:
245,212,91388,2,0,L|249:135,1,53.3333333333333,0|0,0:0|0:0,0:0:0:0:
317,137,91661,6,0,L|360:134,2,26.6666666666667,4|0|2,1:0|3:0|0:0,0:0:0:0:
310,65,91933,2,0,L|335:45,2,26.6666666666667,0|0|2,3:0|3:0|0:0,0:0:0:0:
249,23,92206,2,0,L|187:20,1,53.3333333333333,8|2,0:0|0:0,0:0:0:0:
133,57,92479,2,0,B|127:88|127:88|131:116,1,53.3333333333333,2|8,0:0|0:0,0:0:0:0:
170,169,92751,2,0,L|167:228,1,53.3333333333333,4|2,1:0|0:0,0:0:0:0:
121,278,93024,2,0,P|77:284|31:258,1,80,2|8,0:0|0:0,0:0:0:0:
89,208,93388,2,0,L|80:167,2,26.6666666666667,0|0|2,3:0|3:0|3:0,0:0:0:0:
195,291,93751,1,2,3:0:0:0:
210,280,93842,6,0,L|303:287,1,80,4|0,0:0|0:0,0:0:0:0:
441,206,94388,2,0,L|374:210,1,53.3333333333333,8|2,0:0|0:0,0:0:0:0:
344,150,94661,2,0,B|339:124|339:124|343:94,1,53.3333333333333,2|8,0:0|0:0,0:0:0:0:
410,121,94933,2,0,P|340:137|255:106,1,160,4|8,1:0|0:0,0:0:0:0:
157,181,95661,2,0,L|130:175,1,26.6666666666667,2|0,0:0|0:0,0:0:0:0:
151,316,96024,6,0,L|145:352,2,26.6666666666667,4|2|0,1:0|0:0|3:0,0:0:0:0:
218,280,96297,2,0,L|211:238,2,26.6666666666667,0|2|0,3:0|0:0|3:0,0:0:0:0:
275,329,96570,2,0,B|303:334|303:334|327:330,1,53.3333333333333,8|2,0:0|0:0,0:0:0:0:
374,271,96842,2,0,L|379:193,1,53.3333333333333,2|8,0:0|0:0,0:0:0:0:
330,162,97115,2,0,P|316:179|307:208,1,53.3333333333333,4|2,1:0|0:0,0:0:0:0:
250,151,97388,2,0,L|243:93,1,53.3333333333333,2|0,2:0|3:0,0:0:0:0:
290,41,97661,2,0,L|294:7,3,26.6666666666667,8|0|0|2,0:0|3:0|3:0|3:0,0:0:0:0:
408,100,98115,1,2,3:0:0:0:
422,114,98206,38,0,L|433:198,1,80,4|0,2:0|0:0,0:0:0:0:
288,354,98751,2,0,L|288:286,1,53.3333333333333,2|2,0:0|0:0,0:0:0:0:
298,281,99024,1,2,0:0:0:0:
255,142,99297,2,0,P|188:135|157:62,1,133.333333333333,4|4,0:0|0:0,0:0:0:0:
228,75,99842,2,0,L|252:64,3,26.6666666666667,0|0|0|4,0:0|0:0|0:0|0:0,0:0:0:0:
158,259,100388,6,0,L|123:291,2,26.6666666666667,0|0|0,3:0|3:0|3:0,0:0:0:0:
109,204,100661,2,0,L|80:195,2,26.6666666666667,0|0|0,3:0|3:0|3:0,0:0:0:0:
179,189,100933,2,0,P|229:232|219:299,1,133.333333333333,2|0,0:0|0:0,0:0:0:0:
292,269,101479,2,0,B|366:243|377:300|452:272,2,160,2|2|8,0:0|0:0|3:0,0:0:0:0:
196,186,102751,6,0,L|180:155,1,26.6666666666667,0|2,0:0|3:0,0:0:0:0:
307,136,103024,2,0,L|302:104,1,26.6666666666667,0|2,0:0|0:0,0:0:0:0:
414,186,103297,2,0,L|420:147,1,26.6666666666667,2|2,0:0|3:0,0:0:0:0:
412,43,103570,1,0,0:0:0:0:
395,40,103661,2,0,B|308:21|308:21|251:33,1,133.333333333333,8|2,3:0|3:0,0:0:0:0:
198,58,104206,2,0,P|161:64|112:50,1,80,0|8,0:0|3:0,0:0:0:0:
42,169,104751,5,4,1:0:0:0:
323,119,105297,1,8,3:0:0:0:
202,288,105842,1,4,0:0:0:0:
248,71,106388,2,0,P|220:32|231:78,1,133.333333333333,2|0,0:0|0:0,0:0:0:0:
274,136,106933,38,0,B|285:182|285:182|269:287,1,133.333333333333,4|0,1:0|0:0,0:0:0:0:
202,288,107479,2,0,P|175:282|149:279,1,53.3333333333333,2|8,0:0|0:0,0:0:0:0:
89,239,107751,2,0,P|120:213|172:212,1,80,8|2,0:0|3:0,0:0:0:0:
340,310,108206,1,4,3:0:0:0:
341,294,108297,2,0,L|347:214,1,80,8|2,0:0|0:0,0:0:0:0:
249,63,108751,1,2,0:0:0:0:
247,79,108842,2,0,L|243:133,1,53.3333333333333,2|2,0:0|0:0,0:0:0:0:
311,153,109115,6,0,P|388:155|419:217,1,133.333333333333,4|2,1:0|0:0,0:0:0:0:
413,236,109661,1,8,0:0:0:0:
329,356,109842,1,8,0:0:0:0:
318,344,109933,2,0,P|287:322|255:311,1,53.3333333333333,2|0,0:0|0:0,0:0:0:0:
200,310,110206,2,0,P|153:315|111:311,1,80,2|4,3:0|1:0,0:0:0:0:
236,116,110751,2,0,L|245:258,1,133.333333333333,2|0,0:0|0:0,0:0:0:0:
316,257,111297,6,0,B|349:260|349:260|379:277|379:277|443:286,1,133.333333333333,4|0,1:0|0:0,0:0:0:0:
477,222,111842,2,0,P|481:192|480:160,1,53.3333333333333,2|8,0:0|0:0,0:0:0:0:
427,119,112115,2,0,B|388:112|388:112|333:120,1,80,8|2,0:0|3:0,0:0:0:0:
219,51,112570,1,4,3:0:0:0:
232,58,112661,2,0,P|259:97|266:151,1,80,8|2,0:0|0:0,0:0:0:0:
111,156,113115,1,2,0:0:0:0:
95,154,113206,2,0,L|35:148,1,53.3333333333333,2|2,0:0|0:0,0:0:0:0:
86,83,113479,6,0,P|152:91|185:176,1,160,4|8,1:0|3:0,0:0:0:0:
313,91,114206,1,0,0:0:0:0:
313,91,114297,2,0,L|324:151,1,53.3333333333333,2|2,0:0|0:0,0:0:0:0:
380,192,114570,2,0,P|396:160|389:108,1,80,2|2,3:0|0:0,0:0:0:0:
342,299,115115,1,4,3:0:0:0:
342,318,115206,2,0,L|341:360,2,26.6666666666667,4|4|8,3:0|3:0|0:0,0:0:0:0:
203,268,115570,1,2,3:0:0:0:
181,256,115661,38,0,B|166:209|166:209|177:121,1,133.333333333333,4|0,1:0|0:0,0:0:0:0:
122,77,116206,2,0,L|130:16,1,53.3333333333333,2|8,0:0|0:0,0:0:0:0:
198,47,116479,2,0,P|237:53|286:45,1,80,8|2,0:0|3:0,0:0:0:0:
403,99,116933,1,4,3:0:0:0:
405,113,117024,2,0,L|417:197,1,80,8|2,0:0|0:0,0:0:0:0:
315,295,117479,1,2,0:0:0:0:
318,280,117570,2,0,L|327:220,1,53.3333333333333,2|2,0:0|0:0,0:0:0:0:
270,177,117842,6,0,P|218:136|153:150,1,133.333333333333,4|0,1:0|0:0,0:0:0:0:
200,210,118388,2,0,P|196:249|173:275,1,53.3333333333333,8|8,0:0|0:0,0:0:0:0:
124,220,118661,2,0,P|101:205|77:152,1,80,2|2,0:0|3:0,0:0:0:0:
274,69,119206,2,0,L|345:61,1,53.3333333333333,4|0,1:0|0:0,0:0:0:0:
355,130,119479,2,0,B|363:184|363:184|349:219|349:219|358:282,1,133.333333333333,2|0,0:0|0:0,0:0:0:0:
370,333,120024,6,0,B|410:313|410:313|428:270|428:270|423:228,1,133.333333333333,4|0,1:0|0:0,0:0:0:0:
449,160,120570,2,0,L|454:98,1,53.3333333333333,2|8,0:0|0:0,0:0:0:0:
415,45,120842,2,0,P|377:40|321:48,1,80,8|2,0:0|3:0,0:0:0:0:
230,125,121297,1,4,3:0:0:0:
216,126,121388,2,0,P|214:91|235:32,1,80,8|2,0:0|0:0,0:0:0:0:
349,112,121842,1,2,0:0:0:0:
352,127,121933,2,0,P|350:163|338:191,1,53.3333333333333,2|2,0:0|0:0,0:0:0:0:
328,219,122206,5,4,1:0:0:0:
158,85,122751,1,8,3:0:0:0:
390,34,123297,1,4,0:0:0:0:
342,305,123842,22,0,B|329:252|329:252|338:191,1,100.000003814697,2|0,0:0|0:0,0:0:0:0:
392,160,124388,6,0,B|343:195|312:142|265:177,1,133.333333333333,4|0,1:0|0:0,0:0:0:0:
196,200,124933,2,0,P|193:169|210:128,1,53.3333333333333,2|8,0:0|0:0,0:0:0:0:
255,102,125206,2,0,P|262:53|241:13,1,80,8|2,0:0|3:0,0:0:0:0:
119,51,125661,1,4,3:0:0:0:
105,62,125751,2,0,L|184:68,1,80,8|2,0:0|0:0,0:0:0:0:
335,171,126206,1,2,0:0:0:0:
348,185,126297,2,0,L|281:190,1,53.3333333333333,2|2,0:0|0:0,0:0:0:0:
238,236,126570,6,0,B|226:277|226:277|242:375,1,133.333333333333,4|0,1:0|0:0,0:0:0:0:
305,335,127115,2,0,P|350:326|373:329,1,53.3333333333333,8|8,0:0|0:0,0:0:0:0:
416,284,127388,2,0,P|457:294|497:328,1,80,2|8,0:0|0:0,0:0:0:0:
310,190,127933,2,0,B|303:162|303:162|305:127,1,53.3333333333333,4|0,1:0|0:0,0:0:0:0:
374,155,128206,2,0,P|369:230|305:264,1,133.333333333333,2|0,0:0|0:0,0:0:0:0:
258,240,128751,6,0,B|226:230|226:230|161:239|161:239|126:229,1,133.333333333333,4|0,1:0|0:0,0:0:0:0:
166,167,129297,2,0,P|170:129|168:97,1,53.3333333333333,2|8,0:0|0:0,0:0:0:0:
99,132,129570,2,0,P|61:142|15:138,1,80,8|2,0:0|3:0,0:0:0:0:
176,38,130024,1,4,3:0:0:0:
192,39,130115,2,0,P|225:58|245:93,1,80,8|2,0:0|0:0,0:0:0:0:
184,245,130570,1,2,0:0:0:0:
191,259,130661,2,0,B|197:284|197:284|194:323,1,53.3333333333333,2|2,0:0|0:0,0:0:0:0:
128,340,130933,6,0,B|177:335|206:357|206:357|232:326|288:330,1,160,4|8,1:0|3:0,0:0:0:0:
424,355,131661,1,0,0:0:0:0:
424,355,131751,2,0,P|388:342|362:319,1,53.3333333333333,2|2,0:0|0:0,0:0:0:0:
324,275,132024,2,0,P|358:260|393:215,1,80,2|2,3:0|0:0,0:0:0:0:
362,95,132570,1,0,3:0:0:0:
353,73,132661,2,0,L|341:44,2,26.6666666666667,0|0|8,3:0|3:0|0:0,0:0:0:0:
461,130,133024,1,2,3:0:0:0:
467,150,133115,38,0,P|449:211|385:230,1,133.333333333333,4|0,1:0|0:0,0:0:0:0:
326,268,133661,2,0,L|318:301,2,26.6666666666667,0|4|4,3:0|3:0|3:0,0:0:0:0:
390,301,133933,2,0,B|417:302|417:302|485:284,1,80,2|4,0:0|3:0,0:0:0:0:
397,161,134388,1,8,3:0:0:0:
393,147,134479,2,0,L|378:62,1,80,4|2,3:0|0:0,0:0:0:0:
217,21,134933,1,0,3:0:0:0:
214,35,135024,2,0,L|203:102,1,53.3333333333333,0|2,3:0|0:0,0:0:0:0:
148,133,135297,6,0,P|192:160|271:119,1,133.333333333333,4|0,1:0|0:0,0:0:0:0:
274,203,135842,2,0,L|285:278,1,53.3333333333333,8|8,0:0|0:0,0:0:0:0:
213,281,136115,2,0,B|173:288|173:288|129:279,1,80,2|2,0:0|3:0,0:0:0:0:
347,324,136661,2,0,L|409:315,1,53.3333333333333,4|0,1:0|0:0,0:0:0:0:
465,285,136933,2,0,B|444:244|399:243|399:243|411:214|392:185,1,133.333333333333,2|0,0:0|0:0,0:0:0:0:
328,219,137479,6,0,P|326:171|399:120,1,133.333333333333,4|0,1:0|0:0,0:0:0:0:
318,100,138024,2,0,L|250:91,1,53.3333333333333,2|8,0:0|0:0,0:0:0:0:
194,112,138297,2,0,B|186:142|186:142|192:215,1,80,8|2,0:0|3:0,0:0:0:0:
109,330,138751,1,4,3:0:0:0:
109,315,138842,2,0,L|106:230,1,80,8|2,0:0|0:0,0:0:0:0:
271,345,139297,1,2,0:0:0:0:
271,329,139388,2,0,L|269:273,1,53.3333333333333,2|2,0:0|0:0,0:0:0:0:
268,232,139661,5,4,1:0:0:0:
444,42,140206,1,8,3:0:0:0:
100,42,140751,1,4,0:0:0:0:
209,193,141297,22,0,P|250:213|307:205,1,100.000003814697,2|0,0:0|0:0,0:0:0:0:
341,287,141842,6,0,L|348:350,1,53.3333333333333,4|0,1:0|0:0,0:0:0:0:
430,302,142115,2,0,P|463:298|485:302,1,53.3333333333333,0|0,0:0|0:0,0:0:0:0:
482,209,142388,2,0,B|487:169|487:169|476:123,2,80,2|0|4,3:0|3:0|3:0,0:0:0:0:
343,175,143115,1,4,3:0:0:0:
343,175,143206,1,4,3:0:0:0:
252,25,143479,1,2,3:0:0:0:
441,43,143751,1,0,3:0:0:0:
441,229,144024,6,0,L|439:301,1,53.3333333333333,4|2,1:0|0:0,0:0:0:0:
372,344,144297,2,0,P|331:347|309:338,1,53.3333333333333,0|2,3:0|0:0,0:0:0:0:
251,281,144570,2,0,P|213:280|150:298,1,80,2|2,3:0|1:0,0:0:0:0:
86,179,145024,1,2,0:0:0:0:
88,158,145115,2,0,L|92:118,2,26.6666666666667,0|0|0,3:0|3:0|3:0,0:0:0:0:
170,198,145388,2,0,P|216:205|234:201,1,53.3333333333333,4|0,3:0|0:0,0:0:0:0:
280,133,145661,2,0,P|254:126|227:126,1,53.3333333333333,2|0,3:0|3:0,0:0:0:0:
153,74,145933,2,0,P|150:39|156:6,1,53.3333333333333,0|2,3:0|0:0,0:0:0:0:
242,36,146206,6,0,B|317:31,1,53.3333333333333,4|2,0:0|0:0,0:0:0:0:
375,76,146479,2,0,P|421:87|449:78,1,53.3333333333333,0|2,3:0|0:0,0:0:0:0:
474,162,146751,2,0,L|464:251,2,80,2|0|4,3:0|3:0|3:0,0:0:0:0:
292,178,147479,1,0,3:0:0:0:
292,178,147570,1,4,3:0:0:0:
426,86,147842,1,2,3:0:0:0:
465,241,148115,1,0,3:0:0:0:
336,301,148388,6,0,P|312:311|279:309,1,53.3333333333333,4|0,1:0|3:0,0:0:0:0:
224,240,148661,2,0,L|231:208,2,26.6666666666667,0|0|0,3:0|3:0|3:0,0:0:0:0:
135,266,148933,2,0,P|128:303|139:355,1,80,2|0,3:0|0:0,0:0:0:0:
179,138,149479,2,0,L|194:91,2,26.6666666666667,0|0|0,3:0|3:0|3:0,0:0:0:0:
88,131,149751,2,0,L|12:134,1,53.3333333333333,2|0,3:0|0:0,0:0:0:0:
65,46,150024,2,0,L|59:7,2,26.6666666666667,0|0|0,3:0|3:0|3:0,0:0:0:0:
155,33,150297,2,0,P|193:26|237:44,1,80,2|4,3:0|1:2,0:0:0:0:
364,161,150751,37,2,0:0:0:0:
381,148,150842,2,0,L|385:72,1,53.3333333333333,0|2,3:0|0:0,0:0:0:0:
293,110,151115,2,0,P|255:129|199:120,2,80,2|0|4,3:0|3:0|3:0,0:0:0:0:
264,232,151842,1,0,3:0:0:0:
266,251,151933,2,0,L|272:310,1,53.3333333333333,0|0,3:0|3:0,0:0:0:0:
362,295,152206,2,0,P|402:298|444:306,1,80,8|0,3:0|3:0,0:0:0:0:
184,215,152751,6,0,L|110:223,1,53.3333333333333,4|0,3:0|3:0,0:0:0:0:
54,170,153024,2,0,P|43:138|47:100,1,53.3333333333333,2|0,0:0|0:0,0:0:0:0:
134,122,153297,2,0,L|225:124,1,80,2|0,3:0|3:0,0:0:0:0:
315,33,153751,1,2,0:0:0:0:
331,29,153842,2,0,L|380:18,2,26.6666666666667,0|0|0,3:0|3:0|3:0,0:0:0:0:
357,116,154115,2,0,L|368:214,1,80,0|2,3:0|3:0,0:0:0:0:
181,339,154661,2,0,L|185:261,1,53.3333333333333,0|0,3:0|0:0,0:0:0:0:
253,227,154933,6,0,L|246:167,1,53.3333333333333,4|2,0:0|0:0,0:0:0:0:
188,102,155206,2,0,P|170:122|160:147,1,53.3333333333333,0|2,3:0|0:0,0:0:0:0:
110,224,155479,2,0,B|77:233|77:233|13:225,2,80,2|0|0,3:0|3:0|3:0,0:0:0:0:
58,49,156206,1,0,3:0:0:0:
60,68,156297,2,0,L|69:160,1,80,4|2,3:0|3:0,0:0:0:0:
281,202,156842,2,0,P|290:176|291:150,1,53.3333333333333,0|0,3:0|0:0,0:0:0:0:
263,62,157115,6,0,P|290:57|316:61,1,53.3333333333333,4|0,3:0|0:0,0:0:0:0:
393,111,157388,2,0,P|404:86|406:60,1,53.3333333333333,0|2,3:0|0:0,0:0:0:0:
476,119,157661,2,0,L|483:174,1,53.3333333333333,0|2,3:0|0:0,0:0:0:0:
398,279,158115,2,0,L|403:315,1,26.6666666666667,2|2,0:0|3:0,0:0:0:0:
150,178,158751,22,0,L|250:185,1,100.000003814697,2|0,0:0|3:0,0:0:0:0:
311,117,159297,6,0,B|313:89|313:89|304:44,1,53.3333333333333,4|2,1:0|0:0,0:0:0:0:
216,55,159570,2,0,L|159:62,1,53.3333333333333,0|2,3:0|0:0,0:0:0:0:
78,95,159842,2,0,B|73:51|73:51|84:16,2,80,2|0|0,3:0|3:0|3:0,0:0:0:0:
213,216,160570,1,4,3:0:0:0:
213,216,160661,1,4,3:0:0:0:
38,215,160933,1,2,3:0:0:0:
181,98,161206,1,0,3:0:0:0:
124,289,161479,6,0,L|134:357,1,53.3333333333333,4|2,1:0|0:0,0:0:0:0:
219,319,161751,2,0,B|247:315|247:315|295:322,1,53.3333333333333,0|2,3:0|0:0,0:0:0:0:
359,344,162024,2,0,P|366:308|365:287,1,53.3333333333333,2|2,3:0|3:0,0:0:0:0:
346,201,162297,2,0,P|320:209|300:226,1,53.3333333333333,0|0,3:0|0:0,0:0:0:0:
236,159,162570,2,0,L|230:127,2,26.6666666666667,0|0|0,3:0|3:0|3:0,0:0:0:0:
145,149,162842,2,0,L|70:153,1,53.3333333333333,4|0,3:0|0:0,0:0:0:0:
51,69,163115,2,0,L|126:73,1,53.3333333333333,2|0,3:0|3:0,0:0:0:0:
143,75,163388,1,0,3:0:0:0:
348,116,163661,6,0,L|353:46,1,53.3333333333333,4|2,0:0|0:0,0:0:0:0:
354,20,163933,1,0,3:0:0:0:
472,141,164115,1,2,0:0:0:0:
472,156,164206,2,0,L|476:212,1,53.3333333333333,2|0,3:0|0:0,0:0:0:0:
441,294,164479,2,0,P|394:298|348:286,1,80,0|4,3:0|3:0,0:0:0:0:
223,171,164933,1,0,3:0:0:0:
212,189,165024,2,0,L|221:264,1,53.3333333333333,4|0,3:0|0:0,0:0:0:0:
302,204,165297,2,0,L|308:151,1,53.3333333333333,2|0,3:0|0:0,0:0:0:0:
243,85,165570,2,0,L|173:95,1,53.3333333333333,0|0,3:0|0:0,0:0:0:0:
119,149,165842,6,0,L|127:223,1,53.3333333333333,4|0,1:0|0:0,0:0:0:0:
175,278,166115,2,0,L|206:282,2,26.6666666666667,0|0|0,3:0|3:0|3:0,0:0:0:0:
101,333,166388,2,0,B|59:336|59:336|21:328,1,80,2|0,3:0|0:0,0:0:0:0:
27,150,166842,1,0,0:0:0:0:
30,129,166933,2,0,L|34:96,2,26.6666666666667,0|0|0,3:0|3:0|3:0,0:0:0:0:
118,148,167206,2,0,P|144:139|170:136,1,53.3333333333333,2|0,3:0|0:0,0:0:0:0:
261,156,167479,2,0,L|269:191,2,26.6666666666667,0|0|0,3:0|3:0|3:0,0:0:0:0:
320,87,167751,2,0,L|312:13,1,53.3333333333333,2|0,3:0|0:0,0:0:0:0:
225,56,168024,38,0,L|163:49,1,53.3333333333333,4|2,0:0|0:0,0:0:0:0:
169,136,168297,2,0,P|172:168|167:204,1,53.3333333333333,0|2,3:0|0:0,0:0:0:0:
126,269,168570,2,0,B|96:275|96:275|23:263,2,80,2|0|4,3:0|3:0|3:0,0:0:0:0:
306,247,169297,1,0,3:0:0:0:
321,233,169388,2,0,L|325:162,1,53.3333333333333,0|0,3:0|3:0,0:0:0:0:
405,138,169661,2,0,B|443:132|443:132|483:137,1,80,8|0,3:0|3:0,0:0:0:0:
416,315,170206,6,0,L|340:318,1,53.3333333333333,4|2,3:0|0:0,0:0:0:0:
306,247,170479,2,0,L|247:240,1,53.3333333333333,0|2,3:0|0:0,0:0:0:0:
161,231,170751,2,0,P|165:270|187:303,1,80,2|0,3:0|3:0,0:0:0:0:
287,174,171206,1,2,0:0:0:0:
287,174,171297,2,0,L|295:129,2,26.6666666666667,0|0|0,3:0|3:0|3:0,0:0:0:0:
204,134,171570,2,0,L|136:124,1,53.3333333333333,0|0,3:0|0:0,0:0:0:0:
66,92,171842,2,0,P|65:65|74:40,1,53.3333333333333,2|0,3:0|0:0,0:0:0:0:
165,32,172115,2,0,L|241:28,1,53.3333333333333,0|0,3:0|0:0,0:0:0:0:
296,77,172388,6,0,P|336:69|353:58,1,53.3333333333333,4|2,0:0|0:0,0:0:0:0:
398,138,172661,2,0,B|406:164|406:164|405:200,1,53.3333333333333,0|2,3:0|0:0,0:0:0:0:
356,266,172933,2,0,P|385:280|441:277,2,80,2|0|0,3:0|3:0|3:0,0:0:0:0:
199,172,173661,1,0,3:0:0:0:
190,186,173751,2,0,L|198:255,1,53.3333333333333,4|0,3:0|0:0,0:0:0:0:
343,138,174297,2,0,L|341:72,1,53.3333333333333,0|0,3:0|0:0,0:0:0:0:
340,42,174570,5,4,1:0:0:0:
199,172,175115,1,8,3:0:0:0:
72,42,175661,1,4,0:0:0:0:
254,98,176206,22,0,P|286:147|282:205,1,120.000004577637,2|4,0:0|0:0,0:0:0:0:
256,192,176933,12,0,181115,0:0:0:0:
