osu file format v14

[General]
AudioFilename: heiju-do.mp3
AudioLeadIn: 2000
PreviewTime: 69842
Countdown: 0
SampleSet: Soft
StackLeniency: 1
Mode: 0
LetterboxInBreaks: 0
WidescreenStoryboard: 0

[Editor]
Bookmarks: 45842,72024,98136,124294,141732,159353
DistanceSpacing: 1.8
BeatDivisor: 6
GridSize: 4
TimelineZoom: 3.9

[Metadata]
Title:heiju-do
TitleUnicode:heiju-do
Artist:y0c1e
ArtistUnicode:y0c1e
Creator:Liiraye
Version:Hey Jude
Source:
Tags:HanzeR Kyshiro Shiirn The Beatles Hey Jude 豊崎愛生 Aki Toyosaki cover remix glitch hop
BeatmapID:904742
BeatmapSetID:124905

[Difficulty]
HPDrainRate:7
CircleSize:4
OverallDifficulty:8.5
ApproachRate:9.4
SliderMultiplier:2.2
SliderTickRate:1

[Events]
//Background and Video events
0,0,"heiju.jpg",0,0
//Break Periods
2,7824,19121
//Storyboard Layer 0 (Background)
//Storyboard Layer 1 (Fail)
//Storyboard Layer 2 (Pass)
//Storyboard Layer 3 (Foreground)
//Storyboard Sound Samples

[TimingPoints]
572,375,4,2,0,30,1,0
572,-133.333333333333,4,2,0,30,0,0
1312,375,4,2,0,30,1,0
1312,-133.333333333333,4,2,0,30,0,0
4312,-133.333333333333,4,2,0,15,0,0
5999,-133.333333333333,4,2,0,10,0,0
7624,-133.333333333333,4,2,0,5,0,0
18572,-133.333333333333,4,2,0,30,0,0
19661,545.454545454546,4,2,2,70,1,0
19661,-100,4,2,2,70,0,0
20206,-76.9230769230769,4,2,2,70,0,0
21842,-100,4,2,2,70,0,0
22388,-76.9230769230769,4,2,2,70,0,0
25297,-76.9230769230769,4,2,2,55,0,0
25570,-76.9230769230769,4,2,2,70,0,0
26751,-66.6666666666667,4,2,2,70,0,0
27297,-117.647058823529,4,2,2,70,0,0
28297,-117.647058823529,4,2,2,5,0,0
28388,-76.9230769230769,4,2,0,70,0,0
34933,-76.9230769230769,4,3,2,70,0,0
36570,-200,4,2,0,70,0,0
37115,-76.9230769230769,4,2,2,90,0,0
37661,-50,4,2,2,90,0,0
38479,-76.9230769230769,4,2,2,90,0,0
39842,-50,4,2,2,90,0,0
40933,-100,4,2,2,90,0,0
41479,-76.9230769230769,4,2,2,90,0,0
42024,-50,4,2,2,90,0,0
42842,-76.9230769230769,4,2,2,90,0,0
45024,-76.9230769230769,4,2,2,70,0,0
45297,-76.9230769230769,4,2,2,90,0,0
46388,-50,4,2,2,90,0,0
47206,-76.9230769230769,4,2,2,90,0,0
48570,-50,4,2,2,90,0,0
49661,-100,4,2,2,90,0,0
50206,-76.9230769230769,4,2,2,90,0,0
50751,-50,4,2,2,90,0,0
51570,-76.9230769230769,4,2,2,90,0,0
52388,-133.333333333333,4,2,2,80,0,0
52842,-133.333333333333,4,2,2,5,0,0
52933,-133.333333333333,4,2,2,100,0,0
53388,-133.333333333333,4,2,2,5,0,0
53479,-133.333333333333,4,2,2,90,0,0
53933,-133.333333333333,4,2,2,5,0,0
54024,-200,4,2,2,90,0,0
54570,-76.9230769230769,4,2,2,90,0,0
55115,-50,4,2,2,90,0,0
55933,-76.9230769230769,4,2,2,90,0,0
57297,-50,4,2,2,90,0,0
58115,-100,4,2,2,90,0,0
58933,-76.9230769230769,4,2,2,90,0,0
59479,-50,4,2,2,90,0,0
60297,-76.9230769230769,4,2,2,90,0,0
61661,-50,4,2,2,90,0,0
63024,-100,4,2,2,90,0,0
63297,-76.9230769230769,4,2,2,90,0,0
64115,-50,4,2,2,90,0,0
64661,-76.9230769230769,4,2,2,90,0,0
66024,-50,4,2,2,90,0,0
67115,-100,4,2,2,90,0,0
67661,-76.9230769230769,4,2,2,90,0,0
68206,-50,4,2,2,90,0,0
69024,-76.9230769230769,4,2,2,90,0,0
69842,-105.263157894737,4,2,2,90,0,0
70297,-105.263157894737,4,2,2,5,0,0
70388,-105.263157894737,4,2,2,90,0,0
70842,-105.263157894737,4,2,2,5,0,0
70933,-105.263157894737,4,2,2,90,0,0
71388,-105.263157894737,4,2,2,5,0,0
71479,-200,4,2,2,90,0,0
72024,-76.9230769230769,4,2,2,90,0,1
72570,-50,4,2,2,90,0,1
73115,-76.9230769230769,4,2,2,90,0,1
74751,-50,4,2,2,90,0,1
75024,-76.9230769230769,4,2,2,90,0,1
75570,-50,4,2,2,90,0,1
76388,-76.9230769230769,4,2,2,90,0,1
76933,-50,4,2,2,90,0,1
77751,-76.9230769230769,4,2,2,90,0,1
78570,-181.818181818181,4,2,2,90,0,1
79115,-76.9230769230769,4,2,2,90,0,1
79388,-50,4,2,2,90,0,1
80479,-50,4,2,2,90,0,0
80751,-50,4,2,2,90,0,1
82115,-76.9230769230769,4,2,2,90,0,1
82388,-114.942528735632,4,2,2,90,0,1
82661,-50,4,2,2,90,0,1
83751,-76.9230769230769,4,2,2,90,0,1
84570,-181.818181818182,4,2,2,90,0,1
84842,-50,4,2,2,90,0,1
86479,-76.9230769230769,4,2,2,90,0,1
87024,-181.818181818182,4,2,2,90,0,1
87297,-76.9230769230769,4,2,2,90,0,1
87570,-50,4,2,2,90,0,1
88388,-60.6060606060606,4,2,2,90,0,1
88933,-100,4,2,2,90,0,1
89479,-100,4,2,2,90,0,0
90024,-50,4,2,2,90,0,0
90570,-181.818181818182,4,2,2,90,0,0
91115,-76.9230769230769,4,2,2,90,0,0
91388,-50,4,2,2,90,0,0
93842,-100,4,2,2,90,0,0
94933,-181.818181818182,4,2,2,90,0,0
95479,-76.9230769230769,4,2,2,90,0,0
95751,-50,4,2,2,90,0,0
97933,-76.9230769230769,4,2,2,90,0,0
98206,-181.818181818182,4,2,2,90,0,0
101388,-181.818181818182,4,2,2,5,0,0
101479,-181.818181818182,4,2,2,90,0,0
101933,-181.818181818182,4,2,2,5,0,0
102024,-181.818181818182,4,2,2,90,0,0
106933,-76.9230769230769,4,2,2,90,0,0
107479,-50,4,2,2,90,0,0
108297,-76.9230769230769,4,2,2,90,0,0
109933,-50,4,2,2,90,0,0
110751,-100,4,2,2,90,0,0
111297,-76.9230769230769,4,2,2,90,0,0
111842,-50,4,2,2,90,0,0
112661,-76.9230769230769,4,2,2,90,0,0
114024,-50,4,2,2,90,0,0
115115,-76.9230769230769,4,2,2,90,0,0
116206,-50,4,2,2,90,0,0
117024,-76.9230769230769,4,2,2,90,0,0
118388,-50,4,2,2,90,0,0
119206,-76.9230769230769,4,2,2,90,0,0
119479,-100,4,2,2,90,0,0
120024,-76.9230769230769,4,2,2,90,0,0
120570,-50,4,2,2,90,0,0
121388,-76.9230769230769,4,2,2,90,0,0
122206,-133.333333333333,4,2,2,90,0,0
122661,-133.333333333333,4,2,2,5,0,0
122751,-133.333333333333,4,2,2,90,0,0
123206,-133.333333333333,4,2,2,5,0,0
123297,-133.333333333333,4,2,2,90,0,0
123751,-133.333333333333,4,2,2,5,0,0
123842,-200,4,2,2,90,0,0
124388,-76.9230769230769,4,2,2,90,0,0
124933,-50,4,2,2,90,0,0
126570,-76.9230769230769,4,2,2,90,0,0
127388,-50,4,2,2,90,0,0
128206,-76.9230769230769,4,2,2,90,0,0
129297,-50,4,2,2,90,0,0
130933,-76.9230769230769,4,2,2,90,0,0
131479,-50,4,2,2,90,0,0
132570,-76.9230769230769,4,2,2,90,0,0
132842,-100,4,2,2,90,0,0
133115,-76.9230769230769,4,2,2,90,0,0
133933,-50,4,2,2,90,0,0
134479,-76.9230769230769,4,2,2,90,0,0
135842,-50,4,2,2,90,0,0
136933,-100,4,2,2,90,0,0
137479,-76.9230769230769,4,2,2,90,0,0
138024,-50,4,2,2,90,0,0
138842,-76.9230769230769,4,2,2,90,0,0
139661,-133.333333333333,4,2,2,90,0,0
140115,-133.333333333333,4,2,2,5,0,0
140206,-133.333333333333,4,2,2,90,0,0
140661,-133.333333333333,4,2,2,5,0,0
140751,-133.333333333333,4,2,2,90,0,0
141206,-133.333333333333,4,2,2,5,0,0
141297,-200,4,2,2,90,0,0
141842,-76.9230769230769,4,2,2,90,0,1
142388,-50,4,2,2,90,0,1
143206,-100,4,2,2,90,0,1
144024,-76.9230769230769,4,2,2,90,0,1
145388,-100,4,2,2,90,0,1
145661,-66.6666666666667,4,2,2,90,0,1
145933,-50,4,2,2,90,0,1
147570,-100,4,2,2,90,0,1
148388,-76.9230769230769,4,2,2,90,0,1
149206,-50,4,2,2,90,0,1
150024,-100,4,2,2,90,0,1
150297,-200,4,2,2,90,0,0
150570,-76.9230769230769,4,2,2,90,0,1
151115,-50,4,2,2,90,0,1
151933,-100,4,2,2,90,0,1
152205,-50,4,2,2,90,0,1
152751,-76.9230769230769,4,2,2,90,0,1
154114,-100,4,2,2,90,0,1
154387,-66.6666666666667,4,2,2,90,0,1
154660,-50,4,2,2,90,0,1
154933,-76.9230769230769,4,2,2,90,0,1
155478,-50,4,2,2,90,0,1
156296,-100,4,2,2,90,0,1
157115,-76.9230769230769,4,2,2,90,0,1
157388,-50,4,2,2,90,0,1
158206,-60.6060606060606,4,2,2,90,0,1
158751,-76.9230769230769,4,2,2,90,0,1
159842,-50,4,2,2,90,0,1
160661,-100,4,2,2,90,0,1
161479,-50,4,2,2,90,0,1
162297,-76.9230769230769,4,2,2,90,0,1
162842,-50,4,2,2,90,0,1
165842,-181.818181818182,4,2,2,90,0,1
166388,-50,4,2,2,90,0,1
167751,-50,4,2,2,90,0,0
168024,-76.9230769230769,4,2,2,90,0,1
168570,-50,4,2,2,90,0,1
169661,-76.9230769230769,4,2,2,90,0,1
169933,-50,4,2,2,90,0,1
171842,-100,4,2,2,90,0,1
172115,-50,4,2,2,90,0,1
174297,-76.9230769230769,4,2,2,90,0,1
174570,-120.481927710843,4,2,2,90,0,1
175024,-120.481927710843,4,2,2,5,0,1
175115,-120.481927710843,4,2,2,90,0,1
175570,-120.481927710843,4,2,2,5,0,1
175661,-120.481927710843,4,2,2,90,0,1
176115,-120.481927710843,4,2,2,5,0,1
176206,-200,4,2,2,90,0,1
176751,-181.818181818182,4,2,2,90,0,0

[Colours]
Combo1 : 255,0,0
Combo2 : 255,128,64
Combo3 : 249,81,0
Combo4 : 189,62,0
Combo5 : 255,181,145
Combo6 : 255,0,0
Combo7 : 12,118,248

[HitObjects]
141,246,572,6,0,B|130:204|130:204|135:165,2,82.5000031471254,2|2|8,0:0|0:0|0:0,0:0:0:0:
349,254,1312,6,0,L|452:242,2,82.5000031471254,2|2|8,0:0|0:0|0:0,0:0:0:0:
251,260,1780,1,0,1:0:0:0:
248,276,1874,2,0,L|254:339,1,41.2500015735627,0|8,1:0|0:0,0:0:0:0:
262,157,2062,2,0,B|198:150|167:204|167:204|165:178|144:156,1,165.000006294251,2|2,0:0|0:0,0:0:0:0:
23,227,2624,1,4,0:0:0:0:
256,192,2999,12,0,4374,0:0:0:0:
256,192,4687,12,0,5999,0:0:0:0:
256,192,6312,12,0,7624,0:0:0:0:
312,256,19661,54,0,B|246:247|218:296|218:296|185:297|183:268|183:268|198:268|209:279,1,183.333333333333,4|0,1:0|0:0,0:0:0:0:
290,340,20206,22,0,B|354:354|408:313|409:250|385:212|385:212|425:245|481:219,1,285.99998690796,2|8,0:0|0:0,0:0:0:0:
426,54,20933,1,8,3:0:0:0:
426,54,21024,2,0,L|438:153,1,95.3333289693199,0|2,1:0|0:0,0:0:0:0:
321,165,21297,53,8,0:0:0:0:
312,256,21388,1,2,0:0:0:0:
178,108,21570,1,2,0:0:0:0:
183,199,21661,1,8,0:0:0:0:
51,33,21842,6,0,B|41:97|41:97|61:155|61:155|54:220,1,183.333333333333,4|0,1:0|0:0,0:0:0:0:
46,304,22388,22,0,B|94:304|94:304|124:353|124:353|167:272|167:272|211:305|211:305|244:305,1,285.99998690796,2|0,0:0|0:0,0:0:0:0:
244,305,23024,1,2,0:0:0:0:
268,104,23206,1,2,0:0:0:0:
268,104,23297,2,0,L|258:180,1,47.6666644846599,8|0,0:0|0:0,0:0:0:0:
384,324,23479,1,8,0:0:0:0:
446,253,23570,2,0,L|351:241,1,95.3333289693199,2|8,0:0|0:0,0:0:0:0:
93,147,24024,5,4,1:0:0:0:
192,45,24570,5,0,3:0:0:0:
192,45,24661,1,0,3:0:0:0:
192,45,24751,1,0,3:0:0:0:
192,45,24842,1,0,3:0:0:0:
192,45,24933,2,0,L|182:103,3,47.6666644846599,4|4|4|4,3:0|3:0|3:0|3:0,0:0:0:0:
244,181,25297,2,0,L|255:248,3,47.6666644846599,4|4|4|0,3:0|3:0|3:0|3:0,0:0:0:0:
175,338,25661,1,2,0:0:0:0:
161,321,25751,2,0,P|198:314|287:344,1,95.3333289693199,4|8,3:0|0:0,0:0:0:0:
367,336,26070,1,4,3:0:0:0:
406,233,26206,1,4,1:0:0:0:
101,188,26751,6,0,B|146:174|146:174|166:92|166:92|126:105|126:105|149:6,1,275.000010490418
229,310,27297,22,0,B|241:256|241:256|231:214|231:214|244:159,1,155.833336305618
145,257,27842,1,2,3:0:0:0:
145,257,27933,1,2,3:0:0:0:
145,257,28024,1,2,3:0:0:0:
145,257,28115,2,0,L|68:265,1,62.3333345222473,2|0,3:0|0:0,0:0:0:0:
47,155,28388,22,0,L|189:167,1,142.99999345398,6|2,0:0|3:0,0:0:0:0:
383,30,28933,2,0,L|401:198,1,142.99999345398,2|2,0:0|3:0,0:0:0:0:
190,168,29388,1,2,0:0:0:0:
263,112,29479,2,0,L|276:230,1,95.3333289693199,4|8,3:0|3:0,0:0:0:0:
168,262,29751,1,2,3:0:0:0:
167,262,29933,2,0,P|101:280|44:240,1,142.99999345398,4|4,3:0|3:0,0:0:0:0:
42,160,30297,1,2,3:0:0:0:
253,307,30479,1,2,0:0:0:0:
322,247,30570,6,0,L|439:255,1,95.3333289693199,4|4,3:0|3:0,0:0:0:0:
237,205,30842,1,2,3:0:0:0:
233,212,31024,1,0,0:0:0:0:
164,152,31115,2,0,L|47:160,1,95.3333289693199,4|4,3:0|3:0,0:0:0:0:
207,344,31388,1,2,3:0:0:0:
207,344,31570,2,0,L|349:334,1,142.99999345398,8|8,3:0|3:0,0:0:0:0:
200,174,31933,2,0,P|153:173|114:199,1,95.3333289693199,2|2,3:0|3:0,0:0:0:0:
179,256,32206,2,0,B|225:265|225:265|272:253,1,95.3333289693199,6|2,3:0|3:0,0:0:0:0:
352,223,32479,1,2,3:0:0:0:
208,22,32661,5,2,0:0:0:0:
135,65,32751,2,0,L|34:52,1,95.3333289693199,4|4,3:0|3:0,0:0:0:0:
40,52,33024,1,2,3:0:0:0:
286,280,33206,1,2,0:0:0:0:
352,223,33297,2,0,L|355:127,1,95.3333289693199,4|4,3:0|3:0,0:0:0:0:
354,127,33570,1,2,3:0:0:0:
52,200,33751,5,2,0:0:0:0:
130,155,33842,2,0,B|180:148|180:148|234:160,1,95.3333289693199,4|4,3:0|3:0,0:0:0:0:
223,157,34115,1,2,3:0:0:0:
428,308,34297,1,2,0:0:0:0:
348,357,34388,2,0,B|298:364|298:364|244:352,1,95.3333289693199,4|4,3:0|3:0,0:0:0:0:
223,157,34661,2,0,P|221:109|227:62,1,95.3333289693199,2|2,3:0|3:0,0:0:0:0:
395,28,34933,53,0,0:0:0:0:
391,36,35024,1,0,0:0:0:0:
388,48,35115,1,0,0:0:0:0:
379,65,35206,1,0,0:0:0:0:
365,84,35297,1,0,0:0:0:0:
346,107,35388,1,0,0:0:0:0:
315,118,35479,5,4,0:0:0:0:
283,96,35570,1,4,0:0:0:0:
243,78,35661,1,4,0:0:0:0:
195,76,35751,1,4,0:0:0:0:
149,100,35842,1,4,0:0:0:0:
123,151,35933,1,4,0:0:0:0:
188,189,36024,69,2,0:0:0:0:
254,228,36115,1,2,0:0:0:0:
254,303,36206,1,2,0:0:0:0:
186,337,36297,1,2,0:0:0:0:
120,299,36388,1,2,0:0:0:0:
120,224,36479,1,2,0:0:0:0:
188,188,36570,86,0,B|288:165,1,91.6666666666667,2|0,0:0|0:0,0:0:0:0:
396,318,37115,22,0,P|287:280|185:337,1,238.3333224233,4|0,1:0|0:0,0:0:0:0:
188,188,37661,54,0,B|164:72|164:72|148:122,1,146.666666666667,2|8,0:0|0:0,0:0:0:0:
277,135,37933,2,0,B|371:149|371:149|441:131,1,146.666666666667,8|0,0:0|0:0,0:0:0:0:
366,68,38206,2,0,P|336:133|363:202,1,146.666666666667,2|4,3:0|3:0,0:0:0:0:
447,216,38479,37,8,2:0:0:0:
217,247,38661,1,2,0:0:0:0:
259,328,38751,2,0,L|375:337,1,95.3333289693199,8|2,0:0|0:0,0:0:0:0:
374,337,39024,1,2,0:0:0:0:
128,238,39206,1,2,0:0:0:0:
105,322,39297,6,0,P|45:202|139:150,1,238.3333224233,4|0,1:0|0:0,0:0:0:0:
294,22,39842,38,0,L|303:101,1,73.3333333333333,8|0,0:0|0:0,0:0:0:0:
374,223,40024,1,8,0:0:0:0:
438,170,40115,2,0,L|233:176,1,146.666666666667,2|0,0:0|0:0,0:0:0:0:
181,100,40388,2,0,P|215:182|192:256,1,146.666666666667,2|0,3:0|0:0,0:0:0:0:
37,294,40661,2,0,P|5:229|15:158,1,146.666666666667,4|0,1:0|0:0,0:0:0:0:
95,116,40933,6,0,B|118:185|118:185|110:228|110:228|132:298,1,183.333333333333,2|0,0:0|0:0,0:0:0:0:
287,333,41479,22,0,B|235:224|235:224|265:111,1,238.3333224233,4|0,1:0|0:0,0:0:0:0:
443,44,42024,54,0,B|418:132|418:132|441:182,1,146.666666666667,2|8,0:0|0:0,0:0:0:0:
364,356,42297,2,0,B|389:268|389:268|365:217,1,146.666666666667,8|0,0:0|0:0,0:0:0:0:
198,141,42570,2,0,B|286:166|286:166|336:142,1,146.666666666667,2|4,3:0|3:0,0:0:0:0:
336,53,42842,37,8,2:0:0:0:
72,163,43024,1,2,0:0:0:0:
151,196,43115,2,0,L|142:101,1,95.3333289693199,8|2,0:0|0:0,0:0:0:0:
133,14,43388,1,2,0:0:0:0:
406,185,43570,1,2,0:0:0:0:
425,103,43661,6,0,B|353:86|302:149|315:206|336:237|336:237|314:278|337:330,1,285.99998690796,4|8,1:0|3:0,0:0:0:0:
492,192,44388,1,4,3:0:0:0:
453,189,44479,2,0,L|397:184,1,47.6666644846599,2|2,0:0|0:0,0:0:0:0:
175,280,44661,1,2,0:0:0:0:
246,332,44751,2,0,L|255:225,1,95.3333289693199,2|0,3:0|0:0,0:0:0:0:
45,57,45024,5,2,0:0:0:0:
65,137,45115,1,2,0:0:0:0:
149,153,45206,1,2,0:0:0:0:
126,70,45297,1,4,3:0:0:0:
107,83,45388,1,4,3:0:0:0:
89,99,45479,1,4,3:0:0:0:
76,117,45570,1,8,2:0:0:0:
109,326,45751,1,2,3:0:0:0:
34,301,45842,6,0,P|113:226|236:264,1,238.3333224233,4|0,1:0|0:0,0:0:0:0:
432,336,46388,6,0,P|360:344|288:304,1,146.666666666667,2|8,0:0|0:0,0:0:0:0:
280,88,46661,2,0,P|312:152|299:234,1,146.666666666667,8|0,0:0|0:0,0:0:0:0:
109,326,46933,2,0,P|159:273|239:257,1,146.666666666667,2|4,3:0|3:0,3:0:0:0:
416,248,47206,38,0,P|472:256|512:288,1,95.3333289693199,8|2,2:0|0:0,0:0:0:0:
224,168,47479,2,0,P|168:160|128:128,1,95.3333289693199,8|2,0:0|0:0,0:0:0:0:
137,138,47751,1,2,0:0:0:0:
414,86,47933,1,2,0:0:0:0:
335,53,48024,6,0,B|321:89|324:136|362:167|411:173|411:173|372:175|350:212,1,238.3333224233,4|0,1:0|0:0,0:0:0:0:
404,321,48570,70,0,P|348:281|358:203,1,146.666666666667,8|8,0:0|0:0,0:0:0:0:
416,247,48842,1,2,0:0:0:0:
259,298,49024,1,0,0:0:0:0:
259,298,49115,2,0,L|411:322,1,146.666666666667,2|0,3:0|0:0,0:0:0:0:
195,349,49388,2,0,L|43:325,1,146.666666666667,4|2,1:0|0:0,0:0:0:0:
188,183,49661,86,0,B|224:219|224:219|76:196,1,183.333333333333,2|0,3:0|0:0,0:0:0:0:
4,127,50206,22,0,P|48:159|44:335,1,238.3333224233,4|0,1:0|0:0,0:0:0:0:
136,264,50751,54,0,P|92:208|108:136,1,146.666666666667,2|8,0:0|0:0,0:0:0:0:
256,32,51024,2,0,B|248:72|248:72|268:124|268:124|256:176,1,146.666666666667,8|0,0:0|0:0,0:0:0:0:
376,263,51297,2,0,P|419:208|405:138,1,146.666666666667,2|4,3:0|3:0,0:0:0:0:
136,48,51570,38,0,P|89:45|47:68,1,95.3333289693199,8|2,0:0|0:0,0:0:0:0:
128,280,51842,2,0,L|118:185,1,95.3333289693199,8|2,0:0|0:0,0:0:0:0:
118,185,52115,1,2,0:0:0:0:
104,356,52297,1,2,0:0:0:0:
184,328,52388,70,0,B|256:304|256:304|332:328,1,151.25000576973,4|0,1:0|0:0,0:0:0:0:
327,317,52933,2,0,B|256:295|256:295|184:319,1,151.25000576973,8|0,3:0|0:0,0:0:0:0:
183,310,53479,2,0,B|255:286|255:286|331:310,1,151.25000576973,4|0,0:0|0:0,0:0:0:0:
255,278,54024,2,0,L|255:186,1,91.6666666666667,2|0,0:0|0:0,0:0:0:0:
92,12,54570,22,0,P|48:80|64:236,1,238.3333224233,4|0,1:0|0:0,0:0:0:0:
340,302,55115,54,0,P|286:237|214:239,1,146.666666666667,2|8,0:0|0:0,0:0:0:0:
24,320,55388,2,0,P|108:320|152:264,1,146.666666666667,8|0,0:0|0:0,0:0:0:0:
180,60,55661,2,0,P|137:132|163:199,1,146.666666666667,2|4,3:0|3:0,0:0:0:0:
330,270,55933,70,0,P|321:218|276:168,1,95.3333289693199,8|2,0:0|0:0,0:0:0:0:
226,136,56206,1,8,0:0:0:0:
277,359,56388,1,2,0:0:0:0:
362,363,56479,2,0,P|401:341|427:293,1,95.3333289693199,2|2,0:0|0:0,0:0:0:0:
472,104,56751,6,0,P|400:44|252:60,1,238.3333224233,4|0,1:0|0:0,0:0:0:0:
184,96,57297,38,0,B|216:204|216:204|272:236,1,146.666666666667,8|8,0:0|0:0,0:0:0:0:
296,328,57570,2,0,B|194:279|194:279|133:299,1,146.666666666667,2|0,0:0|0:0,0:0:0:0:
16,272,57842,2,0,B|118:225|118:225|142:165,1,146.666666666667,2|0,3:0|0:0,0:0:0:0:
112,112,58115,86,0,L|96:40,1,73.3333333333333,4|2,1:0|0:0,0:0:0:0:
121,283,58388,2,0,B|161:319|161:319|129:183,1,183.333333333333,2|0,3:0|0:0,0:0:0:0:
36,148,58933,22,0,P|125:193|192:96,1,238.3333224233,4|0,1:0|0:0,0:0:0:0:
316,32,59479,54,0,P|276:96|296:196,1,146.666666666667,2|8,0:0|0:0,0:0:0:0:
476,276,59751,2,0,P|429:216|328:201,1,146.666666666667,8|0,0:0|0:0,0:0:0:0:
180,328,60024,2,0,P|251:304|300:215,1,146.666666666667,2|4,3:0|3:0,0:0:0:0:
356,113,60297,38,0,L|452:108,1,95.3333289693199,8|2,0:0|0:0,0:0:0:0:
386,284,60570,2,0,L|360:376,1,95.3333289693199,8|2,0:0|0:0,0:0:0:0:
204,236,60842,2,0,L|128:180,1,95.3333289693199,2|2,0:0|0:0,0:0:0:0:
8,68,61115,6,0,B|116:88|116:88|36:108|32:196,1,238.3333224233,4|0,1:0|0:0,0:0:0:0:
34,264,61661,38,0,P|93:305|177:286,1,146.666666666667,6|4,0:0|3:0,0:0:0:0:
234,237,61933,2,0,P|273:218|313:221,1,73.3333333333333,2|2,0:0|0:0,0:0:0:0:
472,279,62115,1,4,3:0:0:0:
420,348,62206,2,0,P|349:358|292:312,1,146.666666666667,2|0,3:0|0:0,0:0:0:0:
220,84,62479,1,2,0:0:0:0:
256,72,62570,1,2,0:0:0:0:
292,84,62661,1,2,0:0:0:0:
256,152,62751,2,0,L|256:236,1,73.3333333333333,4|4,3:0|3:0,0:0:0:0:
256,236,62933,1,4,3:0:0:0:
256,248,63024,6,0,L|256:348,1,73.3333333333333,8|2,0:0|3:0,0:0:0:0:
44,332,63297,22,0,P|12:216|88:128,1,238.3333224233,4|0,1:0|0:0,0:0:0:0:
316,76,63842,1,0,3:0:0:0:
348,68,63933,1,0,3:0:0:0:
380,60,64024,1,0,3:0:0:0:
292,84,64115,54,2,L|428:156,1,146.666666666667,2|0,0:0|0:0,0:0:0:0:
472,260,64388,2,0,B|464:228|464:228|516:192|500:120,1,146.666666666667,4|8,0:3|0:3,0:0:0:0:
292,84,64661,38,0,B|252:60|252:60|184:72,1,95.3333289693199,4|2,0:3|0:0,0:0:0:0:
124,88,64933,1,8,0:0:0:0:
188,244,65115,1,0,3:0:0:0:
188,244,65206,2,0,B|196:196|196:196|172:156,1,95.3333289693199,0|2,3:0|2:0,3:0:0:0:
21,298,65479,6,0,B|81:370|81:370|35:292|115:228,1,238.3333224233,4|0,1:0|0:0,0:0:0:0:
296,333,66024,38,0,B|224:357|224:357|158:316,1,146.666666666667,8|8,0:0|0:0,0:0:0:0:
372,296,66297,2,0,B|444:272|444:272|510:313,1,146.666666666667,2|0,0:0|0:0,0:0:0:0:
304,248,66570,2,0,B|256:188|256:188|272:112,1,146.666666666667,2|2,3:0|2:0,0:0:0:0:
296,40,66842,1,4,3:0:0:0:
376,212,67024,1,0,0:0:0:0:
376,212,67115,6,0,B|340:168|340:168|476:156,1,183.333333333333,2|0,3:0|0:0,0:0:0:0:
296,40,67661,22,0,L|44:56,1,238.3333224233,4|0,1:0|0:0,0:0:0:0:
24,128,68206,54,0,B|136:120|136:120|112:160,1,146.666666666667,2|8,0:0|0:0,0:0:0:0:
128,324,68479,2,0,B|82:221|82:221|127:230,1,146.666666666667,8|0,0:0|0:0,0:0:0:0:
272,144,68751,2,0,B|191:222|191:222|184:176,1,146.666666666667,2|4,3:0|3:0,0:0:0:0:
380,44,69024,70,0,L|356:144,1,95.3333289693199,8|2,0:0|0:0,0:0:0:0:
376,272,69297,1,8,0:0:0:0:
348,184,69479,1,2,0:0:0:0:
376,272,69570,2,0,L|468:294,1,95.3333289693199,2|2,0:0|0:0,0:0:0:0:
320,336,69842,38,0,B|296:332|244:360|244:360|256:369|256:369|268:360|268:360|216:332|192:336,1,191.583328217507,4|0,1:0|0:0,0:0:0:0:
192,328,70388,2,0,B|216:324|268:352|268:352|256:361|256:361|244:352|244:352|296:324|320:328,1,191.583328217507,8|0,3:0|0:0,0:0:0:0:
320,320,70933,2,0,B|296:316|244:344|244:344|256:353|256:353|268:344|268:344|216:316|192:320,1,191.583328217507,4|0,0:0|0:0,0:0:0:0:
256,322,71479,2,0,L|256:230,1,91.6666666666667,2|0,0:0|0:0,0:0:0:0:
256,230,72024,5,4,3:1:0:0:
170,100,72206,1,2,0:0:0:0:
131,192,72297,1,0,3:3:0:0:
19,77,72479,1,2,0:0:0:0:
30,213,72570,2,0,L|216:234,1,146.666666666667,2|0,3:0|0:0,1:0:0:0:
259,249,72842,2,0,B|239:279|239:279|214:121,1,146.666666666667,0|0,3:0|0:0,1:0:0:0:
219,154,73115,1,4,3:0:0:0:
466,112,73297,1,4,3:0:0:0:
438,194,73388,22,0,L|336:188,1,95.3333289693199,4|0,3:0|0:0,0:0:0:0:
218,44,73661,2,0,L|328:36,1,95.3333289693199,2|0,3:0|0:0,0:0:0:0:
197,279,73933,2,0,L|102:275,1,95.3333289693199,0|2,3:0|0:0,0:0:0:0:
89,275,74206,37,4,1:0:0:0:
134,57,74388,1,2,0:0:0:0:
156,159,74479,1,0,3:0:0:0:
279,43,74661,1,2,0:0:0:0:
238,170,74751,22,0,B|126:176|126:176|172:150,1,146.666666666667,2|2,3:0|3:0,3:0:0:0:
358,104,75024,22,2,B|373:153|373:153|365:224,1,95.3333289693199,0|2,3:0|0:0,1:0:0:0:
292,333,75297,1,0,3:0:0:0:
334,264,75388,1,0,3:0:0:0:
415,259,75479,1,0,3:0:0:0:
382,342,75570,38,0,L|365:170,1,146.666666666667,4|0,3:0|0:0,0:0:0:0:
109,268,75842,2,0,P|192:291|262:273,1,146.666666666667,2|0,3:0|3:0,0:0:0:0:
375,88,76115,2,0,L|228:99,1,146.666666666667,0|2,3:0|0:0,0:0:0:0:
152,52,76388,21,4,1:2:0:0:
183,200,76570,1,2,0:0:0:0:
280,211,76661,1,0,3:0:0:0:
52,358,76842,1,2,0:0:0:0:
184,345,76933,2,0,B|196:286|196:286|181:186,1,146.666666666667,2|0,3:0|0:0,0:0:0:0:
31,77,77206,2,0,B|18:126|18:126|29:223,1,146.666666666667,0|0,3:0|0:0,0:0:0:0:
261,147,77479,2,0,P|202:106|132:118,1,146.666666666667,4|0,3:0|3:0,0:0:0:0:
373,88,77751,22,0,L|468:101,1,95.3333289693199,4|0,3:0|0:0,0:0:0:0:
183,200,78024,2,0,L|89:213,1,95.3333289693199,2|0,3:0|0:0,0:0:0:0:
356,368,78297,2,0,B|364:322|364:322|354:275,1,95.3333289693199,0|0,3:0|0:0,0:0:0:0:
270,187,78570,54,0,L|263:147,1,40.333334564209,4|0,2:1|0:0,0:0:0:0:
138,130,78842,1,0,3:0:0:0:
138,130,78933,1,0,3:0:0:0:
138,130,79024,1,0,3:0:0:0:
138,130,79115,22,2,B|67:116|67:116|44:121,1,95.3333289693199,2|0,3:0|0:0,1:0:0:0:
55,342,79388,54,0,L|68:188,1,146.666666666667,0|0,0:0|3:0,0:0:0:0:
148,43,79661,1,0,3:0:0:0:
216,97,79751,1,0,3:0:0:0:
149,155,79842,1,0,3:0:0:0:
219,208,79933,2,0,L|230:354,1,146.666666666667,2|0,3:0|0:0,0:0:0:0:
416,348,80206,21,0,3:0:0:0:
356,279,80297,1,0,3:0:0:0:
308,351,80387,1,0,3:0:0:0:
253,281,80479,2,2,B|192:296|160:257|160:257|178:297|163:331,1,146.666666666667,2|0,3:0|0:0,1:0:0:0:
97,342,80751,69,4,0:0:0:0:
79,113,80933,1,2,0:0:0:0:
108,207,81024,1,0,3:0:0:0:
209,61,81206,1,2,0:0:0:0:
231,181,81297,2,0,B|222:292|222:292|202:262,1,146.666666666667,2|0,3:0|0:0,0:0:0:0:
79,113,81570,2,0,B|104:103|130:108|130:108|156:69|209:61,1,146.666666666667,0|0,3:0|0:0,0:0:0:0:
377,179,81842,2,0,B|291:191|291:191|232:182,1,146.666666666667,4|0,3:0|3:0,3:0:0:0:
97,269,82115,37,0,3:0:0:0:
97,269,82206,2,0,L|102:320,1,47.6666644846599,0|0,3:0|3:0,3:0:0:0:
285,142,82388,70,0,L|292:69,1,63.8000005354309,8|0,3:0|0:0,0:0:0:0:
242,274,82661,6,2,B|187:285|187:285|97:269,1,146.666666666667,0|0,3:0|0:0,1:0:0:0:
206,109,82933,70,0,P|155:93|194:129,1,146.666666666667,4|0,3:0|3:0,0:0:0:0:
318,181,83206,2,0,B|341:73|341:73|308:86,1,146.666666666667,2|0,0:0|0:0,0:0:0:0:
187,207,83479,2,0,B|196:279,1,73.3333333333333,2|0,3:0|3:0,0:0:0:0:
206,109,83661,1,0,3:0:0:0:
214,87,83751,70,0,B|264:76|264:76|307:85,1,95.3333289693199,0|2,3:0|0:0,0:0:0:0:
429,160,84023,1,0,3:0:0:0:
447,175,84114,1,0,3:0:0:0:
469,183,84206,1,0,3:0:0:0:
492,187,84297,2,0,L|486:293,1,95.3333289693199,0|0,3:0|0:0,0:0:0:0:
405,358,84570,38,0,L|401:310,1,40.333334564209,2|2,3:0|0:0,0:0:0:0:
360,204,84842,6,2,P|283:184|226:232,1,146.666666666667,0|0,3:0|0:0,1:0:0:0:
281,356,85115,70,0,B|278:365|309:332|309:332|198:317,1,146.666666666667,4|2,1:2|0:0,0:0:0:0:
113,360,85388,1,0,3:0:0:0:
206,96,85570,1,2,0:0:0:0:
225,194,85661,2,0,L|377:202,1,146.666666666667,2|0,3:0|0:0,0:0:0:0:
172,279,85933,2,0,P|131:220|139:146,1,146.666666666667,0|0,3:0|0:0,0:0:0:0:
378,63,86206,1,0,3:3:0:0:
291,33,86297,2,0,L|302:117,1,73.3333333333333,0|0,3:3|3:3,3:3:0:0:
440,268,86479,38,0,P|467:204|444:138,1,142.99999345398,4|2,3:0|3:0,3:0:0:0:
90,213,87024,70,2,L|146:207,1,40.333334564209,0|0,3:0|0:0,1:0:0:0:
179,151,87297,22,0,L|198:266,1,95.3333289693199,4|0,3:0|0:0,0:0:0:0:
299,296,87570,54,0,B|342:301|342:301|404:288,1,73.3333333333333,0|2,3:0|0:0,0:0:0:0:
480,215,87751,1,2,0:0:0:0:
495,194,87842,2,0,B|390:183|390:183|350:193,1,146.666666666667,4|2,3:0|0:0,0:0:0:0:
237,231,88115,2,0,L|256:74,1,146.666666666667,0|2,3:0|0:0,0:0:0:0:
244,80,88342,1,2,0:0:0:0:
231,74,88388,38,0,B|104:103|104:103|157:110,1,181.500001730919,2|0,3:0|0:0,1:0:0:0:
263,306,88933,70,0,L|188:315,1,73.3333333333333,2|0,0:0|3:0,0:0:0:0:
96,344,89206,5,0,3:0:0:0:
89,262,89297,1,0,3:0:0:0:
85,181,89388,1,0,3:0:0:0:
242,190,89479,86,0,B|317:202|317:202|423:185,1,183.333333333333,4|0,2:0|0:0,0:0:0:0:
200,91,90024,6,0,P|148:141|142:213,1,146.666666666667,8|2,0:0|0:0,0:0:0:0:
327,275,90297,2,0,L|316:128,1,146.666666666667,2|8,0:0|2:0,0:0:0:0:
107,140,90570,86,0,B|29:124|29:124|50:113,1,100.833336410523,4|2,1:0|0:0,0:0:0:0:
151,225,91115,22,0,L|163:327,1,95.3333289693199,8|0,0:0|0:0,0:0:0:0:
237,105,91388,86,2,B|257:272,1,146.666666666667,0|0,0:0|0:0,1:0:0:0:
445,275,91661,1,4,1:0:0:0:
460,250,91751,2,0,L|375:241,1,73.3333333333333,0|2,3:0|0:0,0:0:0:0:
348,142,91933,1,0,3:0:0:0:
333,117,92024,2,0,L|428:106,1,73.3333333333333,0|2,3:0|0:0,0:0:0:0:
387,242,92206,2,0,B|359:352|359:352|347:321,1,146.666666666667,8|2,0:0|0:0,0:0:0:0:
159,256,92479,1,2,0:0:0:0:
185,343,92661,1,8,0:0:0:0:
159,256,92751,2,0,L|172:102,1,146.666666666667,4|2,1:0|0:0,0:0:0:0:
388,17,93024,2,0,B|402:81|402:81|393:161,1,146.666666666667,2|0,0:0|3:0,0:0:0:0:
302,209,93297,1,8,0:0:0:0:
212,201,93388,1,0,3:0:0:0:
247,281,93479,1,0,3:0:0:0:
302,209,93570,2,0,B|317:98|317:98|275:117,1,146.666666666667,2|2,3:0|3:0,0:0:0:0:
194,118,93842,86,0,B|263:142|263:142|407:110,1,220,4|8,0:0|0:0,0:0:0:0:
467,46,94570,21,2,0:0:0:0:
467,46,94661,1,2,0:0:0:0:
415,190,94842,1,8,0:0:0:0:
415,190,94933,70,0,B|428:298,1,100.833336410523,4|2,1:0|0:0,0:0:0:0:
427,290,95479,1,8,0:0:0:0:
207,326,95661,1,2,0:0:0:0:
191,345,95751,6,2,B|253:357|253:357|335:349,1,146.666666666667,0|0,0:0|0:0,1:0:0:0:
354,204,96024,70,0,L|359:115,1,73.3333333333333,4|2,1:0|0:0,0:0:0:0:
232,128,96206,1,0,3:0:0:0:
242,99,96297,2,0,L|232:8,1,73.3333333333333,0|2,3:0|0:0,0:0:0:0:
115,78,96479,1,0,3:0:0:0:
101,104,96570,2,0,B|80:163|80:163|89:246,1,146.666666666667,8|2,0:0|0:0,0:0:0:0:
120,333,96842,2,0,B|189:346|189:346|297:326,1,146.666666666667,2|8,0:0|0:0,0:0:0:0:
409,328,97115,2,0,B|393:336|381:351|381:351|394:294|353:250,1,146.666666666667,4|2,1:0|0:0,0:0:0:0:
160,166,97388,2,0,P|105:170|153:195,1,146.666666666667,2|0,2:0|3:0,0:0:0:0:
297,103,97661,1,8,0:0:0:0:
350,32,97752,1,0,3:0:0:0:
262,25,97842,1,0,3:0:0:0:
297,103,97933,38,0,P|326:140|370:158,1,95.3333289693199,2|2,3:0|3:0,0:0:0:0:
412,172,98206,70,0,P|404:224|364:264,1,100.833336410523,4|0,2:0|0:0,0:0:0:0:
300,280,98751,2,0,P|296:264|304:236,1,40.333334564209,2|2,0:0|0:0,0:0:0:0:
440,300,99024,2,0,P|431:314|406:328,1,40.333334564209,2|0,0:0|0:0,0:0:0:0:
300,280,99297,2,0,P|260:280|208:304,1,80.6666691284181,4|0,0:0|0:0,0:0:0:0:
78,324,99751,1,4,0:0:0:0:
78,324,99842,2,0,L|69:299,2,20.1666672821045,2|2|2,0:0|0:0|0:0,0:0:0:0:
158,348,100115,1,4,0:0:0:0:
134,61,100388,21,0,3:0:0:0:
125,76,100478,1,0,3:0:0:0:
118,93,100569,1,0,3:0:0:0:
114,111,100660,1,0,3:0:0:0:
111,129,100751,1,0,3:0:0:0:
110,147,100842,1,0,3:0:0:0:
112,164,100933,70,0,P|160:152|208:112,1,100.833336410523,2|0,0:0|0:0,0:0:0:0:
208,120,101479,2,0,B|256:106|256:106|304:120,1,100.833336410523,2|0,0:0|0:0,0:0:0:0:
311,121,102024,2,0,P|351:151|400:164,1,100.833336410523,2|0,0:0|0:0,0:0:0:0:
436,240,102570,2,0,P|453:250|466:265,1,40.333334564209,8|0,3:0|0:0,0:0:0:0:
359,224,102842,2,0,P|344:236|325:243,1,40.333334564209,2|0,3:0|0:0,0:0:0:0:
408,163,103115,2,0,P|412:144|421:126,1,40.333334564209,2|2,0:0|0:0,0:0:0:0:
492,176,103388,1,2,3:0:0:0:
368,336,103570,1,0,0:0:0:0:
352,328,103661,2,0,P|304:316|264:316,1,80.6666691284181,8|0,3:0|0:0,0:0:0:0:
176,346,104115,1,2,3:0:0:0:
175,327,104206,2,0,L|173:292,2,20.1666672821045,2|2|2,0:0|0:0|0:0,0:0:0:0:
82,316,104479,2,0,P|68:292|62:272,1,40.333334564209,8|0,3:0|0:0,0:0:0:0:
40,40,104751,5,4,0:0:0:0:
256,192,104842,12,2,106388,3:0:0:0:
44,184,106933,6,0,B|120:184|176:88|176:88|164:136|188:176,1,238.3333224233,4|0,1:0|0:0,0:0:0:0:
256,112,107479,54,0,P|324:135|367:215,1,146.666666666667,2|8,0:0|0:0,0:0:0:0:
178,154,107751,2,0,P|177:81|237:13,1,146.666666666667,8|0,0:0|0:0,0:0:0:0:
256,200,108024,2,0,P|210:256|120:269,1,146.666666666667,2|4,3:0|3:0,0:0:0:0:
104,264,108297,53,8,0:0:0:0:
272,336,108479,2,0,L|344:340,1,47.6666644846599,2|8,0:0|0:0,0:0:0:0:
512,240,108751,2,0,L|424:232,1,47.6666644846599,2|2,0:0|0:0,0:0:0:0:
380,228,109024,1,2,0:0:0:0:
380,228,109115,6,0,B|456:236|456:236|316:144,1,238.3333224233,4|2,1:0|0:0,0:0:0:0:
296,224,109661,1,8,0:0:0:0:
244,104,109842,1,8,0:0:0:0:
244,104,109933,22,0,P|284:68|384:88,1,146.666666666667,2|0,0:0|0:0,0:0:0:0:
208,184,110206,2,0,P|168:147|179:45,1,146.666666666667,2|0,3:0|0:0,0:0:0:0:
184,33,110479,1,4,1:0:0:0:
84,120,110661,1,0,0:0:0:0:
84,120,110751,6,0,B|88:171|117:204|117:204|92:246|108:294,1,183.333333333333,2|0,3:0|0:0,0:0:0:0:
196,262,111297,22,0,P|282:336|387:293,1,238.3333224233,4|0,1:0|0:0,0:0:0:0:
425,176,111842,54,0,P|361:176|294:247,1,146.666666666667,2|8,0:0|0:0,0:0:0:0:
360,88,112115,2,0,P|426:91|485:20,1,146.666666666667,8|0,0:0|0:0,0:0:0:0:
400,12,112388,21,2,3:0:0:0:
368,264,112570,1,4,3:0:0:0:
384,232,112661,6,0,L|424:144,1,95.3333289693199,8|2,0:0|0:0,0:0:0:0:
256,12,112933,2,0,L|256:107,1,95.3333289693199,8|2,0:0|0:0,0:0:0:0:
128,232,113206,2,0,L|88:145,1,95.3333289693199,2|2,0:0|0:0,0:0:0:0:
172,304,113479,6,0,B|200:352|200:352|244:236|192:168,1,238.3333224233,4|0,1:0|0:0,0:0:0:0:
89,350,114024,38,0,P|141:298|137:206,1,146.666666666667,8|0,3:0|0:0,0:0:0:0:
84,116,114297,1,2,0:0:0:0:
91,128,114388,1,2,0:0:0:0:
98,140,114479,1,2,0:0:0:0:
76,104,114570,2,0,B|48:56|48:56|4:152|48:232,1,220,2|2,3:0|0:0,0:0:0:0:
48,228,114933,1,2,0:0:0:0:
56,240,115024,1,2,0:0:0:0:
64,251,115115,38,0,L|83:168,1,47.6666644846599,4|4,3:0|3:0,0:0:0:0:
229,93,115297,1,4,3:0:0:0:
232,110,115388,1,8,0:0:0:0:
272,312,115570,1,2,3:0:0:0:
316,240,115661,22,0,B|364:268|352:344|352:344|396:280|456:300,1,238.3333224233,4|0,1:0|0:0,0:0:0:0:
432,372,116206,22,0,P|376:312|408:236,1,146.666666666667,2|8,0:0|0:0,0:0:0:0:
424,104,116479,2,0,P|480:164|448:240,1,146.666666666667,8|2,0:0|0:0,0:0:0:0:
408,176,116751,21,2,3:0:0:0:
232,64,116933,1,4,3:0:0:0:
264,56,117024,6,0,L|376:40,1,95.3333289693199,8|2,0:0|0:0,0:0:0:0:
156,116,117297,2,0,L|44:132,1,95.3333289693199,8|2,0:0|0:0,0:0:0:0:
240,156,117570,2,0,L|352:140,1,95.3333289693199,2|2,0:0|0:0,0:0:0:0:
192,240,117842,6,0,P|148:176|248:64,1,238.3333224233,4|0,1:0|0:0,0:0:0:0:
272,280,118388,38,0,P|212:324|128:304,1,146.666666666667,8|8,0:0|0:0,0:0:0:0:
296,188,118661,2,0,P|357:229|367:315,1,146.666666666667,2|0,0:0|0:0,0:0:0:0:
196,204,118933,2,0,P|213:131|290:93,1,146.666666666667,2|0,3:0|0:0,0:0:0:0:
358,13,119206,38,0,L|372:108,1,95.3333289693199,4|0,1:0|0:0,0:0:0:0:
468,296,119479,70,0,B|448:168|448:168|412:232,1,183.333333333333,2|0,3:0|0:0,0:0:0:0:
408,248,120024,22,0,P|315:321|198:260,1,238.3333224233,4|0,1:0|0:0,0:0:0:0:
168,192,120570,54,0,P|248:188|304:252,1,146.666666666667,2|8,0:0|0:0,0:0:0:0:
100,264,120842,2,0,P|68:190|109:115,1,146.666666666667,8|0,0:0|0:0,0:0:0:0:
213,282,121115,2,0,P|176:353|93:369,1,146.666666666667,2|4,3:0|3:0,0:0:0:0:
40,148,121388,38,0,L|148:120,1,95.3333289693199,8|2,0:0|0:0,0:0:0:0:
164,112,121661,1,8,0:0:0:0:
348,112,121842,1,2,0:0:0:0:
379,124,121934,2,0,L|472:148,1,95.3333289693199,2|2,0:0|0:0,0:0:0:0:
284,160,122206,70,0,B|256:90|256:90|228:160,1,151.25000576973,4|0,1:0|0:0,0:0:0:0:
228,152,122751,2,0,B|256:82|256:82|284:152,1,151.25000576973,8|0,3:0|0:0,0:0:0:0:
284,144,123297,2,0,B|256:74|256:74|228:144,1,151.25000576973,4|0,0:0|0:0,0:0:0:0:
256,66,123842,2,0,L|362:53,1,91.6666666666667,2|0,0:0|0:0,0:0:0:0:
442,199,124388,22,0,P|361:159|266:275,1,238.3333224233,4|0,1:0|0:0,0:0:0:0:
365,253,124933,54,0,L|369:76,1,146.666666666667,2|8,0:0|0:0,0:0:0:0:
191,159,125206,2,0,B|105:228|105:228|164:229,1,146.666666666667,8|0,0:0|0:0,0:0:0:0:
256,322,125479,2,0,L|264:249,1,73.3333333333333,2|0,3:0|0:0,0:0:0:0:
437,185,125661,1,4,3:0:0:0:
462,270,125751,2,0,B|464:299|464:299|425:238|364:252,1,146.666666666667,8|2,0:0|0:0,0:0:0:0:
365,251,126024,1,8,0:0:0:0:
158,63,126206,1,2,0:0:0:0:
158,63,126297,2,0,B|198:86|201:128|201:128|248:119|279:157,1,146.666666666667,2|2,0:0|0:0,0:0:0:0:
107,251,126570,38,0,B|109:158|194:128|194:128|152:99|158:30,1,238.3333224233,4|0,1:0|0:0,0:0:0:0:
158,63,127115,1,8,0:0:0:0:
229,245,127297,1,8,0:0:0:0:
229,245,127388,54,0,B|245:353|245:353|270:299,1,146.666666666667,2|0,0:0|0:0,0:0:0:0:
260,318,127661,2,0,L|114:308,1,146.666666666667,8|0,0:0|0:0,0:0:0:0:
275,173,127933,2,0,L|441:166,1,146.666666666667,4|0,1:0|0:0,0:0:0:0:
98,51,128206,38,0,P|52:35|4:43,1,95.3333289693199,2|0,3:0|0:0,0:0:0:0:
40,173,128479,1,2,3:0:0:0:
40,173,128751,6,0,L|286:167,1,238.3333224233,4|0,1:0|0:0,0:0:0:0:
410,163,129297,38,0,B|353:167|353:167|388:205|377:252,1,146.666666666667,2|8,0:0|0:0,0:0:0:0:
317,364,129570,2,0,P|279:303|294:233,1,146.666666666667,8|0,0:0|0:0,0:0:0:0:
475,280,129842,1,2,3:0:0:0:
405,89,130024,1,4,3:0:0:0:
379,82,130115,2,0,B|305:66|305:66|219:86,1,146.666666666667,8|2,0:0|0:0,0:0:0:0:
235,82,130388,1,8,0:0:0:0:
68,282,130570,1,2,0:0:0:0:
110,210,130661,2,0,B|140:225|147:252|147:252|187:219|234:239,1,146.666666666667,2|2,0:0|0:0,0:0:0:0:
271,323,130933,38,0,B|262:247|262:247|282:171|282:171|272:87,1,238.3333224233,4|0,1:0|0:0,0:0:0:0:
195,164,131479,54,0,L|374:176,1,146.666666666667,8|0,3:0|0:0,0:0:0:0:
403,236,131751,1,2,0:0:0:0:
419,322,131842,1,2,0:0:0:0:
488,269,131933,1,2,0:0:0:0:
332,294,132024,2,0,B|219:310|219:310|252:276,1,146.666666666667,2|0,3:0|0:0,0:0:0:0:
355,141,132297,1,2,0:0:0:0:
350,152,132388,1,2,0:0:0:0:
346,163,132479,1,2,0:0:0:0:
341,173,132570,38,0,L|286:168,1,47.6666644846599,0|0,3:0|3:0,0:0:0:0:
118,58,132751,1,4,3:0:0:0:
133,55,132842,1,8,0:0:0:0:
225,247,133024,1,2,3:0:0:0:
217,232,133115,6,0,B|156:122|271:104|216:-1,1,238.3333224233,4|0,1:0|0:0,0:0:0:0:
116,163,133661,1,0,3:0:0:0:
110,191,133751,1,4,3:0:0:0:
104,220,133842,1,4,3:0:0:0:
215,262,133933,38,0,B|328:256|328:256|271:227,1,146.666666666667,2|0,0:0|0:0,0:0:0:0:
298,240,134206,1,4,3:0:0:0:
452,294,134388,1,8,3:0:0:0:
473,307,134479,38,0,B|483:258|483:258|478:213,1,95.3333289693199,4|2,3:0|0:0,0:0:0:0:
478,212,134751,1,2,3:0:0:0:
368,57,134933,1,0,3:0:0:0:
306,121,135024,2,0,B|296:170|296:170|300:214,1,95.3333289693199,0|2,3:0|0:0,0:0:0:0:
381,249,135297,6,0,P|284:302|211:219,1,238.3333224233,4|0,1:0|0:0,0:0:0:0:
245,107,135842,38,0,B|299:93|299:93|392:105,1,146.666666666667,8|8,0:0|0:0,0:0:0:0:
419,315,136115,2,0,B|403:353|403:353|374:218,1,146.666666666667,2|0,0:0|0:0,0:0:0:0:
198,271,136388,2,0,L|41:250,1,146.666666666667,2|0,3:0|0:0,0:0:0:0:
52,251,136661,1,4,1:0:0:0:
360,71,136842,1,0,0:0:0:0:
277,44,136933,38,0,B|262:120|332:153|332:153|308:184|315:219,1,183.333333333333,2|0,3:0|0:0,0:0:0:0:
399,208,137479,6,0,B|255:220|255:220|148:196,1,238.3333224233,4|0,1:0|0:0,0:0:0:0:
233,112,138024,38,0,P|272:186|242:280,1,146.666666666667,2|8,0:0|0:0,0:0:0:0:
62,292,138297,2,0,P|95:229|160:199,1,146.666666666667,8|0,0:0|0:0,0:0:0:0:
300,349,138570,1,2,3:0:0:0:
428,177,138751,1,4,3:0:0:0:
445,197,138842,38,0,L|328:206,1,95.3333289693199,8|2,0:0|0:0,0:0:0:0:
351,203,139115,1,8,0:0:0:0:
194,303,139297,1,2,0:0:0:0:
216,317,139388,2,0,L|208:221,1,95.3333289693199,2|2,0:0|0:0,0:0:0:0:
184,45,139661,70,0,B|256:68|256:68|334:43,1,151.25000576973,4|0,1:0|0:0,0:0:0:0:
329,55,140206,2,0,B|257:78|257:78|179:53,1,151.25000576973,8|0,3:0|0:0,0:0:0:0:
184,65,140751,2,0,B|256:88|256:88|334:63,1,151.25000576973,4|0,0:0|0:0,0:0:0:0:
256,96,141297,2,0,L|256:188,1,91.6666666666667,2|0,0:0|0:0,0:0:0:0:
176,194,141842,22,0,P|192:237|231:264,1,95.3333289693199,4|2,1:0|0:0,0:0:0:0:
253,265,142115,1,0,3:0:0:0:
434,143,142297,1,2,0:0:0:0:
424,128,142388,54,0,B|388:112|388:112|432:152|420:216,1,146.666666666667,2|0,3:0|0:0,0:0:0:0:
416,248,142661,1,0,3:0:0:0:
280,344,142842,1,0,0:0:0:0:
244,340,142933,2,0,L|172:328,1,73.3333333333333,4|0,3:0|0:0,0:0:0:0:
96,220,143115,1,4,3:0:0:0:
136,196,143206,6,0,P|172:224|188:272,1,73.3333333333333,4|0,3:0|0:0,0:0:0:0:
56,196,143479,2,0,P|69:152|109:121,1,73.3333333333333,2|0,3:0|0:0,0:0:0:0:
96,260,143751,2,0,P|53:277|4:267,1,73.3333333333333,0|0,3:0|0:0,0:0:0:0:
84,56,144024,22,0,P|132:64|172:116,1,95.3333289693199,4|2,1:0|0:0,0:0:0:0:
192,136,144297,1,0,3:0:0:0:
252,324,144479,1,2,0:0:0:0:
264,336,144570,2,0,B|288:360|288:360|300:236,1,142.99999345398,2|2,3:0|1:0,0:0:0:0:
336,48,145024,1,2,0:0:0:0:
352,60,145115,1,0,3:0:0:0:
368,72,145206,1,0,3:0:0:0:
384,84,145297,1,0,3:0:0:0:
396,92,145388,70,0,L|320:100,1,73.3333333333333,4|0,3:0|0:0,0:0:0:0:
256,144,145661,38,0,L|396:128,1,110.000004196167,2|0,3:0|3:0,0:0:0:0:
440,128,145933,38,0,B|412:108|412:108|428:228,1,146.666666666667,0|2,3:0|0:0,0:0:0:0:
460,312,146206,22,0,P|424:248|332:244,1,146.666666666667,4|2,0:0|0:0,0:0:0:0:
340,236,146479,1,0,3:0:0:0:
207,331,146661,1,2,0:0:0:0:
223,331,146751,2,0,L|383:323,1,146.666666666667,2|0,3:0|0:0,0:0:0:0:
192,244,147024,2,0,L|32:252,1,146.666666666667,0|0,3:0|0:0,0:0:0:0:
32,252,147297,1,4,3:0:0:0:
116,356,147479,1,0,3:0:0:0:
116,348,147570,86,0,L|112:256,1,73.3333333333333,4|0,3:0|0:0,0:0:0:0:
28,140,147842,2,0,L|32:232,1,73.3333333333333,2|0,3:0|0:0,0:0:0:0:
32,252,148115,2,0,L|105:248,1,73.3333333333333,0|0,3:0|0:0,0:0:0:0:
116,248,148388,21,4,1:0:0:0:
376,116,148570,1,0,3:0:0:0:
344,96,148661,1,0,3:0:0:0:
308,88,148751,1,0,3:0:0:0:
272,92,148842,1,0,3:0:0:0:
236,108,148933,2,2,P|284:140|340:144,1,95.3333289693199,2|0,3:0|0:0,1:0:0:0:
440,100,149206,54,0,P|388:64|284:76,1,146.666666666667,0|0,0:0|3:0,0:0:0:0:
324,244,149479,1,0,3:0:0:0:
360,244,149570,1,0,3:0:0:0:
392,228,149661,1,0,3:0:0:0:
420,204,149751,22,0,B|388:192|388:192|444:228|428:312,1,146.666666666667,2|0,3:0|0:0,0:0:0:0:
104,319,150024,86,0,L|67:331,2,36.6666666666667,0|0|0,3:0|3:0|3:0,0:0:0:0:
328,284,150297,2,2,L|362:271,1,36.6666666666667,2|0,3:0|0:0,1:0:0:0:
128,288,150570,22,0,L|37:315,1,95.3333289693199,4|2,1:2|0:0,0:0:0:0:
148,208,150842,2,0,P|192:228|208:288,1,95.3333289693199,0|2,3:0|0:0,0:0:0:0:
68,216,151115,54,0,P|44:152|100:76,1,146.666666666667,2|0,3:0|0:0,0:0:0:0:
108,64,151388,1,0,3:0:0:0:
304,136,151570,1,0,0:0:0:0:
268,140,151661,2,0,L|112:156,1,146.666666666667,4|0,3:0|3:0,0:0:0:0:
264,60,151933,6,0,L|368:52,1,73.3333333333333,0|0,3:0|3:0,0:0:0:0:
452,44,152206,6,0,B|424:28|424:28|440:152,1,146.666666666667,8|0,3:0|0:0,0:0:0:0:
400,208,152479,2,2,P|440:140|520:132,1,146.666666666667,0|0,3:0|0:0,1:0:0:0:
400,296,152751,6,0,P|352:288|320:244,1,95.3333289693199,4|0,3:0|3:0,0:0:0:0:
484,208,153024,2,0,P|512:247|503:301,1,95.3333289693199,2|0,0:0|0:0,0:0:0:0:
496,312,153296,1,2,3:0:0:0:
168,348,153478,1,0,3:0:0:0:
180,328,153569,2,0,L|300:332,1,95.3333289693199,0|2,3:0|0:0,0:0:0:0:
300,332,153842,1,0,3:0:0:0:
324,332,153933,1,0,3:0:0:0:
348,332,154023,1,0,3:0:0:0:
372,332,154115,70,0,L|292:284,1,73.3333333333333,0|0,3:0|0:0,0:0:0:0:
388,252,154388,22,0,B|448:292|448:292|452:360,1,110.000004196167,2|2,3:0|0:0,0:0:0:0:
300,332,154660,54,2,B|188:328|188:328|224:308,1,146.666666666667,0|0,3:0|0:0,1:0:0:0:
256,240,154933,54,0,P|208:232|164:248,1,95.3333289693199,4|2,0:0|0:0,0:0:0:0:
144,260,155205,1,0,3:0:0:0:
48,96,155387,1,2,0:0:0:0:
64,64,155479,38,0,P|100:132|76:208,1,146.666666666667,2|0,3:0|0:0,0:0:0:0:
56,220,155751,1,0,3:0:0:0:
176,100,155933,1,0,0:0:0:0:
208,84,156024,2,0,L|356:96,1,146.666666666667,4|0,3:0|3:0,0:0:0:0:
472,176,156297,6,0,L|376:168,1,73.3333333333333,4|0,3:0|0:0,0:0:0:0:
380,168,156570,1,2,3:0:0:0:
37,177,156751,1,0,0:0:0:0:
56,176,156842,2,2,L|129:169,1,73.3333333333333,0|0,3:0|0:0,1:0:0:0:
195,121,157115,6,0,L|214:236,1,95.3333289693199,4|0,3:0|0:0,0:0:0:0:
339,331,157388,2,0,L|345:244,1,73.3333333333333,0|2,3:0|0:0,0:0:0:0:
326,101,157569,1,2,0:0:0:0:
334,84,157661,2,0,B|445:70|445:70|418:95,1,146.666666666667,4|2,3:0|0:0,0:0:0:0:
358,207,157933,2,0,P|286:203|232:155,1,146.666666666667,0|2,3:0|0:0,0:0:0:0:
233,144,158160,1,2,0:0:0:0:
236,130,158206,6,0,B|207:257|207:257|199:207,1,181.500001730919,2|0,3:0|0:0,1:0:0:0:
106,223,158751,6,0,L|124:317,1,95.3333289693199,2|0,0:0|0:0,0:0:0:0:
201,365,159024,1,0,3:0:0:0:
289,347,159115,1,0,3:0:0:0:
302,257,159206,1,0,3:0:0:0:
213,275,159297,37,4,1:0:0:0:
399,185,159479,1,2,0:0:0:0:
283,162,159570,1,0,3:0:0:0:
394,38,159751,1,2,0:0:0:0:
246,66,159842,2,0,B|269:184|269:184|284:162,1,146.666666666667,2|0,3:0|0:0,0:0:0:0:
323,285,160115,2,0,P|277:256|193:278,1,146.666666666667,0|0,3:0|0:0,0:0:0:0:
192,278,160388,1,0,3:0:0:0:
396,345,160570,1,4,3:0:0:0:
419,353,160661,6,0,B|426:317|426:317|423:274,1,73.3333333333333,4|0,3:0|0:0,0:0:0:0:
203,154,160933,2,0,P|245:176|294:177,1,73.3333333333333,2|0,3:0|0:0,0:0:0:0:
443,49,161206,2,0,L|369:42,1,73.3333333333333,0|2,3:0|0:0,0:0:0:0:
369,42,161479,5,4,1:0:0:0:
417,285,161661,1,2,0:0:0:0:
399,178,161751,1,0,3:0:0:0:
281,275,161933,1,2,0:0:0:0:
315,139,162024,2,0,B|427:163|427:163|383:187,1,146.666666666667,2|2,3:0|3:0,0:0:0:0:
195,222,162297,6,2,B|145:220|145:220|101:231,1,95.3333289693199,0|0,3:0|0:0,1:0:0:0:
184,311,162570,1,0,3:0:0:0:
195,222,162661,1,0,3:0:0:0:
204,135,162751,1,0,3:0:0:0:
141,51,162842,54,0,P|101:105|119:192,1,146.666666666667,4|0,3:0|0:0,0:0:0:0:
333,297,163115,2,0,L|321:139,1,146.666666666667,2|0,3:0|3:0,0:0:0:0:
40,306,163388,2,0,B|94:323|94:323|183:310,1,146.666666666667,0|2,3:0|0:0,0:0:0:0:
327,41,163661,22,0,B|342:163|342:163|308:142,1,146.666666666667,4|2,0:0|0:0,0:0:0:0:
314,143,163933,1,0,3:0:0:0:
40,306,164115,1,2,0:0:0:0:
122,365,164206,2,0,B|135:315|135:315|128:204,1,146.666666666667,2|0,3:0|0:0,0:0:0:0:
242,89,164479,2,0,B|229:139|229:139|236:250,1,146.666666666667,0|0,3:0|0:0,0:0:0:0:
235,234,164751,1,4,3:0:0:0:
485,170,164933,1,0,3:0:0:0:
431,242,165024,70,0,B|319:234|319:234|343:266,1,146.666666666667,4|0,3:0|0:0,0:0:0:0:
388,147,165297,2,0,P|410:79|380:14,1,146.666666666667,2|0,3:0|0:0,0:0:0:0:
157,83,165570,2,0,B|243:96|243:96|302:90,1,146.666666666667,0|0,3:0|0:0,0:0:0:0:
286,193,165842,6,0,L|293:250,1,40.333334564209,4|0,1:0|0:0,0:0:0:0:
322,312,166115,1,0,3:0:0:0:
237,298,166206,1,0,3:0:0:0:
152,282,166297,1,0,3:0:0:0:
176,365,166388,6,2,L|183:205,1,146.666666666667,2|0,3:0|0:0,1:0:0:0:
150,113,166661,2,0,B|121:141|121:141|177:106|237:137,1,146.666666666667
290,233,166933,1,0,3:0:0:0:
283,323,167024,1,0,3:0:0:0:
210,273,167115,1,0,3:0:0:0:
290,233,167206,2,0,B|404:242|404:242|375:256,1,146.666666666667,2|0,3:0|0:0,0:0:0:0:
326,137,167479,69,0,3:0:0:0:
238,126,167570,1,0,3:0:0:0:
150,113,167661,1,0,3:0:0:0:
179,198,167751,2,2,L|192:382,1,146.666666666667,2|0,3:0|0:0,1:0:0:0:
189,344,168024,37,4,0:0:0:0:
427,208,168206,1,2,0:0:0:0:
411,309,168297,1,0,3:0:0:0:
302,188,168479,1,2,0:0:0:0:
329,320,168570,54,0,B|440:328|440:328|406:306,1,146.666666666667,2|0,3:0|0:0,0:0:0:0:
244,251,168842,2,0,P|217:317|238:385,1,146.666666666667,0|0,3:0|0:0,0:0:0:0:
329,320,169115,1,4,3:0:0:0:
48,248,169297,1,0,3:0:0:0:
131,222,169388,2,0,L|123:312,1,73.3333333333333,0|0,3:0|3:0,0:0:0:0:
60,149,169570,1,0,3:0:0:0:
46,122,169661,38,0,P|80:112|144:125,1,95.3333289693199,8|0,3:0|0:0,0:0:0:0:
224,168,169933,54,2,B|216:50|216:50|199:90,1,146.666666666667,0|0,3:0|0:0,1:0:0:0:
204,77,170206,21,4,3:0:0:0:
311,307,170388,1,2,0:0:0:0:
419,289,170479,1,0,3:0:0:0:
296,193,170661,1,2,0:0:0:0:
431,166,170751,1,2,3:0:0:0:
277,70,170933,1,2,0:0:0:0:
447,20,171024,2,0,L|430:168,1,146.666666666667,0|2,3:0|0:0,1:0:0:0:
351,270,171297,1,0,3:0:0:0:
354,287,171388,1,0,3:0:0:0:
357,303,171479,1,0,3:0:0:0:
360,318,171570,2,0,B|348:353|348:353|321:224,1,146.666666666667,0|0,3:0|0:0,0:0:0:0:
411,194,171842,86,0,P|426:228|426:273,1,73.3333333333333,2|0,3:0|0:0,0:0:0:0:
230,234,172115,6,2,B|119:228|119:228|151:251,1,146.666666666667,0|0,3:0|0:0,1:0:0:0:
147,248,172388,70,0,L|139:84,1,146.666666666667,4|2,0:0|0:0,0:0:0:0:
139,102,172661,1,0,3:0:0:0:
282,19,172842,1,2,0:0:0:0:
271,104,172933,2,0,B|318:112|358:68|358:68|348:92|358:129,1,146.666666666667,2|0,3:0|0:0,0:0:0:0:
439,256,173206,2,0,B|429:215|400:190|400:190|431:174|442:134,1,146.666666666667,0|0,3:0|0:0,0:0:0:0:
337,273,173479,2,0,B|283:286|283:286|171:268,1,146.666666666667,4|0,3:0|3:0,0:0:0:0:
265,52,173751,2,0,L|282:220,1,146.666666666667,4|0,3:0|0:0,0:0:0:0:
280,198,174024,1,2,3:0:0:0:
70,302,174206,1,0,0:0:0:0:
156,354,174297,38,2,L|164:233,1,95.3333289693199,0|0,3:0|0:0,1:0:0:0:
200,108,174570,70,0,B|224:80|264:72|264:72|256:78|248:72|248:72|288:80|312:108,1,167.383335759697,4|0,1:0|0:0,0:0:0:0:
312,118,175115,2,0,B|288:90|248:82|248:82|256:88|264:82|264:82|224:90|200:118,1,167.383335759697,8|0,3:0|0:0,0:0:0:0:
200,129,175661,2,0,B|224:101|264:93|264:93|256:99|248:93|248:93|288:101|312:129,1,167.383335759697,4|0,0:0|0:0,0:0:0:0:
256,106,176206,2,0,L|256:202,1,91.6666666666667,2|0,0:0|0:0,0:0:0:0:
256,220,176751,5,4,0:0:0:0:
256,192,176933,12,0,181115,0:0:0:0:
