osu file format v14

[General]
AudioFilename: audio.mp3
AudioLeadIn: 0
PreviewTime: 134445
Countdown: 0
SampleSet: Normal
StackLeniency: 0.7
Mode: 1
LetterboxInBreaks: 0
WidescreenStoryboard: 0

[Editor]
Bookmarks: 9658,21678,40878,60078,64878,74490,84090,85290,94890,104490,106890,116490,126090,153690,172890
DistanceSpacing: 0.8
BeatDivisor: 4
GridSize: 32
TimelineZoom: 2.9

[Metadata]
Title:Ylil's overed landscape
TitleUnicode:Ylil's overed landscape
Artist:xyst
ArtistUnicode:xyst
Creator:SKSalt
Version:Inner Oni
Source:BMS
Tags:無名戦15 DID 崩壊 ノイズ Lily Ylil リリィ リリ Breakdown Noise komasy
BeatmapID:1880273
BeatmapSetID:897948

[Difficulty]
HPDrainRate:6
CircleSize:6.5
OverallDifficulty:6.5
ApproachRate:6.5
SliderMultiplier:1.4
SliderTickRate:1

[Events]
//Background and Video events
0,0,"bg.jpg",0,-55
//Break Periods
2,21920,38640
2,104720,105840
2,129920,133140
//Storyboard Layer 0 (Background)
//Storyboard Layer 1 (Fail)
//Storyboard Layer 2 (Pass)
//Storyboard Layer 3 (Foreground)
//Storyboard Sound Samples

[TimingPoints]
45,300,4,1,0,30,1,8
82,-133.333333333333,4,1,0,30,0,0
120.918660287081,300,4,1,0,30,1,0
121,-133.333333333333,4,1,0,30,0,0
8445,-128.205128205128,4,1,0,32,0,0
8595,-123.456790123457,4,1,0,34,0,0
8745,-119.047619047619,4,1,0,36,0,0
8858,-117.647058823529,4,1,0,37,0,0
8933,-116.279069767442,4,1,0,38,0,0
9008,-113.636363636364,4,1,0,40,0,0
9083,-112.359550561798,4,1,0,41,0,0
9158,-111.111111111111,4,1,0,42,0,0
9233,-109.89010989011,4,1,0,43,0,0
9308,-108.695652173913,4,1,0,44,0,0
9383,-107.52688172043,4,1,0,45,0,0
9458,-106.382978723404,4,1,0,46,0,0
9533,-105.263157894737,4,1,0,47,0,0
9645,-100,4,1,0,60,0,0
19283,-25,4,1,0,10,0,0
20520,-133.333333333333,4,1,0,10,0,0
21645,-200,4,1,0,100,0,0
21720,300,4,1,0,100,1,0
21720,-200,4,1,0,100,0,0
21757,-200,4,1,0,10,0,0
39570,-133.333333333333,4,1,0,50,0,0
39870,-125,4,1,0,50,0,0
40282,-117.647058823529,4,1,0,60,0,0
40358,-114.942528735632,4,1,0,61,0,0
40433,-112.359550561798,4,1,0,62,0,0
40508,-109.89010989011,4,1,0,63,0,0
40583,-107.52688172043,4,1,0,64,0,0
40658,-105.263157894737,4,1,0,65,0,0
40733,-103.092783505155,4,1,0,66,0,0
40808,-101.010101010101,4,1,0,68,0,0
40883,-100,4,1,0,80,0,0
60095,-100,4,1,0,100,0,0
64882,-80,4,1,0,100,0,0
84232,-83.3333333333333,4,1,0,100,0,0
84382,-86.9565217391304,4,1,0,100,0,0
84532,-90.9090909090909,4,1,0,100,0,0
84682,-95.2380952380952,4,1,0,100,0,0
84795,-98.0392156862745,4,1,0,100,0,0
84870,-101.010101010101,4,1,0,100,0,0
84982,-104.166666666667,4,1,0,100,0,0
85095,-107.52688172043,4,1,0,100,0,0
85170,-111.111111111111,4,1,0,100,0,0
85320,300,4,1,0,100,1,1
85320,-80,4,1,0,100,0,1
99832,-76.3358778625954,4,1,0,100,0,1
101032,-72.992700729927,4,1,0,100,0,1
102232,-69.9300699300699,4,1,0,100,0,1
102682,-66.6666666666667,4,1,0,100,0,1
104520,-66.6666666666667,4,1,0,100,0,0
106882,-133.333333333333,4,1,0,30,0,0
106920,300,4,1,0,30,1,0
106920,-133.333333333333,4,1,0,30,0,0
116482,-100,4,1,0,60,0,0
126095,-100,4,1,0,40,0,0
126382,-111.111111111111,4,1,0,40,0,0
126532,-114.942528735632,4,1,0,40,0,0
126832,-119.047619047619,4,1,0,40,0,0
127282,-125,4,1,0,30,0,0
127582,-128.205128205128,4,1,0,30,0,0
127882,-131.578947368421,4,1,0,30,0,0
128032,-133.333333333333,4,1,0,30,0,0
128482,-133.333333333333,4,1,0,20,0,0
129682,-133.333333333333,4,1,0,10,0,0
129720,300,4,1,0,10,1,0
129720,-133.333333333333,4,1,0,10,0,0
134182,-200,4,1,0,5,0,0
134482,-100,4,1,0,5,0,0
134520,-100,4,1,0,100,0,1
152520,-100,4,1,0,100,0,0
153082,-97.0873786407767,4,1,0,100,0,0
153157,-94.3396226415094,4,1,0,100,0,0
153232,-91.743119266055,4,1,0,100,0,0
153307,-89.2857142857143,4,1,0,100,0,0
153382,-86.9565217391304,4,1,0,100,0,0
153457,-84.7457627118644,4,1,0,100,0,0
153532,-82.6446280991736,4,1,0,100,0,0
153607,-80.6451612903226,4,1,0,100,0,0
153682,-78.7401574803149,4,1,0,100,0,0
153720,-78.7401574803149,4,1,0,100,0,1
172920,-78.7401574803149,4,1,0,100,0,0

[HitObjects]
270,184,120,5,0,0:0:0:0:
248,235,420,1,2,0:0:0:0:
248,235,570,1,0,0:0:0:0:
248,235,870,1,2,0:0:0:0:
248,235,1020,1,0,0:0:0:0:
248,235,1170,1,0,0:0:0:0:
248,235,1320,1,2,0:0:0:0:
248,235,1470,1,0,0:0:0:0:
248,235,1770,1,2,0:0:0:0:
269,253,1920,1,2,0:0:0:0:
332,308,2070,1,0,0:0:0:0:
319,285,2145,1,2,0:0:0:0:
332,308,2220,1,0,0:0:0:0:
332,308,2370,1,2,0:0:0:0:
270,184,2520,1,0,0:0:0:0:
248,235,2820,1,2,0:0:0:0:
248,235,2970,1,0,0:0:0:0:
248,235,3270,1,2,0:0:0:0:
248,235,3420,1,0,0:0:0:0:
248,235,3570,1,0,0:0:0:0:
248,235,3720,1,2,0:0:0:0:
248,235,3870,1,0,0:0:0:0:
248,235,4170,1,2,0:0:0:0:
269,253,4320,1,2,0:0:0:0:
332,308,4470,1,2,0:0:0:0:
332,308,4545,1,0,0:0:0:0:
319,285,4620,1,2,0:0:0:0:
332,308,4770,1,2,0:0:0:0:
270,184,4920,1,0,0:0:0:0:
248,235,5220,1,2,0:0:0:0:
248,235,5370,1,0,0:0:0:0:
248,235,5670,1,2,0:0:0:0:
248,235,5820,1,0,0:0:0:0:
248,235,5970,1,0,0:0:0:0:
248,235,6120,1,2,0:0:0:0:
248,235,6270,1,0,0:0:0:0:
248,235,6570,1,2,0:0:0:0:
269,253,6720,1,2,0:0:0:0:
332,308,6870,1,0,0:0:0:0:
319,285,6945,1,2,0:0:0:0:
332,308,7020,1,0,0:0:0:0:
332,308,7170,1,2,0:0:0:0:
270,184,7320,5,0,0:0:0:0:
248,235,7620,1,2,0:0:0:0:
248,235,7770,1,0,0:0:0:0:
248,235,8070,1,2,0:0:0:0:
248,235,8220,1,0,0:0:0:0:
248,235,8370,1,0,0:0:0:0:
248,235,8520,1,2,0:0:0:0:
248,235,8670,1,0,0:0:0:0:
248,235,8820,1,0,0:0:0:0:
221,235,8895,1,0,0:0:0:0:
248,235,8970,1,2,0:0:0:0:
261,255,9045,1,0,0:0:0:0:
269,253,9120,1,2,0:0:0:0:
232,218,9195,1,0,0:0:0:0:
332,308,9270,1,0,0:0:0:0:
319,285,9345,1,2,0:0:0:0:
332,308,9420,1,2,0:0:0:0:
232,218,9495,1,0,0:0:0:0:
332,308,9570,1,2,0:0:0:0:
248,235,9720,1,4,0:0:0:0:
139,189,10020,1,2,0:0:0:0:
182,184,10170,1,0,0:0:0:0:
111,178,10470,1,0,0:0:0:0:
111,178,10620,1,2,0:0:0:0:
248,235,10920,1,0,0:0:0:0:
139,189,11220,1,2,0:0:0:0:
257,176,11520,1,0,0:0:0:0:
111,178,11670,1,0,0:0:0:0:
111,178,11820,1,2,0:0:0:0:
248,235,12120,1,0,0:0:0:0:
139,189,12420,1,2,0:0:0:0:
192,184,12570,1,0,0:0:0:0:
111,178,12870,1,0,0:0:0:0:
111,178,13020,1,2,0:0:0:0:
248,235,13320,1,0,0:0:0:0:
139,189,13620,1,2,0:0:0:0:
254,178,13920,1,0,0:0:0:0:
111,178,14070,1,0,0:0:0:0:
111,178,14220,1,2,0:0:0:0:
243,211,14520,1,0,0:0:0:0:
170,111,14820,1,2,0:0:0:0:
190,221,15120,1,0,0:0:0:0:
273,220,15420,1,2,0:0:0:0:
243,211,15720,1,0,0:0:0:0:
170,111,16020,1,2,0:0:0:0:
190,221,16320,1,0,0:0:0:0:
273,220,16620,1,2,0:0:0:0:
243,211,16920,1,0,0:0:0:0:
298,218,17070,1,0,0:0:0:0:
170,111,17220,1,2,0:0:0:0:
298,218,17370,1,0,0:0:0:0:
190,221,17520,1,0,0:0:0:0:
298,218,17670,1,0,0:0:0:0:
273,220,17820,1,2,0:0:0:0:
298,218,17970,1,0,0:0:0:0:
273,220,18120,1,2,0:0:0:0:
293,235,18195,1,0,0:0:0:0:
315,252,18270,1,0,0:0:0:0:
315,252,18345,1,0,0:0:0:0:
315,252,18420,1,2,0:0:0:0:
315,252,18495,1,0,0:0:0:0:
315,252,18570,1,2,0:0:0:0:
315,252,18645,1,0,0:0:0:0:
315,252,18720,1,0,0:0:0:0:
315,252,18795,1,0,0:0:0:0:
315,252,18870,1,2,0:0:0:0:
315,252,18945,1,0,0:0:0:0:
315,252,19020,1,2,0:0:0:0:
315,252,19095,1,2,0:0:0:0:
315,252,19170,1,0,0:0:0:0:
315,252,19245,1,0,0:0:0:0:
256,192,19320,12,0,21570,0:0:0:0:
253,172,21720,5,4,0:0:0:0:
347,246,39720,5,0,0:0:0:0:
347,246,40020,1,2,0:0:0:0:
347,246,40320,1,2,0:0:0:0:
347,246,40395,1,2,0:0:0:0:
347,246,40470,1,0,0:0:0:0:
365,252,40545,1,2,0:0:0:0:
347,246,40620,1,0,0:0:0:0:
347,246,40695,1,0,0:0:0:0:
347,246,40770,1,2,0:0:0:0:
367,252,40920,1,4,0:0:0:0:
339,240,41070,1,0,0:0:0:0:
323,233,41145,1,0,0:0:0:0:
307,226,41220,1,2,0:0:0:0:
267,211,41370,1,2,0:0:0:0:
244,202,41445,1,2,0:0:0:0:
221,193,41520,1,0,0:0:0:0:
196,183,41595,1,0,0:0:0:0:
196,183,41670,1,2,0:0:0:0:
196,183,41745,1,0,0:0:0:0:
196,183,41820,1,2,0:0:0:0:
196,183,41970,1,0,0:0:0:0:
196,183,42045,1,2,0:0:0:0:
196,183,42120,1,2,0:0:0:0:
196,183,42270,1,2,0:0:0:0:
196,183,42345,1,0,0:0:0:0:
196,183,42420,1,2,0:0:0:0:
196,183,42570,1,0,0:0:0:0:
196,183,42645,1,2,0:0:0:0:
196,183,42720,1,0,0:0:0:0:
196,183,42795,1,2,0:0:0:0:
196,183,42870,1,2,0:0:0:0:
196,183,42945,1,0,0:0:0:0:
196,183,43020,1,2,0:0:0:0:
222,191,43095,1,2,0:0:0:0:
196,183,43170,1,0,0:0:0:0:
196,183,43320,1,0,0:0:0:0:
196,183,43470,1,2,0:0:0:0:
196,183,43545,1,0,0:0:0:0:
196,183,43620,1,2,0:0:0:0:
196,183,43770,1,0,0:0:0:0:
196,183,43845,1,0,0:0:0:0:
196,183,43920,1,2,0:0:0:0:
196,183,44070,1,0,0:0:0:0:
196,183,44220,1,2,0:0:0:0:
196,183,44370,1,2,0:0:0:0:
196,183,44445,1,0,0:0:0:0:
196,183,44520,1,2,0:0:0:0:
196,183,44595,1,2,0:0:0:0:
196,183,44670,1,0,0:0:0:0:
196,183,44745,1,0,0:0:0:0:
196,183,44820,1,2,0:0:0:0:
196,183,44895,1,2,0:0:0:0:
196,183,44970,1,0,0:0:0:0:
196,183,45045,1,0,0:0:0:0:
196,183,45120,1,2,0:0:0:0:
196,183,45195,1,0,0:0:0:0:
196,183,45270,1,0,0:0:0:0:
196,183,45345,1,0,0:0:0:0:
196,183,45420,1,2,0:0:0:0:
196,183,45495,1,0,0:0:0:0:
196,183,45570,1,2,0:0:0:0:
196,183,45720,1,0,0:0:0:0:
196,183,45870,1,2,0:0:0:0:
196,183,45945,1,0,0:0:0:0:
196,183,46020,1,2,0:0:0:0:
196,183,46170,1,0,0:0:0:0:
196,183,46245,1,0,0:0:0:0:
367,252,46320,1,2,0:0:0:0:
353,246,46395,1,2,0:0:0:0:
339,240,46470,1,0,0:0:0:0:
323,233,46545,1,0,0:0:0:0:
307,226,46620,1,2,0:0:0:0:
267,211,46770,1,2,0:0:0:0:
244,202,46845,1,0,0:0:0:0:
221,193,46920,1,2,0:0:0:0:
196,183,46995,1,2,0:0:0:0:
196,183,47070,1,0,0:0:0:0:
196,183,47145,1,0,0:0:0:0:
196,183,47220,1,2,0:0:0:0:
196,183,47295,1,2,0:0:0:0:
196,183,47370,1,0,0:0:0:0:
196,183,47445,1,0,0:0:0:0:
196,183,47520,1,2,0:0:0:0:
196,183,47595,1,0,0:0:0:0:
196,183,47670,1,0,0:0:0:0:
196,183,47745,1,0,0:0:0:0:
196,183,47820,1,2,0:0:0:0:
196,183,47895,1,0,0:0:0:0:
196,183,47970,1,2,0:0:0:0:
196,183,48120,1,0,0:0:0:0:
196,183,48270,1,2,0:0:0:0:
196,183,48345,1,0,0:0:0:0:
196,183,48420,1,2,0:0:0:0:
196,183,48570,1,0,0:0:0:0:
196,183,48645,1,2,0:0:0:0:
196,183,48720,1,2,0:0:0:0:
196,183,48795,1,2,0:0:0:0:
196,183,48870,1,0,0:0:0:0:
196,183,48945,1,0,0:0:0:0:
196,183,49020,1,2,0:0:0:0:
196,183,49170,1,0,0:0:0:0:
196,183,49245,1,0,0:0:0:0:
196,183,49320,1,0,0:0:0:0:
196,183,49395,1,2,0:0:0:0:
196,183,49470,1,0,0:0:0:0:
196,183,49545,1,0,0:0:0:0:
196,183,49620,1,2,0:0:0:0:
196,183,49695,1,2,0:0:0:0:
196,183,49770,1,0,0:0:0:0:
196,183,49845,1,2,0:0:0:0:
196,183,49920,1,0,0:0:0:0:
196,183,49970,1,0,0:0:0:0:
196,183,50020,1,0,0:0:0:0:
182,179,50070,1,2,0:0:0:0:
196,183,50145,1,0,0:0:0:0:
182,186,50220,1,2,0:0:0:0:
196,183,50295,1,0,0:0:0:0:
196,183,50370,1,2,0:0:0:0:
196,183,50520,1,0,0:0:0:0:
196,183,50670,1,2,0:0:0:0:
196,183,50745,1,0,0:0:0:0:
196,183,50820,1,2,0:0:0:0:
196,183,50970,1,0,0:0:0:0:
196,183,51045,1,0,0:0:0:0:
196,183,51120,1,2,0:0:0:0:
196,183,51195,1,0,0:0:0:0:
196,183,51270,1,0,0:0:0:0:
196,183,51420,1,2,0:0:0:0:
196,183,51495,1,0,0:0:0:0:
196,183,51570,1,0,0:0:0:0:
196,183,51645,1,0,0:0:0:0:
367,252,51720,1,2,0:0:0:0:
339,240,51870,1,0,0:0:0:0:
323,233,51945,1,2,0:0:0:0:
307,226,52020,1,2,0:0:0:0:
288,219,52095,1,0,0:0:0:0:
267,211,52170,1,0,0:0:0:0:
244,202,52245,1,2,0:0:0:0:
221,193,52320,1,0,0:0:0:0:
196,183,52395,1,2,0:0:0:0:
196,183,52470,1,2,0:0:0:0:
196,183,52545,1,0,0:0:0:0:
196,183,52620,1,2,0:0:0:0:
196,183,52695,1,2,0:0:0:0:
196,183,52770,1,0,0:0:0:0:
196,183,52920,1,0,0:0:0:0:
196,183,53070,1,2,0:0:0:0:
196,183,53145,1,0,0:0:0:0:
196,183,53220,1,2,0:0:0:0:
196,183,53370,1,0,0:0:0:0:
196,183,53445,1,0,0:0:0:0:
196,183,53520,1,0,0:0:0:0:
196,183,53595,1,0,0:0:0:0:
196,183,53670,1,2,0:0:0:0:
196,183,53745,1,0,0:0:0:0:
196,183,53820,1,2,0:0:0:0:
196,183,53970,1,0,0:0:0:0:
196,183,54045,1,0,0:0:0:0:
196,183,54120,1,0,0:0:0:0:
196,183,54195,1,2,0:0:0:0:
196,183,54270,1,0,0:0:0:0:
196,183,54345,1,0,0:0:0:0:
196,183,54420,1,2,0:0:0:0:
196,183,54570,1,0,0:0:0:0:
196,183,54645,1,0,0:0:0:0:
196,183,54720,1,2,0:0:0:0:
196,183,54870,1,2,0:0:0:0:
196,183,54945,1,0,0:0:0:0:
196,183,55020,1,2,0:0:0:0:
222,180,55095,1,0,0:0:0:0:
196,183,55170,1,2,0:0:0:0:
225,180,55245,1,2,0:0:0:0:
196,183,55320,1,0,0:0:0:0:
196,183,55470,1,0,0:0:0:0:
196,183,55545,1,0,0:0:0:0:
196,183,55620,1,2,0:0:0:0:
196,183,55770,1,0,0:0:0:0:
196,183,55845,1,0,0:0:0:0:
196,183,55920,1,2,0:0:0:0:
196,183,55995,1,2,0:0:0:0:
196,183,56070,1,0,0:0:0:0:
196,183,56145,1,0,0:0:0:0:
196,183,56220,1,2,0:0:0:0:
196,183,56370,1,2,0:0:0:0:
196,183,56445,1,2,0:0:0:0:
196,183,56520,1,0,0:0:0:0:
196,183,56595,1,0,0:0:0:0:
196,183,56670,1,0,0:0:0:0:
196,183,56745,1,2,0:0:0:0:
196,183,56820,1,2,0:0:0:0:
196,183,56895,1,0,0:0:0:0:
196,183,56970,1,0,0:0:0:0:
367,252,57045,1,0,0:0:0:0:
196,183,57120,1,0,0:0:0:0:
353,246,57195,1,2,0:0:0:0:
339,240,57270,1,0,0:0:0:0:
323,233,57345,1,0,0:0:0:0:
307,226,57420,1,2,0:0:0:0:
288,219,57495,1,0,0:0:0:0:
267,211,57570,1,2,0:0:0:0:
221,193,57720,1,0,0:0:0:0:
196,183,57870,1,2,0:0:0:0:
196,183,57945,1,0,0:0:0:0:
196,183,58020,1,2,0:0:0:0:
196,183,58170,1,0,0:0:0:0:
196,183,58245,1,0,0:0:0:0:
196,183,58320,1,2,0:0:0:0:
196,183,58395,1,2,0:0:0:0:
196,183,58470,1,2,0:0:0:0:
196,183,58545,1,0,0:0:0:0:
196,183,58620,1,2,0:0:0:0:
196,183,58770,1,2,0:0:0:0:
196,183,58845,1,2,0:0:0:0:
196,183,58920,1,0,0:0:0:0:
196,183,58995,1,0,0:0:0:0:
196,183,59070,1,2,0:0:0:0:
196,183,59145,1,0,0:0:0:0:
196,183,59220,1,2,0:0:0:0:
196,183,59295,1,2,0:0:0:0:
196,183,59370,1,0,0:0:0:0:
196,183,59445,1,0,0:0:0:0:
196,183,59520,1,2,0:0:0:0:
196,183,59570,1,2,0:0:0:0:
196,183,59620,1,2,0:0:0:0:
208,176,59670,1,0,0:0:0:0:
206,164,59745,1,0,0:0:0:0:
196,183,59820,1,2,0:0:0:0:
170,170,59895,1,0,0:0:0:0:
183,169,59970,1,2,0:0:0:0:
180,186,60045,1,0,0:0:0:0:
196,183,60120,1,2,0:0:0:0:
310,198,60420,1,0,0:0:0:0:
195,183,60720,1,0,0:0:0:0:
303,197,61020,1,0,0:0:0:0:
188,182,61320,1,2,0:0:0:0:
219,201,61420,1,2,0:0:0:0:
251,219,61520,1,0,0:0:0:0:
86,153,61620,1,0,0:0:0:0:
130,166,61820,1,0,0:0:0:0:
190,200,61920,1,0,0:0:0:0:
249,194,62120,1,0,0:0:0:0:
239,308,62220,1,2,0:0:0:0:
194,207,62520,1,0,0:0:0:0:
244,179,62670,1,0,0:0:0:0:
241,312,62820,1,2,0:0:0:0:
230,272,62970,1,2,0:0:0:0:
192,203,63120,1,0,0:0:0:0:
235,212,63220,1,0,0:0:0:0:
269,219,63320,1,0,0:0:0:0:
239,308,63420,1,0,0:0:0:0:
177,258,63620,1,2,0:0:0:0:
191,202,63720,1,0,0:0:0:0:
235,212,63820,1,0,0:0:0:0:
235,212,63920,1,2,0:0:0:0:
240,310,64020,1,0,0:0:0:0:
235,212,64120,1,0,0:0:0:0:
235,212,64220,1,0,0:0:0:0:
208,186,64320,1,2,0:0:0:0:
208,186,64420,1,0,0:0:0:0:
208,186,64520,1,0,0:0:0:0:
252,62,64620,1,6,0:0:0:0:
248,198,64920,1,0,0:0:0:0:
319,204,65070,1,2,0:0:0:0:
342,251,65145,1,2,0:0:0:0:
253,198,65220,1,0,0:0:0:0:
205,157,65370,1,0,0:0:0:0:
230,167,65445,1,0,0:0:0:0:
495,325,65520,1,2,0:0:0:0:
455,311,65595,1,0,0:0:0:0:
425,302,65670,1,0,0:0:0:0:
253,198,65820,1,2,0:0:0:0:
141,231,65970,1,0,0:0:0:0:
141,231,66045,1,2,0:0:0:0:
239,193,66120,1,0,0:0:0:0:
305,170,66270,1,2,0:0:0:0:
243,162,66345,1,2,0:0:0:0:
308,170,66420,1,0,0:0:0:0:
276,149,66495,1,2,0:0:0:0:
243,162,66570,1,0,0:0:0:0:
251,146,66645,1,0,0:0:0:0:
490,313,66720,1,2,0:0:0:0:
421,282,66870,1,0,0:0:0:0:
391,265,66945,1,0,0:0:0:0:
360,255,67020,1,2,0:0:0:0:
288,223,67170,1,2,0:0:0:0:
259,214,67245,1,0,0:0:0:0:
252,199,67320,1,2,0:0:0:0:
176,213,67470,1,0,0:0:0:0:
178,258,67545,1,0,0:0:0:0:
178,258,67695,1,0,0:0:0:0:
178,258,67770,1,0,0:0:0:0:
158,214,67845,1,0,0:0:0:0:
252,199,67920,1,0,0:0:0:0:
259,214,67995,1,2,0:0:0:0:
288,223,68070,1,0,0:0:0:0:
224,199,68220,1,2,0:0:0:0:
149,198,68370,1,0,0:0:0:0:
91,187,68445,1,0,0:0:0:0:
265,205,68520,1,2,0:0:0:0:
294,186,68620,1,2,0:0:0:0:
294,186,68720,1,2,0:0:0:0:
246,184,68820,1,0,0:0:0:0:
308,206,68970,1,0,0:0:0:0:
325,234,69120,1,2,0:0:0:0:
293,240,69195,1,2,0:0:0:0:
263,274,69270,1,0,0:0:0:0:
254,243,69345,1,0,0:0:0:0:
294,186,69420,1,0,0:0:0:0:
392,195,69570,1,0,0:0:0:0:
363,207,69645,1,2,0:0:0:0:
342,225,69720,1,0,0:0:0:0:
290,279,69870,1,2,0:0:0:0:
269,271,69945,1,2,0:0:0:0:
304,264,70020,1,0,0:0:0:0:
367,293,70170,1,0,0:0:0:0:
337,274,70245,1,0,0:0:0:0:
325,234,70320,1,2,0:0:0:0:
295,243,70395,1,2,0:0:0:0:
295,243,70470,1,0,0:0:0:0:
295,243,70620,1,2,0:0:0:0:
223,270,70770,1,0,0:0:0:0:
279,249,70845,1,2,0:0:0:0:
325,234,70920,1,0,0:0:0:0:
255,220,71070,1,2,0:0:0:0:
257,166,71145,1,0,0:0:0:0:
255,220,71220,1,2,0:0:0:0:
249,192,71295,1,0,0:0:0:0:
243,163,71370,1,0,0:0:0:0:
237,129,71445,1,0,0:0:0:0:
325,234,71520,1,2,0:0:0:0:
316,162,71670,1,0,0:0:0:0:
334,187,71745,1,0,0:0:0:0:
243,163,71820,1,2,0:0:0:0:
243,163,71970,1,0,0:0:0:0:
325,234,72120,1,2,0:0:0:0:
249,198,72270,1,0,0:0:0:0:
283,214,72345,1,0,0:0:0:0:
242,191,72495,1,0,0:0:0:0:
283,214,72570,1,2,0:0:0:0:
283,214,72645,1,0,0:0:0:0:
283,214,72720,1,2,0:0:0:0:
283,209,72795,1,2,0:0:0:0:
289,181,72870,1,0,0:0:0:0:
314,251,73020,1,2,0:0:0:0:
128,165,73170,1,0,0:0:0:0:
139,173,73245,1,0,0:0:0:0:
325,234,73320,1,2,0:0:0:0:
304,254,73395,1,2,0:0:0:0:
304,254,73470,1,0,0:0:0:0:
254,235,73545,1,0,0:0:0:0:
238,229,73620,1,2,0:0:0:0:
267,240,73695,1,0,0:0:0:0:
139,173,73770,1,2,0:0:0:0:
325,234,73920,1,2,0:0:0:0:
352,235,74070,1,0,0:0:0:0:
307,216,74145,1,0,0:0:0:0:
456,186,74220,1,2,0:0:0:0:
431,182,74295,1,0,0:0:0:0:
399,178,74370,1,2,0:0:0:0:
366,164,74445,1,2,0:0:0:0:
325,234,74520,1,0,0:0:0:0:
257,201,74670,1,2,0:0:0:0:
336,226,74820,1,0,0:0:0:0:
369,236,74895,1,2,0:0:0:0:
361,118,74970,1,0,0:0:0:0:
325,234,75120,1,2,0:0:0:0:
299,193,75195,1,0,0:0:0:0:
291,181,75270,1,2,0:0:0:0:
319,168,75345,1,0,0:0:0:0:
263,115,75420,1,2,0:0:0:0:
230,133,75495,1,0,0:0:0:0:
220,64,75570,1,0,0:0:0:0:
236,92,75645,1,0,0:0:0:0:
325,234,75720,1,2,0:0:0:0:
392,268,75870,1,0,0:0:0:0:
407,271,75945,1,2,0:0:0:0:
461,305,76020,1,0,0:0:0:0:
404,272,76170,1,0,0:0:0:0:
431,288,76245,1,0,0:0:0:0:
325,234,76320,1,2,0:0:0:0:
431,288,76470,1,0,0:0:0:0:
431,288,76545,1,0,0:0:0:0:
431,288,76620,1,2,0:0:0:0:
382,247,76770,1,2,0:0:0:0:
325,234,76920,1,0,0:0:0:0:
258,216,77070,1,0,0:0:0:0:
227,207,77145,1,2,0:0:0:0:
227,207,77295,1,0,0:0:0:0:
205,198,77370,1,0,0:0:0:0:
227,207,77445,1,0,0:0:0:0:
325,234,77520,1,2,0:0:0:0:
272,190,77595,1,2,0:0:0:0:
284,200,77670,1,0,0:0:0:0:
235,213,77745,1,0,0:0:0:0:
220,142,77820,1,2,0:0:0:0:
235,213,77895,1,0,0:0:0:0:
157,96,77970,1,2,0:0:0:0:
186,120,78045,1,2,0:0:0:0:
325,234,78120,1,0,0:0:0:0:
271,208,78270,1,2,0:0:0:0:
213,199,78345,1,2,0:0:0:0:
246,150,78420,1,0,0:0:0:0:
230,110,78495,1,2,0:0:0:0:
178,113,78570,1,0,0:0:0:0:
325,234,78720,1,2,0:0:0:0:
271,224,78795,1,0,0:0:0:0:
239,255,78870,1,0,0:0:0:0:
257,221,78945,1,8,0:0:0:0:
183,208,79020,1,0,0:0:0:0:
203,236,79095,1,0,0:0:0:0:
115,198,79170,1,2,0:0:0:0:
86,193,79245,1,2,0:0:0:0:
325,234,79320,1,0,0:0:0:0:
271,224,79470,1,0,0:0:0:0:
271,224,79620,1,0,0:0:0:0:
325,234,79695,1,0,0:0:0:0:
271,224,79770,1,2,0:0:0:0:
325,234,79845,1,0,0:0:0:0:
325,234,79920,1,2,0:0:0:0:
291,210,79995,1,0,0:0:0:0:
271,224,80070,1,2,0:0:0:0:
271,224,80220,1,0,0:0:0:0:
269,221,80370,1,0,0:0:0:0:
245,191,80445,1,2,0:0:0:0:
325,234,80520,1,0,0:0:0:0:
287,223,80595,1,0,0:0:0:0:
333,164,80670,1,2,0:0:0:0:
271,224,80745,1,2,0:0:0:0:
271,224,80820,1,0,0:0:0:0:
271,224,80970,1,0,0:0:0:0:
244,211,81045,1,0,0:0:0:0:
325,234,81120,1,2,0:0:0:0:
271,224,81270,1,0,0:0:0:0:
246,211,81345,1,0,0:0:0:0:
271,224,81420,1,2,0:0:0:0:
271,224,81570,1,2,0:0:0:0:
325,234,81720,1,0,0:0:0:0:
262,199,81870,1,2,0:0:0:0:
262,199,81945,1,0,0:0:0:0:
223,172,82095,1,0,0:0:0:0:
227,194,82170,1,0,0:0:0:0:
254,174,82245,1,0,0:0:0:0:
325,234,82320,1,2,0:0:0:0:
291,223,82395,1,0,0:0:0:0:
257,212,82470,1,2,0:0:0:0:
224,201,82545,1,2,0:0:0:0:
190,190,82620,1,0,0:0:0:0:
244,180,82770,1,0,0:0:0:0:
244,180,82845,1,2,0:0:0:0:
325,234,82920,1,0,0:0:0:0:
261,215,83070,1,2,0:0:0:0:
216,203,83145,1,0,0:0:0:0:
249,124,83220,1,2,0:0:0:0:
297,171,83370,1,0,0:0:0:0:
313,186,83445,1,0,0:0:0:0:
325,234,83520,5,2,0:0:0:0:
325,234,83595,1,0,0:0:0:0:
325,234,83670,1,2,0:0:0:0:
178,216,83820,1,0,0:0:0:0:
247,230,83970,1,0,0:0:0:0:
295,239,84045,1,2,0:0:0:0:
306,157,84120,5,0,0:0:0:0:
337,225,84270,1,2,0:0:0:0:
223,262,84420,1,2,0:0:0:0:
337,225,84570,1,0,0:0:0:0:
314,150,84720,1,2,0:0:0:0:
345,171,84820,1,0,0:0:0:0:
309,147,84920,1,0,0:0:0:0:
354,177,85020,1,2,0:0:0:0:
312,149,85120,1,0,0:0:0:0:
350,174,85220,1,2,0:0:0:0:
308,146,85320,1,4,0:0:0:0:
372,270,85620,1,2,0:0:0:0:
305,242,85770,1,0,0:0:0:0:
266,227,85845,1,0,0:0:0:0:
259,201,85920,1,2,0:0:0:0:
253,178,85995,1,2,0:0:0:0:
183,170,86070,1,0,0:0:0:0:
123,142,86220,1,2,0:0:0:0:
192,158,86370,1,0,0:0:0:0:
235,144,86445,1,2,0:0:0:0:
264,171,86520,1,0,0:0:0:0:
326,201,86670,1,2,0:0:0:0:
126,142,86820,1,2,0:0:0:0:
198,160,86970,1,0,0:0:0:0:
143,172,87045,1,0,0:0:0:0:
274,179,87120,1,2,0:0:0:0:
264,141,87195,1,2,0:0:0:0:
339,188,87270,1,0,0:0:0:0:
308,185,87345,1,0,0:0:0:0:
266,171,87420,1,2,0:0:0:0:
351,220,87570,1,2,0:0:0:0:
376,235,87645,1,0,0:0:0:0:
264,171,87720,1,2,0:0:0:0:
198,199,87870,1,2,0:0:0:0:
234,182,87945,1,0,0:0:0:0:
126,142,88020,1,2,0:0:0:0:
234,182,88095,1,0,0:0:0:0:
234,182,88170,1,2,0:0:0:0:
234,182,88245,1,2,0:0:0:0:
234,182,88320,1,0,0:0:0:0:
339,188,88470,1,0,0:0:0:0:
266,171,88620,1,2,0:0:0:0:
236,221,88770,1,0,0:0:0:0:
253,226,88845,1,2,0:0:0:0:
264,171,88920,1,0,0:0:0:0:
200,141,89070,1,2,0:0:0:0:
234,182,89145,1,0,0:0:0:0:
126,142,89220,1,2,0:0:0:0:
190,163,89370,1,2,0:0:0:0:
204,130,89445,1,2,0:0:0:0:
254,184,89520,1,0,0:0:0:0:
277,180,89595,1,2,0:0:0:0:
330,173,89670,1,0,0:0:0:0:
266,171,89820,1,2,0:0:0:0:
300,223,89970,1,0,0:0:0:0:
274,201,90045,1,2,0:0:0:0:
264,171,90120,1,0,0:0:0:0:
311,222,90270,1,0,0:0:0:0:
287,196,90345,1,2,0:0:0:0:
126,142,90420,1,2,0:0:0:0:
287,196,90495,1,2,0:0:0:0:
287,196,90570,1,0,0:0:0:0:
298,146,90720,1,0,0:0:0:0:
292,134,90795,1,2,0:0:0:0:
339,188,90870,1,0,0:0:0:0:
266,171,91020,1,2,0:0:0:0:
287,196,91170,1,0,0:0:0:0:
260,181,91245,1,2,0:0:0:0:
264,171,91320,1,0,0:0:0:0:
287,196,91470,1,0,0:0:0:0:
126,142,91620,1,2,0:0:0:0:
287,196,91770,1,2,0:0:0:0:
324,214,91845,1,0,0:0:0:0:
287,196,91920,1,2,0:0:0:0:
339,188,91995,1,2,0:0:0:0:
315,210,92070,1,0,0:0:0:0:
266,171,92220,1,2,0:0:0:0:
236,204,92370,1,0,0:0:0:0:
236,204,92445,1,0,0:0:0:0:
264,171,92520,1,2,0:0:0:0:
312,220,92670,1,0,0:0:0:0:
324,230,92745,1,0,0:0:0:0:
126,142,92820,1,2,0:0:0:0:
312,220,92895,1,2,0:0:0:0:
312,220,92970,1,2,0:0:0:0:
312,220,93045,1,0,0:0:0:0:
312,220,93120,1,2,0:0:0:0:
292,207,93195,1,0,0:0:0:0:
339,188,93270,1,0,0:0:0:0:
308,206,93345,1,0,0:0:0:0:
266,171,93420,1,2,0:0:0:0:
308,206,93495,1,0,0:0:0:0:
308,206,93570,1,2,0:0:0:0:
285,200,93645,1,2,0:0:0:0:
264,171,93720,1,0,0:0:0:0:
205,145,93870,1,0,0:0:0:0:
233,162,93945,1,0,0:0:0:0:
126,142,94020,1,2,0:0:0:0:
200,140,94170,1,0,0:0:0:0:
239,139,94245,1,0,0:0:0:0:
278,138,94320,1,2,0:0:0:0:
256,146,94395,1,2,0:0:0:0:
339,188,94470,1,0,0:0:0:0:
266,171,94620,1,2,0:0:0:0:
344,145,94770,1,0,0:0:0:0:
264,171,94920,1,0,0:0:0:0:
339,171,95070,1,2,0:0:0:0:
316,174,95145,1,0,0:0:0:0:
126,142,95220,1,2,0:0:0:0:
188,152,95370,1,0,0:0:0:0:
219,157,95445,1,0,0:0:0:0:
250,162,95520,1,2,0:0:0:0:
255,172,95595,1,0,0:0:0:0:
233,180,95670,1,0,0:0:0:0:
266,171,95820,1,2,0:0:0:0:
344,175,95970,1,0,0:0:0:0:
321,170,96045,1,2,0:0:0:0:
264,171,96120,1,0,0:0:0:0:
218,166,96195,1,0,0:0:0:0:
341,169,96270,1,2,0:0:0:0:
351,207,96345,1,0,0:0:0:0:
126,142,96420,1,2,0:0:0:0:
200,152,96570,1,2,0:0:0:0:
194,180,96645,1,0,0:0:0:0:
270,162,96720,1,2,0:0:0:0:
339,188,96870,1,0,0:0:0:0:
315,161,96945,1,2,0:0:0:0:
266,171,97020,1,2,0:0:0:0:
233,165,97095,1,0,0:0:0:0:
221,162,97170,1,2,0:0:0:0:
186,158,97245,1,0,0:0:0:0:
169,156,97320,1,2,0:0:0:0:
333,169,97470,1,0,0:0:0:0:
300,181,97545,1,0,0:0:0:0:
126,142,97620,1,2,0:0:0:0:
333,169,97770,1,0,0:0:0:0:
296,183,97845,1,0,0:0:0:0:
333,169,97920,1,2,0:0:0:0:
275,172,97995,1,0,0:0:0:0:
339,188,98070,1,2,0:0:0:0:
266,171,98220,1,2,0:0:0:0:
333,169,98370,1,2,0:0:0:0:
290,185,98445,1,2,0:0:0:0:
264,171,98520,1,0,0:0:0:0:
333,169,98670,1,2,0:0:0:0:
211,192,98745,1,0,0:0:0:0:
126,142,98820,1,2,0:0:0:0:
202,152,98970,1,0,0:0:0:0:
213,215,99045,1,2,0:0:0:0:
213,215,99120,1,0,0:0:0:0:
203,174,99195,1,0,0:0:0:0:
206,161,99270,1,2,0:0:0:0:
266,171,99420,1,2,0:0:0:0:
346,167,99570,1,2,0:0:0:0:
203,174,99720,1,0,0:0:0:0:
289,240,99870,1,0,0:0:0:0:
289,240,99945,1,2,0:0:0:0:
289,240,100020,1,0,0:0:0:0:
289,240,100095,1,2,0:0:0:0:
289,240,100170,1,0,0:0:0:0:
289,240,100245,1,0,0:0:0:0:
289,240,100320,1,2,0:0:0:0:
289,240,100470,1,2,0:0:0:0:
313,213,100545,1,2,0:0:0:0:
289,240,100620,1,0,0:0:0:0:
289,240,100770,1,0,0:0:0:0:
289,240,100920,1,2,0:0:0:0:
289,240,101070,1,0,0:0:0:0:
289,240,101145,1,2,0:0:0:0:
289,240,101220,1,0,0:0:0:0:
289,240,101295,1,2,0:0:0:0:
289,240,101370,1,0,0:0:0:0:
289,240,101445,1,0,0:0:0:0:
289,240,101520,1,2,0:0:0:0:
289,240,101670,1,2,0:0:0:0:
317,207,101745,1,2,0:0:0:0:
220,223,101820,1,0,0:0:0:0:
287,239,101970,1,0,0:0:0:0:
300,307,102120,1,2,0:0:0:0:
271,233,102270,1,0,0:0:0:0:
253,188,102345,1,2,0:0:0:0:
237,142,102420,1,0,0:0:0:0:
252,187,102495,1,2,0:0:0:0:
238,145,102570,1,0,0:0:0:0:
274,232,102720,1,2,0:0:0:0:
261,201,102870,1,0,0:0:0:0:
245,163,102945,1,2,0:0:0:0:
245,163,103020,1,0,0:0:0:0:
245,163,103095,1,2,0:0:0:0:
245,163,103170,1,0,0:0:0:0:
221,165,103245,1,2,0:0:0:0:
245,163,103320,1,0,0:0:0:0:
245,163,103395,1,2,0:0:0:0:
245,163,103470,1,0,0:0:0:0:
245,163,103545,1,2,0:0:0:0:
245,163,103620,1,0,0:0:0:0:
245,163,103695,1,0,0:0:0:0:
245,163,103770,1,2,0:0:0:0:
245,163,103920,1,0,0:0:0:0:
273,172,103995,1,0,0:0:0:0:
245,163,104070,1,2,0:0:0:0:
245,163,104220,1,0,0:0:0:0:
245,163,104370,1,0,0:0:0:0:
245,163,104520,1,6,0:0:0:0:
320,209,106920,5,0,0:0:0:0:
320,209,107070,1,0,0:0:0:0:
320,209,107220,1,0,0:0:0:0:
320,209,107370,1,2,0:0:0:0:
320,209,107670,1,2,0:0:0:0:
320,209,107970,1,0,0:0:0:0:
181,177,108270,1,2,0:0:0:0:
195,180,108570,1,0,0:0:0:0:
49,149,108870,1,2,0:0:0:0:
127,167,109020,1,0,0:0:0:0:
187,132,109170,1,0,0:0:0:0:
129,171,109320,1,2,0:0:0:0:
262,200,109620,1,2,0:0:0:0:
323,215,109770,1,0,0:0:0:0:
178,179,110070,1,0,0:0:0:0:
314,213,110370,1,2,0:0:0:0:
223,179,111270,1,0,0:0:0:0:
223,179,111420,1,2,0:0:0:0:
223,179,111570,1,2,0:0:0:0:
223,179,111720,1,0,0:0:0:0:
223,179,112020,1,2,0:0:0:0:
223,179,112170,1,0,0:0:0:0:
223,179,112470,1,0,0:0:0:0:
223,179,112620,1,2,0:0:0:0:
223,179,112920,1,2,0:0:0:0:
223,179,113070,1,0,0:0:0:0:
223,179,113370,1,0,0:0:0:0:
223,179,113520,1,2,0:0:0:0:
223,179,113670,1,2,0:0:0:0:
223,179,113745,1,0,0:0:0:0:
223,179,113820,1,2,0:0:0:0:
223,179,113970,1,2,0:0:0:0:
223,179,114120,1,0,0:0:0:0:
223,179,114420,1,2,0:0:0:0:
223,179,114570,1,0,0:0:0:0:
223,179,114870,1,2,0:0:0:0:
223,179,115020,1,0,0:0:0:0:
223,179,115170,1,0,0:0:0:0:
223,179,115320,1,2,0:0:0:0:
223,179,115470,1,0,0:0:0:0:
186,191,115545,1,0,0:0:0:0:
223,179,115620,1,0,0:0:0:0:
223,179,115770,1,2,0:0:0:0:
223,179,115920,1,0,0:0:0:0:
223,179,115995,1,0,0:0:0:0:
236,165,116070,1,0,0:0:0:0:
258,143,116145,1,2,0:0:0:0:
247,154,116220,1,2,0:0:0:0:
236,165,116370,1,2,0:0:0:0:
223,206,116520,5,0,0:0:0:0:
362,214,116820,1,2,0:0:0:0:
149,174,117270,1,0,0:0:0:0:
208,184,117420,1,2,0:0:0:0:
223,206,117720,5,0,0:0:0:0:
362,214,118020,1,2,0:0:0:0:
149,174,118470,1,0,0:0:0:0:
208,184,118620,1,2,0:0:0:0:
223,206,118920,5,0,0:0:0:0:
362,214,119220,1,2,0:0:0:0:
149,174,119670,1,0,0:0:0:0:
208,184,119820,1,2,0:0:0:0:
223,206,120120,5,0,0:0:0:0:
362,214,120420,1,2,0:0:0:0:
149,174,120870,1,0,0:0:0:0:
208,184,121020,1,2,0:0:0:0:
358,197,121320,1,0,0:0:0:0:
250,187,121620,1,2,0:0:0:0:
360,231,121920,1,0,0:0:0:0:
260,191,122220,1,2,0:0:0:0:
398,246,122520,1,0,0:0:0:0:
284,200,122820,1,2,0:0:0:0:
381,242,123120,1,0,0:0:0:0:
243,182,123420,1,2,0:0:0:0:
355,108,123720,1,2,0:0:0:0:
291,149,123870,1,0,0:0:0:0:
246,202,124020,1,2,0:0:0:0:
291,148,124170,1,0,0:0:0:0:
247,202,124320,1,2,0:0:0:0:
291,148,124470,1,0,0:0:0:0:
247,202,124620,1,2,0:0:0:0:
291,148,124770,1,0,0:0:0:0:
236,148,124920,1,2,0:0:0:0:
236,148,124995,1,0,0:0:0:0:
236,148,125070,1,2,0:0:0:0:
234,175,125145,1,0,0:0:0:0:
233,203,125220,1,2,0:0:0:0:
234,175,125295,1,0,0:0:0:0:
234,175,125370,1,2,0:0:0:0:
234,175,125445,1,0,0:0:0:0:
256,192,125520,12,0,125970,0:0:0:0:
296,134,126120,5,6,0:0:0:0:
404,177,126420,1,2,0:0:0:0:
339,189,126570,1,2,0:0:0:0:
206,219,126870,1,2,0:0:0:0:
375,79,127320,1,2,0:0:0:0:
304,136,127620,1,2,0:0:0:0:
304,136,127920,1,2,0:0:0:0:
304,136,128070,1,2,0:0:0:0:
99,184,128520,1,0,0:0:0:0:
167,162,128670,1,0,0:0:0:0:
167,162,128820,1,0,0:0:0:0:
167,162,128970,1,2,0:0:0:0:
167,162,129120,1,0,0:0:0:0:
167,162,129270,1,0,0:0:0:0:
167,162,129420,1,0,0:0:0:0:
167,162,129570,1,2,0:0:0:0:
107,194,129720,1,0,0:0:0:0:
243,252,134220,5,2,0:0:0:0:
268,194,134520,5,4,0:0:0:0:
316,216,134670,1,0,0:0:0:0:
173,118,134820,1,2,0:0:0:0:
191,170,134970,1,0,0:0:0:0:
200,197,135045,1,2,0:0:0:0:
200,197,135120,1,0,0:0:0:0:
200,197,135195,1,0,0:0:0:0:
298,221,135270,1,2,0:0:0:0:
263,192,135420,1,2,0:0:0:0:
200,197,135570,1,0,0:0:0:0:
200,197,135645,1,0,0:0:0:0:
167,159,135720,1,2,0:0:0:0:
200,197,135870,1,0,0:0:0:0:
267,197,136020,1,2,0:0:0:0:
200,197,136170,1,2,0:0:0:0:
200,197,136245,1,0,0:0:0:0:
200,197,136320,1,2,0:0:0:0:
200,197,136395,1,2,0:0:0:0:
119,143,136470,1,0,0:0:0:0:
161,158,136620,1,2,0:0:0:0:
200,197,136920,1,0,0:0:0:0:
219,230,136995,1,0,0:0:0:0:
227,245,137070,1,0,0:0:0:0:
235,258,137145,1,0,0:0:0:0:
235,258,137220,1,0,0:0:0:0:
294,332,137370,1,0,0:0:0:0:
402,285,137520,1,6,0:0:0:0:
331,238,137745,1,6,0:0:0:0:
254,189,137970,1,4,0:0:0:0:
298,217,138120,1,2,0:0:0:0:
254,189,138220,1,0,0:0:0:0:
254,189,138320,1,0,0:0:0:0:
298,217,138420,1,2,0:0:0:0:
260,211,138495,1,0,0:0:0:0:
260,211,138570,1,0,0:0:0:0:
260,211,138645,1,0,0:0:0:0:
260,211,138720,1,2,0:0:0:0:
228,205,138820,1,0,0:0:0:0:
193,199,138920,1,2,0:0:0:0:
161,193,139020,1,2,0:0:0:0:
135,189,139120,1,2,0:0:0:0:
135,189,139220,1,2,0:0:0:0:
135,189,139320,1,0,0:0:0:0:
260,211,139470,1,0,0:0:0:0:
251,189,139620,1,2,0:0:0:0:
304,221,139770,1,2,0:0:0:0:
276,204,139845,1,0,0:0:0:0:
276,204,139920,1,2,0:0:0:0:
276,204,139995,1,0,0:0:0:0:
106,94,140070,1,0,0:0:0:0:
151,123,140220,1,2,0:0:0:0:
260,211,140370,1,2,0:0:0:0:
276,204,140445,1,0,0:0:0:0:
95,226,140520,1,2,0:0:0:0:
151,214,140670,1,0,0:0:0:0:
115,117,140820,1,2,0:0:0:0:
260,211,140970,1,2,0:0:0:0:
260,211,141045,1,2,0:0:0:0:
260,211,141120,1,0,0:0:0:0:
260,211,141195,1,0,0:0:0:0:
83,274,141270,1,0,0:0:0:0:
92,226,141420,1,2,0:0:0:0:
138,223,141570,1,0,0:0:0:0:
256,190,141720,5,0,0:0:0:0:
225,200,141770,5,0,0:0:0:0:
256,190,141820,1,0,0:0:0:0:
256,190,141870,1,0,0:0:0:0:
256,190,141945,1,0,0:0:0:0:
256,190,142020,1,0,0:0:0:0:
282,222,142095,1,0,0:0:0:0:
290,232,142170,1,0,0:0:0:0:
234,220,142320,1,2,0:0:0:0:
250,238,142395,1,2,0:0:0:0:
260,249,142470,1,0,0:0:0:0:
275,216,142545,1,0,0:0:0:0:
130,196,142620,1,2,0:0:0:0:
175,189,142770,1,0,0:0:0:0:
175,189,142920,1,0,0:0:0:0:
175,189,143020,1,0,0:0:0:0:
175,189,143120,1,0,0:0:0:0:
175,189,143220,1,2,0:0:0:0:
175,189,143320,1,2,0:0:0:0:
175,189,143420,1,2,0:0:0:0:
175,189,143520,1,0,0:0:0:0:
175,189,143620,1,0,0:0:0:0:
175,189,143720,1,0,0:0:0:0:
175,189,143820,1,2,0:0:0:0:
237,230,144120,1,0,0:0:0:0:
175,189,144270,1,0,0:0:0:0:
120,202,144420,1,2,0:0:0:0:
163,171,144570,1,0,0:0:0:0:
163,171,144645,1,2,0:0:0:0:
163,171,144720,1,0,0:0:0:0:
163,171,144795,1,0,0:0:0:0:
290,243,144870,1,2,0:0:0:0:
237,230,145020,1,2,0:0:0:0:
163,171,145170,1,2,0:0:0:0:
163,171,145245,1,2,0:0:0:0:
129,204,145320,1,0,0:0:0:0:
163,171,145470,1,0,0:0:0:0:
231,229,145620,1,2,0:0:0:0:
163,171,145770,1,2,0:0:0:0:
163,171,145845,1,0,0:0:0:0:
163,171,145920,1,2,0:0:0:0:
163,171,145995,1,2,0:0:0:0:
69,189,146070,1,0,0:0:0:0:
108,194,146220,1,0,0:0:0:0:
210,168,146520,1,4,0:0:0:0:
210,168,147120,1,4,0:0:0:0:
451,142,147720,1,6,0:0:0:0:
255,163,148320,1,4,0:0:0:0:
471,167,148920,1,4,0:0:0:0:
414,168,149070,1,0,0:0:0:0:
347,178,149220,1,2,0:0:0:0:
301,177,149370,1,2,0:0:0:0:
268,176,149445,1,0,0:0:0:0:
263,186,149520,1,0,0:0:0:0:
240,180,149595,1,0,0:0:0:0:
205,172,149670,1,2,0:0:0:0:
349,182,149820,1,2,0:0:0:0:
282,178,149970,1,2,0:0:0:0:
243,176,150045,1,0,0:0:0:0:
228,191,150120,1,2,0:0:0:0:
212,143,150270,1,0,0:0:0:0:
333,183,150420,1,2,0:0:0:0:
276,177,150570,1,0,0:0:0:0:
244,174,150645,1,2,0:0:0:0:
234,197,150720,1,0,0:0:0:0:
223,171,150795,1,0,0:0:0:0:
223,171,150870,1,2,0:0:0:0:
339,183,151020,1,2,0:0:0:0:
223,171,151170,1,2,0:0:0:0:
223,171,151245,1,0,0:0:0:0:
223,171,151320,1,2,0:0:0:0:
223,171,151470,1,0,0:0:0:0:
338,183,151620,1,2,0:0:0:0:
223,171,151770,1,0,0:0:0:0:
223,171,151845,1,2,0:0:0:0:
232,197,151920,1,0,0:0:0:0:
223,171,151995,1,0,0:0:0:0:
223,171,152070,1,2,0:0:0:0:
223,171,152145,1,0,0:0:0:0:
343,182,152220,1,2,0:0:0:0:
318,172,152295,1,2,0:0:0:0:
293,163,152370,1,0,0:0:0:0:
268,154,152445,1,0,0:0:0:0:
232,197,152520,1,2,0:0:0:0:
167,191,153120,5,2,0:0:0:0:
167,191,153195,1,0,0:0:0:0:
167,191,153270,1,2,0:0:0:0:
167,191,153345,1,2,0:0:0:0:
167,191,153420,1,0,0:0:0:0:
167,191,153495,1,2,0:0:0:0:
167,191,153570,1,0,0:0:0:0:
245,210,153720,5,6,0:0:0:0:
245,210,153870,1,0,0:0:0:0:
245,210,153945,1,0,0:0:0:0:
255,236,154020,1,2,0:0:0:0:
255,236,154170,1,0,0:0:0:0:
255,236,154245,1,0,0:0:0:0:
255,236,154320,1,2,0:0:0:0:
245,210,154395,1,0,0:0:0:0:
255,236,154470,1,2,0:0:0:0:
255,236,154545,1,2,0:0:0:0:
255,236,154620,1,2,0:0:0:0:
255,236,154770,1,0,0:0:0:0:
255,236,154845,1,0,0:0:0:0:
245,210,154920,5,2,0:0:0:0:
245,210,154995,1,2,0:0:0:0:
245,210,155070,1,0,0:0:0:0:
245,210,155145,1,0,0:0:0:0:
255,236,155220,1,2,0:0:0:0:
295,247,155295,1,0,0:0:0:0:
255,236,155370,1,2,0:0:0:0:
255,236,155445,1,2,0:0:0:0:
255,236,155520,1,0,0:0:0:0:
245,210,155595,1,0,0:0:0:0:
255,236,155670,1,2,0:0:0:0:
255,236,155745,1,0,0:0:0:0:
255,236,155820,1,2,0:0:0:0:
255,236,155970,1,0,0:0:0:0:
245,210,156120,5,2,0:0:0:0:
245,210,156195,1,0,0:0:0:0:
245,210,156270,1,0,0:0:0:0:
245,210,156345,1,0,0:0:0:0:
255,236,156420,1,2,0:0:0:0:
255,236,156570,1,0,0:0:0:0:
232,195,156645,1,0,0:0:0:0:
255,236,156720,1,2,0:0:0:0:
232,195,156795,1,0,0:0:0:0:
255,236,156870,1,2,0:0:0:0:
255,236,156945,1,0,0:0:0:0:
255,236,157020,1,2,0:0:0:0:
255,236,157095,1,0,0:0:0:0:
255,236,157170,1,2,0:0:0:0:
245,210,157320,5,0,0:0:0:0:
245,210,157470,1,0,0:0:0:0:
245,210,157545,1,0,0:0:0:0:
255,236,157620,1,2,0:0:0:0:
245,210,157695,1,2,0:0:0:0:
255,236,157770,1,0,0:0:0:0:
255,236,157920,1,0,0:0:0:0:
255,236,158070,1,0,0:0:0:0:
255,236,158145,1,0,0:0:0:0:
255,236,158220,1,2,0:0:0:0:
287,222,158295,1,0,0:0:0:0:
255,236,158370,1,0,0:0:0:0:
245,210,158520,5,2,0:0:0:0:
245,210,158670,1,2,0:0:0:0:
245,210,158745,1,0,0:0:0:0:
255,236,158820,1,2,0:0:0:0:
255,236,158970,1,0,0:0:0:0:
255,236,159045,1,2,0:0:0:0:
255,236,159120,1,0,0:0:0:0:
245,210,159195,1,2,0:0:0:0:
255,236,159270,1,0,0:0:0:0:
255,236,159345,1,0,0:0:0:0:
255,236,159420,1,2,0:0:0:0:
255,236,159570,1,0,0:0:0:0:
255,236,159645,1,0,0:0:0:0:
245,210,159720,5,2,0:0:0:0:
245,210,159795,1,0,0:0:0:0:
245,210,159870,1,0,0:0:0:0:
245,210,159945,1,0,0:0:0:0:
255,236,160020,1,2,0:0:0:0:
293,230,160095,1,2,0:0:0:0:
255,236,160170,1,0,0:0:0:0:
255,236,160245,1,0,0:0:0:0:
255,236,160320,1,2,0:0:0:0:
245,210,160395,1,2,0:0:0:0:
255,236,160470,1,2,0:0:0:0:
255,236,160545,1,0,0:0:0:0:
255,236,160620,1,2,0:0:0:0:
255,236,160770,1,0,0:0:0:0:
245,210,160920,5,2,0:0:0:0:
245,210,161070,1,0,0:0:0:0:
245,210,161145,1,0,0:0:0:0:
255,236,161220,1,2,0:0:0:0:
255,236,161370,1,0,0:0:0:0:
240,224,161445,1,0,0:0:0:0:
255,236,161520,1,2,0:0:0:0:
245,210,161595,1,8,0:0:0:0:
255,236,161670,1,2,0:0:0:0:
255,236,161745,1,0,0:0:0:0:
255,236,161820,1,2,0:0:0:0:
255,236,161970,1,2,0:0:0:0:
255,236,162045,1,0,0:0:0:0:
245,210,162120,5,0,0:0:0:0:
245,210,162195,1,2,0:0:0:0:
245,210,162270,1,0,0:0:0:0:
245,210,162345,1,0,0:0:0:0:
255,236,162420,1,2,0:0:0:0:
290,242,162495,1,2,0:0:0:0:
217,206,162570,1,0,0:0:0:0:
255,236,162645,1,0,0:0:0:0:
255,236,162720,1,2,0:0:0:0:
255,236,162770,1,2,0:0:0:0:
227,202,162820,1,2,0:0:0:0:
245,210,162870,1,0,0:0:0:0:
236,231,162945,1,0,0:0:0:0:
255,236,163020,1,2,0:0:0:0:
245,220,163095,1,2,0:0:0:0:
255,236,163170,1,0,0:0:0:0:
250,217,163245,1,0,0:0:0:0:
245,210,163320,5,2,0:0:0:0:
245,210,163470,1,2,0:0:0:0:
245,210,163545,1,0,0:0:0:0:
255,236,163620,1,2,0:0:0:0:
255,236,163770,1,0,0:0:0:0:
255,236,163845,1,2,0:0:0:0:
255,236,163920,1,2,0:0:0:0:
245,210,163995,1,2,0:0:0:0:
255,236,164070,1,2,0:0:0:0:
255,236,164145,1,0,0:0:0:0:
255,236,164220,1,2,0:0:0:0:
255,236,164370,1,2,0:0:0:0:
255,236,164445,1,0,0:0:0:0:
245,210,164520,5,0,0:0:0:0:
245,210,164595,1,2,0:0:0:0:
245,210,164670,1,0,0:0:0:0:
245,210,164745,1,0,0:0:0:0:
255,236,164820,1,2,0:0:0:0:
245,210,164895,1,2,0:0:0:0:
255,236,164970,1,0,0:0:0:0:
255,236,165045,1,0,0:0:0:0:
255,236,165120,1,2,0:0:0:0:
245,210,165195,1,0,0:0:0:0:
255,236,165270,1,0,0:0:0:0:
255,236,165345,1,0,0:0:0:0:
255,236,165420,1,2,0:0:0:0:
255,236,165570,1,2,0:0:0:0:
245,210,165720,5,0,0:0:0:0:
245,210,165870,1,2,0:0:0:0:
245,210,165945,1,0,0:0:0:0:
255,236,166020,1,2,0:0:0:0:
255,236,166170,1,0,0:0:0:0:
237,229,166245,1,0,0:0:0:0:
255,236,166320,1,2,0:0:0:0:
245,210,166395,1,0,0:0:0:0:
255,236,166470,1,2,0:0:0:0:
255,236,166545,1,0,0:0:0:0:
255,236,166620,1,2,0:0:0:0:
225,227,166695,1,0,0:0:0:0:
255,236,166770,1,2,0:0:0:0:
245,210,166920,5,0,0:0:0:0:
245,210,166995,1,2,0:0:0:0:
245,210,167070,1,0,0:0:0:0:
245,210,167145,1,0,0:0:0:0:
255,236,167220,1,2,0:0:0:0:
271,205,167295,1,2,0:0:0:0:
255,236,167370,1,0,0:0:0:0:
273,201,167445,1,0,0:0:0:0:
255,236,167520,1,0,0:0:0:0:
245,210,167595,1,0,0:0:0:0:
255,236,167670,1,0,0:0:0:0:
255,236,167745,1,0,0:0:0:0:
255,236,167820,1,2,0:0:0:0:
247,219,167970,1,0,0:0:0:0:
245,210,168120,5,2,0:0:0:0:
245,210,168270,1,2,0:0:0:0:
234,194,168345,1,0,0:0:0:0:
255,236,168420,1,2,0:0:0:0:
255,236,168570,1,0,0:0:0:0:
255,236,168720,1,0,0:0:0:0:
285,217,168795,1,2,0:0:0:0:
255,236,168870,1,2,0:0:0:0:
255,236,168945,1,0,0:0:0:0:
255,236,169020,1,2,0:0:0:0:
255,236,169170,1,0,0:0:0:0:
245,210,169320,5,2,0:0:0:0:
245,210,169395,1,0,0:0:0:0:
245,210,169470,1,2,0:0:0:0:
227,203,169545,1,0,0:0:0:0:
255,236,169620,1,2,0:0:0:0:
245,210,169695,1,0,0:0:0:0:
255,236,169770,1,2,0:0:0:0:
255,236,169845,1,2,0:0:0:0:
255,236,169920,1,0,0:0:0:0:
245,210,169995,1,0,0:0:0:0:
255,236,170070,1,2,0:0:0:0:
255,236,170145,1,0,0:0:0:0:
255,236,170220,1,2,0:0:0:0:
255,236,170370,1,2,0:0:0:0:
245,210,170520,5,0,0:0:0:0:
245,210,170595,1,2,0:0:0:0:
245,210,170670,1,2,0:0:0:0:
245,210,170745,1,0,0:0:0:0:
255,236,170820,1,2,0:0:0:0:
245,210,170895,1,0,0:0:0:0:
255,236,170970,1,0,0:0:0:0:
255,236,171045,1,0,0:0:0:0:
255,236,171120,1,2,0:0:0:0:
227,204,171195,1,0,0:0:0:0:
255,236,171270,1,2,0:0:0:0:
255,236,171345,1,2,0:0:0:0:
255,236,171420,1,2,0:0:0:0:
255,236,171495,1,0,0:0:0:0:
255,236,171570,1,2,0:0:0:0:
243,221,171645,1,0,0:0:0:0:
245,210,171720,5,0,0:0:0:0:
245,210,171795,1,2,0:0:0:0:
245,210,171870,1,2,0:0:0:0:
245,210,171945,1,0,0:0:0:0:
255,236,172020,1,2,0:0:0:0:
245,210,172095,1,2,0:0:0:0:
255,236,172170,1,0,0:0:0:0:
255,236,172245,1,0,0:0:0:0:
255,236,172320,1,2,0:0:0:0:
245,210,172370,1,2,0:0:0:0:
240,223,172420,1,2,0:0:0:0:
255,236,172520,1,0,0:0:0:0:
255,236,172620,1,8,0:0:0:0:
255,236,172720,1,0,0:0:0:0:
248,218,172770,1,0,0:0:0:0:
255,236,172820,1,0,0:0:0:0:
255,225,172920,1,2,0:0:0:0:
