osu file format v14

[General]
AudioFilename: audio.mp3
AudioLeadIn: 0
PreviewTime: 13568
Countdown: 1
SampleSet: Soft
StackLeniency: 0.7
Mode: 0
LetterboxInBreaks: 0
WidescreenStoryboard: 0

[Editor]
Bookmarks: 13942,16185,17467,19390,19711,20993,23236,23717,24478,26121,26281,26441,26602,27884,31409,33493,33653,38461,40384,40544
DistanceSpacing: 0.3
BeatDivisor: 4
GridSize: 4
TimelineZoom: 3.099999

[Metadata]
Title:xxxtentacion - I am! (Prod. Dj Patt)
TitleUnicode:xxxtentacion - I am! (Prod. Dj Patt)
Artist:xxxtentacion
ArtistUnicode:xxxtentacion
Creator:dota2thebest
Version:fuck yuaa
Source:
Tags:
BeatmapID:1913726
BeatmapSetID:916340

[Difficulty]
HPDrainRate:2
CircleSize:4
OverallDifficulty:5
ApproachRate:9
SliderMultiplier:1.4
SliderTickRate:1

[Events]
//Background and Video events
0,0,"6bb.jpg",0,0
//Break Periods
//Storyboard Layer 0 (Background)
//Storyboard Layer 1 (Fail)
//Storyboard Layer 2 (Pass)
//Storyboard Layer 3 (Foreground)
//Storyboard Sound Samples

[TimingPoints]
447.840069300245,211.267605633803,4,2,0,100,1,0
480.636843717479,160.25641025641,4,2,0,100,1,0
13942,160.25641025641,4,2,0,100,1,0

[HitObjects]
430,64,13942,5,4,0:0:0:0:
341,241,14102,1,0,0:0:0:0:
305,91,14262,1,0,0:0:0:0:
461,100,14422,1,0,0:0:0:0:
292,278,14583,1,0,0:0:0:0:
263,56,14743,1,0,0:0:0:0:
68,298,14903,1,0,0:0:0:0:
176,154,15063,1,0,0:0:0:0:
69,291,15143,1,0,0:0:0:0:
379,314,15224,1,8,0:0:0:0:
401,71,15704,5,0,0:0:0:0:
270,267,15865,1,0,0:0:0:0:
174,43,16025,1,0,0:0:0:0:
439,111,16185,1,4,0:0:0:0:
214,306,16345,1,0,0:0:0:0:
238,64,16546,1,0,0:0:0:0:
123,178,16666,6,8,P|71:233|80:316,2,140
362,283,17467,5,4,0:0:0:0:
206,83,17627,1,0,0:0:0:0:
378,280,17788,1,0,0:0:0:0:
115,97,17948,1,0,0:0:0:0:
400,250,18108,1,0,0:0:0:0:
386,103,18268,2,8,B|303:61|279:116|243:61|224:71,2,140
137,305,19230,5,0,0:0:0:0:
206,218,19390,1,4,0:0:0:0:
96,260,19550,1,0,0:0:0:0:
396,320,19711,1,4,0:0:0:0:
99,196,19871,1,0,0:0:0:0:
389,100,20031,1,0,0:0:0:0:
258,68,20111,5,2,0:0:0:0:
258,68,20151,1,2,0:0:0:0:
251,69,20191,2,8,B|188:98|234:149|164:175,2,140
345,267,20993,5,4,0:0:0:0:
270,111,21153,1,0,0:0:0:0:
186,227,21313,1,0,0:0:0:0:
393,262,21474,1,0,0:0:0:0:
135,218,21634,1,0,0:0:0:0:
292,62,21794,1,0,0:0:0:0:
363,298,21954,1,0,0:0:0:0:
408,204,22034,1,2,0:0:0:0:
409,214,22115,2,8,B|369:136|336:129|352:62,2,140
448,90,22756,5,0,0:0:0:0:
332,151,22916,1,0,0:0:0:0:
452,277,23076,1,0,0:0:0:0:
294,302,23236,1,4,0:0:0:0:
194,102,23397,1,0,0:0:0:0:
91,332,23557,1,0,0:0:0:0:
37,166,23717,2,4,P|56:88|120:36,2,140
447,68,24478,5,4,0:0:0:0:
376,169,24639,1,0,0:0:0:0:
407,263,24799,1,0,0:0:0:0:
402,39,24959,1,0,0:0:0:0:
362,267,25119,1,0,0:0:0:0:
319,144,25280,1,0,0:0:0:0:
311,126,25360,1,0,0:0:0:0:
308,130,25440,1,0,0:0:0:0:
208,58,25640,2,8,P|134:99|113:163,2,140
114,147,26121,2,6,P|163:71|220:64,2,140
199,314,26602,5,4,0:0:0:0:
99,251,26762,2,0,P|106:203|75:106,1,140
152,39,27083,1,0,0:0:0:0:
405,89,27163,1,0,0:0:0:0:
407,96,27243,2,8,P|381:179|424:234,1,140
74,43,27884,6,4,B|163:58|148:56,1,70
264,134,28284,1,0,0:0:0:0:
264,134,28365,2,0,L|164:110,1,70
115,173,28685,2,0,B|153:245|177:220|181:304,1,140,0|0,2:1|2:1,2:1:0:0:
277,338,29006,2,8,B|250:256|281:235|214:186,1,140
88,155,29366,1,0,0:0:0:0:
94,154,29486,2,0,P|188:119|216:83,2,140
316,37,29967,5,0,0:0:0:0:
472,195,30087,1,4,0:0:0:0:
476,202,30127,1,6,0:0:0:0:
327,130,30288,1,0,0:0:0:0:
434,303,30448,1,0,0:0:0:0:
217,120,30608,2,8,B|168:182|137:165|117:226,2,140
368,100,31409,5,12,0:0:0:0:
488,251,31570,1,8,0:0:0:0:
228,242,31730,1,0,0:0:0:0:
485,205,31890,1,8,0:0:0:0:
408,97,32050,1,0,0:0:0:0:
185,286,32211,1,0,0:0:0:0:
185,286,32251,1,0,0:0:0:0:
86,167,32692,1,8,0:0:0:0:
86,167,32732,1,8,0:0:0:0:
486,73,33132,5,0,0:0:0:0:
486,73,33172,5,0,0:0:0:0:
475,137,33493,1,4,0:0:0:0:
247,218,33653,1,2,0:0:0:0:
234,264,33974,2,0,P|162:229|129:177,1,140
130,52,34214,2,8,P|188:122|238:153,1,140
228,148,34454,1,0,0:0:0:0:
474,75,34775,2,0,B|381:113|488:155|396:208,1,140
391,262,35095,2,0,P|311:277|268:318,1,140
157,258,35416,2,0,B|164:163|140:116|132:103,1,140
140,120,35736,1,0,0:0:0:0:
212,69,35857,6,0,P|273:115|289:118,1,70
296,226,36137,2,8,P|232:191|228:191,1,70
181,44,36337,2,0,P|223:90|244:95,1,70
229,221,36618,2,0,P|182:201|147:200,2,70
333,130,36898,2,0,P|377:174|400:179,1,70
416,260,37099,6,4,P|473:273|510:261,1,70
388,42,37259,2,0,P|404:91|431:127,1,70
348,292,37379,2,8,P|395:333|427:331,1,70
207,81,37539,6,0,P|265:75|300:90,1,70
266,196,37740,2,4,P|217:213|173:208,1,70
190,50,37900,2,0,P|236:31|277:31,1,70
386,309,38300,5,0,0:0:0:0:
343,199,38461,1,4,0:0:0:0:
293,308,38621,1,0,0:0:0:0:
436,295,38781,1,0,0:0:0:0:
283,197,38941,1,0,0:0:0:0:
259,351,39102,1,8,0:0:0:0:
450,233,39262,1,0,0:0:0:0:
235,238,39422,1,0,0:0:0:0:
49,49,39583,1,0,0:0:0:0:
472,180,40063,5,0,0:0:0:0:
15,324,40224,1,0,0:0:0:0:
437,140,40384,1,4,0:0:0:0:
58,272,40544,1,4,0:0:0:0:
404,89,40704,1,8,0:0:0:0:
99,233,40865,1,8,0:0:0:0:
139,149,41025,2,0,P|211:105|283:86,2,140
