osu file format v14

[General]
AudioFilename: audio.mp3
AudioLeadIn: 0
PreviewTime: -1
Countdown: 1
SampleSet: Soft
StackLeniency: 0.7
Mode: 0
LetterboxInBreaks: 0
WidescreenStoryboard: 0

[Editor]
DistanceSpacing: 1.7
BeatDivisor: 8
GridSize: 4
TimelineZoom: 1.4

[Metadata]
Title:Everybody dies in their nightmares
TitleUnicode:Everybody dies in their nightmares
Artist:xxxtentacion
ArtistUnicode:xxxtentacion
Creator:byfar
Version:solemn afterglow
Source:
Tags:everybody dies in their nightmares xxxtentacion rap hip hop
BeatmapID:1538591
BeatmapSetID:728815

[Difficulty]
HPDrainRate:5
CircleSize:4.5
OverallDifficulty:9
ApproachRate:9.5
SliderMultiplier:1.6
SliderTickRate:1

[Events]
//Background and Video events
//Break Periods
2,34156,39103
//Storyboard Layer 0 (Background)
//Storyboard Layer 1 (Fail)
//Storyboard Layer 2 (Pass)
//Storyboard Layer 3 (Foreground)
//Storyboard Sound Samples

[TimingPoints]
111,612.244897959184,4,2,0,40,1,0
111,-100,4,2,0,40,0,0
2374,612.244897959184,4,2,0,40,1,0
2629,461.538461538462,4,2,0,5,1,0
3090,-200,4,2,0,5,0,0
9192,461.538461538462,4,2,0,5,1,0
9538,-200,4,2,0,5,0,0
10194,461.538461538462,4,2,0,100,1,0
10880,461.538461538462,4,2,0,100,1,0
17572,-200,4,2,0,100,0,0
18264,-66.6666666666667,4,2,0,100,0,0
32341,-100,4,2,0,100,0,0
32572,-133.333333333333,4,2,0,100,0,0
32803,-200,4,2,0,100,0,0
39703,461.538461538462,4,2,0,100,1,0
40430,461.538461538462,4,2,0,100,1,0
40430,-50,4,2,0,100,0,0
69968,-100,4,2,0,60,0,0

[HitObjects]
512,121,111,6,0,P|500:189|440:154,3,160
278,149,2374,5,0,0:0:0:0:
352,132,2629,1,0,0:0:0:0:
352,132,3090,6,0,P|360:111|362:79,1,40
200,205,3475,2,0,P|182:158|177:65,1,133.333333333333
192,2,4475,1,0,0:0:0:0:
225,73,4936,6,0,P|233:94|235:126,1,40
11,292,5398,2,0,P|15:239|38:191,1,106.666666666667
93,137,6321,1,0,0:0:0:0:
225,73,6782,6,0,P|233:94|235:126,1,40
13,306,7244,2,0,P|17:247|37:191,1,120
26,384,8167,1,0,0:0:0:0:
342,365,8629,6,0,P|302:354|263:353,1,80
361,221,9538,2,0,L|391:296,1,80
492,265,10194,2,0,P|481:282|474:301,1,40
324,131,10424,5,0,0:0:0:0:
332,152,10540,1,0,0:0:0:0:
317,146,10655,5,0,0:0:0:0:
339,137,10771,1,0,0:0:0:0:
249,102,10880,5,2,1:3:0:0:
63,247,11110,1,0,0:0:0:0:
139,233,11226,1,0,0:0:0:0:
49,250,11341,2,0,P|56:231|59:211,1,40
0,32,11572,2,0,P|15:44|28:59,1,40
173,114,11803,5,8,0:0:0:0:
57,132,12033,1,0,0:0:0:0:
57,132,12149,1,0,0:0:0:0:
57,132,12264,6,0,L|97:126,3,40
143,276,12726,5,2,1:0:0:0:
413,318,12956,1,0,0:0:0:0:
371,254,13072,1,0,0:0:0:0:
423,331,13187,6,0,P|408:340|374:345,1,40
414,168,13418,2,0,P|429:177|450:204,1,40
476,268,13649,5,8,0:0:0:0:
278,257,13880,1,0,0:0:0:0:
278,257,13995,1,0,0:0:0:0:
278,257,14110,2,0,B|278:238|278:238|284:219,3,40
213,32,14572,5,2,1:0:0:0:
369,117,14803,1,0,0:0:0:0:
445,102,14918,1,0,0:0:0:0:
357,120,15033,2,0,P|349:96|352:69,1,40
504,42,15264,2,0,P|511:23|512:3,1,40
314,0,15495,5,8,0:0:0:0:
267,164,15726,1,0,0:0:0:0:
267,164,15841,1,0,0:0:0:0:
267,164,15956,1,0,0:0:0:0:
267,164,16072,1,0,0:0:0:0:
285,200,16187,1,0,0:0:0:0:
285,239,16302,1,0,0:0:0:0:
230,301,16418,5,2,1:0:0:0:
16,252,16649,1,0,0:0:0:0:
0,173,16764,1,0,0:0:0:0:
51,234,16880,1,0,0:0:0:0:
75,202,17110,1,0,0:0:0:0:
65,123,17572,6,0,L|62:103,1,20
51,29,17803,2,0,L|48:9,2,20
75,202,18264,6,0,P|115:156|173:144,1,120.000004577637,2|0,1:0|0:0,0:0:0:0:
237,195,18610,1,0,0:0:0:0:
159,229,18726,2,0,L|167:288,1,60.0000022888184
357,376,18956,2,0,L|365:316,1,60.0000022888184
385,148,19187,5,8,0:0:0:0:
385,148,19418,5,0,0:0:0:0:
389,117,19533,1,0,0:0:0:0:
311,176,19649,5,0,1:0:0:0:
307,131,19764,1,0,0:0:0:0:
303,86,19880,1,0,0:0:0:0:
299,41,19995,1,0,0:0:0:0:
477,61,20110,6,0,P|437:15|379:3,1,120.000004577637,2|0,1:0|0:0,0:0:0:0:
315,54,20456,1,0,0:0:0:0:
393,88,20572,2,0,L|383:160,1,60.0000022888184
230,231,20803,2,0,L|221:171,1,60.0000022888184
201,26,21033,5,8,0:0:0:0:
201,26,21264,1,0,0:0:0:0:
156,22,21380,1,0,0:0:0:0:
92,69,21495,5,0,1:0:0:0:
47,65,21611,1,0,0:0:0:0:
58,187,21726,5,0,0:0:0:0:
62,142,21842,1,0,0:0:0:0:
10,250,21956,6,0,P|67:264|106:308,1,120.000004577637,2|0,1:1|0:0,0:0:0:0:
129,382,22303,1,0,0:0:0:0:
184,286,22418,5,0,0:0:0:0:
180,326,22533,1,0,0:0:0:0:
234,226,22648,5,0,0:0:0:0:
372,384,22880,1,8,0:0:0:0:
454,198,23110,1,0,1:0:0:0:
448,172,23226,1,0,0:0:0:0:
496,281,23341,1,0,0:0:0:0:
436,272,23456,1,0,0:0:0:0:
377,263,23571,1,0,0:0:0:0:
371,237,23687,1,0,0:0:0:0:
341,333,23803,6,0,P|365:298|455:274,1,120.000004577637,2|0,1:0|0:0,0:0:0:0:
273,133,24149,1,0,0:0:0:0:
273,133,24264,2,0,P|291:155|320:163,1,60.0000022888184
226,256,24495,2,0,L|287:245,1,60.0000022888184
226,256,24956,6,0,P|254:245|277:217,1,60.0000022888184
336,79,25187,2,0,P|334:48|314:18,1,60.0000022888184
122,95,25418,2,0,P|151:90|180:98,1,60.0000022888184
383,360,25649,6,0,L|365:231,1,120.000004577637,2|0,1:0|0:0,0:0:0:0:
356,166,25995,1,0,0:0:0:0:
463,234,26110,5,0,0:0:0:0:
471,174,26225,1,0,0:0:0:0:
479,115,26340,1,0,0:0:0:0:
228,150,26572,1,8,0:0:0:0:
228,150,26803,5,0,0:0:0:0:
222,104,26918,1,0,0:0:0:0:
250,65,27033,5,0,1:0:0:0:
244,19,27148,1,0,0:0:0:0:
174,0,27264,5,0,0:0:0:0:
102,293,27495,5,2,1:0:0:0:
94,233,27610,1,0,0:0:0:0:
128,183,27726,5,0,0:0:0:0:
120,123,27841,1,0,0:0:0:0:
41,97,27956,5,0,0:0:0:0:
353,144,28187,2,0,L|343:84,1,60.0000022888184
331,0,28418,1,8,0:0:0:0:
341,361,28649,5,0,0:0:0:0:
348,331,28765,1,0,0:0:0:0:
360,349,28880,5,0,0:0:0:0:
329,343,28996,1,0,0:0:0:0:
337,259,29105,5,0,0:0:0:0:
393,274,29226,1,0,0:0:0:0:
383,360,29341,6,0,L|365:231,1,120.000004577637,2|0,1:0|0:0,0:0:0:0:
356,166,29687,1,0,0:0:0:0:
463,234,29802,5,0,0:0:0:0:
471,174,29917,1,0,0:0:0:0:
479,115,30032,1,0,0:0:0:0:
228,150,30264,1,8,0:0:0:0:
253,0,30495,1,0,1:0:0:0:
105,81,30725,5,0,0:0:0:0:
144,77,30841,1,0,0:0:0:0:
183,73,30956,1,0,0:0:0:0:
222,69,31072,1,0,0:0:0:0:
24,88,31187,6,0,L|163:75,1,120.000004577637,2|0,1:0|0:0,0:0:0:0:
83,3,31533,1,0,0:0:0:0:
65,165,31649,2,0,L|124:158,1,60.0000022888184
352,44,31880,2,0,L|357:104,1,60.0000022888184
369,244,32110,6,8,L|374:303,1,60.0000022888184,8|0,1:2|0:0,0:0:0:0:
187,337,32341,2,0,P|193:318|208:306,1,40
201,233,32572,2,0,P|215:230|230:235,1,30.0000011444092
291,195,32803,2,0,P|298:203|301:213,1,20
369,244,33033,5,0,0:0:0:0:
390,65,33956,5,8,0:0:0:0:
339,64,39703,5,0,0:0:0:0:
359,59,39818,1,0,0:0:0:0:
404,51,39933,5,0,0:0:0:0:
409,71,40049,1,0,0:0:0:0:
417,116,40164,5,0,0:0:0:0:
397,121,40279,1,0,0:0:0:0:
279,147,40430,6,0,P|265:67|210:8,1,160,0|0,1:0|0:0,0:0:0:0:
50,143,40776,1,0,0:0:0:0:
184,109,40891,2,0,P|146:86|101:91,1,80
157,318,41122,2,0,P|195:308|222:279,1,80
213,10,41353,5,8,0:0:0:0:
352,296,41583,1,0,0:0:0:0:
430,313,41699,1,0,0:0:0:0:
352,296,41814,5,2,0:0:0:0:
428,271,41930,1,0,0:0:0:0:
352,296,42045,5,0,0:0:0:0:
405,236,42160,1,0,0:0:0:0:
377,373,42276,6,0,P|346:321|236:272,1,160,2|0,1:0|0:0,0:0:0:0:
234,109,42622,1,0,0:0:0:0:
172,277,42737,2,0,P|134:288|105:315,1,80
338,80,42968,2,0,P|339:120|355:157,1,80
87,50,43199,5,8,0:0:0:0:
112,127,43430,1,0,0:0:0:0:
34,110,43546,1,0,0:0:0:0:
112,127,43661,5,2,0:0:0:0:
36,152,43777,1,0,0:0:0:0:
112,127,43892,5,0,0:0:0:0:
59,187,44007,1,0,0:0:0:0:
87,50,44123,6,0,P|118:102|228:151,1,160,2|0,1:0|0:0,0:0:0:0:
420,73,44468,1,0,0:0:0:0:
464,205,44583,2,0,L|480:106,1,80
340,78,44814,2,0,L|356:-21,1,80
352,0,45045,1,8,0:0:0:0:
274,232,45276,1,0,0:0:0:0:
352,244,45391,1,0,0:0:0:0:
272,249,45506,5,0,0:0:0:0:
350,261,45621,1,0,0:0:0:0:
270,266,45738,5,0,0:0:0:0:
348,278,45853,1,0,0:0:0:0:
215,348,45968,6,0,P|270:292|347:277,1,160,2|0,1:0|0:0,0:0:0:0:
458,297,46314,1,0,0:0:0:0:
348,90,46430,2,0,P|335:127|337:166,1,80
142,262,46660,2,0,P|113:230|61:211,1,80
430,144,46891,5,8,0:0:0:0:
78,78,47122,1,0,0:0:0:0:
154,98,47237,1,0,0:0:0:0:
75,98,47353,5,2,0:0:0:0:
154,98,47468,1,0,0:0:0:0:
78,119,47583,5,0,0:0:0:0:
154,98,47698,1,0,0:0:0:0:
248,172,47814,6,0,P|319:141|348:68,1,160,2|0,1:0|0:0,0:0:0:0:
425,35,48160,1,0,0:0:0:0:
512,200,48276,2,0,P|482:164|421:155,1,80
371,286,48506,2,0,P|366:247|382:211,1,80
501,72,48737,1,8,0:0:0:0:
157,172,48968,5,0,0:0:0:0:
100,117,49083,1,0,0:0:0:0:
157,172,49199,5,0,1:0:0:0:
132,95,49314,1,0,0:0:0:0:
157,172,49430,5,0,0:0:0:0:
171,93,49545,1,0,0:0:0:0:
367,213,49660,6,0,P|289:197|232:144,1,160,2|0,1:0|0:0,0:0:0:0:
451,201,50006,1,0,0:0:0:0:
212,344,50122,2,0,P|224:306|250:276,1,80
20,88,50353,2,0,P|32:127|58:157,1,80
333,28,50583,1,8,0:0:0:0:
402,373,50815,5,0,0:0:0:0:
381,297,50930,1,0,0:0:0:0:
402,373,51045,5,0,1:0:0:0:
419,294,51160,1,0,0:0:0:0:
402,373,51276,5,0,0:0:0:0:
453,312,51391,1,0,0:0:0:0:
324,351,51506,6,0,P|287:311|176:291,1,160,2|0,1:0|0:0,0:0:0:0:
78,92,51853,1,0,0:0:0:0:
149,216,51968,2,0,P|156:177|141:140,1,80
317,0,52199,2,0,P|301:36|308:75,1,80
342,147,52429,1,8,0:0:0:0:
474,119,52660,5,0,1:0:0:0:
486,41,52775,1,0,0:0:0:0:
457,117,52890,5,0,0:0:0:0:
469,39,53005,1,0,0:0:0:0:
440,115,53122,5,0,0:0:0:0:
452,37,53237,1,0,0:0:0:0:
350,145,53352,6,0,P|421:106|452:34,1,160,2|0,1:0|0:0,0:0:0:0:
376,0,53699,1,0,0:0:0:0:
226,185,53814,2,0,P|264:192|297:215,1,80
15,37,54045,2,0,P|48:15|87:8,1,80
84,111,54276,5,8,0:0:0:0:
358,286,54506,1,0,0:0:0:0:
434,265,54621,1,0,0:0:0:0:
358,286,54736,5,2,0:0:0:0:
437,286,54851,1,0,0:0:0:0:
358,286,54967,5,0,0:0:0:0:
434,306,55082,1,0,0:0:0:0:
332,212,55199,6,0,P|320:159|326:50,1,160,2|0,1:0|0:0,0:0:0:0:
232,244,55545,1,0,0:0:0:0:
113,109,55660,6,0,P|151:118|184:148,1,80,0|0,0:3|0:3,0:3:0:0:
484,95,55891,2,0,P|446:108|407:104,1,80
261,0,56122,1,8,0:0:0:0:
123,310,56353,5,0,0:0:0:0:
47,329,56468,1,0,0:0:0:0:
123,310,56583,5,0,1:0:0:0:
45,290,56699,1,0,0:0:0:0:
123,310,56814,5,0,0:0:0:0:
65,253,56930,1,0,0:0:0:0:
202,289,57045,6,0,P|255:277|364:283,1,160,0|0,1:0|0:0,0:0:0:0:
469,131,57391,1,0,0:0:0:0:
454,315,57506,2,0,P|488:337|512:369,1,80
284,75,57737,2,0,P|288:35|307:0,1,80
202,289,57968,1,8,0:0:0:0:
389,74,58199,5,0,0:0:0:0:
465,55,58314,1,0,0:0:0:0:
389,74,58429,5,2,0:0:0:0:
467,94,58545,1,0,0:0:0:0:
389,74,58660,5,0,0:0:0:0:
447,131,58776,1,0,0:0:0:0:
304,97,58891,6,0,P|239:143|161:158,1,160,2|0,1:0|0:0,0:0:0:0:
462,331,59237,1,0,0:0:0:0:
420,237,59353,2,0,P|394:206|361:183,1,80
312,361,59583,2,0,P|328:325|335:285,1,80
90,105,59814,5,8,0:0:0:0:
187,343,60045,1,0,0:0:0:0:
199,265,60160,1,0,0:0:0:0:
204,345,60275,5,2,0:0:0:0:
216,267,60390,1,0,0:0:0:0:
221,347,60507,5,0,0:0:0:0:
233,269,60622,1,0,0:0:0:0:
113,367,60737,6,0,P|161:304|232:268,1,160,0|0,1:0|0:0,0:0:0:0:
207,172,61083,1,0,0:0:0:0:
406,361,61199,2,0,P|424:319|423:269,1,80
387,182,61430,2,0,P|371:146|369:106,1,80
470,0,61660,5,8,0:0:0:0:
370,107,61891,1,0,0:0:0:0:
446,87,62006,1,0,0:0:0:0:
370,107,62122,5,2,0:0:0:0:
449,107,62237,1,0,0:0:0:0:
370,107,62352,5,0,0:0:0:0:
446,128,62467,1,0,0:0:0:0:
317,212,62583,6,0,P|391:185|445:127,1,160,0|0,1:0|0:0,0:0:0:0:
232,180,62930,1,0,0:0:0:0:
219,345,63045,2,0,P|225:307|249:265,1,80
334,22,63276,2,0,P|353:57|360:97,1,80
374,309,63506,5,8,0:0:0:0:
66,128,63737,1,0,0:0:0:0:
142,107,63852,1,0,0:0:0:0:
66,128,63968,5,2,0:0:0:0:
142,107,64083,1,0,0:0:0:0:
66,128,64198,5,0,0:0:0:0:
142,107,64313,1,0,0:0:0:0:
54,214,64430,6,0,P|128:240|182:299,1,160,2|0,1:0|0:0,0:0:0:0:
370,107,64776,1,0,0:0:0:0:
344,241,64891,2,0,P|321:208|312:170,1,80
218,89,65122,2,0,P|234:52|264:26,1,80
512,23,65353,5,8,0:0:0:0:
446,128,65583,1,0,0:0:0:0:
370,107,65698,1,0,0:0:0:0:
446,128,65814,5,2,0:0:0:0:
370,107,65929,1,0,0:0:0:0:
446,128,66044,5,0,0:0:0:0:
370,107,66159,1,0,0:0:0:0:
458,214,66275,6,0,P|384:240|330:299,1,160,2|0,1:0|0:0,0:0:0:0:
291,373,66622,1,0,0:0:0:0:
244,157,66737,6,0,P|246:196|269:228,1,80
87,197,66968,2,0,P|125:206|163:194,1,80
67,276,67199,5,8,0:0:0:0:
116,23,67430,1,0,1:0:0:0:
192,43,67545,1,0,0:0:0:0:
113,43,67661,5,2,0:0:0:0:
192,43,67776,1,0,0:0:0:0:
116,64,67891,5,0,0:0:0:0:
192,43,68006,1,0,0:0:0:0:
298,92,68122,6,0,P|372:66|426:7,1,160,2|0,1:0|0:0,0:0:0:0:
243,151,68468,1,0,0:0:0:0:
266,311,68583,2,0,P|246:278|238:239,1,80
428,50,68814,2,0,P|403:80|368:99,1,80
85,12,69045,5,8,0:0:0:0:
170,102,69276,1,0,0:0:0:0:
134,79,69391,1,0,0:0:0:0:
170,102,69507,5,0,3:0:0:0:
131,99,69622,1,0,3:0:0:0:
170,102,69737,5,0,0:0:0:0:
134,120,69852,1,0,0:0:0:0:
149,133,69968,6,0,P|181:157|202:191,1,80
268,227,70314,1,0,0:0:0:0:
268,227,70430,6,0,P|276:208|277:189,1,40
248,117,70660,1,0,0:0:0:0:
226,292,70891,1,8,0:0:0:0:
387,228,71353,5,0,0:0:0:0:
