osu file format v14

[General]
AudioFilename: audio.mp3
AudioLeadIn: 0
PreviewTime: -1
Countdown: 0
SampleSet: Normal
StackLeniency: 0.7
Mode: 0
LetterboxInBreaks: 0
WidescreenStoryboard: 0

[Editor]
DistanceSpacing: 0.8
BeatDivisor: 4
GridSize: 32
TimelineZoom: 2.5

[Metadata]
Title:WARMUP
TitleUnicode:WARMUP
Artist:xxx
ArtistUnicode:xxx
Creator:taIia
Version:confusion
Source:
Tags:
BeatmapID:4533259
BeatmapSetID:2151588

[Difficulty]
HPDrainRate:3.6
CircleSize:4.2
OverallDifficulty:8.1
ApproachRate:9.4
SliderMultiplier:1.4
SliderTickRate:1

[Events]
//Background and Video events
0,0,"ff.png",0,0
//Break Periods
2,30031,39041
//Storyboard Layer 0 (Background)
//Storyboard Layer 1 (Fail)
//Storyboard Layer 2 (Pass)
//Storyboard Layer 3 (Foreground)
//Storyboard Layer 4 (Overlay)
//Storyboard Sound Samples

[TimingPoints]
-18.4884792626726,300,4,1,0,100,1,0
20681,-33.3333333333333,4,1,0,100,0,0
23081,-28.5714285714286,4,1,0,100,0,0
27881,-25,4,1,0,100,0,0
28181,-28.5714285714286,4,1,0,100,0,0
39581,-50,4,1,0,100,0,0
50081,-33.3333333333333,4,1,0,100,0,0
87581,-33.3333333333333,4,1,0,100,0,0
91181,-33.3333333333333,4,1,0,100,0,0
97331,-33.3333333333333,4,1,0,100,0,0
99731,-33.3333333333333,4,1,0,100,0,0
100331,-33.3333333333333,4,1,0,100,0,0
110381,-33.3333333333333,4,1,0,100,0,0
110981,-33.3333333333333,4,1,0,100,0,0

[HitObjects]
256,192,8381,12,0,10181,0:0:0:0:
127,97,10781,5,0,0:0:0:0:
256,290,10931,1,0,0:0:0:0:
385,97,11081,5,0,0:0:0:0:
256,290,11231,1,0,0:0:0:0:
305,65,11381,5,0,0:0:0:0:
192,287,11531,1,0,0:0:0:0:
207,64,11681,5,0,0:0:0:0:
320,285,11831,1,0,0:0:0:0:
124,126,11981,2,0,L|193:126,1,70
357,31,12281,2,0,L|279:31,1,70
196,326,12581,5,0,0:0:0:0:
380,111,12731,1,0,0:0:0:0:
27,212,12881,1,0,0:0:0:0:
59,212,12956,1,0,0:0:0:0:
92,211,13031,1,0,0:0:0:0:
257,28,13181,5,0,0:0:0:0:
256,345,13331,1,0,0:0:0:0:
133,110,13481,5,0,0:0:0:0:
401,274,13631,1,0,0:0:0:0:
386,100,13781,5,0,0:0:0:0:
123,280,13931,1,0,0:0:0:0:
257,28,14081,5,0,0:0:0:0:
258,366,14231,1,0,0:0:0:0:
89,192,14381,5,0,0:0:0:0:
417,193,14531,1,0,0:0:0:0:
120,64,14681,2,0,L|169:63,2,35
327,292,14981,2,0,L|394:330,1,70
396,55,15281,1,0,0:0:0:0:
512,189,15431,1,0,0:0:0:0:
254,192,15581,5,0,0:0:0:0:
396,55,15731,1,0,0:0:0:0:
125,83,15881,5,0,0:0:0:0:
95,279,16031,1,0,0:0:0:0:
350,67,16181,5,0,0:0:0:0:
357,289,16331,1,0,0:0:0:0:
235,43,16481,6,0,L|151:44,1,70
230,114,16781,2,0,L|316:114,1,70
99,257,17081,5,0,0:0:0:0:
382,361,17231,1,0,0:0:0:0:
83,384,17381,5,0,0:0:0:0:
404,193,17531,1,0,0:0:0:0:
160,57,17681,2,0,L|223:27,1,70
57,236,17981,1,0,0:0:0:0:
57,236,18131,1,0,0:0:0:0:
57,236,18281,1,0,0:0:0:0:
331,334,18431,1,0,0:0:0:0:
177,106,18581,5,0,0:0:0:0:
451,232,18731,1,0,0:0:0:0:
108,362,18881,5,0,0:0:0:0:
257,198,19031,1,0,0:0:0:0:
449,38,19181,1,0,0:0:0:0:
449,38,19331,1,0,0:0:0:0:
70,56,19481,2,0,L|-18:56,1,70
299,339,19781,5,0,0:0:0:0:
467,174,19931,1,0,0:0:0:0:
77,128,20081,1,0,0:0:0:0:
109,128,20156,1,0,0:0:0:0:
142,128,20231,1,0,0:0:0:0:
505,266,20381,5,0,0:0:0:0:
256,384,20531,1,0,0:0:0:0:
107,285,20681,2,0,B|149:189|116:152|63:210|44:146|124:80,1,210.000008010865
327,63,20981,2,0,B|437:75|437:75|512:196|512:196|475:224,1,210.000008010865
356,231,21281,5,0,0:0:0:0:
356,231,21431,1,0,0:0:0:0:
172,11,21581,2,0,P|95:70|145:211,1,210.000008010865
295,299,21881,2,0,P|253:155|112:137,1,210.000008010865
10,288,22181,2,0,P|100:321|192:260,1,210.000008010865
192,126,22481,5,0,0:0:0:0:
192,126,22631,1,0,0:0:0:0:
383,223,22781,1,0,0:0:0:0:
383,223,22931,1,0,0:0:0:0:
94,127,23081,6,0,P|126:31|141:57,1,245.000002336502
415,129,23381,2,0,P|416:21|375:59,1,245.000002336502
191,252,23681,6,0,B|283:339|283:339|428:339,1,245.000002336502
415,129,23981,5,0,0:0:0:0:
415,129,24131,1,0,0:0:0:0:
248,160,24281,1,0,0:0:0:0:
248,160,24431,1,0,0:0:0:0:
375,162,24581,1,0,0:0:0:0:
67,158,24731,5,0,0:0:0:0:
232,12,24881,1,0,0:0:0:0:
226,304,25031,1,0,0:0:0:0:
376,110,25181,2,0,B|418:195|418:195|435:203|481:42,1,245.000002336502
376,110,25481,2,0,B|329:202|329:202|306:178|252:83,1,245.000002336502
58,301,25781,2,0,B|179:334|179:334|306:294,2,245.000002336502
58,301,26231,5,0,0:0:0:0:
293,298,26381,5,0,0:0:0:0:
190,384,26531,5,0,0:0:0:0:
499,43,26681,5,0,0:0:0:0:
281,157,26831,5,0,0:0:0:0:
0,167,26981,2,0,P|53:87|130:191,1,245.000002336502
146,251,27281,2,0,P|114:179|2:258,1,245.000002336502
0,325,27581,2,0,P|53:245|130:349,1,245.000002336502
399,260,27881,2,0,B|461:158|408:136|364:62|359:60|455:27,1,280
123,109,28181,5,0,0:0:0:0:
123,183,28331,1,0,0:0:0:0:
123,259,28481,5,0,0:0:0:0:
327,129,28631,1,0,0:0:0:0:
490,165,28781,2,0,B|445:64|445:64|264:166,1,245.000002336502
112,306,29081,2,0,B|128:168|128:168|129:49,1,245.000002336502
384,63,29381,5,0,0:0:0:0:
191,288,29531,1,0,0:0:0:0:
128,61,29681,1,0,0:0:0:0:
320,286,29831,1,0,0:0:0:0:
126,121,39581,6,0,B|394:267|394:267,2,280
256,39,40481,2,0,L|256:102,1,46.6666666666667
95,192,40781,2,0,L|145:192,1,46.6666666666667
255,349,41081,2,0,L|255:278,1,46.6666666666667
415,192,41381,2,0,L|345:192,1,46.6666666666667
256,39,41681,2,0,L|257:90,1,46.6666666666667
51,348,41981,5,0,0:0:0:0:
477,228,42281,1,0,0:0:0:0:
40,125,42581,1,0,0:0:0:0:
482,22,42881,1,0,0:0:0:0:
256,201,43181,5,0,0:0:0:0:
215,140,43481,1,0,0:0:0:0:
294,138,43781,1,0,0:0:0:0:
254,76,44081,1,0,0:0:0:0:
375,368,44381,6,0,L|524:304,1,140
505,314,44681,2,0,L|382:215,1,140
393,225,44981,2,0,L|517:150,1,140
512,152,45281,2,0,L|382:89,1,140
114,168,45581,6,0,L|114:309,1,140
114,168,45881,2,0,L|271:168,1,140
114,168,46181,2,0,L|-26:167,1,140
357,259,46481,1,0,0:0:0:0:
171,384,46631,1,0,0:0:0:0:
512,152,46781,1,0,0:0:0:0:
83,188,47081,6,0,L|119:142,2,46.6666666666667
429,75,47381,1,0,0:0:0:0:
367,368,47531,1,0,0:0:0:0:
367,368,47681,1,0,0:0:0:0:
2,121,47831,1,0,0:0:0:0:
25,121,47906,1,0,0:0:0:0:
46,121,47981,1,0,0:0:0:0:
67,121,48056,1,0,0:0:0:0:
83,122,48131,1,0,0:0:0:0:
105,121,48206,1,0,0:0:0:0:
131,121,48281,1,0,0:0:0:0:
146,121,48356,1,0,0:0:0:0:
168,121,48431,1,0,0:0:0:0:
188,120,48506,1,0,0:0:0:0:
207,120,48581,1,0,0:0:0:0:
349,352,48881,6,0,B|441:321|441:321|378:241|378:241|454:215|454:215|456:216,1,280
433,78,49331,1,0,0:0:0:0:
194,310,49481,1,0,0:0:0:0:
433,78,49631,1,0,0:0:0:0:
194,310,49781,1,0,0:0:0:0:
433,78,49931,1,0,0:0:0:0:
66,154,50081,6,0,L|271:313,1,210.000008010865
262,152,50381,2,0,L|98:299,1,210.000008010865
163,108,50681,2,0,L|161:330,1,210.000008010865
305,72,50981,5,0,0:0:0:0:
432,313,51131,1,0,0:0:0:0:
512,119,51281,1,0,0:0:0:0:
432,313,51431,1,0,0:0:0:0:
305,72,51581,1,0,0:0:0:0:
512,118,51731,1,0,0:0:0:0:
156,80,51881,6,0,P|53:21|26:75,1,210.000008010865
26,73,52181,2,0,P|43:209|73:199,1,210.000008010865
42,209,52481,2,0,P|148:161|145:75,1,210.000008010865
448,100,52781,5,0,0:0:0:0:
448,153,52931,1,0,0:0:0:0:
449,199,53081,1,0,0:0:0:0:
47,235,53231,1,0,0:0:0:0:
278,76,53381,1,0,0:0:0:0:
265,382,53531,1,0,0:0:0:0:
443,223,53681,6,0,L|521:176,2,70.0000026702882
24,48,53981,1,0,0:0:0:0:
270,195,54131,1,0,0:0:0:0:
62,349,54281,1,0,0:0:0:0:
186,75,54581,1,0,0:0:0:0:
472,324,54881,1,0,0:0:0:0:
56,276,55181,6,0,L|310:276,1,210.000008010865
268,207,55481,2,0,L|33:206,1,210.000008010865
275,60,55781,1,0,0:0:0:0:
313,32,55931,1,0,0:0:0:0:
350,0,56081,1,0,0:0:0:0:
57,193,56231,1,0,0:0:0:0:
312,323,56381,1,0,0:0:0:0:
57,193,56531,1,0,0:0:0:0:
312,50,56681,1,0,0:0:0:0:
57,193,56831,1,0,0:0:0:0:
312,323,56981,1,0,0:0:0:0:
110,249,57131,5,0,0:0:0:0:
501,138,57281,2,0,B|488:67|488:67|433:84|433:84|433:20|433:20|368:45|368:45,1,210.000008010865
114,110,57581,1,0,0:0:0:0:
417,287,57731,1,0,0:0:0:0:
205,333,57881,6,0,L|92:294,4,70.0000026702882
258,54,58181,1,0,0:0:0:0:
257,211,58331,1,0,0:0:0:0:
421,326,58481,6,0,L|491:358,4,70.0000026702882
154,288,58781,1,0,0:0:0:0:
154,288,58931,1,0,0:0:0:0:
352,156,59081,1,0,0:0:0:0:
112,39,59231,1,0,0:0:0:0:
352,156,59381,6,0,B|444:214|444:214|520:129,1,210.000008010865
511,138,59681,2,0,B|424:71|424:71|335:154,1,210.000008010865
53,265,59981,5,0,0:0:0:0:
123,202,60131,1,0,0:0:0:0:
194,262,60281,1,0,0:0:0:0:
271,195,60431,1,0,0:0:0:0:
329,263,60581,1,0,0:0:0:0:
387,192,60731,1,0,0:0:0:0:
450,259,60881,1,0,0:0:0:0:
510,187,61031,1,0,0:0:0:0:
450,259,61181,5,0,0:0:0:0:
387,192,61331,1,0,0:0:0:0:
323,258,61481,1,0,0:0:0:0:
250,190,61631,1,0,0:0:0:0:
192,259,61781,1,0,0:0:0:0:
123,193,61931,1,0,0:0:0:0:
70,264,62081,1,0,0:0:0:0:
2,197,62231,1,0,0:0:0:0:
383,16,62381,6,0,L|174:76,1,210.000008010865
181,73,62681,2,0,L|411:128,1,210.000008010865
385,121,62981,2,0,L|182:194,1,210.000008010865
58,348,63281,6,0,L|168:349,3,70.0000026702882
395,82,63581,1,0,0:0:0:0:
72,218,63731,1,0,0:0:0:0:
438,356,63881,1,0,0:0:0:0:
81,84,64181,5,0,0:0:0:0:
193,384,64481,1,0,0:0:0:0:
472,264,64781,6,0,B|514:168|481:131|428:189|409:125|489:59,1,210.000008010865
32,158,65081,1,0,0:0:0:0:
80,158,65231,1,0,0:0:0:0:
128,159,65381,2,0,L|351:160,1,210.000008010865
258,384,65681,5,0,0:0:0:0:
426,53,65831,1,0,0:0:0:0:
426,53,65981,2,0,P|357:168|256:198,1,210.000008010865
32,271,66281,5,0,0:0:0:0:
32,271,66431,2,0,B|74:175|41:138|-12:196|-31:132|49:66,1,210.000008010865
483,319,66731,1,0,0:0:0:0:
483,319,66881,2,0,L|330:166,1,210.000008010865
88,207,67181,6,0,L|166:160,18,70.0000026702882
494,252,68231,1,0,0:0:0:0:
91,99,68381,1,0,0:0:0:0:
211,361,68531,1,0,0:0:0:0:
362,50,68681,6,0,B|452:106|452:106|374:212,1,210.000008010865
362,50,68981,2,0,B|301:140|301:140|431:214,1,210.000008010865
362,50,69281,2,0,B|452:106|452:106|374:212,1,210.000008010865
181,384,69581,6,0,P|234:304|311:408,1,245.000002336502
146,251,69881,2,0,P|114:179|2:258,1,245.000002336502
255,182,70181,2,0,P|308:102|385:206,1,245.000002336502
206,4,70481,5,0,0:0:0:0:
336,179,70631,1,0,0:0:0:0:
186,348,70781,1,0,0:0:0:0:
206,4,70931,1,0,0:0:0:0:
336,179,71081,1,0,0:0:0:0:
186,348,71231,1,0,0:0:0:0:
206,4,71381,1,0,0:0:0:0:
336,179,71531,1,0,0:0:0:0:
186,348,71681,1,0,0:0:0:0:
206,4,71831,1,0,0:0:0:0:
505,269,71981,6,0,L|256:269,1,210.000008010865
295,269,72281,2,0,L|527:269,1,210.000008010865
505,269,72581,2,0,L|256:269,1,210.000008010865
295,269,72881,2,0,L|527:269,1,210.000008010865
68,26,73181,5,0,0:0:0:0:
512,136,73331,1,0,0:0:0:0:
68,26,73481,5,0,0:0:0:0:
299,340,73781,1,0,0:0:0:0:
505,21,74081,5,0,0:0:0:0:
505,21,74231,1,0,0:0:0:0:
35,247,74381,2,0,P|156:171|195:227,1,210.000008010865
181,194,74681,2,0,P|75:172|30:270,1,210.000008010865
35,247,74981,2,0,P|156:171|195:227,1,210.000008010865
181,194,75281,2,0,P|75:172|30:270,1,210.000008010865
288,384,75581,5,0,0:0:0:0:
359,383,75731,1,0,0:0:0:0:
424,381,75881,1,0,0:0:0:0:
487,379,76031,1,0,0:0:0:0:
246,113,76181,1,0,0:0:0:0:
246,179,76331,1,0,0:0:0:0:
247,244,76481,1,0,0:0:0:0:
247,309,76631,1,0,0:0:0:0:
76,158,76781,6,0,L|186:159,12,70.0000026702882
436,225,77681,1,0,0:0:0:0:
253,87,77831,1,0,0:0:0:0:
151,316,77981,1,0,0:0:0:0:
151,316,78131,1,0,0:0:0:0:
17,56,78281,6,0,P|119:29|220:74,1,210.000008010865
327,132,78581,1,0,0:0:0:0:
327,132,78731,1,0,0:0:0:0:
495,319,78881,6,0,P|391:291|275:322,1,210.000008010865
202,236,79181,1,0,0:0:0:0:
202,236,79331,1,0,0:0:0:0:
312,58,79481,6,0,P|414:31|515:76,1,210.000008010865
268,151,79781,1,0,0:0:0:0:
268,151,79931,1,0,0:0:0:0:
67,193,80081,5,0,0:0:0:0:
257,16,80231,1,0,0:0:0:0:
448,191,80381,1,0,0:0:0:0:
255,358,80531,1,0,0:0:0:0:
67,193,80681,1,0,0:0:0:0:
257,16,80831,1,0,0:0:0:0:
448,191,80981,1,0,0:0:0:0:
255,358,81131,1,0,0:0:0:0:
67,193,81281,1,0,0:0:0:0:
257,16,81431,1,0,0:0:0:0:
56,381,81581,6,0,B|112:284|112:285|211:297|211:297|201:261,1,210.000008010865
443,111,81881,2,0,B|353:133|353:133|370:216|370:216|340:251|340:252,1,210.000008010865
105,75,82181,6,0,P|197:11|257:80,1,210.000008010865
254,66,82481,2,0,P|148:122|96:57,1,210.000008010865
412,358,82781,5,0,0:0:0:0:
242,277,82931,1,0,0:0:0:0:
478,222,83081,1,0,0:0:0:0:
290,153,83231,1,0,0:0:0:0:
378,273,83381,1,0,0:0:0:0:
183,206,83531,1,0,0:0:0:0:
368,118,83681,1,0,0:0:0:0:
183,62,83831,1,0,0:0:0:0:
500,136,83981,6,0,B|418:207|418:207|291:139,1,210.000008010865
410,117,84281,2,0,B|328:46|328:46|237:133,1,210.000008010865
332,149,84581,2,0,B|250:220|250:220|123:152,1,210.000008010865
242,127,84881,2,0,B|160:56|160:56|69:143,1,210.000008010865
76,361,85181,5,0,0:0:0:0:
126,310,85331,1,0,0:0:0:0:
179,262,85481,1,0,0:0:0:0:
230,214,85631,1,0,0:0:0:0:
460,35,85781,5,0,0:0:0:0:
406,78,85931,1,0,0:0:0:0:
353,123,86081,1,0,0:0:0:0:
296,167,86231,1,0,0:0:0:0:
380,304,86381,6,0,L|458:257,11,70.0000026702882
97,94,86981,5,0,0:0:0:0:
256,303,87131,1,0,0:0:0:0:
415,95,87281,1,0,0:0:0:0:
256,384,87431,1,0,0:0:0:0:
122,27,87581,6,0,L|257:210,1,210.000008010865
369,25,87881,2,0,L|220:232,1,210.000008010865
381,356,88181,2,0,L|238:186,1,210.000008010865
125,367,88481,2,0,L|255:181,1,210.000008010865
74,57,88781,6,0,P|149:0|229:75,1,210.000008010865
227,63,89081,2,0,P|113:113|70:48,1,210.000008010865
74,57,89381,2,0,P|149:0|229:75,1,210.000008010865
227,63,89681,2,0,P|113:113|70:48,1,210.000008010865
409,199,89981,5,0,0:0:0:0:
434,185,90131,1,0,0:0:0:0:
72,92,90281,1,0,0:0:0:0:
72,121,90431,1,0,0:0:0:0:
464,39,90581,1,0,0:0:0:0:
493,23,90731,1,0,0:0:0:0:
202,254,90881,1,0,0:0:0:0:
201,279,91031,1,0,0:0:0:0:
438,384,91181,6,0,B|480:288|447:251|394:309|375:245|455:179,2,210.000008010865
123,256,91631,1,0,0:0:0:0:
158,256,91706,1,0,0:0:0:0:
194,256,91781,1,0,0:0:0:0:
420,56,91931,1,0,0:0:0:0:
106,66,92081,1,0,0:0:0:0:
404,290,92231,1,0,0:0:0:0:
103,374,92381,5,0,0:0:0:0:
273,182,92531,1,0,0:0:0:0:
491,23,92681,1,0,0:0:0:0:
103,374,92981,5,0,0:0:0:0:
491,23,93281,1,0,0:0:0:0:
10,288,93581,2,0,P|100:321|192:260,1,210.000008010865
172,11,93881,2,0,P|95:70|145:211,1,210.000008010865
295,299,94181,2,0,P|253:155|112:137,1,210.000008010865
10,288,94481,2,0,P|100:321|192:260,1,210.000008010865
456,87,94781,5,0,0:0:0:0:
460,163,94931,1,0,0:0:0:0:
464,236,95081,1,0,0:0:0:0:
466,310,95231,1,0,0:0:0:0:
125,330,95381,1,0,0:0:0:0:
200,329,95531,1,0,0:0:0:0:
274,329,95681,1,0,0:0:0:0:
346,329,95831,1,0,0:0:0:0:
60,38,95981,6,0,B|176:46|176:46|158:146|158:146,1,210.000008010865
415,222,96281,2,0,B|457:126|424:89|371:147|352:83|432:17,1,210.000008010865
70,222,96581,6,0,B|100:264|100:264|166:261|166:261|169:336|169:336|199:364,1,210.000008010865
345,45,96881,1,0,0:0:0:0:
253,247,97031,1,0,0:0:0:0:
432,93,97181,1,0,0:0:0:0:
72,281,97331,6,0,L|300:224,1,210.000008010865
275,230,97631,2,0,L|86:137,1,210.000008010865
86,137,97931,2,0,L|308:135,1,210.000008010865
295,135,98231,2,0,L|109:28,1,210.000008010865
462,212,98531,6,0,P|359:153|332:207,1,210.000008010865
332,205,98831,2,0,P|349:341|379:331,1,210.000008010865
348,341,99131,2,0,P|454:293|451:207,1,210.000008010865
307,93,99431,5,0,0:0:0:0:
257,94,99581,1,0,0:0:0:0:
209,94,99731,2,0,L|-28:93,1,210.000008010865
194,240,100031,1,0,0:0:0:0:
251,239,100181,1,0,0:0:0:0:
303,239,100331,2,0,L|536:239,1,210.000008010865
201,29,100631,5,0,0:0:0:0:
40,215,100781,1,0,0:0:0:0:
312,23,100931,1,0,0:0:0:0:
74,312,101081,1,0,0:0:0:0:
272,175,101231,1,0,0:0:0:0:
489,257,101381,1,0,0:0:0:0:
241,79,101531,1,0,0:0:0:0:
358,329,101681,1,0,0:0:0:0:
67,177,101831,6,0,L|173:177,1,105.000004005432
479,57,101981,1,0,0:0:0:0:
257,371,102131,1,0,0:0:0:0:
54,63,102281,1,0,0:0:0:0:
258,12,102581,5,0,0:0:0:0:
506,346,102881,1,0,0:0:0:0:
120,209,103181,6,0,L|117:-26,1,210.000008010865
120,209,103481,2,0,L|334:68,1,210.000008010865
436,184,103781,2,0,L|437:403,1,210.000008010865
436,184,104081,2,0,L|224:335,1,210.000008010865
412,55,104381,5,0,0:0:0:0:
311,58,104531,1,0,0:0:0:0:
361,6,104681,1,0,0:0:0:0:
362,106,104831,1,0,0:0:0:0:
57,299,104981,1,0,0:0:0:0:
156,299,105131,1,0,0:0:0:0:
108,249,105281,1,0,0:0:0:0:
108,351,105431,1,0,0:0:0:0:
377,183,105581,6,0,L|487:184,12,70.0000026702882
158,264,106481,1,0,0:0:0:0:
335,125,106631,1,0,0:0:0:0:
164,120,106781,5,0,0:0:0:0:
164,120,106931,1,0,0:0:0:0:
164,120,107081,1,0,0:0:0:0:
164,120,107231,1,0,0:0:0:0:
164,120,107381,1,0,0:0:0:0:
164,120,107531,1,0,0:0:0:0:
164,120,107681,1,0,0:0:0:0:
164,120,107831,1,0,0:0:0:0:
343,253,107981,5,0,0:0:0:0:
343,253,108131,1,0,0:0:0:0:
343,253,108281,1,0,0:0:0:0:
343,253,108431,1,0,0:0:0:0:
343,253,108581,1,0,0:0:0:0:
343,253,108731,1,0,0:0:0:0:
343,253,108881,1,0,0:0:0:0:
343,253,109031,1,0,0:0:0:0:
65,94,109181,5,0,0:0:0:0:
221,13,109331,1,0,0:0:0:0:
87,128,109481,1,0,0:0:0:0:
248,33,109631,1,0,0:0:0:0:
108,173,109781,1,0,0:0:0:0:
273,56,109931,1,0,0:0:0:0:
127,208,110081,1,0,0:0:0:0:
295,96,110231,1,0,0:0:0:0:
488,203,110381,2,0,P|360:245|433:34,1,420.000016021729
50,159,110981,2,0,P|236:200|144:363,1,420.000016021729
