osu file format v14

[General]
AudioFilename: audio1.mp3
AudioLeadIn: 0
PreviewTime: 43936
Countdown: 0
SampleSet: Soft
StackLeniency: 0.7
Mode: 3
LetterboxInBreaks: 0
SpecialStyle: 0
WidescreenStoryboard: 0

[Editor]
DistanceSpacing: 1.1
BeatDivisor: 8
GridSize: 8
TimelineZoom: 2.999999

[Metadata]
Title:Sparrow
TitleUnicode:Sparrow
Artist:xxdbxx feat. Croove
ArtistUnicode:xxdbxx feat. Croove
Creator:Meowstic
Version:SHD
Source:EZ2DJ 3rd TRAX ~Absolute Pitch~
Tags:
BeatmapID:1285159
BeatmapSetID:608520

[Difficulty]
HPDrainRate:8
CircleSize:4
OverallDifficulty:8
ApproachRate:5
SliderMultiplier:1.4
SliderTickRate:1

[Events]
//Background and Video events
0,0,"d4cc0c03a601ad03e76dea977bdfe4cf.jpg",0,0
//Break Periods
//Storyboard Layer 0 (Background)
//Storyboard Layer 1 (Fail)
//Storyboard Layer 2 (Pass)
//Storyboard Layer 3 (Foreground)
//Storyboard Sound Samples

[TimingPoints]
300,454.545454545455,4,2,0,10,1,0
73027,-100,4,2,0,10,0,1
87345,-100,4,2,0,10,0,0

[HitObjects]
448,192,300,5,0,0:0:0:0:
192,192,300,128,0,1663:0:0:0:0:
448,192,527,1,0,0:0:0:0:
64,192,754,1,0,0:0:0:0:
320,192,754,1,0,0:0:0:0:
320,192,981,1,0,0:0:0:0:
448,192,1209,1,0,0:0:0:0:
320,192,1360,1,0,0:0:0:0:
448,192,1436,1,0,0:0:0:0:
64,192,1663,1,0,0:0:0:0:
320,192,1663,1,0,0:0:0:0:
192,192,2345,1,0,0:0:0:0:
448,192,2345,1,0,0:0:0:0:
192,192,2572,1,0,0:0:0:0:
448,192,2686,1,0,0:0:0:0:
192,192,2800,1,0,0:0:0:0:
64,192,2800,1,0,0:0:0:0:
448,192,2913,1,0,0:0:0:0:
192,192,3027,1,0,0:0:0:0:
320,192,3140,1,0,0:0:0:0:
192,192,3254,1,0,0:0:0:0:
448,192,3254,1,0,0:0:0:0:
192,192,3481,1,0,0:0:0:0:
64,192,3481,1,0,0:0:0:0:
320,192,3481,1,0,0:0:0:0:
192,192,3709,1,0,0:0:0:0:
448,192,3936,1,0,0:0:0:0:
192,192,3936,128,0,5300:0:0:0:0:
448,192,4163,1,0,0:0:0:0:
64,192,4390,1,0,0:0:0:0:
320,192,4390,1,0,0:0:0:0:
320,192,4618,1,0,0:0:0:0:
448,192,4845,1,0,0:0:0:0:
320,192,4996,1,0,0:0:0:0:
448,192,5072,1,0,0:0:0:0:
64,192,5300,1,0,0:0:0:0:
320,192,5300,1,0,0:0:0:0:
192,192,5981,1,0,0:0:0:0:
448,192,5981,1,0,0:0:0:0:
192,192,6209,1,0,0:0:0:0:
448,192,6322,1,0,0:0:0:0:
64,192,6436,1,0,0:0:0:0:
192,192,6436,1,0,0:0:0:0:
192,192,6550,1,0,0:0:0:0:
448,192,6550,1,0,0:0:0:0:
192,192,6777,1,0,0:0:0:0:
320,192,6777,1,0,0:0:0:0:
192,192,7004,1,0,0:0:0:0:
448,192,7004,1,0,0:0:0:0:
192,192,7231,1,0,0:0:0:0:
448,192,7231,1,0,0:0:0:0:
320,192,7459,1,0,0:0:0:0:
64,192,7459,1,0,0:0:0:0:
448,192,7459,1,0,0:0:0:0:
448,192,7572,1,0,0:0:0:0:
192,192,7572,128,0,8936:0:0:0:0:
64,192,7572,1,0,0:0:0:0:
448,192,7800,1,0,0:0:0:0:
64,192,8027,1,0,0:0:0:0:
320,192,8027,1,0,0:0:0:0:
320,192,8254,1,0,0:0:0:0:
448,192,8481,1,0,0:0:0:0:
320,192,8633,1,0,0:0:0:0:
448,192,8709,1,0,0:0:0:0:
64,192,8936,1,0,0:0:0:0:
320,192,8936,1,0,0:0:0:0:
192,192,9618,1,0,0:0:0:0:
448,192,9618,1,0,0:0:0:0:
192,192,9845,1,0,0:0:0:0:
320,192,9845,1,0,0:0:0:0:
448,192,9959,1,0,0:0:0:0:
64,192,10072,1,0,0:0:0:0:
192,192,10072,1,0,0:0:0:0:
448,192,10186,1,0,0:0:0:0:
192,192,10300,1,0,0:0:0:0:
320,192,10413,1,0,0:0:0:0:
192,192,10527,1,0,0:0:0:0:
448,192,10527,1,0,0:0:0:0:
64,192,10754,1,0,0:0:0:0:
192,192,10754,1,0,0:0:0:0:
448,192,10754,1,0,0:0:0:0:
192,192,10981,1,0,0:0:0:0:
320,192,10981,1,0,0:0:0:0:
448,192,11209,1,0,0:0:0:0:
192,192,11209,128,0,12572:0:0:0:0:
448,192,11436,1,0,0:0:0:0:
64,192,11663,1,0,0:0:0:0:
320,192,11663,1,0,0:0:0:0:
320,192,11890,1,0,0:0:0:0:
448,192,12118,1,0,0:0:0:0:
320,192,12269,1,0,0:0:0:0:
448,192,12345,1,0,0:0:0:0:
64,192,12572,1,0,0:0:0:0:
320,192,12572,1,0,0:0:0:0:
192,192,13254,1,0,0:0:0:0:
192,192,13481,1,0,0:0:0:0:
320,192,13595,1,0,0:0:0:0:
192,192,13709,1,0,0:0:0:0:
64,192,13709,1,0,0:0:0:0:
320,192,13822,1,0,0:0:0:0:
448,192,13822,1,0,0:0:0:0:
448,192,14050,1,0,0:0:0:0:
192,192,14050,1,0,0:0:0:0:
448,192,14277,1,0,0:0:0:0:
64,192,14277,1,0,0:0:0:0:
448,192,14504,1,0,0:0:0:0:
192,192,14504,1,0,0:0:0:0:
64,192,14731,1,0,0:0:0:0:
320,192,14731,1,0,0:0:0:0:
192,192,14845,1,0,0:0:0:0:
448,192,14845,1,0,0:0:0:0:
192,192,15072,1,0,0:0:0:0:
448,192,15300,1,0,0:0:0:0:
64,192,15300,1,0,0:0:0:0:
320,192,15300,1,0,0:0:0:0:
448,192,15527,1,0,0:0:0:0:
192,192,15527,1,0,0:0:0:0:
64,192,15754,1,0,0:0:0:0:
320,192,15906,1,0,0:0:0:0:
192,192,15981,1,0,0:0:0:0:
448,192,15981,1,0,0:0:0:0:
320,192,16209,1,0,0:0:0:0:
64,192,16209,1,0,0:0:0:0:
448,192,16436,1,0,0:0:0:0:
192,192,16663,1,0,0:0:0:0:
64,192,16663,1,0,0:0:0:0:
320,192,16890,1,0,0:0:0:0:
192,192,17118,1,0,0:0:0:0:
448,192,17118,1,0,0:0:0:0:
64,192,17345,128,0,18254:0:0:0:0:
320,192,17345,1,0,0:0:0:0:
448,192,17572,1,0,0:0:0:0:
192,192,17724,1,0,0:0:0:0:
448,192,17800,1,0,0:0:0:0:
320,192,18027,1,0,0:0:0:0:
192,192,18027,1,0,0:0:0:0:
448,192,18254,1,0,0:0:0:0:
320,192,18368,1,0,0:0:0:0:
448,192,18481,1,0,0:0:0:0:
192,192,18481,1,0,0:0:0:0:
64,192,18709,1,0,0:0:0:0:
320,192,18936,1,0,0:0:0:0:
192,192,18936,1,0,0:0:0:0:
64,192,19163,1,0,0:0:0:0:
448,192,19163,1,0,0:0:0:0:
448,192,19390,1,0,0:0:0:0:
192,192,19390,1,0,0:0:0:0:
320,192,19542,1,0,0:0:0:0:
64,192,19618,1,0,0:0:0:0:
448,192,19618,1,0,0:0:0:0:
192,192,19845,1,0,0:0:0:0:
320,192,19845,1,0,0:0:0:0:
64,192,19845,1,0,0:0:0:0:
448,192,20072,128,0,22118:0:0:0:0:
64,192,20072,1,0,0:0:0:0:
320,192,20300,1,0,0:0:0:0:
64,192,20527,1,0,0:0:0:0:
192,192,20754,1,0,0:0:0:0:
320,192,20754,1,0,0:0:0:0:
64,192,20981,128,0,22118:0:0:0:0:
192,192,20981,1,0,0:0:0:0:
320,192,21209,1,0,0:0:0:0:
192,192,21360,1,0,0:0:0:0:
320,192,21436,1,0,0:0:0:0:
192,192,21663,1,0,0:0:0:0:
320,192,21890,1,0,0:0:0:0:
320,192,22118,1,0,0:0:0:0:
192,192,22118,1,0,0:0:0:0:
320,192,22345,1,0,0:0:0:0:
192,192,22572,1,0,0:0:0:0:
64,192,22572,1,0,0:0:0:0:
320,192,22800,1,0,0:0:0:0:
448,192,22800,1,0,0:0:0:0:
64,192,23027,1,0,0:0:0:0:
448,192,23027,1,0,0:0:0:0:
320,192,23178,1,0,0:0:0:0:
448,192,23254,1,0,0:0:0:0:
192,192,23254,1,0,0:0:0:0:
320,192,23481,1,0,0:0:0:0:
64,192,23481,1,0,0:0:0:0:
448,192,23709,128,0,24390:0:0:0:0:
192,192,23709,1,0,0:0:0:0:
64,192,23936,1,0,0:0:0:0:
320,192,24163,1,0,0:0:0:0:
320,192,24390,1,0,0:0:0:0:
64,192,24390,1,0,0:0:0:0:
192,192,24618,1,0,0:0:0:0:
320,192,24845,1,0,0:0:0:0:
448,192,24845,1,0,0:0:0:0:
192,192,24996,1,0,0:0:0:0:
64,192,25072,1,0,0:0:0:0:
320,192,25072,1,0,0:0:0:0:
448,192,25300,1,0,0:0:0:0:
192,192,25300,1,0,0:0:0:0:
64,192,25413,1,0,0:0:0:0:
320,192,25413,1,0,0:0:0:0:
192,192,25527,1,0,0:0:0:0:
320,192,25640,1,0,0:0:0:0:
64,192,25640,1,0,0:0:0:0:
448,192,25754,1,0,0:0:0:0:
64,192,25754,1,0,0:0:0:0:
448,192,25981,1,0,0:0:0:0:
320,192,26209,1,0,0:0:0:0:
192,192,26209,1,0,0:0:0:0:
64,192,26436,1,0,0:0:0:0:
448,192,26436,1,0,0:0:0:0:
320,192,26663,1,0,0:0:0:0:
192,192,26663,1,0,0:0:0:0:
448,192,26815,1,0,0:0:0:0:
192,192,26890,1,0,0:0:0:0:
64,192,26890,1,0,0:0:0:0:
448,192,27118,1,0,0:0:0:0:
320,192,27118,1,0,0:0:0:0:
192,192,27345,1,0,0:0:0:0:
320,192,27572,1,0,0:0:0:0:
192,192,27572,1,0,0:0:0:0:
448,192,27800,1,0,0:0:0:0:
320,192,27913,1,0,0:0:0:0:
192,192,27913,1,0,0:0:0:0:
192,192,28140,1,0,0:0:0:0:
320,192,28140,1,0,0:0:0:0:
64,192,28368,1,0,0:0:0:0:
448,192,28368,1,0,0:0:0:0:
64,192,28595,1,0,0:0:0:0:
448,192,28595,1,0,0:0:0:0:
192,192,28822,1,0,0:0:0:0:
320,192,28822,1,0,0:0:0:0:
64,192,28822,1,0,0:0:0:0:
64,192,28936,1,0,0:0:0:0:
448,192,28936,1,0,0:0:0:0:
192,192,29163,1,0,0:0:0:0:
320,192,29163,1,0,0:0:0:0:
64,192,29390,1,0,0:0:0:0:
320,192,29390,1,0,0:0:0:0:
448,192,29390,1,0,0:0:0:0:
192,192,29618,1,0,0:0:0:0:
320,192,29845,1,0,0:0:0:0:
64,192,29845,1,0,0:0:0:0:
192,192,29959,1,0,0:0:0:0:
448,192,30072,1,0,0:0:0:0:
320,192,30186,1,0,0:0:0:0:
192,192,30186,128,0,31209:0:0:0:0:
320,192,30413,1,0,0:0:0:0:
64,192,30527,1,0,0:0:0:0:
448,192,30640,1,0,0:0:0:0:
320,192,30754,1,0,0:0:0:0:
64,192,30754,1,0,0:0:0:0:
448,192,30981,1,0,0:0:0:0:
320,192,31095,1,0,0:0:0:0:
448,192,31209,128,0,31550:0:0:0:0:
64,192,31209,1,0,0:0:0:0:
320,192,31436,1,0,0:0:0:0:
192,192,31550,128,0,31890:0:0:0:0:
64,192,31550,1,0,0:0:0:0:
320,192,31663,1,0,0:0:0:0:
448,192,31663,1,0,0:0:0:0:
64,192,31777,1,0,0:0:0:0:
448,192,31890,1,0,0:0:0:0:
320,192,32004,1,0,0:0:0:0:
448,192,32118,128,0,32459:0:0:0:0:
192,192,32231,1,0,0:0:0:0:
64,192,32345,1,0,0:0:0:0:
320,192,32459,128,0,32800:0:0:0:0:
192,192,32459,1,0,0:0:0:0:
64,192,32572,1,0,0:0:0:0:
448,192,32572,1,0,0:0:0:0:
192,192,32800,1,0,0:0:0:0:
448,192,32800,1,0,0:0:0:0:
64,192,32913,1,0,0:0:0:0:
192,192,33027,1,0,0:0:0:0:
448,192,33027,1,0,0:0:0:0:
320,192,33254,1,0,0:0:0:0:
192,192,33481,1,0,0:0:0:0:
64,192,33481,1,0,0:0:0:0:
320,192,33595,1,0,0:0:0:0:
448,192,33709,1,0,0:0:0:0:
192,192,33822,1,0,0:0:0:0:
320,192,33936,1,0,0:0:0:0:
64,192,34050,1,0,0:0:0:0:
192,192,34163,1,0,0:0:0:0:
320,192,34277,1,0,0:0:0:0:
64,192,34390,1,0,0:0:0:0:
448,192,34390,1,0,0:0:0:0:
320,192,34618,128,0,35072:0:0:0:0:
192,192,34618,1,0,0:0:0:0:
448,192,34845,1,0,0:0:0:0:
192,192,35072,1,0,0:0:0:0:
448,192,35072,1,0,0:0:0:0:
64,192,35186,1,0,0:0:0:0:
192,192,35300,1,0,0:0:0:0:
448,192,35300,1,0,0:0:0:0:
320,192,35413,1,0,0:0:0:0:
192,192,35527,1,0,0:0:0:0:
64,192,35640,1,0,0:0:0:0:
448,192,35754,1,0,0:0:0:0:
64,192,35868,1,0,0:0:0:0:
192,192,35981,1,0,0:0:0:0:
64,192,36095,1,0,0:0:0:0:
320,192,36209,1,0,0:0:0:0:
448,192,36209,1,0,0:0:0:0:
192,192,36322,1,0,0:0:0:0:
64,192,36436,1,0,0:0:0:0:
320,192,36663,1,0,0:0:0:0:
192,192,36663,1,0,0:0:0:0:
448,192,36890,1,0,0:0:0:0:
64,192,36890,1,0,0:0:0:0:
320,192,37118,1,0,0:0:0:0:
192,192,37118,1,0,0:0:0:0:
448,192,37231,1,0,0:0:0:0:
192,192,37345,1,0,0:0:0:0:
64,192,37459,1,0,0:0:0:0:
320,192,37459,1,0,0:0:0:0:
64,192,37686,1,0,0:0:0:0:
192,192,37800,1,0,0:0:0:0:
320,192,37913,1,0,0:0:0:0:
192,192,38027,1,0,0:0:0:0:
448,192,38027,1,0,0:0:0:0:
320,192,38140,1,0,0:0:0:0:
64,192,38254,1,0,0:0:0:0:
320,192,38481,1,0,0:0:0:0:
192,192,38481,1,0,0:0:0:0:
448,192,38709,1,0,0:0:0:0:
64,192,38709,1,0,0:0:0:0:
192,192,38936,1,0,0:0:0:0:
320,192,38936,1,0,0:0:0:0:
448,192,39050,1,0,0:0:0:0:
320,192,39163,1,0,0:0:0:0:
192,192,39277,1,0,0:0:0:0:
64,192,39277,1,0,0:0:0:0:
192,192,39504,1,0,0:0:0:0:
320,192,39504,1,0,0:0:0:0:
448,192,39618,1,0,0:0:0:0:
64,192,39731,1,0,0:0:0:0:
320,192,39845,1,0,0:0:0:0:
192,192,39845,1,0,0:0:0:0:
64,192,39959,1,0,0:0:0:0:
448,192,40072,1,0,0:0:0:0:
192,192,40300,128,0,40527:0:0:0:0:
64,192,40300,1,0,0:0:0:0:
320,192,40527,1,0,0:0:0:0:
448,192,40640,1,0,0:0:0:0:
64,192,40754,1,0,0:0:0:0:
192,192,40754,1,0,0:0:0:0:
320,192,40868,1,0,0:0:0:0:
448,192,40868,1,0,0:0:0:0:
192,192,41095,1,0,0:0:0:0:
448,192,41095,1,0,0:0:0:0:
64,192,41209,1,0,0:0:0:0:
320,192,41322,1,0,0:0:0:0:
192,192,41436,1,0,0:0:0:0:
448,192,41550,1,0,0:0:0:0:
192,192,41663,1,0,0:0:0:0:
320,192,41663,1,0,0:0:0:0:
64,192,41777,1,0,0:0:0:0:
448,192,41777,1,0,0:0:0:0:
192,192,41890,1,0,0:0:0:0:
64,192,42004,1,0,0:0:0:0:
320,192,42118,1,0,0:0:0:0:
192,192,42118,1,0,0:0:0:0:
448,192,42231,1,0,0:0:0:0:
192,192,42345,1,0,0:0:0:0:
64,192,42345,1,0,0:0:0:0:
320,192,42459,1,0,0:0:0:0:
64,192,42572,1,0,0:0:0:0:
448,192,42572,1,0,0:0:0:0:
192,192,42686,1,0,0:0:0:0:
320,192,42686,1,0,0:0:0:0:
64,192,42800,1,0,0:0:0:0:
320,192,42913,1,0,0:0:0:0:
448,192,42913,1,0,0:0:0:0:
192,192,43027,1,0,0:0:0:0:
448,192,43140,1,0,0:0:0:0:
64,192,43140,1,0,0:0:0:0:
320,192,43254,1,0,0:0:0:0:
192,192,43368,128,0,43595:0:0:0:0:
64,192,43368,1,0,0:0:0:0:
448,192,43481,1,0,0:0:0:0:
320,192,43481,1,0,0:0:0:0:
64,192,43595,1,0,0:0:0:0:
448,192,43595,1,0,0:0:0:0:
64,192,43936,128,0,44163:0:0:0:0:
448,192,43936,1,0,0:0:0:0:
320,192,44163,1,0,0:0:0:0:
192,192,44277,1,0,0:0:0:0:
448,192,44390,1,0,0:0:0:0:
64,192,44390,1,0,0:0:0:0:
320,192,44504,1,0,0:0:0:0:
192,192,44504,1,0,0:0:0:0:
448,192,44731,128,0,44959:0:0:0:0:
192,192,44731,1,0,0:0:0:0:
320,192,44959,1,0,0:0:0:0:
192,192,45072,1,0,0:0:0:0:
320,192,45300,1,0,0:0:0:0:
448,192,45300,1,0,0:0:0:0:
64,192,45300,1,0,0:0:0:0:
192,192,45413,1,0,0:0:0:0:
64,192,45527,1,0,0:0:0:0:
448,192,45754,1,0,0:0:0:0:
192,192,45754,1,0,0:0:0:0:
320,192,45868,1,0,0:0:0:0:
192,192,45981,1,0,0:0:0:0:
448,192,45981,1,0,0:0:0:0:
64,192,46095,128,0,46322:0:0:0:0:
320,192,46209,1,0,0:0:0:0:
448,192,46209,1,0,0:0:0:0:
192,192,46322,1,0,0:0:0:0:
320,192,46322,1,0,0:0:0:0:
192,192,46550,1,0,0:0:0:0:
320,192,46550,1,0,0:0:0:0:
448,192,46777,128,0,47118:0:0:0:0:
192,192,46777,1,0,0:0:0:0:
192,192,46890,1,0,0:0:0:0:
320,192,47118,1,0,0:0:0:0:
64,192,47118,1,0,0:0:0:0:
192,192,47118,1,0,0:0:0:0:
192,192,47231,1,0,0:0:0:0:
64,192,47345,1,0,0:0:0:0:
192,192,47572,128,0,47800:0:0:0:0:
448,192,47572,1,0,0:0:0:0:
448,192,47800,1,0,0:0:0:0:
320,192,47913,1,0,0:0:0:0:
64,192,48027,1,0,0:0:0:0:
448,192,48027,1,0,0:0:0:0:
192,192,48140,1,0,0:0:0:0:
320,192,48140,1,0,0:0:0:0:
64,192,48368,128,0,48709:0:0:0:0:
448,192,48368,1,0,0:0:0:0:
320,192,48709,1,0,0:0:0:0:
192,192,48709,1,0,0:0:0:0:
448,192,48936,1,0,0:0:0:0:
320,192,48936,1,0,0:0:0:0:
192,192,48936,1,0,0:0:0:0:
64,192,49050,1,0,0:0:0:0:
192,192,49163,1,0,0:0:0:0:
320,192,49390,1,0,0:0:0:0:
448,192,49390,1,0,0:0:0:0:
64,192,49504,1,0,0:0:0:0:
192,192,49618,1,0,0:0:0:0:
320,192,49731,1,0,0:0:0:0:
64,192,49845,1,0,0:0:0:0:
448,192,49845,1,0,0:0:0:0:
320,192,49959,1,0,0:0:0:0:
192,192,49959,1,0,0:0:0:0:
64,192,50186,128,0,50527:0:0:0:0:
448,192,50186,1,0,0:0:0:0:
320,192,50413,1,0,0:0:0:0:
192,192,50527,1,0,0:0:0:0:
320,192,50640,1,0,0:0:0:0:
448,192,50754,1,0,0:0:0:0:
192,192,50754,1,0,0:0:0:0:
320,192,50868,1,0,0:0:0:0:
64,192,50868,1,0,0:0:0:0:
192,192,50981,1,0,0:0:0:0:
64,192,51095,1,0,0:0:0:0:
320,192,51209,1,0,0:0:0:0:
448,192,51209,1,0,0:0:0:0:
192,192,51322,1,0,0:0:0:0:
64,192,51436,1,0,0:0:0:0:
192,192,51663,1,0,0:0:0:0:
448,192,51663,1,0,0:0:0:0:
64,192,51777,1,0,0:0:0:0:
320,192,51890,1,0,0:0:0:0:
64,192,52004,1,0,0:0:0:0:
192,192,52004,1,0,0:0:0:0:
448,192,52231,1,0,0:0:0:0:
320,192,52345,1,0,0:0:0:0:
192,192,52459,1,0,0:0:0:0:
64,192,52572,1,0,0:0:0:0:
320,192,52572,1,0,0:0:0:0:
448,192,52686,1,0,0:0:0:0:
192,192,52686,1,0,0:0:0:0:
320,192,52800,1,0,0:0:0:0:
64,192,52913,1,0,0:0:0:0:
448,192,53027,1,0,0:0:0:0:
192,192,53027,1,0,0:0:0:0:
320,192,53140,1,0,0:0:0:0:
192,192,53254,1,0,0:0:0:0:
448,192,53254,1,0,0:0:0:0:
64,192,53368,1,0,0:0:0:0:
192,192,53481,1,0,0:0:0:0:
448,192,53481,1,0,0:0:0:0:
320,192,53595,1,0,0:0:0:0:
64,192,53595,1,0,0:0:0:0:
192,192,53709,1,0,0:0:0:0:
64,192,53822,1,0,0:0:0:0:
320,192,53822,1,0,0:0:0:0:
448,192,53936,1,0,0:0:0:0:
320,192,54050,1,0,0:0:0:0:
64,192,54050,1,0,0:0:0:0:
192,192,54163,1,0,0:0:0:0:
448,192,54163,1,0,0:0:0:0:
64,192,54277,1,0,0:0:0:0:
320,192,54390,1,0,0:0:0:0:
448,192,54390,1,0,0:0:0:0:
192,192,54504,128,0,54731:0:0:0:0:
64,192,54504,1,0,0:0:0:0:
320,192,54731,1,0,0:0:0:0:
448,192,54845,1,0,0:0:0:0:
64,192,55072,1,0,0:0:0:0:
192,192,55072,1,0,0:0:0:0:
320,192,55300,1,0,0:0:0:0:
448,192,55300,1,0,0:0:0:0:
192,192,55413,1,0,0:0:0:0:
64,192,55413,1,0,0:0:0:0:
448,192,55640,1,0,0:0:0:0:
320,192,55640,1,0,0:0:0:0:
320,192,55868,1,0,0:0:0:0:
192,192,55981,1,0,0:0:0:0:
448,192,55981,1,0,0:0:0:0:
64,192,56095,1,0,0:0:0:0:
320,192,56209,1,0,0:0:0:0:
192,192,56322,128,0,56550:0:0:0:0:
448,192,56322,1,0,0:0:0:0:
320,192,56550,1,0,0:0:0:0:
64,192,56663,1,0,0:0:0:0:
448,192,56890,1,0,0:0:0:0:
192,192,56890,1,0,0:0:0:0:
320,192,57118,1,0,0:0:0:0:
64,192,57118,1,0,0:0:0:0:
448,192,57231,1,0,0:0:0:0:
192,192,57345,1,0,0:0:0:0:
320,192,57459,1,0,0:0:0:0:
64,192,57572,1,0,0:0:0:0:
192,192,57686,1,0,0:0:0:0:
320,192,57800,1,0,0:0:0:0:
448,192,57913,1,0,0:0:0:0:
64,192,58027,128,0,58481:0:0:0:0:
320,192,58027,1,0,0:0:0:0:
192,192,58027,1,0,0:0:0:0:
448,192,58140,1,0,0:0:0:0:
192,192,58254,1,0,0:0:0:0:
320,192,58368,1,0,0:0:0:0:
448,192,58481,128,0,58709:0:0:0:0:
192,192,58481,1,0,0:0:0:0:
320,192,58709,1,0,0:0:0:0:
320,192,58936,1,0,0:0:0:0:
192,192,58936,1,0,0:0:0:0:
448,192,59050,1,0,0:0:0:0:
320,192,59277,1,0,0:0:0:0:
64,192,59277,1,0,0:0:0:0:
192,192,59504,1,0,0:0:0:0:
64,192,59618,1,0,0:0:0:0:
320,192,59731,1,0,0:0:0:0:
448,192,59845,1,0,0:0:0:0:
192,192,59845,1,0,0:0:0:0:
320,192,59959,1,0,0:0:0:0:
64,192,59959,1,0,0:0:0:0:
192,192,60072,1,0,0:0:0:0:
320,192,60300,1,0,0:0:0:0:
64,192,60300,128,0,60527:0:0:0:0:
192,192,60527,1,0,0:0:0:0:
64,192,60754,1,0,0:0:0:0:
448,192,60754,1,0,0:0:0:0:
192,192,60868,1,0,0:0:0:0:
448,192,61095,1,0,0:0:0:0:
64,192,61095,1,0,0:0:0:0:
320,192,61322,1,0,0:0:0:0:
192,192,61322,1,0,0:0:0:0:
448,192,61436,1,0,0:0:0:0:
192,192,61550,1,0,0:0:0:0:
320,192,61663,1,0,0:0:0:0:
448,192,61663,1,0,0:0:0:0:
64,192,61777,1,0,0:0:0:0:
320,192,61890,1,0,0:0:0:0:
192,192,62118,1,0,0:0:0:0:
448,192,62118,128,0,62345:0:0:0:0:
320,192,62345,1,0,0:0:0:0:
192,192,62572,1,0,0:0:0:0:
64,192,62572,1,0,0:0:0:0:
448,192,62686,1,0,0:0:0:0:
320,192,62686,1,0,0:0:0:0:
192,192,62800,1,0,0:0:0:0:
64,192,62913,1,0,0:0:0:0:
320,192,62913,1,0,0:0:0:0:
320,192,63140,1,0,0:0:0:0:
192,192,63254,1,0,0:0:0:0:
448,192,63254,1,0,0:0:0:0:
64,192,63481,1,0,0:0:0:0:
192,192,63481,1,0,0:0:0:0:
320,192,63709,1,0,0:0:0:0:
192,192,63936,1,0,0:0:0:0:
64,192,63936,128,0,64163:0:0:0:0:
320,192,64277,1,0,0:0:0:0:
448,192,64390,1,0,0:0:0:0:
64,192,64390,1,0,0:0:0:0:
192,192,64504,1,0,0:0:0:0:
64,192,64731,1,0,0:0:0:0:
448,192,64731,1,0,0:0:0:0:
192,192,64845,1,0,0:0:0:0:
320,192,64959,1,0,0:0:0:0:
448,192,64959,1,0,0:0:0:0:
64,192,65072,1,0,0:0:0:0:
192,192,65072,1,0,0:0:0:0:
320,192,65186,1,0,0:0:0:0:
448,192,65186,1,0,0:0:0:0:
192,192,65300,1,0,0:0:0:0:
64,192,65300,1,0,0:0:0:0:
448,192,65413,1,0,0:0:0:0:
192,192,65640,1,0,0:0:0:0:
320,192,65754,1,0,0:0:0:0:
448,192,65754,128,0,65981:0:0:0:0:
192,192,65981,1,0,0:0:0:0:
64,192,66095,1,0,0:0:0:0:
192,192,66152,1,0,0:0:0:0:
320,192,66209,1,0,0:0:0:0:
448,192,66209,1,0,0:0:0:0:
192,192,66322,1,0,0:0:0:0:
448,192,66436,1,0,0:0:0:0:
64,192,66550,1,0,0:0:0:0:
320,192,66663,1,0,0:0:0:0:
448,192,66890,1,0,0:0:0:0:
64,192,66890,1,0,0:0:0:0:
192,192,67004,1,0,0:0:0:0:
320,192,67118,1,0,0:0:0:0:
448,192,67118,1,0,0:0:0:0:
64,192,67231,1,0,0:0:0:0:
448,192,67459,1,0,0:0:0:0:
320,192,67572,1,0,0:0:0:0:
64,192,67572,128,0,67800:0:0:0:0:
192,192,67686,1,0,0:0:0:0:
448,192,67913,1,0,0:0:0:0:
192,192,68027,1,0,0:0:0:0:
64,192,68027,1,0,0:0:0:0:
320,192,68140,1,0,0:0:0:0:
448,192,68140,1,0,0:0:0:0:
192,192,68254,1,0,0:0:0:0:
448,192,68368,1,0,0:0:0:0:
64,192,68481,1,0,0:0:0:0:
320,192,68595,1,0,0:0:0:0:
192,192,68709,1,0,0:0:0:0:
448,192,68709,1,0,0:0:0:0:
320,192,68936,1,0,0:0:0:0:
192,192,68936,1,0,0:0:0:0:
64,192,69163,1,0,0:0:0:0:
192,192,69277,1,0,0:0:0:0:
64,192,69390,1,0,0:0:0:0:
448,192,69390,128,0,69618:0:0:0:0:
320,192,69504,1,0,0:0:0:0:
64,192,69731,1,0,0:0:0:0:
320,192,69845,1,0,0:0:0:0:
192,192,69845,1,0,0:0:0:0:
448,192,69959,1,0,0:0:0:0:
64,192,69959,1,0,0:0:0:0:
320,192,70072,1,0,0:0:0:0:
192,192,70186,1,0,0:0:0:0:
448,192,70186,1,0,0:0:0:0:
448,192,70413,1,0,0:0:0:0:
192,192,70527,1,0,0:0:0:0:
64,192,70527,1,0,0:0:0:0:
320,192,70754,1,0,0:0:0:0:
448,192,70754,1,0,0:0:0:0:
64,192,70868,1,0,0:0:0:0:
192,192,70981,1,0,0:0:0:0:
320,192,71209,1,0,0:0:0:0:
64,192,71209,128,0,71436:0:0:0:0:
192,192,71322,1,0,0:0:0:0:
320,192,71550,1,0,0:0:0:0:
64,192,71578,1,0,0:0:0:0:
192,192,71663,1,0,0:0:0:0:
448,192,71663,1,0,0:0:0:0:
64,192,71777,1,0,0:0:0:0:
320,192,71777,1,0,0:0:0:0:
192,192,71890,1,0,0:0:0:0:
448,192,71890,1,0,0:0:0:0:
320,192,71919,1,0,0:0:0:0:
64,192,72004,1,0,0:0:0:0:
448,192,72118,1,0,0:0:0:0:
192,192,72231,1,0,0:0:0:0:
320,192,72345,1,0,0:0:0:0:
448,192,72345,1,0,0:0:0:0:
64,192,72459,1,0,0:0:0:0:
192,192,72459,1,0,0:0:0:0:
320,192,72572,1,0,0:0:0:0:
448,192,72572,1,0,0:0:0:0:
64,192,72686,1,0,0:0:0:0:
192,192,72913,1,0,0:0:0:0:
448,192,73027,1,0,0:0:0:0:
320,192,73027,1,0,0:0:0:0:
64,192,73055,1,0,0:0:0:0:
192,192,73254,1,0,0:0:0:0:
320,192,73368,1,0,0:0:0:0:
192,192,73396,1,0,0:0:0:0:
448,192,73481,1,0,0:0:0:0:
64,192,73481,1,0,0:0:0:0:
192,192,73595,1,0,0:0:0:0:
448,192,73822,1,0,0:0:0:0:
64,192,73822,1,0,0:0:0:0:
320,192,73936,1,0,0:0:0:0:
64,192,74163,1,0,0:0:0:0:
192,192,74163,1,0,0:0:0:0:
320,192,74390,1,0,0:0:0:0:
448,192,74390,1,0,0:0:0:0:
64,192,74419,1,0,0:0:0:0:
192,192,74476,1,0,0:0:0:0:
320,192,74504,1,0,0:0:0:0:
320,192,74731,1,0,0:0:0:0:
64,192,74845,1,0,0:0:0:0:
448,192,74845,1,0,0:0:0:0:
192,192,75072,1,0,0:0:0:0:
448,192,75101,1,0,0:0:0:0:
64,192,75300,1,0,0:0:0:0:
320,192,75300,1,0,0:0:0:0:
448,192,75413,1,0,0:0:0:0:
320,192,75527,1,0,0:0:0:0:
192,192,75640,1,0,0:0:0:0:
320,192,75868,1,0,0:0:0:0:
448,192,75868,1,0,0:0:0:0:
192,192,75981,1,0,0:0:0:0:
64,192,76095,1,0,0:0:0:0:
448,192,76209,1,0,0:0:0:0:
192,192,76209,1,0,0:0:0:0:
320,192,76322,1,0,0:0:0:0:
64,192,76436,1,0,0:0:0:0:
320,192,76550,1,0,0:0:0:0:
192,192,76663,1,0,0:0:0:0:
448,192,76663,1,0,0:0:0:0:
64,192,76777,1,0,0:0:0:0:
320,192,76890,1,0,0:0:0:0:
64,192,77004,1,0,0:0:0:0:
192,192,77118,1,0,0:0:0:0:
448,192,77118,1,0,0:0:0:0:
320,192,77231,1,0,0:0:0:0:
64,192,77345,1,0,0:0:0:0:
448,192,77459,1,0,0:0:0:0:
192,192,77459,1,0,0:0:0:0:
64,192,77686,1,0,0:0:0:0:
448,192,77800,1,0,0:0:0:0:
320,192,77913,1,0,0:0:0:0:
64,192,78027,1,0,0:0:0:0:
448,192,78027,1,0,0:0:0:0:
192,192,78140,1,0,0:0:0:0:
448,192,78368,1,0,0:0:0:0:
64,192,78481,1,0,0:0:0:0:
192,192,78595,1,0,0:0:0:0:
320,192,78709,1,0,0:0:0:0:
64,192,78936,1,0,0:0:0:0:
448,192,78936,1,0,0:0:0:0:
192,192,79012,1,0,0:0:0:0:
320,192,79087,1,0,0:0:0:0:
192,192,79163,1,0,0:0:0:0:
448,192,79277,1,0,0:0:0:0:
64,192,79390,1,0,0:0:0:0:
192,192,79466,1,0,0:0:0:0:
448,192,79504,1,0,0:0:0:0:
320,192,79542,1,0,0:0:0:0:
192,192,79618,1,0,0:0:0:0:
320,192,79693,1,0,0:0:0:0:
64,192,79731,1,0,0:0:0:0:
448,192,79769,1,0,0:0:0:0:
64,192,79845,1,0,0:0:0:0:
320,192,79845,1,0,0:0:0:0:
192,192,79959,1,0,0:0:0:0:
320,192,80072,1,0,0:0:0:0:
448,192,80148,1,0,0:0:0:0:
320,192,80262,1,0,0:0:0:0:
64,192,80300,1,0,0:0:0:0:
448,192,80337,1,0,0:0:0:0:
320,192,80413,1,0,0:0:0:0:
448,192,80489,1,0,0:0:0:0:
320,192,80565,1,0,0:0:0:0:
448,192,80640,1,0,0:0:0:0:
320,192,80716,1,0,0:0:0:0:
64,192,80754,1,0,0:0:0:0:
192,192,80754,1,0,0:0:0:0:
448,192,80792,1,0,0:0:0:0:
192,192,80868,1,0,0:0:0:0:
448,192,80943,1,0,0:0:0:0:
64,192,80981,1,0,0:0:0:0:
192,192,81019,1,0,0:0:0:0:
64,192,81095,1,0,0:0:0:0:
448,192,81095,1,0,0:0:0:0:
192,192,81171,1,0,0:0:0:0:
320,192,81246,1,0,0:0:0:0:
192,192,81294,1,0,0:0:0:0:
320,192,81351,1,0,0:0:0:0:
448,192,81407,1,0,0:0:0:0:
64,192,81436,1,0,0:0:0:0:
320,192,81493,1,0,0:0:0:0:
192,192,81550,1,0,0:0:0:0:
320,192,81606,1,0,0:0:0:0:
64,192,81663,1,0,0:0:0:0:
192,192,81663,1,0,0:0:0:0:
448,192,81663,1,0,0:0:0:0:
320,192,81720,1,0,0:0:0:0:
192,192,81777,1,0,0:0:0:0:
320,192,81834,1,0,0:0:0:0:
448,192,81890,1,0,0:0:0:0:
64,192,82118,1,0,0:0:0:0:
192,192,82231,1,0,0:0:0:0:
448,192,82345,1,0,0:0:0:0:
320,192,82459,1,0,0:0:0:0:
64,192,82572,1,0,0:0:0:0:
192,192,82572,1,0,0:0:0:0:
320,192,82686,1,0,0:0:0:0:
448,192,82800,1,0,0:0:0:0:
192,192,82800,1,0,0:0:0:0:
320,192,82913,1,0,0:0:0:0:
64,192,82913,1,0,0:0:0:0:
192,192,83140,1,0,0:0:0:0:
448,192,83140,1,0,0:0:0:0:
320,192,83254,1,0,0:0:0:0:
64,192,83368,1,0,0:0:0:0:
192,192,83481,1,0,0:0:0:0:
448,192,83595,1,0,0:0:0:0:
320,192,83709,1,0,0:0:0:0:
192,192,83822,1,0,0:0:0:0:
448,192,83936,1,0,0:0:0:0:
320,192,83936,1,0,0:0:0:0:
64,192,84050,1,0,0:0:0:0:
320,192,84163,1,0,0:0:0:0:
192,192,84220,1,0,0:0:0:0:
64,192,84277,1,0,0:0:0:0:
448,192,84390,1,0,0:0:0:0:
192,192,84390,1,0,0:0:0:0:
320,192,84504,1,0,0:0:0:0:
64,192,84618,1,0,0:0:0:0:
448,192,84618,1,0,0:0:0:0:
192,192,84731,1,0,0:0:0:0:
320,192,84731,1,0,0:0:0:0:
64,192,84845,1,0,0:0:0:0:
320,192,84959,1,0,0:0:0:0:
192,192,85072,1,0,0:0:0:0:
448,192,85072,1,0,0:0:0:0:
64,192,85186,1,0,0:0:0:0:
192,192,85243,1,0,0:0:0:0:
320,192,85300,1,0,0:0:0:0:
448,192,85300,1,0,0:0:0:0:
64,192,85413,1,0,0:0:0:0:
320,192,85527,1,0,0:0:0:0:
192,192,85640,1,0,0:0:0:0:
64,192,85754,1,0,0:0:0:0:
448,192,85868,1,0,0:0:0:0:
320,192,85981,1,0,0:0:0:0:
64,192,86133,1,0,0:0:0:0:
448,192,86209,1,0,0:0:0:0:
192,192,86209,1,0,0:0:0:0:
320,192,86284,1,0,0:0:0:0:
192,192,86379,1,0,0:0:0:0:
448,192,86436,1,0,0:0:0:0:
64,192,86512,1,0,0:0:0:0:
320,192,86550,1,0,0:0:0:0:
64,192,86663,1,0,0:0:0:0:
320,192,86720,1,0,0:0:0:0:
192,192,86777,1,0,0:0:0:0:
64,192,86890,1,0,0:0:0:0:
320,192,86947,1,0,0:0:0:0:
192,192,87004,1,0,0:0:0:0:
448,192,87061,1,0,0:0:0:0:
64,192,87118,1,0,0:0:0:0:
192,192,87118,1,0,0:0:0:0:
320,192,87175,1,0,0:0:0:0:
448,192,87231,1,0,0:0:0:0:
320,192,87288,1,0,0:0:0:0:
192,192,87345,1,0,0:0:0:0:
64,192,87402,1,0,0:0:0:0:
192,192,87459,1,0,0:0:0:0:
320,192,87515,1,0,0:0:0:0:
64,192,87800,1,0,0:0:0:0:
320,192,87800,1,0,0:0:0:0:
64,192,88027,1,0,0:0:0:0:
448,192,88027,1,0,0:0:0:0:
192,192,88254,1,0,0:0:0:0:
448,192,88254,1,0,0:0:0:0:
320,192,88481,1,0,0:0:0:0:
192,192,88481,1,0,0:0:0:0:
64,192,88595,1,0,0:0:0:0:
320,192,88709,1,0,0:0:0:0:
448,192,88709,1,0,0:0:0:0:
192,192,88822,1,0,0:0:0:0:
320,192,88936,1,0,0:0:0:0:
64,192,88936,1,0,0:0:0:0:
