osu file format v14

[General]
AudioFilename: audio.mp3
AudioLeadIn: 0
PreviewTime: 47228
Countdown: 0
SampleSet: Normal
StackLeniency: 0.7
Mode: 3
LetterboxInBreaks: 0
SpecialStyle: 0
WidescreenStoryboard: 1

[Editor]
DistanceSpacing: 0.8
BeatDivisor: 6
GridSize: 4
TimelineZoom: 3.099998

[Metadata]
Title:.*302? ionwan2go*.
TitleUnicode:。✰302?ionwan2go✰。
Artist:xofilo
ArtistUnicode:xofilo
Creator:AchsanLovers
Version:.*2.71? HD*.
Source:ラブひなアドバンス 祝福の鐘はなるかな
Tags:i dont don't wanna want to go YABUJIN cover love hina advance Shukufuku no Kane wa Naru kana Serenade Of Red Moon Of Adulthood kaolla su red moon theme trance english electronic hexd euro-trance DPRK JAMZ 2018-2020 Sherly hyperpop digicore glitchpop andreychomik
BeatmapID:4193361
BeatmapSetID:1971447

[Difficulty]
HPDrainRate:7
CircleSize:4
OverallDifficulty:7
ApproachRate:5
SliderMultiplier:1.4
SliderTickRate:1

[Events]
//Background and Video events
0,0,"desktop-wallpaper-motoko-aoyama-from-love-hina.jpg",0,0
//Break Periods
//Storyboard Layer 0 (Background)
//Storyboard Layer 1 (Fail)
//Storyboard Layer 2 (Pass)
//Storyboard Layer 3 (Foreground)
//Storyboard Layer 4 (Overlay)
//Storyboard Sound Samples

[TimingPoints]
23623,369.685767097967,4,1,1,30,1,0
70942,-100,4,1,1,30,0,1
94602,-100,4,1,1,30,0,0

[HitObjects]
64,192,23623,5,0,0:0:0:50:kick.wav
320,192,23623,1,0,0:0:0:50:simbal 8-bit.wav
448,192,23623,1,0,0:0:0:0:
320,192,23807,1,0,0:0:0:0:
64,192,23992,1,0,0:0:0:50:kick.wav
192,192,24177,1,0,0:0:0:0:
448,192,24362,1,0,0:0:0:50:kick.wav
448,192,24547,1,0,0:0:0:0:
64,192,24732,1,0,0:0:0:50:kick.wav
64,192,25101,1,0,0:0:0:50:kick.wav
192,192,25286,1,0,0:0:0:0:
448,192,25471,1,0,0:0:0:50:kick.wav
448,192,25656,1,0,0:0:0:0:
64,192,25841,1,0,0:0:0:50:kick.wav
64,192,26210,1,0,0:0:0:50:kick.wav
192,192,26580,1,0,0:0:0:50:kick.wav
192,192,26765,1,0,0:0:0:0:
448,192,26950,1,0,0:0:0:50:kick.wav
320,192,27135,1,0,0:0:0:0:
64,192,27319,1,0,0:0:0:50:kick.wav
320,192,27689,1,0,0:0:0:50:kick.wav
192,192,27874,1,0,0:0:0:0:
448,192,28059,1,0,0:0:0:50:kick.wav
448,192,28244,1,0,0:0:0:0:
64,192,28428,1,0,0:0:0:50:kick.wav
192,192,28613,1,0,0:0:0:0:
448,192,28798,1,0,0:0:0:50:kick.wav
448,192,29168,1,0,0:0:0:50:kick.wav
64,192,29537,1,0,0:0:0:50:kick.wav
64,192,29722,1,0,0:0:0:0:
320,192,29907,1,0,0:0:0:50:kick.wav
448,192,30092,1,0,0:0:0:0:
64,192,30277,1,0,0:0:0:50:kick.wav
192,192,30647,1,0,0:0:0:50:kick.wav
192,192,30831,1,0,0:0:0:0:
448,192,31016,1,0,0:0:0:50:kick.wav
320,192,31201,1,0,0:0:0:0:
192,192,31386,1,0,0:0:0:50:kick.wav
448,192,31571,1,0,0:0:0:0:
64,192,31756,1,0,0:0:0:50:kick.wav
64,192,32125,1,0,0:0:0:50:kick.wav
448,192,32495,1,0,0:0:0:50:kick.wav
448,192,32865,1,0,0:0:0:50:kick.wav
320,192,33049,1,0,0:0:0:0:
64,192,33234,1,0,0:0:0:50:kick.wav
64,192,33604,1,0,0:0:0:50:kick.wav
192,192,33789,1,0,0:0:0:0:
320,192,33974,1,0,0:0:0:50:kick.wav
320,192,34159,1,0,0:0:0:0:
64,192,34343,1,0,0:0:0:50:kick.wav
192,192,34528,1,0,0:0:0:0:
320,192,34713,1,0,0:0:0:50:kick.wav
320,192,35083,1,0,0:0:0:50:kick.wav
448,192,35452,1,0,0:0:0:50:kick.wav
448,192,35637,1,0,0:0:0:0:
64,192,35822,1,0,0:0:0:50:kick.wav
192,192,36007,1,0,0:0:0:0:
448,192,36192,1,0,0:0:0:50:kick.wav
448,192,36377,1,0,0:0:0:0:
64,192,36562,1,0,0:0:0:50:kick.wav
64,192,36931,1,0,0:0:0:50:kick.wav
192,192,37116,1,0,0:0:0:0:
448,192,37301,1,0,0:0:0:50:kick.wav
448,192,37486,1,0,0:0:0:0:
64,192,37671,1,0,0:0:0:50:kick.wav
192,192,37763,1,0,0:0:0:0:
320,192,37855,1,0,0:0:0:0:
448,192,38040,1,0,0:0:0:50:kick.wav
320,192,38133,1,0,0:0:0:0:
192,192,38225,1,0,0:0:0:0:
64,192,38410,1,0,0:0:0:50:kick.wav
320,192,38502,1,0,0:0:0:0:
192,192,38595,1,0,0:0:0:0:
448,192,38780,1,0,0:0:0:50:kick.wav
192,192,38872,1,0,0:0:0:0:
320,192,38964,1,0,0:0:0:0:
64,192,39149,1,0,0:0:0:50:kick.wav
320,192,39242,1,0,0:0:0:0:
192,192,39334,1,0,0:0:0:0:
448,192,39519,1,0,0:0:0:50:kick.wav
192,192,39611,1,0,0:0:0:0:
320,192,39704,1,0,0:0:0:0:
64,192,39889,1,0,0:0:0:50:kick.wav
448,192,39981,1,0,0:0:0:0:
64,192,40074,1,0,0:0:0:0:
320,192,40258,1,0,0:0:0:50:kick.wav
192,192,40351,1,0,0:0:0:0:
320,192,40443,1,0,0:0:0:0:
64,192,40628,1,0,0:0:0:50:kick.wav
448,192,40720,1,0,0:0:0:0:
64,192,40813,1,0,0:0:0:0:
320,192,40998,1,0,0:0:0:50:kick.wav
192,192,41090,1,0,0:0:0:0:
320,192,41183,1,0,0:0:0:0:
448,192,41367,1,0,0:0:0:50:kick.wav
320,192,41460,1,0,0:0:0:0:
192,192,41552,1,0,0:0:0:0:
64,192,41737,1,0,0:0:0:50:kick.wav
192,192,41830,1,0,0:0:0:0:
320,192,41922,1,0,0:0:0:0:
448,192,42107,1,0,0:0:0:50:kick.wav
320,192,42199,1,0,0:0:0:0:
192,192,42292,1,0,0:0:0:0:
64,192,42476,1,0,0:0:0:50:kick.wav
192,192,42569,1,0,0:0:0:0:
320,192,42661,1,0,0:0:0:0:
64,192,42846,1,0,0:0:0:50:kick.wav
320,192,42939,1,0,0:0:0:0:
64,192,43031,1,0,0:0:0:0:
448,192,43216,1,0,0:0:0:50:kick.wav
192,192,43308,1,0,0:0:0:0:
448,192,43401,1,0,0:0:0:0:
64,192,43586,1,0,0:0:0:50:kick.wav
320,192,43678,1,0,0:0:0:0:
64,192,43770,1,0,0:0:0:0:
448,192,43955,1,0,0:0:0:50:kick.wav
192,192,44048,1,0,0:0:0:0:
448,192,44140,1,0,0:0:0:0:
64,192,44325,1,0,0:0:0:50:kick.wav
192,192,44417,1,0,0:0:0:0:
320,192,44510,1,0,0:0:0:0:
64,192,44695,1,0,0:0:0:50:kick.wav
320,192,44787,1,0,0:0:0:0:
192,192,44879,1,0,0:0:0:0:
448,192,45064,1,0,0:0:0:50:kick.wav
192,192,45157,1,0,0:0:0:0:
320,192,45249,1,0,0:0:0:0:
448,192,45434,1,0,0:0:0:50:kick.wav
320,192,45526,1,0,0:0:0:0:
192,192,45619,1,0,0:0:0:0:
448,192,45804,1,0,0:0:0:50:kick.wav
192,192,45896,1,0,0:0:0:0:
64,192,45988,1,0,0:0:0:0:
320,192,46173,1,0,0:0:0:50:kick.wav
192,192,46266,1,0,0:0:0:0:
448,192,46358,1,0,0:0:0:0:
64,192,46543,1,0,0:0:0:50:kick.wav
320,192,46635,1,0,0:0:0:0:
448,192,46728,1,0,0:0:0:0:
192,192,46913,1,0,0:0:0:50:kick.wav
320,192,47005,1,0,0:0:0:0:
64,192,47098,1,0,0:0:0:0:
192,192,47282,1,0,0:0:0:50:kick.wav
320,192,47282,1,0,0:0:0:50:simbal 8-bit.wav
448,192,47282,1,0,0:0:0:0:
448,192,47467,1,0,0:0:0:0:
64,192,47652,1,0,0:0:0:40:tepuk.wav
320,192,47652,1,0,0:0:0:0:
192,192,47837,1,0,0:0:0:0:
64,192,48022,1,0,0:0:0:50:kick.wav
448,192,48022,1,0,0:0:0:0:
320,192,48207,1,0,0:0:0:0:
64,192,48391,1,0,0:0:0:40:tepuk.wav
192,192,48391,1,0,0:0:0:0:
320,192,48576,1,0,0:0:0:0:
192,192,48761,1,0,0:0:0:50:kick.wav
448,192,48761,1,0,0:0:0:0:
64,192,48946,1,0,0:0:0:0:
320,192,49131,1,0,0:0:0:40:tepuk.wav
448,192,49131,1,0,0:0:0:0:
192,192,49316,1,0,0:0:0:0:
64,192,49501,1,0,0:0:0:50:kick.wav
448,192,49501,1,0,0:0:0:0:
320,192,49685,1,0,0:0:0:0:
64,192,49870,1,0,0:0:0:40:tepuk.wav
192,192,49870,1,0,0:0:0:0:
320,192,50055,1,0,0:0:0:0:
192,192,50240,1,0,0:0:0:50:kick.wav
448,192,50240,1,0,0:0:0:0:
64,192,50425,1,0,0:0:0:0:
192,192,50610,1,0,0:0:0:40:tepuk.wav
320,192,50610,1,0,0:0:0:0:
448,192,50794,1,0,0:0:0:0:
64,192,50979,1,0,0:0:0:50:kick.wav
320,192,50979,1,0,0:0:0:0:
192,192,51164,1,0,0:0:0:0:
64,192,51349,1,0,0:0:0:40:tepuk.wav
448,192,51349,1,0,0:0:0:0:
320,192,51534,1,0,0:0:0:0:
64,192,51719,1,0,0:0:0:50:kick.wav
192,192,51719,1,0,0:0:0:0:
448,192,51903,1,0,0:0:0:0:
192,192,52088,1,0,0:0:0:40:tepuk.wav
320,192,52088,1,0,0:0:0:0:
64,192,52273,1,0,0:0:0:0:
320,192,52458,1,0,0:0:0:50:kick.wav
448,192,52458,1,0,0:0:0:0:
64,192,52643,1,0,0:0:0:0:
192,192,52828,1,0,0:0:0:40:tepuk.wav
320,192,52828,1,0,0:0:0:0:
448,192,53013,1,0,0:0:0:0:
64,192,53197,1,0,0:0:0:50:kick.wav
192,192,53197,1,0,0:0:0:0:
320,192,53382,1,0,0:0:0:0:
192,192,53567,1,0,0:0:0:40:tepuk.wav
448,192,53567,1,0,0:0:0:0:
64,192,53752,1,0,0:0:0:0:
320,192,53937,1,0,0:0:0:50:kick.wav
448,192,53937,1,0,0:0:0:0:
192,192,54122,1,0,0:0:0:0:
64,192,54306,1,0,0:0:0:40:tepuk.wav
320,192,54306,1,0,0:0:0:0:
448,192,54491,1,0,0:0:0:0:
64,192,54676,1,0,0:0:0:50:kick.wav
192,192,54676,1,0,0:0:0:0:
320,192,54861,1,0,0:0:0:0:
64,192,55046,1,0,0:0:0:40:tepuk.wav
448,192,55046,1,0,0:0:0:0:
192,192,55231,1,0,0:0:0:0:
320,192,55415,1,0,0:0:0:50:kick.wav
448,192,55415,1,0,0:0:0:0:
64,192,55600,1,0,0:0:0:0:
192,192,55785,1,0,0:0:0:40:tepuk.wav
448,192,55785,1,0,0:0:0:0:
320,192,55970,1,0,0:0:0:0:
64,192,56155,1,0,0:0:0:50:kick.wav
448,192,56155,1,0,0:0:0:0:
192,192,56340,1,0,0:0:0:0:
320,192,56525,1,0,0:0:0:40:tepuk.wav
448,192,56525,1,0,0:0:0:0:
64,192,56709,1,0,0:0:0:0:
192,192,56894,1,0,0:0:0:50:kick.wav
320,192,56894,1,0,0:0:0:0:
448,192,57079,1,0,0:0:0:0:
64,192,57264,1,0,0:0:0:40:tepuk.wav
192,192,57264,1,0,0:0:0:0:
320,192,57449,1,0,0:0:0:0:
64,192,57634,1,0,0:0:0:50:kick.wav
448,192,57634,1,0,0:0:0:0:
192,192,57818,1,0,0:0:0:0:
320,192,58003,1,0,0:0:0:40:tepuk.wav
448,192,58003,1,0,0:0:0:0:
192,192,58188,1,0,0:0:0:0:
64,192,58373,1,0,0:0:0:50:kick.wav
448,192,58373,1,0,0:0:0:0:
320,192,58558,1,0,0:0:0:0:
64,192,58743,1,0,0:0:0:40:tepuk.wav
192,192,58743,1,0,0:0:0:0:
448,192,58927,1,0,0:0:0:0:
192,192,59112,1,0,0:0:0:50:kick.wav
320,192,59112,1,0,0:0:0:50:simbal 8-bit.wav
64,192,59297,1,0,0:0:0:0:
320,192,59482,1,0,0:0:0:40:tepuk.wav
448,192,59482,1,0,0:0:0:0:
64,192,59667,1,0,0:0:0:0:
192,192,59852,1,0,0:0:0:50:kick.wav
320,192,59852,1,0,0:0:0:0:
448,192,60037,1,0,0:0:0:0:
64,192,60221,1,0,0:0:0:40:tepuk.wav
192,192,60221,1,0,0:0:0:0:
320,192,60406,1,0,0:0:0:0:
192,192,60591,1,0,0:0:0:50:kick.wav
448,192,60591,1,0,0:0:0:0:
64,192,60776,1,0,0:0:0:0:
320,192,60961,1,0,0:0:0:40:tepuk.wav
448,192,60961,1,0,0:0:0:0:
192,192,61146,1,0,0:0:0:0:
448,192,61330,1,0,0:0:0:50:kick.wav
320,192,61423,1,0,0:0:0:0:
192,192,61515,1,0,0:0:0:0:
320,192,61700,1,0,0:0:0:40:tepuk.wav
448,192,61700,1,0,0:0:0:0:
192,192,61793,1,0,0:0:0:0:
64,192,61885,1,0,0:0:0:0:
192,192,62070,1,0,0:0:0:50:kick.wav
320,192,62162,1,0,0:0:0:0:
448,192,62255,1,0,0:0:0:0:
64,192,62440,1,0,0:0:0:40:tepuk.wav
192,192,62440,1,0,0:0:0:0:
320,192,62532,1,0,0:0:0:0:
448,192,62624,1,0,0:0:0:0:
64,192,62809,1,0,0:0:0:50:kick.wav
192,192,62902,1,0,0:0:0:0:
320,192,62994,1,0,0:0:0:0:
64,192,63179,1,0,0:0:0:40:tepuk.wav
192,192,63179,1,0,0:0:0:0:
320,192,63271,1,0,0:0:0:0:
448,192,63364,1,0,0:0:0:0:
320,192,63549,1,0,0:0:0:50:kick.wav
192,192,63641,1,0,0:0:0:0:
64,192,63733,1,0,0:0:0:0:
320,192,63918,1,0,0:0:0:40:tepuk.wav
448,192,63918,1,0,0:0:0:0:
192,192,64011,1,0,0:0:0:0:
64,192,64103,1,0,0:0:0:0:
320,192,64288,1,0,0:0:0:50:kick.wav
192,192,64380,1,0,0:0:0:0:
64,192,64473,1,0,0:0:0:0:
320,192,64658,1,0,0:0:0:40:tepuk.wav
448,192,64658,1,0,0:0:0:0:
192,192,64750,1,0,0:0:0:0:
64,192,64842,1,0,0:0:0:0:
448,192,65027,1,0,0:0:0:50:kick.wav
192,192,65120,1,0,0:0:0:0:
320,192,65212,1,0,0:0:0:0:
64,192,65397,1,0,0:0:0:40:tepuk.wav
448,192,65397,1,0,0:0:0:0:
192,192,65489,1,0,0:0:0:0:
320,192,65582,1,0,0:0:0:0:
64,192,65767,1,0,0:0:0:50:kick.wav
320,192,65859,1,0,0:0:0:0:
192,192,65952,1,0,0:0:0:0:
64,192,66136,1,0,0:0:0:40:tepuk.wav
448,192,66136,1,0,0:0:0:0:
192,192,66229,1,0,0:0:0:0:
320,192,66321,1,0,0:0:0:0:
64,192,66506,1,0,0:0:0:50:kick.wav
320,192,66598,1,0,0:0:0:0:
192,192,66691,1,0,0:0:0:0:
320,192,66876,1,0,0:0:0:40:tepuk.wav
448,192,66876,1,0,0:0:0:0:
192,192,66968,1,0,0:0:0:0:
64,192,67061,1,0,0:0:0:0:
448,192,67245,1,0,0:0:0:50:kick.wav
192,192,67338,1,0,0:0:0:0:
320,192,67430,1,0,0:0:0:0:
64,192,67615,1,0,0:0:0:40:tepuk.wav
192,192,67615,1,0,0:0:0:0:
320,192,67708,1,0,0:0:0:0:
448,192,67800,1,0,0:0:0:0:
64,192,67985,1,0,0:0:0:50:simbal 8-bit.wav
448,192,67985,1,0,0:0:0:0:
320,192,68354,1,0,0:0:0:40:tepuk.wav
192,192,68539,1,0,0:0:0:0:
64,192,68724,1,0,0:0:0:50:simbal 8-bit.wav
448,192,68724,1,0,0:0:0:0:
320,192,69094,1,0,0:0:0:40:tepuk.wav
64,192,69464,1,0,0:0:0:50:simbal 8-bit.wav
192,192,69464,1,0,0:0:0:0:
64,192,69648,1,0,0:0:0:0:
448,192,70018,1,0,0:0:0:0:
64,192,70203,1,0,0:0:0:50:simbal 8-bit.wav
320,192,70203,1,0,0:0:0:0:
192,192,70573,1,0,0:0:0:40:tepuk.wav
320,192,70573,1,0,0:0:0:50:simbal 8-bit.wav
448,192,70757,1,0,0:0:0:0:
64,192,70942,1,0,0:0:0:50:kick.wav
192,192,70942,1,0,0:0:0:50:simbal 8-bit.wav
320,192,70942,1,0,0:0:0:0:
64,192,71127,1,0,0:0:0:0:
192,192,71127,1,0,0:0:0:0:
320,192,71312,1,0,0:0:0:40:tepuk.wav
448,192,71312,1,0,0:0:0:0:
320,192,71497,1,0,0:0:0:0:
448,192,71497,1,0,0:0:0:0:
64,192,71682,1,0,0:0:0:50:kick.wav
192,192,71682,1,0,0:0:0:0:
320,192,71866,1,0,0:0:0:0:
448,192,71866,1,0,0:0:0:0:
64,192,72051,1,0,0:0:0:40:tepuk.wav
192,192,72051,1,0,0:0:0:0:
320,192,72236,1,0,0:0:0:0:
64,192,72421,1,0,0:0:0:50:kick.wav
192,192,72421,1,0,0:0:0:0:
64,192,72606,1,0,0:0:0:0:
192,192,72606,1,0,0:0:0:0:
320,192,72791,1,0,0:0:0:40:tepuk.wav
448,192,72791,1,0,0:0:0:0:
64,192,72976,1,0,0:0:0:0:
192,192,72976,1,0,0:0:0:0:
320,192,73160,1,0,0:0:0:50:kick.wav
448,192,73160,1,0,0:0:0:0:
192,192,73345,1,0,0:0:0:0:
320,192,73438,1,0,0:0:0:0:
64,192,73530,1,0,0:0:0:40:tepuk.wav
448,192,73530,1,0,0:0:0:0:
320,192,73715,1,0,0:0:0:0:
192,192,73900,1,0,0:0:0:50:kick.wav
448,192,73900,1,0,0:0:0:0:
192,192,74085,1,0,0:0:0:0:
448,192,74085,1,0,0:0:0:0:
64,192,74269,1,0,0:0:0:40:tepuk.wav
320,192,74269,1,0,0:0:0:0:
192,192,74454,1,0,0:0:0:0:
448,192,74454,1,0,0:0:0:0:
64,192,74639,1,0,0:0:0:50:kick.wav
320,192,74639,1,0,0:0:0:0:
192,192,74824,1,0,0:0:0:0:
320,192,75009,1,0,0:0:0:40:tepuk.wav
448,192,75009,1,0,0:0:0:0:
320,192,75194,1,0,0:0:0:0:
448,192,75194,1,0,0:0:0:0:
64,192,75379,1,0,0:0:0:50:kick.wav
192,192,75379,1,0,0:0:0:0:
64,192,75563,1,0,0:0:0:0:
192,192,75563,1,0,0:0:0:0:
320,192,75748,1,0,0:0:0:40:tepuk.wav
448,192,75748,1,0,0:0:0:0:
64,192,75933,1,0,0:0:0:0:
192,192,75933,1,0,0:0:0:0:
320,192,76118,1,0,0:0:0:50:kick.wav
448,192,76118,1,0,0:0:0:0:
64,192,76303,1,0,0:0:0:0:
192,192,76488,1,0,0:0:0:40:tepuk.wav
448,192,76488,1,0,0:0:0:0:
320,192,76672,1,0,0:0:0:0:
64,192,76857,1,0,0:0:0:50:kick.wav
448,192,76857,1,0,0:0:0:0:
64,192,77042,1,0,0:0:0:0:
448,192,77042,1,0,0:0:0:0:
192,192,77227,1,0,0:0:0:40:tepuk.wav
320,192,77227,1,0,0:0:0:0:
192,192,77412,1,0,0:0:0:0:
320,192,77412,1,0,0:0:0:0:
64,192,77597,1,0,0:0:0:50:kick.wav
448,192,77597,1,0,0:0:0:0:
192,192,77781,1,0,0:0:0:0:
320,192,77781,1,0,0:0:0:0:
64,192,77966,1,0,0:0:0:40:tepuk.wav
448,192,77966,1,0,0:0:0:0:
192,192,78151,1,0,0:0:0:0:
64,192,78336,1,0,0:0:0:50:kick.wav
448,192,78336,1,0,0:0:0:0:
64,192,78521,1,0,0:0:0:0:
448,192,78521,1,0,0:0:0:0:
192,192,78706,1,0,0:0:0:40:tepuk.wav
320,192,78706,1,0,0:0:0:0:
64,192,78891,1,0,0:0:0:0:
448,192,78891,1,0,0:0:0:0:
192,192,79075,1,0,0:0:0:50:kick.wav
320,192,79075,1,0,0:0:0:0:
448,192,79260,1,0,0:0:0:0:
320,192,79353,1,0,0:0:0:0:
64,192,79445,1,0,0:0:0:40:tepuk.wav
192,192,79445,1,0,0:0:0:0:
448,192,79630,1,0,0:0:0:0:
64,192,79815,1,0,0:0:0:50:kick.wav
320,192,79815,1,0,0:0:0:0:
64,192,80000,1,0,0:0:0:0:
320,192,80000,1,0,0:0:0:0:
192,192,80184,1,0,0:0:0:40:tepuk.wav
448,192,80184,1,0,0:0:0:0:
64,192,80369,1,0,0:0:0:0:
320,192,80369,1,0,0:0:0:0:
192,192,80554,1,0,0:0:0:50:kick.wav
448,192,80554,1,0,0:0:0:0:
64,192,80739,1,0,0:0:0:0:
320,192,80924,1,0,0:0:0:40:tepuk.wav
448,192,80924,1,0,0:0:0:0:
320,192,81109,1,0,0:0:0:0:
448,192,81109,1,0,0:0:0:0:
64,192,81293,1,0,0:0:0:50:kick.wav
192,192,81293,1,0,0:0:0:0:
64,192,81478,1,0,0:0:0:0:
192,192,81478,1,0,0:0:0:0:
320,192,81663,1,0,0:0:0:40:tepuk.wav
448,192,81663,1,0,0:0:0:0:
64,192,81848,1,0,0:0:0:0:
192,192,81848,1,0,0:0:0:0:
320,192,82033,1,0,0:0:0:50:kick.wav
448,192,82033,1,0,0:0:0:0:
192,192,82218,1,0,0:0:0:0:
320,192,82403,1,0,0:0:0:40:tepuk.wav
448,192,82403,1,0,0:0:0:0:
64,192,82587,1,0,0:0:0:0:
448,192,82772,1,0,0:0:0:50:kick.wav
320,192,82865,1,0,0:0:0:0:
192,192,82957,1,0,0:0:0:0:
64,192,83142,1,0,0:0:0:40:tepuk.wav
448,192,83142,1,0,0:0:0:0:
192,192,83234,1,0,0:0:0:0:
320,192,83327,1,0,0:0:0:0:
448,192,83512,1,0,0:0:0:50:kick.wav
320,192,83604,1,0,0:0:0:0:
192,192,83696,1,0,0:0:0:0:
64,192,83881,1,0,0:0:0:40:tepuk.wav
448,192,83881,1,0,0:0:0:0:
192,192,83974,1,0,0:0:0:0:
320,192,84066,1,0,0:0:0:0:
192,192,84251,1,0,0:0:0:50:kick.wav
448,192,84343,1,0,0:0:0:0:
64,192,84436,1,0,0:0:0:0:
320,192,84621,1,0,0:0:0:40:tepuk.wav
448,192,84621,1,0,0:0:0:0:
192,192,84713,1,0,0:0:0:0:
64,192,84805,1,0,0:0:0:0:
320,192,84990,1,0,0:0:0:50:kick.wav
64,192,85083,1,0,0:0:0:0:
448,192,85175,1,0,0:0:0:0:
64,192,85360,1,0,0:0:0:40:tepuk.wav
192,192,85360,1,0,0:0:0:0:
320,192,85452,1,0,0:0:0:0:
448,192,85545,1,0,0:0:0:0:
64,192,85730,1,0,0:0:0:50:kick.wav
192,192,85822,1,0,0:0:0:0:
320,192,85915,1,0,0:0:0:0:
64,192,86099,1,0,0:0:0:40:tepuk.wav
448,192,86099,1,0,0:0:0:0:
320,192,86192,1,0,0:0:0:0:
192,192,86284,1,0,0:0:0:0:
64,192,86469,1,0,0:0:0:50:kick.wav
192,192,86562,1,0,0:0:0:0:
320,192,86654,1,0,0:0:0:0:
64,192,86839,1,0,0:0:0:40:tepuk.wav
448,192,86839,1,0,0:0:0:0:
320,192,86931,1,0,0:0:0:0:
192,192,87024,1,0,0:0:0:0:
320,192,87208,1,0,0:0:0:50:kick.wav
64,192,87301,1,0,0:0:0:0:
448,192,87393,1,0,0:0:0:0:
64,192,87578,1,0,0:0:0:40:tepuk.wav
192,192,87578,1,0,0:0:0:0:
320,192,87671,1,0,0:0:0:0:
448,192,87763,1,0,0:0:0:0:
192,192,87948,1,0,0:0:0:50:kick.wav
448,192,88040,1,0,0:0:0:0:
64,192,88133,1,0,0:0:0:0:
320,192,88318,1,0,0:0:0:40:tepuk.wav
448,192,88318,1,0,0:0:0:0:
192,192,88410,1,0,0:0:0:0:
64,192,88502,1,0,0:0:0:0:
320,192,88687,1,0,0:0:0:50:kick.wav
192,192,88780,1,0,0:0:0:0:
320,192,88872,1,0,0:0:0:0:
64,192,89057,1,0,0:0:0:40:tepuk.wav
448,192,89057,1,0,0:0:0:0:
192,192,89149,1,0,0:0:0:0:
320,192,89242,1,0,0:0:0:0:
192,192,89427,1,0,0:0:0:50:kick.wav
320,192,89519,1,0,0:0:0:0:
192,192,89611,1,0,0:0:0:0:
64,192,89796,1,0,0:0:0:40:tepuk.wav
448,192,89796,1,0,0:0:0:0:
320,192,89889,1,0,0:0:0:0:
192,192,89981,1,0,0:0:0:0:
448,192,90166,1,0,0:0:0:50:kick.wav
64,192,90258,1,0,0:0:0:0:
448,192,90351,1,0,0:0:0:0:
64,192,90536,1,0,0:0:0:40:tepuk.wav
192,192,90536,1,0,0:0:0:0:
320,192,90628,1,0,0:0:0:0:
448,192,90720,1,0,0:0:0:0:
64,192,90905,1,0,0:0:0:50:kick.wav
448,192,90998,1,0,0:0:0:0:
64,192,91090,1,0,0:0:0:0:
320,192,91275,1,0,0:0:0:40:tepuk.wav
448,192,91275,1,0,0:0:0:0:
192,192,91367,1,0,0:0:0:0:
64,192,91460,1,0,0:0:0:0:
192,192,91645,1,0,0:0:0:50:kick.wav
320,192,91645,1,0,0:0:0:50:simbal 8-bit.wav
448,192,91645,1,0,0:0:0:0:
64,192,91737,1,0,0:0:0:0:
448,192,91830,1,0,0:0:0:0:
64,192,92014,1,0,0:0:0:40:tepuk.wav
192,192,92014,1,0,0:0:0:0:
320,192,92107,1,0,0:0:0:0:
448,192,92199,1,0,0:0:0:0:
64,192,92384,1,0,0:0:0:50:kick.wav
192,192,92384,1,0,0:0:0:50:simbal 8-bit.wav
320,192,92384,1,0,0:0:0:0:
448,192,92476,1,0,0:0:0:0:
64,192,92569,1,0,0:0:0:0:
320,192,92754,1,0,0:0:0:40:tepuk.wav
448,192,92754,1,0,0:0:0:0:
192,192,92846,1,0,0:0:0:0:
64,192,92939,1,0,0:0:0:0:
64,192,93123,1,0,0:0:0:50:kick.wav
320,192,93123,1,0,0:0:0:50:simbal 8-bit.wav
448,192,93123,1,0,0:0:0:0:
192,192,93216,1,0,0:0:0:0:
320,192,93308,1,0,0:0:0:0:
64,192,93493,1,0,0:0:0:40:tepuk.wav
192,192,93493,1,0,0:0:0:50:simbal 8-bit.wav
448,192,93493,1,0,0:0:0:0:
320,192,93586,1,0,0:0:0:0:
192,192,93678,1,0,0:0:0:0:
64,192,93863,1,0,0:0:0:50:kick.wav
320,192,93863,1,0,0:0:0:50:simbal 8-bit.wav
448,192,93863,1,0,0:0:0:0:
192,192,93955,1,0,0:0:0:0:
320,192,94048,1,0,0:0:0:0:
64,192,94232,1,0,0:0:0:40:tepuk.wav
192,192,94232,1,0,0:0:0:50:simbal 8-bit.wav
448,192,94232,1,0,0:0:0:0:
320,192,94325,1,0,0:0:0:0:
192,192,94417,1,0,0:0:0:0:
64,192,94602,1,0,0:0:0:50:simbal 8-bit.wav
320,192,94602,1,0,0:0:0:0:
448,192,94602,1,0,0:0:0:0:
448,192,94972,1,0,0:0:0:0:
64,192,95342,1,0,0:0:0:0:
192,192,95711,1,0,0:0:0:0:
320,192,96081,1,0,0:0:0:0:
448,192,96451,1,0,0:0:0:0:
320,192,96635,1,0,0:0:0:0:
192,192,96820,1,0,0:0:0:0:
320,192,97067,1,0,0:0:0:0:
64,192,97313,1,0,0:0:0:0:
192,192,97560,1,0,0:0:0:0:
192,192,97929,1,0,0:0:0:0:
64,192,98299,1,0,0:0:0:0:
192,192,98669,1,0,0:0:0:0:
320,192,99038,1,0,0:0:0:0:
192,192,100147,1,0,0:0:0:0:
320,192,100517,1,0,0:0:0:0:
320,192,100887,1,0,0:0:0:0:
64,192,101257,1,0,0:0:0:0:
192,192,101626,1,0,0:0:0:0:
320,192,101996,1,0,0:0:0:0:
64,192,102366,1,0,0:0:0:0:
192,192,102550,1,0,0:0:0:0:
320,192,102735,1,0,0:0:0:0:
448,192,102982,1,0,0:0:0:0:
192,192,103228,1,0,0:0:0:0:
320,192,103475,1,0,0:0:0:0:
320,192,103844,1,0,0:0:0:0:
64,192,104214,1,0,0:0:0:0:
192,192,104584,1,0,0:0:0:0:
320,192,104953,1,0,0:0:0:0:
192,192,106062,1,0,0:0:0:0:
448,192,106432,1,0,0:0:0:0:
448,192,106802,1,0,0:0:0:0:
64,192,107171,1,0,0:0:0:0:
320,192,107541,1,0,0:0:0:0:
192,192,107726,1,0,0:0:0:0:
64,192,107911,1,0,0:0:0:0:
192,192,108281,1,0,0:0:0:0:
320,192,108650,1,0,0:0:0:0:
192,192,109020,1,0,0:0:0:0:
448,192,109205,1,0,0:0:0:0:
320,192,109390,1,0,0:0:0:0:
320,192,109759,1,0,0:0:0:0:
192,192,110129,1,0,0:0:0:0:
192,192,110499,1,0,0:0:0:0:
64,192,110683,1,0,0:0:0:0:
192,192,110868,1,0,0:0:0:0:
192,192,111238,1,0,0:0:0:0:
64,192,111608,1,0,0:0:0:0:
64,192,111977,1,0,0:0:0:0:
192,192,112162,1,0,0:0:0:0:
320,192,112347,1,0,0:0:0:0:
320,192,112717,1,0,0:0:0:0:
192,192,113086,1,0,0:0:0:0:
64,192,113456,1,0,0:0:0:0:
192,192,113641,1,0,0:0:0:0:
320,192,113826,1,0,0:0:0:0:
448,192,114011,1,0,0:0:0:0:
320,192,114196,1,0,0:0:0:0:
448,192,114380,1,0,0:0:0:0:
192,192,114565,1,0,0:0:0:0:
320,192,114935,1,0,0:0:0:0:
64,192,115120,1,0,0:0:0:0:
320,192,115305,1,0,0:0:0:0:
64,192,115674,1,0,0:0:0:0:
192,192,116044,1,0,0:0:0:0:
320,192,116414,1,0,0:0:0:0:
448,192,116783,1,0,0:0:0:0:
448,192,117523,1,0,0:0:0:0:
448,192,117892,1,0,0:0:0:0:
