osu file format v14

[General]
AudioFilename: audio.mp3
AudioLeadIn: 0
PreviewTime: 17380
Countdown: 0
SampleSet: Soft
StackLeniency: 0.7
Mode: 0
LetterboxInBreaks: 0
WidescreenStoryboard: 1

[Editor]
Bookmarks: 26198,34925,43652,52380,61107,69834,78561
DistanceSpacing: 1
BeatDivisor: 2
GridSize: 32
TimelineZoom: 1

[Metadata]
Title:got a compliment today
TitleUnicode:got a compliment today
Artist:xiiiac13
ArtistUnicode:xiiiac13
Creator:Chaoslitz
Version:normal
Source:
Tags:electronic instrumental collection volume #1 lofi hiphop caturation
BeatmapID:4565672
BeatmapSetID:2163558

[Difficulty]
HPDrainRate:3
CircleSize:3.5
OverallDifficulty:4
ApproachRate:5.5
SliderMultiplier:1.4
SliderTickRate:1

[Events]
//Background and Video events
0,0,"cat.jpg",0,0
//Break Periods
//Storyboard Layer 0 (Background)
//Storyboard Layer 1 (Fail)
//Storyboard Layer 2 (Pass)
//Storyboard Layer 3 (Foreground)
//Storyboard Layer 4 (Overlay)
//Storyboard Sound Samples

[TimingPoints]
13108,545.454545454546,4,2,1,40,1,0
16380,-100,4,2,1,40,0,0
17471,545.454545454546,4,2,1,60,1,0
52380,-100,4,2,1,70,0,0
78561,-100,4,2,1,60,0,0
79652,-100,4,2,1,50,0,0
80743,-100,4,2,1,40,0,0
81834,-100,4,2,1,30,0,0
82925,-100,4,2,1,20,0,0

[Colours]
Combo1 : 70,224,160
Combo2 : 241,70,123
Combo3 : 41,178,246
Combo4 : 253,120,45

[HitObjects]
256,192,13108,12,2,16380,0:0:0:0:
192,363,17471,6,0,P|206:254|192:259,1,140,14|8,0:1|0:0,0:0:0:0:
192,144,18561,2,0,L|-63:166,1,140,10|8,0:1|0:0,0:0:0:0:
38,242,19380,1,0,3:0:0:0:
38,242,19652,2,0,L|293:220,1,140,10|8,0:1|0:0,0:0:0:0:
321,143,20743,2,0,P|394:89|389:79,2,70,10|10|10,0:3|0:1|0:0,0:0:0:0:
256,90,21561,1,2,0:0:0:0:
192,144,21834,6,0,L|-63:166,1,140,10|8,0:1|0:0,0:0:0:0:
1,316,22925,2,0,P|114:272|78:245,1,140,8|8,0:1|0:0,0:0:0:0:
179,294,23743,1,0,3:0:0:0:
179,294,24016,2,0,L|311:282,1,70,8|8,0:1|0:1,0:0:0:0:
290,361,24561,2,0,L|545:339,1,140,8|8,0:0|0:1,0:0:0:0:
479,282,25380,1,8,0:1:0:0:
479,282,25652,1,8,0:0:0:0:
332,200,26198,6,0,B|347:99|314:168|336:36,1,140,10|8,0:1|0:0,0:0:0:0:
394,4,27016,1,0,3:0:0:0:
399,0,27289,2,0,P|433:106|385:101,1,140,10|8,0:1|0:0,0:0:0:0:
332,200,28380,2,0,L|77:222,1,140,10|8,0:1|0:0,0:0:0:0:
112,189,29198,1,8,0:1:0:0:
107,185,29471,2,0,P|111:270|129:274,1,70,10|10,0:1|0:1,0:0:0:0:
49,321,30016,2,0,P|125:362|150:337,1,70,10|2,0:0|0:0,0:0:0:0:
175,341,30561,5,10,0:1:0:0:
330,275,31107,2,0,P|404:328|396:346,1,70,8|0,0:0|3:0,0:0:0:0:
436,358,31652,2,0,P|475:248|412:278,1,140,8|8,0:1|0:0,0:0:0:0:
466,222,32471,1,0,3:0:0:0:
464,216,32743,2,0,L|473:79,1,70,8|8,0:1|0:1,0:0:0:0:
422,76,33289,1,8,0:0:0:0:
263,24,33834,2,0,B|241:29|241:29|219:121|219:121|188:128,1,140,10|8,0:1|0:0,0:0:0:0:
147,194,34652,1,0,3:0:0:0:
69,163,34925,6,0,P|60:283|111:251,1,140,14|8,0:1|0:0,0:0:0:0:
131,365,36016,2,0,L|386:343,1,140,10|8,0:1|0:0,0:0:0:0:
352,373,36834,1,0,3:0:0:0:
356,368,37107,2,0,B|371:267|338:336|360:204,1,140,10|8,0:1|0:0,0:0:0:0:
455,94,38198,2,0,P|499:160|492:166,2,70,10|10|10,0:3|0:1|0:0,0:0:0:0:
400,30,39016,1,2,0:0:0:0:
323,63,39289,6,0,B|260:63|260:63|256:61|256:61|256:65|256:65|252:63|252:63|162:63,1,140,10|8,0:1|0:0,0:0:0:0:
35,132,40380,2,0,B|-1:192|-1:192|67:333,1,140,8|8,0:1|0:0,0:0:0:0:
104,305,41198,1,0,3:0:0:0:
104,305,41471,2,0,L|229:294,1,70,8|8,0:1|0:1,0:0:0:0:
230,236,42016,2,0,P|260:351|220:346,1,140,8|8,0:0|0:1,0:0:0:0:
230,367,42834,1,8,0:1:0:0:
230,367,43107,1,8,0:0:0:0:
148,219,43652,6,0,L|166:-58,1,140,10|8,0:1|0:0,0:0:0:0:
211,14,44471,1,0,3:0:0:0:
216,10,44743,2,0,P|267:108|232:114,1,140,10|8,0:1|0:0,0:0:0:0:
420,191,45834,2,0,B|405:292|438:223|416:355,1,140,10|8,0:1|0:0,0:0:0:0:
344,366,46652,1,8,0:1:0:0:
339,370,46925,2,0,P|285:308|304:281,1,70,10|10,0:1|0:1,0:0:0:0:
212,293,47471,2,0,P|251:210|259:212,1,70,10|2,0:0|0:0,0:0:0:0:
256,163,48016,5,10,0:1:0:0:
205,1,48561,2,0,L|73:13,1,70,8|0,0:0|3:0,0:0:0:0:
71,63,49107,2,0,P|165:99|164:80,1,140,8|8,0:1|0:0,0:0:0:0:
210,89,49925,1,0,3:0:0:0:
214,84,50198,2,0,L|346:72,1,70,8|8,0:1|0:1,0:0:0:0:
353,30,50743,1,8,0:0:0:0:
502,107,51289,2,0,B|538:167|538:167|470:308,1,140,10|8,0:1|0:0,0:0:0:0:
448,289,52107,1,0,3:0:0:0:
366,269,52380,6,0,P|307:336|321:351,1,70,14|2,0:1|3:0,0:0:0:0:
256,358,52925,1,10,0:0:0:0:
115,266,53471,2,0,B|130:165|97:234|119:102,1,140,10|8,0:1|0:0,0:0:0:0:
170,64,54289,1,2,3:0:0:0:
175,60,54561,2,0,P|234:128|222:143,1,70,10|8,0:1|0:1,0:0:0:0:
314,112,55107,2,0,P|292:195|270:195,1,70,10|6,0:0|0:3,0:0:0:0:
271,244,55652,2,0,L|139:256,2,70,10|10|10,0:3|0:1|0:0,0:0:0:0:
342,289,56471,1,2,0:0:0:0:
387,360,56743,6,0,P|401:251|387:256,1,140,10|10,0:1|0:0,0:0:0:0:
512,125,57834,2,0,P|427:94|420:105,1,70,10|10,0:1|0:1,0:0:0:0:
396,36,58380,2,0,L|264:48,1,70,8|2,0:0|3:0,0:0:0:0:
244,24,58925,2,0,B|208:84|208:84|276:225,1,140,10|10,0:1|0:0,0:0:0:0:
310,193,59743,1,10,0:1:0:0:
315,197,60016,2,0,P|290:272|249:272,1,70,8|10,0:1|0:1,0:0:0:0:
229,296,60561,1,10,0:0:0:0:
74,360,61107,6,0,P|14:295|15:293,1,70,10|2,0:1|3:0,0:0:0:0:
32,254,61652,2,0,L|164:242,1,70,10|0,0:0|3:0,0:0:0:0:
148,318,62198,1,10,0:1:0:0:
310,358,62743,2,0,P|385:308|379:289,1,70,8|2,0:0|3:0,0:0:0:0:
441,295,63289,2,0,B|456:194|423:263|445:131,1,140,10|10,0:1|0:0,0:0:0:0:
414,77,64107,1,10,0:1:0:0:
409,73,64380,2,0,P|337:117|345:138,1,70,10|10,0:1|0:1,0:0:0:0:
290,146,64926,2,0,P|209:110|215:95,1,70,10|2,0:0|0:0,0:0:0:0:
181,86,65471,6,0,L|-74:108,1,140,10|10,0:1|0:0,0:0:0:0:
0,261,66561,2,0,L|132:249,1,70,10|10,0:1|0:1,0:0:0:0:
151,231,67107,2,0,P|188:308|175:318,1,70,8|2,0:0|3:0,0:0:0:0:
189,355,67652,6,0,B|252:355|252:355|256:353|256:353|256:357|256:357|260:355|260:355|350:355,1,140,10|10,0:1|0:0,0:0:0:0:
410,379,68471,1,10,0:1:0:0:
410,379,68743,2,0,P|409:295|401:292,1,70,10|10,0:1|0:1,0:0:0:0:
379,253,69289,1,10,0:0:0:0:
256,138,69834,6,0,B|256:108|256:108|254:105|254:105|258:105|258:105|256:101|256:101|256:50,1,70,14|2,0:1|3:0,0:0:0:0:
327,26,70380,1,10,0:0:0:0:
494,42,70925,2,0,B|530:102|530:102|462:243,1,140,10|8,0:1|0:0,0:0:0:0:
466,244,71743,1,2,3:0:0:0:
466,244,72016,2,0,L|334:256,1,70,10|8,0:1|0:1,0:0:0:0:
367,330,72561,2,0,P|287:316|292:287,1,70,10|6,0:0|0:3,0:0:0:0:
244,286,73107,2,0,L|112:298,2,70,10|10|10,0:3|0:1|0:0,0:0:0:0:
292,216,73925,1,2,0:0:0:0:
244,147,74198,6,0,L|-11:169,1,140,10|10,0:1|0:0,0:0:0:0:
0,291,75289,2,0,P|74:313|92:274,1,70,10|10,0:1|0:1,0:0:0:0:
127,365,75834,2,0,P|189:308|176:292,1,70,8|2,0:0|3:0,0:0:0:0:
244,286,76380,2,0,B|259:185|226:254|248:122,1,140,10|10,0:1|0:0,0:0:0:0:
294,80,77198,1,10,0:1:0:0:
299,76,77471,2,0,P|362:148|361:150,1,70,8|10,0:1|0:1,0:0:0:0:
383,180,78016,1,10,0:0:0:0:
314,333,78561,5,12,0:1:0:0:
256,192,78834,12,10,82925,0:1:0:0:
