osu file format v14

[General]
AudioFilename: audio.mp3
AudioLeadIn: 0
PreviewTime: -1
Countdown: 1
SampleSet: None
StackLeniency: 0.3
Mode: 0
LetterboxInBreaks: 0
WidescreenStoryboard: 0

[Editor]
Bookmarks: 13061,25693,38324,50956,63587,76219,88851,114114
DistanceSpacing: 0.8
BeatDivisor: 4
GridSize: 32
TimelineZoom: 1

[Metadata]
Title:Trick Shooter
TitleUnicode:Trick Shooter
Artist:xi-on
ArtistUnicode:φ
Creator:Shanipika
Version:Insane
Source:東方Project
Tags:Mentorship Speedmapping Cycle 6 Contest 1 touhou rock 東方花映塚 ~ Phantasmagoria of Flower View Kaeidzuka Phantasmagoria of Dim.Dream
BeatmapID:1485642
BeatmapSetID:702106

[Difficulty]
HPDrainRate:5
CircleSize:4
OverallDifficulty:8
ApproachRate:9
SliderMultiplier:2.4
SliderTickRate:1

[Events]
//Background and Video events
0,0,"reimubg.jpg",0,0
//Break Periods
//Storyboard Layer 0 (Background)
//Storyboard Layer 1 (Fail)
//Storyboard Layer 2 (Pass)
//Storyboard Layer 3 (Foreground)
//Storyboard Sound Samples

[TimingPoints]
430,394.736842105263,4,2,0,62,1,0
11482,-133.333333333333,4,2,0,62,0,0
11778,-83.3333333333333,4,2,0,62,0,0
13061,-100,4,2,0,62,0,0
14640,-133.333333333333,4,2,0,62,0,0
16219,-100,4,2,0,62,0,0
17798,-133.333333333333,4,2,0,62,0,0
19377,-100,4,2,0,62,0,0
20956,-133.333333333333,4,2,0,62,0,0
22535,-100,4,2,0,62,0,0
24114,-133.333333333333,4,2,0,62,0,0
25693,-83.3333333333333,4,2,0,72,0,0
35956,-100,4,2,0,72,0,0
38324,-83.3333333333333,4,2,0,62,0,0
38620,-133.333333333333,4,2,0,62,0,0
39114,-90.9090909090909,4,2,0,62,0,0
39903,-83.3333333333333,4,2,0,62,0,0
40199,-133.333333333333,4,2,0,62,0,0
40693,-100,4,2,0,62,0,0
40989,-133.333333333333,4,2,0,62,0,0
41482,-83.3333333333333,4,2,0,62,0,0
41778,-100,4,2,0,62,0,0
42272,-90.9090909090909,4,2,0,62,0,0
43061,-83.3333333333333,4,2,0,62,0,0
43357,-133.333333333333,4,2,0,62,0,0
44640,-66.6666666666667,4,2,0,62,0,0
44936,-90.9090909090909,4,2,0,62,0,0
45232,-133.333333333333,4,2,0,62,0,0
45429,-76.9230769230769,4,2,0,62,0,0
46219,-66.6666666666667,4,2,0,62,0,0
46515,-83.3333333333333,4,2,0,62,0,0
46811,-133.333333333333,4,2,0,62,0,0
47008,-66.6666666666667,4,2,0,62,0,0
47304,-83.3333333333333,4,2,0,62,0,0
47601,-133.333333333333,4,2,0,62,0,0
47798,-66.6666666666667,4,2,0,62,0,0
48094,-83.3333333333333,4,2,0,62,0,0
48390,-133.333333333333,4,2,0,62,0,0
48587,-76.9230769230769,4,2,0,62,0,0
49377,-83.3333333333333,4,2,0,62,0,0
49673,-66.6666666666667,4,2,0,62,0,0
50956,-100,4,2,0,62,0,0
63587,-83.3333333333333,4,2,0,72,0,0
73851,-100,4,2,0,72,0,0
76219,-100,4,2,0,62,0,0
76219,-83.3333333333333,4,2,0,62,0,0
76515,-133.333333333333,4,2,0,62,0,0
77009,-90.9090909090909,4,2,0,62,0,0
77798,-83.3333333333333,4,2,0,62,0,0
78094,-133.333333333333,4,2,0,62,0,0
78588,-100,4,2,0,62,0,0
78884,-133.333333333333,4,2,0,62,0,0
79377,-83.3333333333333,4,2,0,62,0,0
79673,-100,4,2,0,62,0,0
80167,-90.9090909090909,4,2,0,62,0,0
80956,-83.3333333333333,4,2,0,62,0,0
81252,-133.333333333333,4,2,0,62,0,0
82535,-66.6666666666667,4,2,0,62,0,0
82831,-90.9090909090909,4,2,0,62,0,0
83127,-133.333333333333,4,2,0,62,0,0
83324,-76.9230769230769,4,2,0,62,0,0
84114,-66.6666666666667,4,2,0,62,0,0
84410,-83.3333333333333,4,2,0,62,0,0
84706,-133.333333333333,4,2,0,62,0,0
84903,-66.6666666666667,4,2,0,62,0,0
85199,-83.3333333333333,4,2,0,62,0,0
85496,-133.333333333333,4,2,0,62,0,0
85693,-66.6666666666667,4,2,0,62,0,0
85989,-83.3333333333333,4,2,0,62,0,0
86285,-133.333333333333,4,2,0,62,0,0
86482,-76.9230769230769,4,2,0,62,0,0
87272,-83.3333333333333,4,2,0,62,0,0
87568,-66.6666666666667,4,2,0,62,0,0
87864,-83.3333333333333,4,2,0,62,0,0
88061,-133.333333333333,4,2,0,62,0,0
88258,-83.3333333333333,4,2,0,62,0,0
88456,-133.333333333333,4,2,0,62,0,0
88851,-66.6666666666667,4,2,0,80,0,0
92601,-100,4,2,0,80,0,0
99903,-200,4,2,0,80,0,0
100298,-142.857142857143,4,2,0,80,0,0
100693,-100,4,2,0,80,0,0
101087,-83.3333333333334,4,2,0,80,0,0
101482,-66.6666666666667,4,2,0,80,0,0
105232,-100,4,2,0,80,0,0
107798,-66.6666666666667,4,2,0,80,0,0
114114,-83.3333333333333,4,2,0,62,0,0

[HitObjects]
55,111,430,5,0,0:0:0:0:
132,73,627,1,0,0:0:0:0:
217,72,824,2,0,P|272:80|331:137,1,120,0|0,0:0|0:0,0:0:0:0:
360,214,1120,1,0,0:0:0:0:
391,257,1219,2,0,P|436:295|495:304,1,120,0|0,0:0|0:0,0:0:0:0:
239,157,1614,2,0,P|183:177|145:223,1,120,0|0,0:0|0:0,0:0:0:0:
136,351,1910,1,0,0:0:0:0:
136,351,2008,5,0,0:0:0:0:
277,335,2206,1,0,0:0:0:0:
18,287,2403,1,0,0:0:0:0:
239,157,2798,1,0,0:0:0:0:
245,97,2897,1,0,0:0:0:0:
218,43,2995,1,0,0:0:0:0:
193,60,3094,1,0,0:0:0:0:
176,87,3193,2,0,P|147:166|184:247,1,120,0|0,0:0|0:0,0:0:0:0:
277,335,3489,1,0,0:0:0:0:
277,335,3587,5,0,0:0:0:0:
136,351,3785,1,0,0:0:0:0:
388,250,3981,2,0,P|357:203|280:174,1,120,0|0,0:0|0:0,0:0:0:0:
199,181,4277,1,0,0:0:0:0:
145,171,4376,2,0,P|91:145|57:96,1,120,0|0,0:0|0:0,0:0:0:0:
298,222,4771,2,0,P|303:281|277:334,1,120,0|0,0:0|0:0,0:0:0:0:
148,334,5068,1,0,0:0:0:0:
148,334,5166,5,0,0:0:0:0:
279,336,5363,1,0,0:0:0:0:
41,266,5561,1,0,0:0:0:0:
285,342,5956,1,0,0:0:0:0:
305,304,6054,1,0,0:0:0:0:
311,262,6153,1,0,0:0:0:0:
298,222,6252,1,0,0:0:0:0:
275,186,6351,1,0,0:0:0:0:
260,134,6449,1,0,0:0:0:0:
278,82,6548,1,0,0:0:0:0:
321,48,6647,1,0,0:0:0:0:
340,31,6745,5,0,0:0:0:0:
195,48,6942,1,0,0:0:0:0:
464,117,7139,2,0,P|433:164|356:193,1,120,0|0,0:0|0:0,0:0:0:0:
275,186,7435,1,0,0:0:0:0:
221,196,7534,2,0,P|167:222|133:271,1,120,0|0,0:0|0:0,0:0:0:0:
361,143,7929,2,0,P|366:84|340:31,1,120,0|0,0:0|0:0,0:0:0:0:
172,41,8226,1,0,0:0:0:0:
172,41,8324,5,0,0:0:0:0:
303,39,8521,1,0,0:0:0:0:
69,139,8719,1,0,0:0:0:0:
455,188,9114,1,0,0:0:0:0:
461,128,9213,1,0,0:0:0:0:
434,74,9311,1,0,0:0:0:0:
409,91,9410,1,0,0:0:0:0:
392,118,9509,2,0,P|363:197|400:278,1,120,0|0,0:0|0:0,0:0:0:0:
401,337,9804,1,0,0:0:0:0:
401,337,9903,5,0,0:0:0:0:
259,301,10100,1,0,0:0:0:0:
512,273,10297,2,0,P|481:226|404:197,1,120,0|0,0:0|0:0,0:0:0:0:
323,204,10593,1,0,0:0:0:0:
269,194,10692,2,0,P|215:168|181:119,1,120,0|0,0:0|0:0,0:0:0:0:
422,224,11087,2,0,P|427:283|401:336,1,120,0|0,0:0|0:0,0:0:0:0:
41,321,11482,6,0,P|59:253|84:231,1,90.0000034332277,0|0,0:0|0:0,0:0:0:0:
144,197,11778,2,0,P|217:211|310:160,1,143.999995605469,0|0,0:0|0:0,0:0:0:0:
478,211,12074,1,0,0:0:0:0:
425,163,12173,1,0,0:0:0:0:
357,142,12272,1,0,0:0:0:0:
58,57,13061,6,0,P|139:51|187:65,1,120,0|0,0:0|0:0,0:0:0:0:
357,142,13456,2,0,P|415:153|474:145,1,120,0|0,0:0|0:0,0:0:0:0:
280,34,13851,1,0,0:0:0:0:
242,139,14048,1,0,0:0:0:0:
293,236,14245,1,0,0:0:0:0:
405,260,14443,1,0,0:0:0:0:
331,131,14640,6,0,L|217:140,1,90.0000034332277,0|0,0:0|0:0,0:0:0:0:
86,234,15035,2,0,L|200:225,1,90.0000034332277,0|0,0:0|0:0,0:0:0:0:
354,112,15429,2,0,L|279:119,1,45.0000017166138,0|0,0:0|0:0,0:0:0:0:
107,129,15627,1,0,0:0:0:0:
212,167,15824,1,0,0:0:0:0:
309,116,16021,1,0,0:0:0:0:
333,4,16219,6,0,P|248:35|219:72,1,120,0|0,0:0|0:0,0:0:0:0:
114,237,16614,2,0,P|68:275|10:288,1,120,0|0,0:0|0:0,0:0:0:0:
107,129,17008,1,0,0:0:0:0:
248,269,17205,1,0,0:0:0:0:
212,167,17402,1,0,0:0:0:0:
195,367,17600,1,0,0:0:0:0:
396,376,17798,6,0,L|297:358,1,90.0000034332277,0|0,0:0|0:0,0:0:0:0:
159,252,18193,2,0,L|258:270,1,90.0000034332277,0|0,0:0|0:0,0:0:0:0:
420,354,18587,2,0,L|370:345,1,45.0000017166138,0|0,0:0|0:0,0:0:0:0:
149,220,18785,1,0,0:0:0:0:
254,182,18982,1,0,0:0:0:0:
351,233,19179,1,0,0:0:0:0:
375,345,19377,6,0,P|290:314|261:277,1,120,0|0,0:0|0:0,0:0:0:0:
165,127,19772,2,0,P|119:88|61:75,1,120,0|0,0:0|0:0,0:0:0:0:
116,245,20166,1,0,0:0:0:0:
228,221,20363,1,0,0:0:0:0:
279,124,20560,1,0,0:0:0:0:
241,19,20758,1,0,0:0:0:0:
165,127,20956,6,0,L|276:126,1,90.0000034332277,0|0,0:0|0:0,0:0:0:0:
397,199,21351,2,0,L|286:200,1,90.0000034332277,0|0,0:0|0:0,0:0:0:0:
141,109,21745,2,0,L|196:108,1,45.0000017166138,0|0,0:0|0:0,0:0:0:0:
387,95,21943,1,0,0:0:0:0:
282,57,22140,1,0,0:0:0:0:
185,108,22337,1,0,0:0:0:0:
161,220,22535,6,0,P|246:189|275:152,1,120,0|0,0:0|0:0,0:0:0:0:
420,285,22929,2,0,P|335:254|306:217,1,120,0|0,0:0|0:0,0:0:0:0:
511,251,23324,1,0,0:0:0:0:
496,309,23423,1,0,0:0:0:0:
456,354,23522,1,0,0:0:0:0:
397,362,23620,1,0,0:0:0:0:
337,350,23719,2,0,P|293:328|266:304,1,60,0|0,0:0|0:0,0:0:0:0:
161,220,23916,2,0,P|117:242|90:266,1,60,0|0,0:0|0:0,0:0:0:0:
32,370,24114,6,0,L|148:345,1,90.0000034332277,0|0,0:0|0:0,0:0:0:0:
284,321,24508,2,0,L|168:296,1,90.0000034332277,0|0,0:0|0:0,0:0:0:0:
0,349,24903,2,0,L|58:336,1,45.0000017166138,0|0,0:0|0:0,0:0:0:0:
309,301,25101,1,0,0:0:0:0:
257,245,25199,1,0,0:0:0:0:
186,218,25298,1,0,0:0:0:0:
3,193,25495,1,0,0:0:0:0:
55,137,25593,1,0,0:0:0:0:
126,110,25693,6,0,P|196:103|289:147,1,143.999995605469,0|0,0:0|0:0,0:0:0:0:
425,338,26087,2,0,P|383:280|375:178,1,143.999995605469,0|0,0:0|0:0,0:0:0:0:
410,81,26482,2,0,P|370:121|314:141,1,71.9999978027344,0|0,0:0|0:0,0:0:0:0:
221,158,26679,2,0,P|261:118|317:98,1,71.9999978027344,0|0,0:0|0:0,0:0:0:0:
371,209,26877,2,0,P|314:204|263:174,1,71.9999978027344,0|0,0:0|0:0,0:0:0:0:
259,29,27074,2,0,P|316:34|367:64,1,71.9999978027344,0|0,0:0|0:0,0:0:0:0:
484,116,27272,5,0,0:0:0:0:
274,110,27469,1,0,0:0:0:0:
371,209,27666,1,0,0:0:0:0:
195,103,27864,1,0,0:0:0:0:
225,171,27962,1,0,0:0:0:0:
296,188,28061,1,0,0:0:0:0:
512,242,28258,5,0,0:0:0:0:
279,282,28456,1,0,0:0:0:0:
417,313,28653,1,0,0:0:0:0:
225,171,28851,2,0,P|306:164|389:227,1,143.999995605469,0|0,0:0|0:0,0:0:0:0:
94,149,29245,2,0,P|47:82|60:-21,1,143.999995605469,0|0,0:0|0:0,0:0:0:0:
133,277,29640,2,0,P|98:350|2:391,1,143.999995605469,0|0,0:0|0:0,0:0:0:0:
152,203,30035,2,0,P|173:180|216:156,1,71.9999978027344,0|0,0:0|0:0,0:0:0:0:
352,202,30232,2,0,P|321:195|279:170,1,71.9999978027344,0|0,0:0|0:0,0:0:0:0:
94,66,30429,5,0,0:0:0:0:
304,60,30626,1,0,0:0:0:0:
207,159,30823,1,0,0:0:0:0:
383,53,31021,1,0,0:0:0:0:
353,121,31119,1,0,0:0:0:0:
282,138,31218,1,0,0:0:0:0:
39,149,31416,1,0,0:0:0:0:
230,336,31614,1,0,0:0:0:0:
110,283,31811,1,0,0:0:0:0:
384,303,32008,6,0,P|339:248|242:213,1,143.999995605469,0|0,0:0|0:0,0:0:0:0:
11,252,32402,2,0,P|81:240|159:174,1,143.999995605469,0|0,0:0|0:0,0:0:0:0:
203,81,32797,2,0,P|203:137|228:191,1,71.9999978027344,0|0,0:0|0:0,0:0:0:0:
282,269,32994,2,0,P|282:212|256:158,1,71.9999978027344,0|0,0:0|0:0,0:0:0:0:
140,199,33192,2,0,P|183:235|241:250,1,71.9999978027344,0|0,0:0|0:0,0:0:0:0:
347,151,33389,2,0,P|303:114|245:99,1,71.9999978027344,0|0,0:0|0:0,0:0:0:0:
126,55,33587,5,0,0:0:0:0:
278,199,33784,1,0,0:0:0:0:
140,200,33981,1,0,0:0:0:0:
339,250,34179,1,0,0:0:0:0:
270,277,34277,1,0,0:0:0:0:
208,238,34376,1,0,0:0:0:0:
17,124,34573,5,0,0:0:0:0:
153,317,34771,1,0,0:0:0:0:
34,241,34968,1,0,0:0:0:0:
270,277,35166,2,0,P|241:222|123:207,1,143.999995605469,0|0,0:0|0:0,0:0:0:0:
352,340,35561,2,0,P|414:342|486:247,1,143.999995605469,0|0,0:0|0:0,0:0:0:0:
357,81,35956,2,0,P|333:111|319:137,1,60,0|0,0:0|0:0,0:0:0:0:
379,271,36153,2,0,P|403:241|417:215,1,60,0|0,0:0|0:0,0:0:0:0:
463,154,36351,2,0,P|425:144|396:143,1,60,0|0,0:0|0:0,0:0:0:0:
278,197,36548,2,0,P|315:206|344:207,1,60,0|0,0:0|0:0,0:0:0:0:
206,212,36745,5,0,0:0:0:0:
146,252,36844,1,0,0:0:0:0:
109,314,36943,1,0,0:0:0:0:
47,170,37140,1,0,0:0:0:0:
142,47,37337,5,0,0:0:0:0:
142,47,37436,1,0,0:0:0:0:
142,47,37535,1,0,0:0:0:0:
199,99,37633,1,0,0:0:0:0:
274,119,37732,1,0,0:0:0:0:
402,53,37929,5,0,0:0:0:0:
383,97,38028,1,0,0:0:0:0:
377,144,38127,1,0,0:0:0:0:
387,191,38226,1,0,0:0:0:0:
412,231,38324,6,0,P|326:280|259:278,1,143.999995605469,0|0,0:0|0:0,0:0:0:0:
204,259,38620,2,0,P|182:234|110:202,1,90.0000034332277,0|0,0:0|0:0,0:0:0:0:
60,184,38916,2,0,P|65:125|72:113,1,45.0000017166138,0|0,0:0|0:0,0:0:0:0:
81,67,39114,2,0,B|122:102|187:108|217:84|217:84|308:43|217:-8|141:29|217:83|217:83|271:132|354:112,1,467.999978576661,0|0,0:0|0:0,0:0:0:0:
415,89,39903,6,0,P|439:173|429:245,1,143.999995605469,0|0,0:0|0:0,0:0:0:0:
373,286,40199,2,0,P|335:308|300:354,1,90.0000034332277,0|0,0:0|0:0,0:0:0:0:
224,353,40495,2,0,P|170:354|159:348,1,45.0000017166138,0|0,0:0|0:0,0:0:0:0:
101,334,40693,2,0,P|83:277|26:219,1,120,0|0,0:0|0:0,0:0:0:0:
14,152,40989,2,0,P|54:127|108:114,1,90.0000034332277,0|0,0:0|0:0,0:0:0:0:
178,108,41285,2,0,P|208:86|221:68,1,45.0000017166138,0|0,0:0|0:0,0:0:0:0:
271,21,41482,6,0,P|351:47|406:121,1,143.999995605469,0|0,0:0|0:0,0:0:0:0:
376,172,41778,2,0,P|448:214|487:219,1,120,0|0,0:0|0:0,0:0:0:0:
505,299,42074,2,0,P|478:347|475:369,1,60,0|0,0:0|0:0,0:0:0:0:
401,310,42272,2,0,B|360:275|295:269|265:293|265:293|174:334|265:385|341:348|265:294|265:294|211:245|128:265,1,467.999978576661,0|0,0:0|0:0,0:0:0:0:
61,293,43061,2,0,P|69:216|20:122,1,143.999995605469,0|0,0:0|0:0,0:0:0:0:
21,75,43357,2,0,P|80:62|121:29,1,90.0000034332277,0|0,0:0|0:0,0:0:0:0:
182,28,43653,2,0,P|244:21|265:28,1,45.0000017166138,0|0,0:0|0:0,0:0:0:0:
304,49,43851,5,0,0:0:0:0:
304,49,44245,1,0,0:0:0:0:
338,127,44344,1,0,0:0:0:0:
404,180,44443,1,0,0:0:0:0:
512,291,44640,6,0,P|415:302|370:381,1,180.000006866455,0|0,0:0|0:0,0:0:0:0:
292,348,44936,2,0,P|284:296|215:224,1,132.00000402832,0|0,0:0|0:0,0:0:0:0:
192,318,45232,2,0,P|177:345|153:360,1,45.0000017166138,0|0,0:0|0:0,0:0:0:0:
78,319,45429,2,0,B|112:278|119:213|95:183|95:183|51:76|-95:178|30:273|94:183|94:183|143:129|123:46,1,545.999975006105,0|0,0:0|0:0,0:0:0:0:
201,28,46219,2,0,P|279:56|398:46,1,180.000006866455,0|0,0:0|0:0,0:0:0:0:
459,40,46515,2,0,P|462:143|440:194,1,143.999995605469,0|0,0:0|0:0,0:0:0:0:
401,250,46811,2,0,P|370:290|365:313,1,45.0000017166138,0|0,0:0|0:0,0:0:0:0:
306,336,47008,6,0,P|234:352|125:309,1,180.000006866455,0|0,0:0|0:0,0:0:0:0:
77,259,47304,2,0,P|139:224|172:154,1,143.999995605469,0|0,0:0|0:0,0:0:0:0:
252,130,47601,2,0,P|296:156|312:182,1,45.0000017166138,0|0,0:0|0:0,0:0:0:0:
339,226,47798,2,0,P|402:162|406:41,1,180.000006866455,0|0,0:0|0:0,0:0:0:0:
330,76,48094,2,0,P|257:36|193:52,1,143.999995605469,0|0,0:0|0:0,0:0:0:0:
118,30,48390,2,0,P|105:88|111:107,1,45.0000017166138,0|0,0:0|0:0,0:0:0:0:
26,107,48587,2,0,P|29:205|162:234,1,233.999989288331,0|0,0:0|0:0,0:0:0:0:
192,89,48982,1,0,0:0:0:0:
137,155,49081,1,0,0:0:0:0:
143,243,49179,1,0,0:0:0:0:
260,350,49377,6,0,P|326:269|388:247,1,143.999995605469,0|0,0:0|0:0,0:0:0:0:
441,224,49673,2,0,P|403:132|451:26,1,180.000006866455,0|0,0:0|0:0,0:0:0:0:
316,38,49969,1,0,0:0:0:0:
249,66,50068,1,0,0:0:0:0:
213,127,50166,1,0,0:0:0:0:
229,197,50265,1,0,0:0:0:0:
289,235,50364,1,0,0:0:0:0:
354,206,50462,1,0,0:0:0:0:
342,134,50561,1,0,0:0:0:0:
457,111,50758,1,0,0:0:0:0:
457,111,50857,1,0,0:0:0:0:
457,111,50956,5,0,0:0:0:0:
380,73,51153,1,0,0:0:0:0:
295,72,51350,2,0,P|240:80|181:137,1,120,0|0,0:0|0:0,0:0:0:0:
152,214,51646,1,0,0:0:0:0:
121,257,51745,2,0,P|76:295|17:304,1,120,0|0,0:0|0:0,0:0:0:0:
273,157,52140,2,0,P|329:177|367:223,1,120,0|0,0:0|0:0,0:0:0:0:
376,351,52436,1,0,0:0:0:0:
376,351,52534,5,0,0:0:0:0:
235,335,52732,1,0,0:0:0:0:
494,287,52929,1,0,0:0:0:0:
273,157,53324,1,0,0:0:0:0:
267,97,53423,1,0,0:0:0:0:
294,43,53521,1,0,0:0:0:0:
319,60,53620,1,0,0:0:0:0:
336,87,53719,2,0,P|365:166|328:247,1,120,0|0,0:0|0:0,0:0:0:0:
235,335,54015,1,0,0:0:0:0:
235,335,54113,5,0,0:0:0:0:
376,351,54311,1,0,0:0:0:0:
124,250,54507,2,0,P|155:203|232:174,1,120,0|0,0:0|0:0,0:0:0:0:
313,181,54803,1,0,0:0:0:0:
367,171,54902,2,0,P|421:145|455:96,1,120,0|0,0:0|0:0,0:0:0:0:
214,222,55297,2,0,P|209:281|235:334,1,120,0|0,0:0|0:0,0:0:0:0:
364,334,55594,1,0,0:0:0:0:
364,334,55692,5,0,0:0:0:0:
233,336,55889,1,0,0:0:0:0:
471,266,56087,1,0,0:0:0:0:
227,342,56482,1,0,0:0:0:0:
207,304,56580,1,0,0:0:0:0:
201,262,56679,1,0,0:0:0:0:
214,222,56778,1,0,0:0:0:0:
237,186,56877,1,0,0:0:0:0:
252,134,56975,1,0,0:0:0:0:
234,82,57074,1,0,0:0:0:0:
191,48,57173,1,0,0:0:0:0:
172,31,57271,5,0,0:0:0:0:
317,48,57468,1,0,0:0:0:0:
48,117,57665,2,0,P|79:164|156:193,1,120,0|0,0:0|0:0,0:0:0:0:
237,186,57961,1,0,0:0:0:0:
291,196,58060,2,0,P|345:222|379:271,1,120,0|0,0:0|0:0,0:0:0:0:
151,143,58455,2,0,P|146:84|172:31,1,120,0|0,0:0|0:0,0:0:0:0:
340,41,58752,1,0,0:0:0:0:
340,41,58850,5,0,0:0:0:0:
209,39,59047,1,0,0:0:0:0:
443,139,59245,1,0,0:0:0:0:
57,188,59640,1,0,0:0:0:0:
51,128,59739,1,0,0:0:0:0:
78,74,59837,1,0,0:0:0:0:
103,91,59936,1,0,0:0:0:0:
120,118,60035,2,0,P|149:197|112:278,1,120,0|0,0:0|0:0,0:0:0:0:
111,337,60330,1,0,0:0:0:0:
111,337,60429,5,0,0:0:0:0:
253,301,60626,1,0,0:0:0:0:
0,273,60823,2,0,P|31:226|108:197,1,120,0|0,0:0|0:0,0:0:0:0:
189,204,61119,1,0,0:0:0:0:
243,194,61218,2,0,P|297:168|331:119,1,120,0|0,0:0|0:0,0:0:0:0:
90,224,61613,2,0,P|85:283|111:336,1,120,0|0,0:0|0:0,0:0:0:0:
471,321,62008,6,0,P|453:253|428:231,1,90.0000034332277,0|0,0:0|0:0,0:0:0:0:
368,197,62304,2,0,P|295:211|202:160,1,143.999995605469,0|0,0:0|0:0,0:0:0:0:
34,211,62600,1,0,0:0:0:0:
70,179,62699,1,0,0:0:0:0:
115,162,62798,1,0,0:0:0:0:
157,185,62897,1,0,0:0:0:0:
199,205,62995,1,0,0:0:0:0:
246,210,63094,1,0,0:0:0:0:
293,201,63193,1,0,0:0:0:0:
337,182,63291,1,0,0:0:0:0:
376,154,63390,1,0,0:0:0:0:
403,114,63489,1,0,0:0:0:0:
376,93,63587,6,0,P|306:86|213:130,1,143.999995605469,0|0,0:0|0:0,0:0:0:0:
87,338,63981,2,0,P|129:280|137:178,1,143.999995605469,0|0,0:0|0:0,0:0:0:0:
102,81,64376,2,0,P|142:121|198:141,1,71.9999978027344,0|0,0:0|0:0,0:0:0:0:
291,158,64573,2,0,P|251:118|195:98,1,71.9999978027344,0|0,0:0|0:0,0:0:0:0:
141,209,64771,2,0,P|198:204|249:174,1,71.9999978027344,0|0,0:0|0:0,0:0:0:0:
253,29,64968,2,0,P|196:34|145:64,1,71.9999978027344,0|0,0:0|0:0,0:0:0:0:
28,116,65166,5,0,0:0:0:0:
238,110,65363,1,0,0:0:0:0:
141,209,65560,1,0,0:0:0:0:
317,103,65758,1,0,0:0:0:0:
287,171,65856,1,0,0:0:0:0:
216,188,65955,1,0,0:0:0:0:
0,242,66152,5,0,0:0:0:0:
233,282,66350,1,0,0:0:0:0:
95,313,66547,1,0,0:0:0:0:
287,171,66745,2,0,P|206:164|123:227,1,143.999995605469,0|0,0:0|0:0,0:0:0:0:
418,149,67139,2,0,P|464:82|451:-21,1,143.999995605469,0|0,0:0|0:0,0:0:0:0:
379,277,67534,2,0,P|413:350|509:391,1,143.999995605469,0|0,0:0|0:0,0:0:0:0:
360,203,67929,2,0,P|339:180|296:156,1,71.9999978027344,0|0,0:0|0:0,0:0:0:0:
160,202,68126,2,0,P|190:195|232:170,1,71.9999978027344,0|0,0:0|0:0,0:0:0:0:
418,66,68323,5,0,0:0:0:0:
208,60,68520,1,0,0:0:0:0:
305,159,68717,1,0,0:0:0:0:
129,53,68915,1,0,0:0:0:0:
159,121,69013,1,0,0:0:0:0:
230,138,69112,1,0,0:0:0:0:
473,149,69310,1,0,0:0:0:0:
282,336,69508,1,0,0:0:0:0:
402,283,69705,1,0,0:0:0:0:
128,303,69902,6,0,P|172:248|269:213,1,143.999995605469,0|0,0:0|0:0,0:0:0:0:
501,252,70296,2,0,P|430:240|352:174,1,143.999995605469,0|0,0:0|0:0,0:0:0:0:
309,81,70691,2,0,P|309:137|283:191,1,71.9999978027344,0|0,0:0|0:0,0:0:0:0:
230,269,70888,2,0,P|230:212|255:158,1,71.9999978027344,0|0,0:0|0:0,0:0:0:0:
372,199,71086,2,0,P|328:235|270:250,1,71.9999978027344,0|0,0:0|0:0,0:0:0:0:
165,151,71283,2,0,P|208:114|266:99,1,71.9999978027344,0|0,0:0|0:0,0:0:0:0:
386,55,71481,5,0,0:0:0:0:
234,199,71678,1,0,0:0:0:0:
372,200,71875,1,0,0:0:0:0:
173,250,72073,1,0,0:0:0:0:
242,277,72171,1,0,0:0:0:0:
304,238,72270,1,0,0:0:0:0:
495,124,72467,5,0,0:0:0:0:
359,317,72665,1,0,0:0:0:0:
478,241,72862,1,0,0:0:0:0:
242,277,73060,2,0,P|271:222|389:207,1,143.999995605469,0|0,0:0|0:0,0:0:0:0:
160,340,73455,2,0,P|97:342|25:247,1,143.999995605469,0|0,0:0|0:0,0:0:0:0:
155,81,73850,2,0,P|179:111|193:137,1,60,0|0,0:0|0:0,0:0:0:0:
133,271,74047,2,0,P|109:241|95:215,1,60,0|0,0:0|0:0,0:0:0:0:
49,154,74245,2,0,P|86:144|115:143,1,60,0|0,0:0|0:0,0:0:0:0:
234,197,74442,2,0,P|196:206|167:207,1,60,0|0,0:0|0:0,0:0:0:0:
306,212,74639,5,0,0:0:0:0:
366,252,74738,1,0,0:0:0:0:
403,314,74837,1,0,0:0:0:0:
465,170,75034,1,0,0:0:0:0:
370,47,75231,5,0,0:0:0:0:
370,47,75330,1,0,0:0:0:0:
370,47,75429,1,0,0:0:0:0:
313,99,75527,1,0,0:0:0:0:
238,119,75626,1,0,0:0:0:0:
110,53,75823,5,0,0:0:0:0:
129,97,75922,1,0,0:0:0:0:
135,144,76021,1,0,0:0:0:0:
125,191,76120,1,0,0:0:0:0:
100,231,76219,6,0,P|186:280|253:278,1,143.999995605469,0|0,0:0|0:0,0:0:0:0:
308,259,76515,2,0,P|330:234|402:202,1,90.0000034332277,0|0,0:0|0:0,0:0:0:0:
452,184,76811,2,0,P|447:125|440:113,1,45.0000017166138,0|0,0:0|0:0,0:0:0:0:
431,67,77009,2,0,B|390:102|325:108|295:84|295:84|204:43|295:-8|371:29|295:83|295:83|241:132|158:112,1,467.999978576661,0|0,0:0|0:0,0:0:0:0:
97,89,77798,6,0,P|73:173|83:245,1,143.999995605469,0|0,0:0|0:0,0:0:0:0:
139,286,78094,2,0,P|177:308|212:354,1,90.0000034332277,0|0,0:0|0:0,0:0:0:0:
288,353,78390,2,0,P|342:354|353:348,1,45.0000017166138,0|0,0:0|0:0,0:0:0:0:
411,334,78588,2,0,P|429:277|486:219,1,120,0|0,0:0|0:0,0:0:0:0:
498,152,78884,2,0,P|458:127|404:114,1,90.0000034332277,0|0,0:0|0:0,0:0:0:0:
334,108,79180,2,0,P|304:86|291:68,1,45.0000017166138,0|0,0:0|0:0,0:0:0:0:
241,21,79377,6,0,P|161:47|106:121,1,143.999995605469,0|0,0:0|0:0,0:0:0:0:
136,172,79673,2,0,P|64:214|25:219,1,120,0|0,0:0|0:0,0:0:0:0:
7,299,79969,2,0,P|34:347|37:369,1,60,0|0,0:0|0:0,0:0:0:0:
111,310,80167,2,0,B|152:275|217:269|247:293|247:293|338:334|247:385|171:348|247:294|247:294|301:245|384:265,1,467.999978576661,0|0,0:0|0:0,0:0:0:0:
451,293,80956,2,0,P|443:216|492:122,1,143.999995605469,0|0,0:0|0:0,0:0:0:0:
491,75,81252,2,0,P|432:62|391:29,1,90.0000034332277,0|0,0:0|0:0,0:0:0:0:
330,28,81548,2,0,P|268:21|247:28,1,45.0000017166138,0|0,0:0|0:0,0:0:0:0:
208,49,81746,5,0,0:0:0:0:
208,49,82140,1,0,0:0:0:0:
174,127,82239,1,0,0:0:0:0:
108,180,82338,1,0,0:0:0:0:
0,291,82535,6,0,P|97:302|142:381,1,180.000006866455,0|0,0:0|0:0,0:0:0:0:
220,348,82831,2,0,P|228:296|297:224,1,132.00000402832,0|0,0:0|0:0,0:0:0:0:
320,318,83127,2,0,P|335:345|359:360,1,45.0000017166138,0|0,0:0|0:0,0:0:0:0:
434,319,83324,2,0,B|399:278|393:213|417:183|417:183|461:76|607:178|482:273|418:183|418:183|369:129|389:46,1,545.999975006105,0|0,0:0|0:0,0:0:0:0:
311,28,84114,2,0,P|233:56|114:46,1,180.000006866455,0|0,0:0|0:0,0:0:0:0:
53,40,84410,2,0,P|50:143|72:194,1,143.999995605469,0|0,0:0|0:0,0:0:0:0:
111,250,84706,2,0,P|142:290|147:313,1,45.0000017166138,0|0,0:0|0:0,0:0:0:0:
206,336,84903,6,0,P|278:352|387:309,1,180.000006866455,0|0,0:0|0:0,0:0:0:0:
435,259,85199,2,0,P|373:224|340:154,1,143.999995605469,0|0,0:0|0:0,0:0:0:0:
260,130,85496,2,0,P|215:156|199:182,1,45.0000017166138,0|0,0:0|0:0,0:0:0:0:
173,226,85693,2,0,P|109:162|105:41,1,180.000006866455,0|0,0:0|0:0,0:0:0:0:
182,76,85989,2,0,P|255:36|319:52,1,143.999995605469,0|0,0:0|0:0,0:0:0:0:
394,30,86285,2,0,P|407:88|401:107,1,45.0000017166138,0|0,0:0|0:0,0:0:0:0:
486,107,86482,2,0,P|483:205|350:234,1,233.999989288331,0|0,0:0|0:0,0:0:0:0:
320,89,86877,1,0,0:0:0:0:
375,155,86976,1,0,0:0:0:0:
369,243,87074,1,0,0:0:0:0:
252,350,87272,6,0,P|186:269|124:247,1,143.999995605469,0|0,0:0|0:0,0:0:0:0:
71,224,87568,2,0,P|109:132|61:26,1,180.000006866455,0|0,0:0|0:0,0:0:0:0:
171,32,87864,2,0,P|217:78|231:114,1,71.9999978027344,0|0,0:0|0:0,0:0:0:0:
234,194,88061,2,0,P|252:168|259:148,1,45.0000017166138,0|0,0:0|0:0,0:0:0:0:
309,18,88258,2,0,P|309:83|293:119,1,71.9999978027344,0|0,0:0|0:0,0:0:0:0:
370,166,88456,2,0,P|380:136|382:115,1,45.0000017166138,0|0,0:0|0:0,0:0:0:0:
430,46,88653,1,0,0:0:0:0:
463,114,88752,1,0,0:0:0:0:
465,189,88851,6,0,P|419:299|415:326,1,90.0000034332277,0|0,0:0|0:0,0:0:0:0:
409,374,89048,1,0,0:0:0:0:
351,259,89147,2,0,P|319:189|39:113,1,360.000013732911,0|0,0:0|0:0,0:0:0:0:
47,189,89640,6,0,P|93:299|97:326,1,90.0000034332277,0|0,0:0|0:0,0:0:0:0:
103,374,89837,1,0,0:0:0:0:
161,259,89936,2,0,P|193:189|335:179,1,180.000006866455,0|0,0:0|0:0,0:0:0:0:
418,278,90232,2,0,P|339:239|312:211,1,90.0000034332277,0|0,0:0|0:0,0:0:0:0:
351,0,90429,2,0,P|395:62|333:190,1,180.000006866455,0|0,0:0|0:0,0:0:0:0:
222,219,90824,2,0,P|267:168|317:148,1,90.0000034332277,0|0,0:0|0:0,0:0:0:0:
428,212,91022,5,0,0:0:0:0:
370,156,91120,1,0,0:0:0:0:
372,74,91219,1,0,0:0:0:0:
424,12,91318,1,0,0:0:0:0:
504,16,91416,2,0,P|518:128|501:171,1,90.0000034332277,0|0,0:0|0:0,0:0:0:0:
487,296,91614,2,0,P|410:303|330:185,1,180.000006866455,0|0,0:0|0:0,0:0:0:0:
20,39,92008,6,0,P|69:108|62:175,1,90.0000034332277,0|0,0:0|0:0,0:0:0:0:
64,216,92206,1,0,0:0:0:0:
148,111,92304,2,0,P|266:70|385:74,1,180.000006866455,0|0,0:0|0:0,0:0:0:0:
466,77,92601,6,0,P|439:159|419:170,1,60,0|0,0:0|0:0,0:0:0:0:
409,259,92798,2,0,P|394:189|399:162,1,60,0|0,0:0|0:0,0:0:0:0:
492,71,92995,2,0,P|465:153|445:164,1,60,0|0,0:0|0:0,0:0:0:0:
385,282,93193,2,0,P|370:212|375:185,1,60,0|0,0:0|0:0,0:0:0:0:
512,68,93390,2,0,P|485:150|465:161,1,60,0|0,0:0|0:0,0:0:0:0:
351,301,93587,2,0,P|331:203|418:74,1,240,0|0,0:0|0:0,0:0:0:0:
195,286,94179,1,0,0:0:0:0:
103,264,94278,1,0,0:0:0:0:
165,204,94377,2,0,P|233:193|351:352,1,240,0|0,0:0|0:0,0:0:0:0:
350,300,95166,6,0,P|355:268|384:225,1,60,0|0,0:0|0:0,0:0:0:0:
419,184,95364,1,0,0:0:0:0:
310,180,95462,2,0,P|211:157|165:124,1,120,0|0,0:0|0:0,0:0:0:0:
177,63,95758,2,0,P|212:39|231:15,1,60,0|0,0:0|0:0,0:0:0:0:
307,61,95956,2,0,P|342:85|361:109,1,60,0|0,0:0|0:0,0:0:0:0:
419,184,96153,1,0,0:0:0:0:
310,180,96252,2,0,P|211:203|165:236,1,120,0|0,0:0|0:0,0:0:0:0:
126,304,96548,2,0,P|102:234|105:208,1,60,0|0,0:0|0:0,0:0:0:0:
121,123,96745,6,0,P|171:198|222:219,1,120,0|0,0:0|0:0,0:0:0:0:
380,242,97140,1,0,0:0:0:0:
359,141,97337,1,0,0:0:0:0:
325,155,97436,1,0,0:0:0:0:
300,181,97535,1,0,0:0:0:0:
282,212,97633,1,0,0:0:0:0:
270,246,97732,1,0,0:0:0:0:
380,242,97929,1,0,0:0:0:0:
380,242,98324,6,0,P|268:91|341:301,1,660
106,130,99508,1,0,0:0:0:0:
154,195,99706,1,0,0:0:0:0:
238,210,99903,2,0,P|287:175|294:159,1,60,0|0,0:0|0:0,0:0:0:0:
350,215,100298,2,0,P|359:155|348:127,1,83.9999974365235
432,109,100693,2,0,P|397:60|327:49,1,120
268,88,101087,2,0,P|187:132|108:127,1,143.999995605469
47,189,101482,6,0,P|93:299|97:326,1,90.0000034332277,0|0,0:0|0:0,0:0:0:0:
103,374,101679,1,0,0:0:0:0:
161,259,101778,2,0,P|193:189|473:113,1,360.000013732911,0|0,0:0|0:0,0:0:0:0:
465,189,102271,6,0,P|419:299|415:326,1,90.0000034332277,0|0,0:0|0:0,0:0:0:0:
409,374,102468,1,0,0:0:0:0:
351,259,102567,2,0,P|319:189|177:179,1,180.000006866455,0|0,0:0|0:0,0:0:0:0:
94,278,102863,2,0,P|173:239|200:211,1,90.0000034332277,0|0,0:0|0:0,0:0:0:0:
161,0,103060,2,0,P|116:62|178:190,1,180.000006866455,0|0,0:0|0:0,0:0:0:0:
290,219,103455,2,0,P|244:168|194:148,1,90.0000034332277,0|0,0:0|0:0,0:0:0:0:
84,212,103653,5,0,0:0:0:0:
142,156,103751,1,0,0:0:0:0:
140,74,103850,1,0,0:0:0:0:
88,12,103949,1,0,0:0:0:0:
8,16,104047,2,0,P|-6:128|11:171,1,90.0000034332277,0|0,0:0|0:0,0:0:0:0:
25,296,104245,2,0,P|101:303|181:185,1,180.000006866455,0|0,0:0|0:0,0:0:0:0:
492,39,104639,6,0,P|443:108|450:175,1,90.0000034332277,0|0,0:0|0:0,0:0:0:0:
448,216,104837,1,0,0:0:0:0:
364,111,104935,2,0,P|246:70|127:74,1,180.000006866455,0|0,0:0|0:0,0:0:0:0:
46,77,105232,6,0,P|73:159|93:170,1,60,0|0,0:0|0:0,0:0:0:0:
103,259,105429,2,0,P|118:189|113:162,1,60,0|0,0:0|0:0,0:0:0:0:
20,71,105626,2,0,P|47:153|67:164,1,60,0|0,0:0|0:0,0:0:0:0:
127,282,105824,2,0,P|142:212|137:185,1,60,0|0,0:0|0:0,0:0:0:0:
0,68,106021,2,0,P|27:150|47:161,1,60,0|0,0:0|0:0,0:0:0:0:
161,301,106218,2,0,P|181:203|94:74,1,240,0|0,0:0|0:0,0:0:0:0:
317,286,106810,1,0,0:0:0:0:
409,264,106909,1,0,0:0:0:0:
347,204,107008,2,0,P|278:193|161:352,1,240,0|0,0:0|0:0,0:0:0:0:
161,300,107798,6,0,P|147:218|121:177,1,90.0000034332277
77,161,107995,1,0,0:0:0:0:
184,142,108094,2,0,P|276:112|355:45,1,180.000006866455
466,77,108390,6,0,P|439:159|411:187,1,90.0000034332277
396,305,108587,2,0,P|381:235|387:189,1,90.0000034332277
496,71,108785,2,0,P|469:153|441:181,1,90.0000034332277
372,329,108982,2,0,P|357:259|361:227,1,90.0000034332277
512,61,109179,2,0,P|485:143|457:171,1,90.0000034332277
345,351,109377,2,0,P|330:281|334:249,1,90.0000034332277
383,95,109574,1,0,0:0:0:0:
447,165,109673,1,0,0:0:0:0:
356,189,109772,2,0,P|277:100|465:44,1,360.000013732911
383,95,110561,1,0,0:0:0:0:
383,95,110956,6,0,P|281:75|103:283,1,360.000013732911
319,321,111548,2,0,P|276:292|197:265,1,90.0000034332277
53,160,111745,2,0,P|79:204|139:262,1,90.0000034332277
354,319,111943,2,0,P|311:290|232:263,1,90.0000034332277
26,156,112140,2,0,P|52:200|112:258,1,90.0000034332277
380,320,112337,2,0,P|337:291|258:264,1,90.0000034332277
0,136,112535,2,0,P|26:180|247:91,1,360.000013732911
61,87,113127,5,0,0:0:0:0:
116,158,113226,1,0,0:0:0:0:
202,179,113324,1,0,0:0:0:0:
290,162,113423,1,0,0:0:0:0:
351,96,113522,1,0,0:0:0:0:
437,117,113620,1,0,0:0:0:0:
471,200,113719,1,0,0:0:0:0:
373,199,113916,5,0,0:0:0:0:
373,199,114015,1,0,0:0:0:0:
373,199,114114,1,0,0:0:0:0:
256,192,114212,12,0,118061,0:0:0:0:
