osu file format v14

[General]
AudioFilename: audio.mp3
AudioLeadIn: 0
PreviewTime: 8117
Countdown: 0
SampleSet: Soft
StackLeniency: 0.7
Mode: 0
LetterboxInBreaks: 0
WidescreenStoryboard: 1

[Editor]
Bookmarks: 70622
DistanceSpacing: 1.4
BeatDivisor: 4
GridSize: 32
TimelineZoom: 1

[Metadata]
Title:Fumoto no Jinja
TitleUnicode:麓の神社
Artist:xi-on
ArtistUnicode:彩音 ~xi-on~
Creator:Naotoshi
Version:Normal
Source:東方Project
Tags:風彩旋律 -ふうさいせんりつ- halfsmashed absolute zero fusai senritsu 東方風神録 ~ Mountain of Faith Touhou Fuujinroku shrine at the foot of mountain
BeatmapID:1483330
BeatmapSetID:700682

[Difficulty]
HPDrainRate:3
CircleSize:4
OverallDifficulty:3
ApproachRate:4
SliderMultiplier:1.4
SliderTickRate:1

[Events]
//Background and Video events
0,0,"mountain_of_faith_by_margatarna-d8mbem3.jpg",0,0
//Break Periods
//Storyboard Layer 0 (Background)
//Storyboard Layer 1 (Fail)
//Storyboard Layer 2 (Pass)
//Storyboard Layer 3 (Foreground)
//Storyboard Sound Samples

[TimingPoints]
8565,689.655172413793,3,2,1,30,1,0
8565,-90.9090909090909,3,2,1,30,0,0
8909,633.312222925902,3,2,2,30,1,0
8909,-100,3,2,2,30,0,0
9225,-100,3,2,3,30,0,0
10492,633.312222925902,3,2,4,30,1,0
10492,-100,3,2,4,30,0,0
10809,-100,3,2,2,30,0,0
11125,-100,3,2,3,30,0,0
12392,-100,3,2,5,30,0,0
12709,-100,3,2,6,30,0,0
13025,-100,3,2,3,30,0,0
14292,-100,3,2,11,30,0,0
15543,633.312222925902,3,2,7,30,1,0
15543,-100,3,2,7,30,0,0
16192,633.312222925902,3,2,1,30,1,0
16192,-100,3,2,1,30,0,0
16509,-100,3,2,2,30,0,0
16826,-100,3,2,3,30,0,0
18092,-100,3,2,4,30,0,0
18409,-100,3,2,2,30,0,0
18725,-100,3,2,3,30,0,0
19992,-100,3,2,5,30,0,0
20309,-100,3,2,6,30,0,0
20625,-100,3,2,3,30,0,0
21892,-100,3,2,11,30,0,0
23159,-100,3,2,7,30,0,0
23792,632.511068943707,3,2,8,30,1,0
23792,-100,3,2,8,30,0,0
24108,-100,3,2,9,30,0,0
24424,-100,3,2,10,30,0,0
24740,-100,3,2,9,30,0,0
25057,-100,3,2,3,30,0,0
25373,-100,3,2,9,30,0,0
25689,-100,3,2,11,30,0,0
26005,-100,3,2,3,30,0,0
26322,-100,3,2,10,30,0,0
26638,-100,3,2,9,30,0,0
26954,-100,3,2,10,30,0,0
27270,-100,3,2,3,30,0,0
27587,-100,3,2,8,30,0,0
27903,-100,3,2,9,30,0,0
28219,-100,3,2,10,30,0,0
28535,-100,3,2,9,30,0,0
28852,-100,3,2,3,30,0,0
29168,-100,3,2,9,30,0,0
29484,-100,3,2,11,30,0,0
29800,-100,3,2,3,30,0,0
30117,-100,3,2,10,30,0,0
30433,-100,3,2,9,30,0,0
30749,-100,3,2,8,30,0,0
31065,-100,3,2,12,30,0,0
31382,-100,3,2,8,30,0,0
31698,-100,3,2,9,30,0,0
32014,-100,3,2,10,30,0,0
32330,-100,3,2,9,30,0,0
32647,-100,3,2,3,30,0,0
32963,-100,3,2,9,30,0,0
33279,-100,3,2,11,30,0,0
33595,-100,3,2,3,30,0,0
33912,-100,3,2,10,30,0,0
34228,-100,3,2,9,30,0,0
34544,-100,3,2,10,30,0,0
34860,-100,3,2,3,30,0,0
35177,-100,3,2,8,30,0,0
35493,-100,3,2,9,30,0,0
35809,-100,3,2,10,30,0,0
36125,-100,3,2,9,30,0,0
36442,-100,3,2,3,30,0,0
36758,-100,3,2,9,30,0,0
37074,-100,3,2,11,30,0,0
37390,-100,3,2,3,30,0,0
37707,600,3,2,10,30,1,0
37707,-100,3,2,10,30,0,0
38007,659.340659340659,3,2,9,30,1,0
38007,-100,3,2,9,30,0,0
38336,710.059171597633,3,2,17,56,1,0
38336,-100,3,2,17,56,0,0
38691,-100,3,2,12,56,0,0
39046,629.590766002099,3,2,8,56,1,0
39046,-100,3,2,8,56,0,0
39675,-100,3,2,7,56,0,0
40305,-100,3,2,3,56,0,0
40934,-100,3,2,10,56,0,0
41564,-100,3,2,9,56,0,0
42193,-100,3,2,13,56,0,0
42508,-100,3,2,11,56,0,0
42823,-100,3,2,9,56,0,0
43453,-100,3,2,10,56,0,0
44082,-100,3,2,3,56,0,0
44712,-100,3,2,11,56,0,0
45027,-100,3,2,14,28,0,0
45341,-100,3,2,5,28,0,0
45656,-100,3,2,1,28,0,0
45971,-100,3,2,6,28,0,0
46286,-100,3,2,15,28,0,0
46601,-100,3,2,11,56,0,0
47230,-100,3,2,16,56,0,0
47860,-100,3,2,2,56,0,0
48489,-100,3,2,11,56,0,0
49119,-100,3,2,16,56,0,0
49749,-100,3,2,2,56,0,0
50063,-100,3,2,11,56,0,0
50378,-100,3,2,2,56,0,0
52267,-100,3,2,11,56,0,0
53211,-100,3,2,10,56,0,0
53526,-100,3,2,1,56,0,0
54156,628.272251308901,3,2,11,56,1,0
54156,-100,3,2,11,56,0,0
54784,-100,3,2,7,56,0,0
55412,-100,3,2,3,56,0,0
55726,-100,3,2,11,56,0,0
56040,-100,3,2,10,56,0,0
56669,-100,3,2,9,56,0,0
57297,-100,3,2,13,56,0,0
57611,-100,3,2,11,56,0,0
57925,-100,3,2,17,56,0,0
58553,-100,3,2,12,56,0,0
59182,-100,3,2,18,56,0,0
59496,-100,3,2,11,56,0,0
59810,-100,3,2,19,56,0,0
60752,-100,3,2,11,56,0,0
61066,-100,3,2,1,56,0,0
61695,-100,3,2,18,56,0,0
62323,-100,3,2,12,56,0,0
62951,-100,3,2,17,56,0,0
63580,-100,3,2,19,56,0,0
64208,-100,3,2,18,56,0,0
64522,-100,3,2,10,56,0,0
64836,-100,3,2,12,56,0,0
65464,-100,3,2,17,56,0,0
66405,697.674418604651,3,2,0,56,1,0
66407,-100,3,2,0,56,0,0
66753,681.818181818182,3,2,13,56,1,0
66753,-100,3,2,13,56,0,0
67434,637.619553666313,3,2,17,56,1,0
67434,-100,3,2,17,56,0,0
67752,-100,3,2,1,28,0,0
68071,-100,3,2,3,28,0,0
68390,-100,3,2,4,28,0,0
68709,-100,3,2,22,28,0,0
69028,-100,3,2,2,28,0,0
69346,-100,3,2,11,28,0,0
70622,-100,3,2,0,56,0,0
71259,633.579725448786,3,2,1,30,1,0
71259,-100,3,2,1,30,0,0
71576,-100,3,2,2,30,0,0
71892,632.911392405063,3,2,3,30,1,0
71892,-100,3,2,3,30,0,0
73157,632.911392405063,3,2,4,30,1,0
73159,-100,3,2,4,30,0,0
73476,-100,3,2,2,30,0,0
73792,-100,3,2,3,30,0,0
75059,-100,3,2,5,30,0,0
75376,-100,3,2,6,30,0,0
75692,-100,3,2,3,30,0,0
76955,-100,3,2,11,30,0,0
78221,-100,3,2,7,30,0,0
78854,-100,3,2,1,30,0,0
79171,-100,3,2,2,30,0,0
79488,-100,3,2,3,30,0,0
80754,-100,3,2,4,30,0,0
81071,-100,3,2,2,30,0,0
81387,-100,3,2,3,30,0,0
82654,-100,3,2,5,30,0,0
82967,-100,3,2,6,30,0,0
83287,-100,3,2,3,30,0,0
84550,-100,3,2,11,30,0,0
85183,674.157303370787,3,2,0,30,1,0
85183,-100,3,2,0,30,0,0
85520,736.196319018405,3,2,0,30,1,0
85520,-100,3,2,0,30,0,0
85888,745.341614906832,3,2,7,30,1,0
85888,-100,3,2,7,30,0,0
86633,618.556701030928,3,2,0,30,1,0
86633,-100,3,2,0,30,0,0
86942,821.917808219178,3,2,11,30,1,0
86942,-100,3,2,11,30,0,0
87352,705.882352941176,3,2,3,30,1,0
87352,-100,3,2,3,30,0,0
87704,659.340659340659,3,2,9,30,1,0
87704,-100,3,2,9,30,0,0
88033,674.157303370787,3,2,13,30,1,0
88033,-100,3,2,13,30,0,0
88370,769.230769230769,3,2,18,30,1,0
88370,-100,3,2,18,30,0,0
88754,810.810810810811,3,2,19,30,1,0
88754,-100,3,2,19,30,0,0
89159,705.882352941176,3,2,23,30,1,0
89159,-100,3,2,23,30,0,0

[Colours]
Combo1 : 69,135,233
Combo2 : 15,183,187
Combo3 : 183,234,253
Combo4 : 208,193,176

[HitObjects]
125,252,8564,6,0,L|119:163,1,70,2|2,0:2|0:2,0:0:0:0:
177,103,9225,1,2,0:2:0:0:
346,233,10492,2,0,L|435:240,1,70,2|2,0:2|0:2,0:0:0:0:
499,187,11125,1,2,0:2:0:0:
318,55,12392,6,0,L|293:139,1,70,2|2,0:2|0:2,0:0:0:0:
348,206,13025,1,2,0:2:0:0:
147,310,14292,1,2,0:2:0:0:
98,88,15543,1,2,0:2:0:0:
251,167,16192,6,0,L|329:175,1,70,2|2,0:2|0:2,0:0:0:0:
386,246,16825,1,2,0:2:0:0:
178,306,18092,2,0,L|85:285,1,70,2|2,0:2|0:2,0:0:0:0:
26,341,18725,1,2,0:2:0:0:
89,140,19992,6,0,L|107:66,1,70,2|2,0:2|0:2,0:0:0:0:
192,27,20625,1,2,0:2:0:0:
357,200,21892,1,2,0:2:0:0:
477,30,23158,1,2,0:2:0:0:
505,164,23792,6,0,P|497:240|494:249,1,70,2|2,0:2|0:2,0:0:0:0:
417,287,24425,2,0,P|366:271|318:266,1,70,2|2,0:2|0:2,0:0:0:0:
265,318,25057,1,2,0:2:0:0:
175,277,25373,1,2,0:2:0:0:
93,331,25690,2,0,P|36:325|7:311,1,70,2|2,0:2|0:2,0:0:0:0:
27,222,26322,2,0,P|60:212|95:211,1,70,2|2,0:2|0:2,0:0:0:0:
178,159,26955,2,0,P|173:103|165:87,1,70,2|2,0:2|0:2,0:0:0:0:
238,23,27587,6,0,P|282:44|319:49,1,70,2|2,0:2|0:2,0:0:0:0:
397,22,28219,2,0,P|423:74|424:115,1,70,2|2,0:2|0:2,0:0:0:0:
358,157,28852,2,0,P|337:221|338:248,1,70,2|2,0:2|0:2,0:0:0:0:
397,300,29484,1,2,0:2:0:0:
479,247,29800,1,2,0:2:0:0:
427,164,30117,2,0,P|373:156|344:158,1,70,2|2,0:2|0:2,0:0:0:0:
263,184,30749,1,2,0:2:0:0:
199,110,31065,1,2,0:2:0:0:
123,172,31382,6,0,P|108:239|110:264,1,70,2|2,0:2|0:2,0:0:0:0:
184,301,32014,2,0,P|241:285|273:284,1,70,2|2,0:2|0:2,0:0:0:0:
332,339,32647,2,0,P|375:358|419:369,1,70,2|2,0:2|0:2,0:0:0:0:
483,318,33279,2,0,P|484:263|473:226,1,70,2|2,0:2|0:2,0:0:0:0:
394,202,33912,1,2,0:2:0:0:
455,126,34228,2,0,P|477:63|476:33,2,70,2|2|2,0:2|0:2|0:2,0:0:0:0:
363,89,35177,6,0,P|308:81|281:85,1,70,2|2,0:2|0:2,0:0:0:0:
224,151,35809,2,0,P|180:174|141:183,1,70,2|2,0:2|0:2,0:0:0:0:
69,143,36442,1,2,0:2:0:0:
82,45,36758,1,2,0:2:0:0:
179,52,37074,2,0,P|232:62|269:55,1,70,2|2,0:2|0:2,0:0:0:0:
344,23,37707,2,0,L|348:106,1,70,2|0,0:2|0:0,0:0:0:0:
410,158,38336,2,0,L|398:256,1,70,2|0,0:2|0:0,0:0:0:0:
458,321,39046,5,2,3:2:0:0:
302,258,39675,1,2,0:2:0:0:
160,347,40305,1,2,0:2:0:0:
90,300,40619,1,0,0:0:0:0:
144,235,40934,2,0,L|141:156,1,70,6|0,0:2|0:0,0:0:0:0:
88,98,41564,1,2,0:2:0:0:
237,22,42193,1,2,0:2:0:0:
302,74,42508,1,0,3:2:0:0:
382,48,42823,5,2,3:2:0:0:
281,182,43453,1,2,0:2:0:0:
413,284,44082,2,0,P|430:229|453:196,1,70,2|0,0:2|0:0,0:0:0:0:
504,169,44712,1,6,0:2:0:0:
504,169,46601,6,0,P|444:175|407:166,1,70,2|0,3:2|0:0,0:0:0:0:
367,122,47230,1,2,0:2:0:0:
256,248,47860,1,2,0:2:0:0:
130,136,48489,2,0,P|146:75|143:39,1,70,6|0,0:2|0:0,0:0:0:0:
87,7,49119,1,2,0:2:0:0:
6,154,49749,1,2,0:2:0:0:
111,284,50378,6,0,P|166:258|264:282,2,140,2|0|0,3:2|0:0|0:0,0:0:0:0:
31,257,51952,1,0,0:0:0:0:
63,179,52267,1,6,0:2:0:0:
63,179,53211,1,8,0:2:0:0:
142,150,53526,2,0,L|228:185,1,70,2|0,0:1|0:0,0:0:0:0:
288,121,54156,6,0,P|318:157|312:273,1,140,2|2,3:2|0:2,0:0:0:0:
245,303,55098,1,0,0:2:0:0:
159,255,55412,2,0,P|94:251|64:261,1,70,2|0,0:2|3:2,0:0:0:0:
10,308,56040,1,14,0:2:0:0:
83,125,56669,1,2,0:2:0:0:
169,171,56983,1,0,0:2:0:0:
234,97,57297,1,2,0:2:0:0:
408,186,57925,6,0,P|386:118|421:36,1,140,2|2,3:2|0:2,0:0:0:0:
315,15,58868,1,0,0:2:0:0:
236,74,59182,2,0,P|173:87|144:84,1,70,2|0,0:2|3:2,0:0:0:0:
78,46,59810,1,14,0:2:0:0:
78,46,60752,1,0,3:2:0:0:
29,131,61066,1,4,0:1:0:0:
114,307,61695,6,0,P|173:290|260:329,1,140,2|2,3:2|0:2,0:0:0:0:
313,244,62637,1,0,0:2:0:0:
257,163,62951,2,0,P|214:174|178:199,1,70,2|0,0:2|0:0,0:0:0:0:
96,162,63580,2,0,P|62:131|130:65,1,140,14|2,0:2|0:2,0:0:0:0:
190,105,64522,1,8,0:2:0:0:
265,42,64836,1,10,0:2:0:0:
393,190,65464,6,0,P|426:128|410:52,1,140,2|0,3:2|0:2,0:0:0:0:
333,16,66405,1,0,0:2:0:0:
328,110,66753,2,0,B|275:141|254:98|188:130,1,140,10|6,0:2|3:2,0:0:0:0:
192,128,69346,1,2,0:2:0:0:
192,128,71259,6,0,P|142:153|111:162,1,70,2|2,0:2|0:2,0:0:0:0:
40,111,71892,1,2,0:2:0:0:
40,111,72208,1,0,2:3:0:0:
53,278,73157,2,0,P|89:298|133:309,1,70,2|2,0:2|0:2,0:0:0:0:
209,267,73790,1,2,0:2:0:0:
209,267,74107,1,0,0:2:0:0:
375,313,75056,6,0,P|380:260|391:229,1,70,2|2,0:2|0:2,0:0:0:0:
450,170,75689,1,2,0:2:0:0:
450,170,76005,1,0,0:2:0:0:
291,90,76955,1,6,0:2:0:0:
291,90,77904,1,0,0:0:0:0:
211,147,78221,1,2,0:2:0:0:
60,82,78854,6,0,P|65:128|60:163,1,70,2|2,0:2|0:2,0:0:0:0:
9,233,79486,1,2,0:2:0:0:
9,233,79803,1,0,0:2:0:0:
193,302,80752,2,0,P|245:287|284:283,1,70,2|2,0:2|0:2,0:0:0:0:
355,311,81385,1,2,0:2:0:0:
355,311,81702,1,0,0:2:0:0:
446,177,82651,6,0,P|453:131|447:100,1,70,2|2,0:2|0:2,0:0:0:0:
401,22,83284,1,2,0:2:0:0:
401,22,83600,1,0,0:2:0:0:
262,116,84550,2,0,P|199:134|126:110,1,140,2|0,0:2|0:0,0:0:0:0:
81,36,85520,1,0,0:0:0:0:
10,86,85888,1,2,0:2:0:0:
84,230,86942,6,0,P|127:219|167:224,1,70,2|2,3:2|0:2,0:0:0:0:
245,267,87704,2,0,P|297:268|324:261,1,70,2|2,0:2|0:2,0:0:0:0:
391,227,88370,1,2,0:2:0:0:
405,143,88754,1,2,0:2:0:0:
354,75,89159,5,2,0:2:0:0:
