osu file format v14

[General]
AudioFilename: audio.mp3
AudioLeadIn: 0
PreviewTime: 8117
Countdown: 0
SampleSet: Soft
StackLeniency: 0.7
Mode: 0
LetterboxInBreaks: 0
WidescreenStoryboard: 0

[Editor]
Bookmarks: 70622
DistanceSpacing: 1.4
BeatDivisor: 4
GridSize: 32
TimelineZoom: 1

[Metadata]
Title:Fumoto no Jinja
TitleUnicode:麓の神社
Artist:xi-on
ArtistUnicode:彩音 ~xi-on~
Creator:Naotoshi
Version:Moriya
Source:東方Project
Tags:風彩旋律 -ふうさいせんりつ- halfsmashed absolute zero fusai senritsu 東方風神録 ~ Mountain of Faith Touhou Fuujinroku shrine at the foot of mountain
BeatmapID:1483307
BeatmapSetID:700682

[Difficulty]
HPDrainRate:4
CircleSize:5.3
OverallDifficulty:5
ApproachRate:5.7
SliderMultiplier:1.6
SliderTickRate:1

[Events]
//Background and Video events
0,0,"mountain_of_faith_by_margatarna-d8mbem3.jpg",0,0
//Break Periods
//Storyboard Layer 0 (Background)
//Storyboard Layer 1 (Fail)
//Storyboard Layer 2 (Pass)
//Storyboard Layer 3 (Foreground)
//Storyboard Sound Samples

[TimingPoints]
8565,689.655172413793,3,2,1,60,1,0
8565,-100,3,2,1,60,0,0
8909,633.312222925902,3,2,2,60,1,0
8909,-100,3,2,2,60,0,0
9225,-100,3,2,3,60,0,0
10492,633.312222925902,3,2,4,60,1,0
10492,-100,3,2,4,60,0,0
10809,-100,3,2,2,60,0,0
11125,-100,3,2,3,60,0,0
12392,-100,3,2,5,60,0,0
12709,-100,3,2,6,60,0,0
13025,-100,3,2,3,60,0,0
14292,-100,3,2,11,60,0,0
15543,633.312222925902,3,2,7,60,1,0
15543,-100,3,2,7,60,0,0
16192,633.312222925902,3,2,1,60,1,0
16192,-100,3,2,1,60,0,0
16509,-100,3,2,2,60,0,0
16826,-100,3,2,3,60,0,0
18092,-100,3,2,4,60,0,0
18409,-100,3,2,2,60,0,0
18725,-100,3,2,3,60,0,0
19992,-100,3,2,5,60,0,0
20309,-100,3,2,6,60,0,0
20625,-100,3,2,3,60,0,0
21892,-100,3,2,11,60,0,0
23159,-100,3,2,7,60,0,0
23792,632.511068943707,3,2,8,60,1,0
23792,-100,3,2,8,60,0,0
24108,-100,3,2,9,60,0,0
24424,-100,3,2,10,60,0,0
24740,-100,3,2,9,60,0,0
25057,-100,3,2,3,60,0,0
25373,-100,3,2,9,60,0,0
25689,-100,3,2,11,60,0,0
26005,-100,3,2,3,60,0,0
26322,-100,3,2,10,60,0,0
26638,-100,3,2,9,60,0,0
26954,-100,3,2,10,60,0,0
27270,-100,3,2,3,60,0,0
27587,-100,3,2,8,60,0,0
27903,-100,3,2,9,60,0,0
28219,-100,3,2,10,60,0,0
28535,-100,3,2,9,60,0,0
28852,-100,3,2,3,60,0,0
29168,-100,3,2,9,60,0,0
29484,-100,3,2,11,60,0,0
29800,-100,3,2,3,60,0,0
30117,-100,3,2,10,60,0,0
30433,-100,3,2,9,60,0,0
30749,-100,3,2,8,60,0,0
31065,-100,3,2,12,60,0,0
31382,-100,3,2,8,60,0,0
31698,-100,3,2,9,60,0,0
32014,-100,3,2,10,60,0,0
32330,-100,3,2,9,60,0,0
32647,-100,3,2,3,60,0,0
32963,-100,3,2,9,60,0,0
33279,-100,3,2,11,60,0,0
33595,-100,3,2,3,60,0,0
33912,-100,3,2,10,60,0,0
34228,-100,3,2,9,60,0,0
34544,-100,3,2,10,60,0,0
34860,-100,3,2,3,60,0,0
35177,-100,3,2,8,60,0,0
35493,-100,3,2,9,60,0,0
35809,-100,3,2,10,60,0,0
36125,-100,3,2,9,60,0,0
36442,-100,3,2,3,60,0,0
36758,-100,3,2,9,60,0,0
37074,-100,3,2,11,60,0,0
37390,-100,3,2,3,60,0,0
37707,600,3,2,10,60,1,0
37707,-100,3,2,10,60,0,0
38007,659.340659340659,3,2,9,60,1,0
38007,-100,3,2,9,60,0,0
38336,710.059171597633,3,2,17,87,1,0
38336,-100,3,2,17,87,0,0
38691,-100,3,2,12,87,0,0
39046,629.590766002099,3,2,8,87,1,0
39046,-100,3,2,11,87,0,0
39675,-100,3,2,7,87,0,0
40305,-100,3,2,3,87,0,0
40934,-100,3,2,10,87,0,0
41564,-100,3,2,9,87,0,0
42193,-100,3,2,13,87,0,0
42508,-100,3,2,11,87,0,0
42823,-100,3,2,9,87,0,0
43453,-100,3,2,10,87,0,0
44082,-100,3,2,3,87,0,0
44712,-100,3,2,11,87,0,0
45027,-100,3,2,14,87,0,0
45341,-100,3,2,5,87,0,0
45656,-100,3,2,1,87,0,0
45971,-100,3,2,6,87,0,0
46286,-100,3,2,15,87,0,0
46601,-100,3,2,11,87,0,0
47230,-100,3,2,16,87,0,0
47860,-100,3,2,2,87,0,0
48489,-100,3,2,11,87,0,0
49119,-100,3,2,16,87,0,0
49749,-100,3,2,2,87,0,0
50063,-100,3,2,11,87,0,0
50378,-100,3,2,2,87,0,0
52267,-100,3,2,11,87,0,0
53211,-100,3,2,10,87,0,0
53526,-100,3,2,1,87,0,0
54156,628.272251308901,3,2,11,87,1,0
54156,-100,3,2,11,87,0,0
54784,-100,3,2,7,87,0,0
55412,-100,3,2,3,87,0,0
55726,-100,3,2,11,87,0,0
56040,-100,3,2,10,87,0,0
56669,-100,3,2,9,87,0,0
57297,-100,3,2,13,87,0,0
57611,-100,3,2,11,87,0,0
57925,-100,3,2,17,87,0,0
58553,-100,3,2,12,87,0,0
59182,-100,3,2,18,87,0,0
59496,-100,3,2,11,87,0,0
59810,-100,3,2,19,87,0,0
60752,-100,3,2,11,87,0,0
61066,-100,3,2,1,87,0,0
61695,-100,3,2,18,87,0,0
62323,-100,3,2,12,87,0,0
62951,-100,3,2,17,87,0,0
63580,-100,3,2,19,87,0,0
64208,-100,3,2,18,87,0,0
64522,-100,3,2,10,87,0,0
64836,-100,3,2,12,87,0,0
65464,-100,3,2,17,87,0,0
66405,697.674418604651,3,2,0,87,1,0
66407,-100,3,2,0,87,0,0
66753,681.818181818182,3,2,13,87,1,0
66753,-100,3,2,13,87,0,0
67434,637.619553666313,3,2,17,87,1,0
67434,-100,3,2,17,87,0,0
67752,-100,3,2,1,60,0,0
68071,-100,3,2,3,60,0,0
68390,-100,3,2,4,60,0,0
68709,-100,3,2,22,60,0,0
69028,-100,3,2,2,60,0,0
69346,-100,3,2,11,60,0,0
70622,-100,3,2,0,86,0,0
71259,633.579725448786,3,2,1,60,1,0
71259,-100,3,2,1,60,0,0
71576,-100,3,2,2,60,0,0
71892,632.911392405063,3,2,3,60,1,0
71892,-100,3,2,3,60,0,0
73157,632.911392405063,3,2,4,60,1,0
73159,-100,3,2,4,60,0,0
73476,-100,3,2,2,60,0,0
73792,-100,3,2,3,60,0,0
75059,-100,3,2,5,60,0,0
75376,-100,3,2,6,60,0,0
75692,-100,3,2,3,60,0,0
76955,-100,3,2,11,60,0,0
78221,-100,3,2,7,60,0,0
78854,-100,3,2,1,60,0,0
79171,-100,3,2,2,60,0,0
79488,-100,3,2,3,60,0,0
80754,-100,3,2,4,60,0,0
81071,-100,3,2,2,60,0,0
81387,-100,3,2,3,60,0,0
82654,-100,3,2,5,60,0,0
82967,-100,3,2,6,60,0,0
83287,-100,3,2,3,60,0,0
84550,-100,3,2,11,60,0,0
85183,674.157303370787,3,2,0,60,1,0
85183,-100,3,2,0,60,0,0
85520,736.196319018405,3,2,0,60,1,0
85520,-100,3,2,0,60,0,0
85888,745.341614906832,3,2,7,60,1,0
85888,-100,3,2,7,60,0,0
86633,618.556701030928,3,2,0,60,1,0
86633,-100,3,2,0,60,0,0
86942,821.917808219178,3,2,11,60,1,0
86942,-100,3,2,11,60,0,0
87352,705.882352941176,3,2,3,60,1,0
87352,-100,3,2,3,60,0,0
87704,659.340659340659,3,2,9,60,1,0
87704,-100,3,2,9,60,0,0
88033,674.157303370787,3,2,13,60,1,0
88033,-100,3,2,13,60,0,0
88370,769.230769230769,3,2,18,60,1,0
88370,-100,3,2,18,60,0,0
88754,810.810810810811,3,2,19,60,1,0
88754,-100,3,2,19,60,0,0
89159,705.882352941176,3,2,23,60,1,0
89159,-100,3,2,23,60,0,0

[Colours]
Combo1 : 69,135,233
Combo2 : 15,183,187
Combo3 : 183,234,253
Combo4 : 208,193,176

[HitObjects]
162,178,8564,5,2,0:2:0:0:
232,135,8909,1,2,0:2:0:0:
266,19,9225,1,2,0:2:0:0:
301,192,10492,5,2,0:2:0:0:
232,135,10809,1,2,0:2:0:0:
266,19,11125,1,2,0:2:0:0:
229,251,12392,5,2,0:2:0:0:
301,192,12709,1,2,0:2:0:0:
266,19,13025,1,2,0:2:0:0:
266,115,14292,5,2,0:2:0:0:
212,68,15543,1,2,0:2:0:0:
162,178,16192,5,2,0:2:0:0:
232,135,16509,1,2,0:2:0:0:
266,19,16825,1,2,0:2:0:0:
301,192,18092,5,2,0:2:0:0:
232,135,18409,1,2,0:2:0:0:
266,19,18725,1,2,0:2:0:0:
229,251,19992,5,2,0:2:0:0:
301,192,20308,1,2,0:2:0:0:
266,19,20625,1,2,0:2:0:0:
266,115,21892,5,2,0:2:0:0:
185,52,23158,1,2,0:2:0:0:
256,64,23792,5,2,0:2:0:0:
278,155,24108,1,2,0:2:0:0:
356,224,24424,2,0,P|368:186|368:132,1,80,2|2,0:2|0:2,0:0:0:0:
215,263,25057,2,0,P|203:225|203:171,1,80,2|2,0:2|0:2,0:0:0:0:
317,359,25689,2,0,P|329:321|329:267,1,80,2|2,0:2|0:2,0:0:0:0:
432,208,26322,2,0,P|393:175|369:124,1,80,2|2,0:2|0:2,0:0:0:0:
299,209,26954,2,0,P|319:267|347:296,1,80,2|2,0:2|0:2,0:0:0:0:
207,81,27587,6,0,P|221:125|215:176,1,80,2|2,0:2|0:2,0:0:0:0:
103,244,28219,2,0,P|100:193|113:150,1,80,2|2,0:2|0:2,0:0:0:0:
183,311,28852,2,0,P|185:260|173:217,1,80,2|2,0:2|0:2,0:0:0:0:
273,365,29484,2,0,P|277:305|291:268,1,80,2|2,0:2|0:2,0:0:0:0:
400,235,30117,2,0,P|408:162|396:128,1,80,2|2,0:2|0:2,0:0:0:0:
321,99,30749,1,2,0:2:0:0:
271,17,31065,1,2,0:2:0:0:
187,132,31382,6,0,P|189:191|200:227,1,80,2|2,0:2|0:2,0:0:0:0:
345,257,32014,2,0,P|343:198|332:162,1,80,2|2,0:2|0:2,0:0:0:0:
266,339,32647,2,0,P|258:299|258:259,1,80,2|2,0:2|0:2,0:0:0:0:
392,381,33279,2,0,P|400:325|418:286,1,80,2|2,0:2|0:2,0:0:0:0:
485,225,33912,2,0,P|442:200|416:171,2,80,2|2|2,0:2|0:2|0:2,0:0:0:0:
391,298,34860,1,2,0:2:0:0:
316,162,35177,6,0,P|329:221|330:263,1,80,2|2,0:2|0:2,0:0:0:0:
173,272,35809,2,0,P|180:233|194:195,1,80,2|2,0:2|0:2,0:0:0:0:
274,336,36442,2,0,P|266:285|255:254,1,80,2|2,0:2|0:2,0:0:0:0:
384,376,37074,2,0,P|400:319|416:287,1,80,2|2,0:2|0:2,0:0:0:0:
501,221,37707,5,2,0:2:0:0:
408,175,38007,1,2,0:2:0:0:
317,100,38336,1,2,0:2:0:0:
262,21,38691,1,2,0:2:0:0:
4,236,39046,5,2,3:2:0:0:
96,213,39675,1,2,0:2:0:0:
161,155,40305,1,2,0:2:0:0:
225,101,40934,2,0,B|224:119|224:119|255:167|233:195,1,80,6|0,0:2|0:2,0:0:0:0:
312,88,41564,1,2,0:2:0:0:
272,13,42193,1,2,0:2:0:0:
394,149,42508,1,0,3:2:0:0:
394,149,42666,1,0,0:3:0:0:
394,149,42823,5,2,3:2:0:0:
349,226,43453,1,2,0:2:0:0:
297,309,44082,2,0,B|316:314|316:314|343:298|391:307,1,80,2|0,0:2|0:2,0:0:0:0:
255,370,44712,1,6,0:2:0:0:
286,293,45027,5,2,0:2:0:0:
227,247,45341,1,2,0:2:0:0:
281,206,45656,1,2,0:2:0:0:
259,139,45971,1,2,0:2:0:0:
230,76,46286,1,2,3:2:0:0:
255,13,46601,5,2,3:2:0:0:
181,124,47230,1,2,0:2:0:0:
221,241,47860,1,2,0:2:0:0:
255,13,48489,5,6,0:2:0:0:
181,124,49119,2,0,B|172:140|172:140|130:130|90:160,1,80,2|0,0:2|0:2,0:0:0:0:
221,241,49749,1,2,0:2:0:0:
253,331,50063,1,0,3:2:0:0:
253,331,50221,1,0,0:2:0:0:
253,331,50378,5,2,3:2:0:0:
256,25,52267,5,6,0:2:0:0:
256,25,53211,1,8,0:2:0:0:
203,111,53526,1,2,0:1:0:0:
133,158,53841,1,4,0:1:0:0:
256,364,54156,5,2,3:2:0:0:
327,311,54784,1,2,0:2:0:0:
327,311,55098,1,0,0:2:0:0:
395,248,55412,1,2,0:2:0:0:
438,175,55726,1,0,3:2:0:0:
438,175,55883,1,0,0:2:0:0:
438,175,56040,5,14,0:2:0:0:
356,132,56669,1,2,0:2:0:0:
356,132,56983,1,0,0:2:0:0:
302,66,57297,1,2,0:2:0:0:
250,177,57611,1,0,3:2:0:0:
131,154,57925,5,2,3:2:0:0:
188,118,58553,1,2,0:2:0:0:
188,118,58868,1,0,0:2:0:0:
233,65,59182,1,2,0:2:0:0:
334,109,59496,1,0,3:2:0:0:
258,1,59810,5,14,0:2:0:0:
258,1,60752,1,0,3:2:0:0:
185,126,61066,1,4,0:1:0:0:
341,80,61695,5,2,3:2:0:0:
400,167,62323,1,2,0:2:0:0:
400,167,62637,1,0,0:2:0:0:
474,208,62951,1,2,0:2:0:0:
258,1,63580,5,14,0:2:0:0:
184,109,64208,1,2,0:2:0:0:
271,131,64522,1,8,0:2:0:0:
123,170,64836,1,10,0:2:0:0:
200,241,65150,1,0,0:2:0:0:
212,253,65307,1,0,0:2:0:0:
224,265,65464,6,0,P|172:294|60:305,1,160,2|0,3:2|0:2,0:0:0:0:
122,222,66405,1,0,0:2:0:0:
255,354,66753,1,10,0:2:0:0:
388,270,67434,1,6,3:2:0:0:
481,214,67752,5,0,0:2:0:0:
407,186,68071,1,0,0:2:0:0:
347,146,68390,1,0,0:2:0:0:
302,99,68709,1,2,0:2:0:0:
271,60,69028,1,2,0:2:0:0:
259,21,69346,5,2,0:2:0:0:
387,171,71259,5,2,0:2:0:0:
302,134,71575,1,2,0:2:0:0:
268,18,71892,1,2,0:2:0:0:
239,86,72208,1,0,2:3:0:0:
233,191,73157,5,2,0:2:0:0:
302,134,73474,1,2,0:2:0:0:
268,18,73790,1,2,0:2:0:0:
239,86,74107,1,0,0:2:0:0:
305,250,75056,5,2,0:2:0:0:
233,191,75373,1,2,0:2:0:0:
268,18,75689,1,2,0:2:0:0:
239,86,76005,1,0,0:2:0:0:
262,153,76955,5,6,0:2:0:0:
326,71,78221,1,2,0:2:0:0:
386,169,78854,5,2,0:2:0:0:
302,134,79170,1,2,0:2:0:0:
268,18,79486,1,2,0:2:0:0:
239,86,79803,1,0,0:2:0:0:
233,191,80752,5,2,0:2:0:0:
302,134,81069,1,2,0:2:0:0:
268,18,81385,1,2,0:2:0:0:
239,86,81702,1,0,0:2:0:0:
305,250,82651,5,2,0:2:0:0:
233,191,82967,1,2,0:2:0:0:
268,18,83284,1,2,0:2:0:0:
239,86,83600,1,0,0:2:0:0:
262,153,84550,5,2,0:2:0:0:
326,71,85888,1,2,0:2:0:0:
418,130,86942,5,2,3:2:0:0:
296,247,87352,1,2,0:2:0:0:
155,146,87704,1,2,0:2:0:0:
193,120,88033,1,2,0:2:0:0:
225,89,88370,1,2,0:2:0:0:
246,62,88754,1,2,0:2:0:0:
262,31,89159,5,2,0:2:0:0:
