osu file format v14

[General]
AudioFilename: audio.mp3
AudioLeadIn: 0
PreviewTime: 210506
Countdown: 0
SampleSet: Soft
StackLeniency: 0.7
Mode: 0
LetterboxInBreaks: 0
WidescreenStoryboard: 1
EpilepsyWarning: 1

[Editor]
Bookmarks: 5359,16026,26673,38672,49339,60006,70672,81339,92006,102672,113339,124006,134672,145339,156006,157339,168006,178672,189339,200006,210672,221339,232006
DistanceSpacing: 1
BeatDivisor: 1
GridSize: 32
TimelineZoom: 2.599999

[Metadata]
Title:STORIA
TitleUnicode:STORIA
Artist:xi vs. sakuzyo
ArtistUnicode:xi vs. sakuzyo
Creator:- AzRaeL -
Version:ice08311's Normal
Source:Cytus
Tags:Electronic Instrumental Rhythm Video Game Drum And Bass DnB Rayark 削除 BMS ἱστορία Historia Chapter M Halcyon Niflheimr VitMaster Black Lair AXION Len ice08311 Storyboard
BeatmapID:3294923
BeatmapSetID:1532736

[Difficulty]
HPDrainRate:4
CircleSize:3
OverallDifficulty:4
ApproachRate:5.5
SliderMultiplier:1.1
SliderTickRate:1

[Events]
//Background and Video events
0,0,"BG.jpg",0,0
//Break Periods
2,102872,108214
2,178872,188214
//Storyboard Layer 0 (Background)
//Storyboard Layer 1 (Fail)
//Storyboard Layer 2 (Pass)
//Storyboard Layer 3 (Foreground)
Sprite,Foreground,Centre,"SB/Ring.png",420,283 S,22,5359,5859,0.25,0.5 F,22,5359,5859,1,0
Sprite,Foreground,Centre,"SB/Ring.png",453,177 S,22,6359,6859,0.25,0.5 F,22,6359,6859,1,0
Sprite,Foreground,Centre,"SB/Ring.png",397,82 S,22,6693,7193,0.25,0.5 F,22,6693,7193,1,0
Sprite,Foreground,Centre,"SB/Ring.png",290,61 S,22,7026,7526,0.25,0.5 F,22,7026,7526,1,0
Sprite,Foreground,Centre,"SB/Ring.png",190,107 S,22,7359,7859,0.25,0.5 F,22,7359,7859,1,0
Sprite,Foreground,Centre,"SB/Ring.png",146,208 S,22,7693,8193,0.25,0.5 F,22,7693,8193,1,0
Sprite,Foreground,Centre,"SB/Ring.png",161,316 S,22,8026,8526,0.25,0.5 F,22,8026,8526,1,0
Sprite,Foreground,Centre,"SB/Ring.png",351,406 S,22,8693,9193,0.25,0.5 F,22,8693,9193,1,0
Sprite,Foreground,Centre,"SB/Ring.png",553,333 S,22,9359,9859,0.25,0.5 F,22,9359,9859,1,0
Sprite,Foreground,Centre,"SB/Ring.png",572,224 S,22,9693,10193,0.25,0.5 F,22,9693,10193,1,0
Sprite,Foreground,Centre,"SB/Ring.png",509,134 S,22,10026,10526,0.25,0.5 F,22,10026,10526,1,0
Sprite,Foreground,Centre,"SB/Ring.png",434,75 S,22,10359,10859,0.25,0.5 F,22,10359,10859,1,0
Sprite,Foreground,Centre,"SB/Ring.png",325,68 S,22,10693,11193,0.25,0.5 F,22,10693,11193,1,0
Sprite,Foreground,Centre,"SB/Ring.png",246,266 S,22,11359,11859,0.25,0.5 F,22,11359,11859,1,0
Sprite,Foreground,Centre,"SB/Ring.png",369,400 S,22,12026,12526,0.25,0.5 F,22,12026,12526,1,0
Sprite,Foreground,Centre,"SB/Ring.png",475,370 S,22,12359,12859,0.25,0.5 F,22,12359,12859,1,0
Sprite,Foreground,Centre,"SB/Ring.png",522,270 S,22,12693,13193,0.25,0.5 F,22,12693,13193,1,0
Sprite,Foreground,Centre,"SB/Ring.png",508,160 S,22,13026,13526,0.25,0.5 F,22,13026,13526,1,0
Sprite,Foreground,Centre,"SB/Ring.png",434,124 S,22,13359,13859,0.25,0.5 F,22,13359,13859,1,0
Sprite,Foreground,Centre,"SB/Ring.png",290,152 S,22,13859,14359,0.25,0.5 F,22,13859,14359,1,0
Sprite,Foreground,Centre,"SB/Ring.png",290,152 S,22,14026,14526,0.25,0.5 F,22,14026,14526,1,0
Sprite,Foreground,Centre,"SB/Ring.png",89,227 S,22,14693,15193,0.25,0.5 F,22,14693,15193,1,0
Sprite,Foreground,Centre,"SB/Ring.png",73,336 S,22,15026,15526,0.25,0.5 F,22,15026,15526,1,0
Sprite,Foreground,Centre,"SB/Ring.png",156,408 S,22,15359,15859,0.25,0.5 F,22,15359,15859,1,0
Sprite,Foreground,Centre,"SB/Ring.png",260,428 S,22,15693,16193,0.25,0.5 F,22,15693,16193,1,0
Sprite,Foreground,Centre,"SB/Ring.png",296,335 S,22,16026,16526,0.25,0.5 F,22,16026,16526,1,0
Sprite,Foreground,Centre,"SB/Ring.png",156,228 S,22,19026,19526,0.25,0.5 F,22,19026,19526,1,0
Sprite,Foreground,Centre,"SB/Ring.png",132,335 S,22,19359,19859,0.25,0.5 F,22,19359,19859,1,0
Sprite,Foreground,Centre,"SB/Ring.png",172,372 S,22,20026,20526,0.25,0.5 F,22,20026,20526,1,0
Sprite,Foreground,Centre,"SB/Ring.png",279,393 S,22,20359,20859,0.25,0.5 F,22,20359,20859,1,0
Sprite,Foreground,Centre,"SB/Ring.png",356,314 S,22,20693,21193,0.25,0.5 F,22,20693,21193,1,0
Sprite,Foreground,Centre,"SB/Ring.png",572,345 S,22,21359,21859,0.25,0.5 F,22,21359,21859,1,0
Sprite,Foreground,Centre,"SB/Ring.png",423,78 S,22,22359,22859,0.25,0.5 F,22,22359,22859,1,0
Sprite,Foreground,Centre,"SB/Ring.png",359,246 S,22,25693,26193,0.25,0.5 F,22,25693,26193,1,0
Sprite,Foreground,Centre,"SB/Ring.png",153,174 S,22,26359,26859,0.25,0.5 F,22,26359,26859,1,0
Sprite,Foreground,Centre,"SB/Ring.png",217,98 S,22,26673,27173,0.25,0.5 F,22,26673,27173,1,0
Sprite,Foreground,Centre,"SB/Ring.png",324,122 S,22,27006,27506,0.25,0.5 F,22,27006,27506,1,0
Sprite,Foreground,Centre,"SB/Ring.png",419,71 S,22,27339,27839,0.25,0.5 F,22,27339,27839,1,0
Sprite,Foreground,Centre,"SB/Ring.png",465,166 S,22,28006,28506,0.25,0.5 F,22,28006,28506,1,0
Sprite,Foreground,Centre,"SB/Ring.png",367,337 S,22,28672,29172,0.25,0.5 F,22,28672,29172,1,0
Sprite,Foreground,Centre,"SB/Ring.png",264,297 S,22,29339,29839,0.25,0.5 F,22,29339,29839,1,0
Sprite,Foreground,Centre,"SB/Ring.png",239,186 S,22,30006,30506,0.25,0.5 F,22,30006,30506,1,0
Sprite,Foreground,Centre,"SB/Ring.png",262,77 S,22,30672,31172,0.25,0.5 F,22,30672,31172,1,0
Sprite,Foreground,Centre,"SB/Ring.png",370,56 S,22,31672,32172,0.25,0.5 F,22,31672,32172,1,0
Sprite,Foreground,Centre,"SB/Ring.png",338,150 S,22,32006,32506,0.25,0.5 F,22,32006,32506,1,0
Sprite,Foreground,Centre,"SB/Ring.png",244,286 S,22,32672,33172,0.25,0.5 F,22,32672,33172,1,0
Sprite,Foreground,Centre,"SB/Ring.png",334,427 S,22,33339,33839,0.25,0.5 F,22,33339,33839,1,0
Sprite,Foreground,Centre,"SB/Ring.png",487,308 S,22,34006,34506,0.25,0.5 F,22,34006,34506,1,0
Sprite,Foreground,Centre,"SB/Ring.png",432,315 S,22,34672,35172,0.25,0.5 F,22,34672,35172,1,0
Sprite,Foreground,Centre,"SB/Ring.png",285,332 S,22,35172,35672,0.25,0.5 F,22,35172,35672,1,0
Sprite,Foreground,Centre,"SB/Ring.png",124,342 S,22,35672,36172,0.25,0.5 F,22,35672,36172,1,0
Sprite,Foreground,Centre,"SB/Ring.png",87,239 S,22,36006,36506,0.25,0.5 F,22,36006,36506,1,0
Sprite,Foreground,Centre,"SB/Ring.png",185,193 S,22,36339,36839,0.25,0.5 F,22,36339,36839,1,0
Sprite,Foreground,Centre,"SB/Ring.png",235,214 S,22,37006,37506,0.25,0.5 F,22,37006,37506,1,0
Sprite,Foreground,Centre,"SB/Ring.png",337,204 S,22,37339,37839,0.25,0.5 F,22,37339,37839,1,0
Sprite,Foreground,Centre,"SB/Ring.png",339,312 S,22,37672,38172,0.25,0.5 F,22,37672,38172,1,0
Sprite,Foreground,Centre,"SB/Ring.png",341,98 S,22,38672,39172,0.25,0.5 F,22,38672,39172,1,0
Sprite,Foreground,Centre,"SB/Ring.png",179,83 S,22,39172,39672,0.25,0.5 F,22,39172,39672,1,0
Sprite,Foreground,Centre,"SB/Ring.png",154,190 S,22,39506,40006,0.25,0.5 F,22,39506,40006,1,0
Sprite,Foreground,Centre,"SB/Ring.png",192,290 S,22,39839,40339,0.25,0.5 F,22,39839,40339,1,0
Sprite,Foreground,Centre,"SB/Ring.png",245,276 S,22,40672,41172,0.25,0.5 F,22,40672,41172,1,0
Sprite,Foreground,Centre,"SB/Ring.png",283,419 S,22,41172,41672,0.25,0.5 F,22,41172,41672,1,0
Sprite,Foreground,Centre,"SB/Ring.png",336,401 S,22,41339,41839,0.25,0.5 F,22,41339,41839,1,0
Sprite,Foreground,Centre,"SB/Ring.png",498,416 S,22,41839,42339,0.25,0.5 F,22,41839,42339,1,0
Sprite,Foreground,Centre,"SB/Ring.png",523,309 S,22,42173,42673,0.25,0.5 F,22,42173,42673,1,0
Sprite,Foreground,Centre,"SB/Ring.png",570,210 S,22,42506,43006,0.25,0.5 F,22,42506,43006,1,0
Sprite,Foreground,Centre,"SB/Ring.png",483,142 S,22,42839,43339,0.25,0.5 F,22,42839,43339,1,0
Sprite,Foreground,Centre,"SB/Ring.png",374,165 S,22,43172,43672,0.25,0.5 F,22,43172,43672,1,0
Sprite,Foreground,Centre,"SB/Ring.png",349,272 S,22,43839,44339,0.25,0.5 F,22,43839,44339,1,0
Sprite,Foreground,Centre,"SB/Ring.png",349,272 S,22,44006,44506,0.25,0.5 F,22,44006,44506,1,0
Sprite,Foreground,Centre,"SB/Ring.png",174,237 S,22,44672,45172,0.25,0.5 F,22,44672,45172,1,0
Sprite,Foreground,Centre,"SB/Ring.png",215,135 S,22,45006,45506,0.25,0.5 F,22,45006,45506,1,0
Sprite,Foreground,Centre,"SB/Ring.png",215,135 S,22,45172,45672,0.25,0.5 F,22,45172,45672,1,0
Sprite,Foreground,Centre,"SB/Ring.png",321,154 S,22,45506,46006,0.25,0.5 F,22,45506,46006,1,0
Sprite,Foreground,Centre,"SB/Ring.png",401,229 S,22,46339,46839,0.25,0.5 F,22,46339,46839,1,0
Sprite,Foreground,Centre,"SB/Ring.png",507,223 S,22,46672,47172,0.25,0.5 F,22,46672,47172,1,0
Sprite,Foreground,Centre,"SB/Ring.png",401,358 S,22,47339,47839,0.25,0.5 F,22,47339,47839,1,0
Sprite,Foreground,Centre,"SB/Ring.png",314,288 S,22,47672,48172,0.25,0.5 F,22,47672,48172,1,0
Sprite,Foreground,Centre,"SB/Ring.png",314,288 S,22,47839,48339,0.25,0.5 F,22,47839,48339,1,0
Sprite,Foreground,Centre,"SB/Ring.png",362,260 S,22,48672,49172,0.25,0.5 F,22,48672,49172,1,0
Sprite,Foreground,Centre,"SB/Ring.png",468,231 S,22,49006,49506,0.25,0.5 F,22,49006,49506,1,0
Sprite,Foreground,Centre,"SB/Ring.png",555,300 S,22,49339,49839,0.25,0.5 F,22,49339,49839,1,0
Sprite,Foreground,Centre,"SB/Ring.png",525,153 S,22,49839,50339,0.25,0.5 F,22,49839,50339,1,0
Sprite,Foreground,Centre,"SB/Ring.png",435,89 S,22,50172,50672,0.25,0.5 F,22,50172,50672,1,0
Sprite,Foreground,Centre,"SB/Ring.png",340,146 S,22,50506,51006,0.25,0.5 F,22,50506,51006,1,0
Sprite,Foreground,Centre,"SB/Ring.png",294,115 S,22,51339,51839,0.25,0.5 F,22,51339,51839,1,0
Sprite,Foreground,Centre,"SB/Ring.png",147,166 S,22,51839,52339,0.25,0.5 F,22,51839,52339,1,0
Sprite,Foreground,Centre,"SB/Ring.png",113,210 S,22,52006,52506,0.25,0.5 F,22,52006,52506,1,0
Sprite,Foreground,Centre,"SB/Ring.png",143,357 S,22,52506,53006,0.25,0.5 F,22,52506,53006,1,0
Sprite,Foreground,Centre,"SB/Ring.png",232,421 S,22,52839,53339,0.25,0.5 F,22,52839,53339,1,0
Sprite,Foreground,Centre,"SB/Ring.png",332,377 S,22,53172,53672,0.25,0.5 F,22,53172,53672,1,0
Sprite,Foreground,Centre,"SB/Ring.png",257,295 S,22,53506,54006,0.25,0.5 F,22,53506,54006,1,0
Sprite,Foreground,Centre,"SB/Ring.png",334,216 S,22,53839,54339,0.25,0.5 F,22,53839,54339,1,0
Sprite,Foreground,Centre,"SB/Ring.png",318,119 S,22,54172,54672,0.25,0.5 F,22,54172,54672,1,0
Sprite,Foreground,Centre,"SB/Ring.png",155,123 S,22,54672,55172,0.25,0.5 F,22,54672,55172,1,0
Sprite,Foreground,Centre,"SB/Ring.png",175,299 S,22,55339,55839,0.25,0.5 F,22,55339,55839,1,0
Sprite,Foreground,Centre,"SB/Ring.png",339,314 S,22,55839,56339,0.25,0.5 F,22,55839,56339,1,0
Sprite,Foreground,Centre,"SB/Ring.png",435,260 S,22,56172,56672,0.25,0.5 F,22,56172,56672,1,0
Sprite,Foreground,Centre,"SB/Ring.png",446,369 S,22,57006,57506,0.25,0.5 F,22,57006,57506,1,0
Sprite,Foreground,Centre,"SB/Ring.png",446,369 S,22,57172,57672,0.25,0.5 F,22,57172,57672,1,0
Sprite,Foreground,Centre,"SB/Ring.png",346,328 S,22,57506,58006,0.25,0.5 F,22,57506,58006,1,0
Sprite,Foreground,Centre,"SB/Ring.png",189,375 S,22,58006,58506,0.25,0.5 F,22,58006,58506,1,0
Sprite,Foreground,Centre,"SB/Ring.png",187,148 S,22,58839,59339,0.25,0.5 F,22,58839,59339,1,0
Sprite,Foreground,Centre,"SB/Ring.png",234,175 S,22,59506,60006,0.25,0.5 F,22,59506,60006,1,0
Sprite,Foreground,Centre,"SB/Ring.png",234,175 S,22,59672,60172,0.25,0.5 F,22,59672,60172,1,0
Sprite,Foreground,Centre,"SB/Ring.png",155,373 S,22,60339,60839,0.25,0.5 F,22,60339,60839,1,0
Sprite,Foreground,Centre,"SB/Ring.png",347,319 S,22,61006,61506,0.25,0.5 F,22,61006,61506,1,0
Sprite,Foreground,Centre,"SB/Ring.png",530,405 S,22,61672,62172,0.25,0.5 F,22,61672,62172,1,0
Sprite,Foreground,Centre,"SB/Ring.png",565,300 S,22,62006,62506,0.25,0.5 F,22,62006,62506,1,0
Sprite,Foreground,Centre,"SB/Ring.png",576,195 S,22,62339,62839,0.25,0.5 F,22,62339,62839,1,0
Sprite,Foreground,Centre,"SB/Ring.png",367,210 S,22,63006,63506,0.25,0.5 F,22,63006,63506,1,0
Sprite,Foreground,Centre,"SB/Ring.png",175,156 S,22,63673,64173,0.25,0.5 F,22,63673,64173,1,0
Sprite,Foreground,Centre,"SB/Ring.png",132,256 S,22,64339,64839,0.25,0.5 F,22,64339,64839,1,0
Sprite,Foreground,Centre,"SB/Ring.png",157,362 S,22,64672,65172,0.25,0.5 F,22,64672,65172,1,0
Sprite,Foreground,Centre,"SB/Ring.png",242,290 S,22,65339,65839,0.25,0.5 F,22,65339,65839,1,0
Sprite,Foreground,Centre,"SB/Ring.png",308,377 S,22,65672,66172,0.25,0.5 F,22,65672,66172,1,0
Sprite,Foreground,Centre,"SB/Ring.png",432,223 S,22,66339,66839,0.25,0.5 F,22,66339,66839,1,0
Sprite,Foreground,Centre,"SB/Ring.png",389,127 S,22,66672,67172,0.25,0.5 F,22,66672,67172,1,0
Sprite,Foreground,Centre,"SB/Ring.png",280,115 S,22,67005,67505,0.25,0.5 F,22,67005,67505,1,0
Sprite,Foreground,Centre,"SB/Ring.png",235,216 S,22,67340,67840,0.25,0.5 F,22,67340,67840,1,0
Sprite,Foreground,Centre,"SB/Ring.png",317,289 S,22,67672,68172,0.25,0.5 F,22,67672,68172,1,0
Sprite,Foreground,Centre,"SB/Ring.png",412,234 S,22,68006,68506,0.25,0.5 F,22,68006,68506,1,0
Sprite,Foreground,Centre,"SB/Ring.png",226,127 S,22,68672,69172,0.25,0.5 F,22,68672,69172,1,0
Sprite,Foreground,Centre,"SB/Ring.png",172,216 S,22,69006,69506,0.25,0.5 F,22,69006,69506,1,0
Sprite,Foreground,Centre,"SB/Ring.png",126,314 S,22,69339,69839,0.25,0.5 F,22,69339,69839,1,0
Sprite,Foreground,Centre,"SB/Ring.png",267,434 S,22,70006,70506,0.25,0.5 F,22,70006,70506,1,0
Sprite,Foreground,Centre,"SB/Ring.png",361,378 S,22,70339,70839,0.25,0.5 F,22,70339,70839,1,0
Sprite,Foreground,Centre,"SB/Ring.png",468,398 S,22,70672,71172,0.25,0.5 F,22,70672,71172,1,0
Sprite,Foreground,Centre,"SB/Ring.png",548,322 S,22,71006,71506,0.25,0.5 F,22,71006,71506,1,0
Sprite,Foreground,Centre,"SB/Ring.png",433,63 S,22,72006,72506,0.25,0.5 F,22,72006,72506,1,0
Sprite,Foreground,Centre,"SB/Ring.png",443,276 S,22,72672,73172,0.25,0.5 F,22,72672,73172,1,0
Sprite,Foreground,Centre,"SB/Ring.png",350,338 S,22,73339,73839,0.25,0.5 F,22,73339,73839,1,0
Sprite,Foreground,Centre,"SB/Ring.png",264,406 S,22,73672,74172,0.25,0.5 F,22,73672,74172,1,0
Sprite,Foreground,Centre,"SB/Ring.png",82,307 S,22,74339,74839,0.25,0.5 F,22,74339,74839,1,0
Sprite,Foreground,Centre,"SB/Ring.png",91,197 S,22,74672,75172,0.25,0.5 F,22,74672,75172,1,0
Sprite,Foreground,Centre,"SB/Ring.png",277,102 S,22,75339,75839,0.25,0.5 F,22,75339,75839,1,0
Sprite,Foreground,Centre,"SB/Ring.png",489,78 S,22,76006,76506,0.25,0.5 F,22,76006,76506,1,0
Sprite,Foreground,Centre,"SB/Ring.png",561,160 S,22,76339,76839,0.25,0.5 F,22,76339,76839,1,0
Sprite,Foreground,Centre,"SB/Ring.png",509,362 S,22,77006,77506,0.25,0.5 F,22,77006,77506,1,0
Sprite,Foreground,Centre,"SB/Ring.png",399,354 S,22,77339,77839,0.25,0.5 F,22,77339,77839,1,0
Sprite,Foreground,Centre,"SB/Ring.png",291,377 S,22,77672,78172,0.25,0.5 F,22,77672,78172,1,0
Sprite,Foreground,Centre,"SB/Ring.png",235,281 S,22,78005,78505,0.25,0.5 F,22,78005,78505,1,0
Sprite,Foreground,Centre,"SB/Ring.png",310,199 S,22,78339,78839,0.25,0.5 F,22,78339,78839,1,0
Sprite,Foreground,Centre,"SB/Ring.png",410,245 S,22,78672,79172,0.25,0.5 F,22,78672,79172,1,0
Sprite,Foreground,Centre,"SB/Ring.png",305,91 S,22,79339,79839,0.25,0.5 F,22,79339,79839,1,0
Sprite,Foreground,Centre,"SB/Ring.png",310,199 S,22,79672,80172,0.25,0.5 F,22,79672,80172,1,0
Sprite,Foreground,Centre,"SB/Ring.png",268,299 S,22,80006,80506,0.25,0.5 F,22,80006,80506,1,0
Sprite,Foreground,Centre,"SB/Ring.png",323,394 S,22,80339,80839,0.25,0.5 F,22,80339,80839,1,0
Sprite,Foreground,Centre,"SB/Ring.png",432,395 S,22,80672,81172,0.25,0.5 F,22,80672,81172,1,0
Sprite,Foreground,Centre,"SB/Ring.png",487,299 S,22,81006,81506,0.25,0.5 F,22,81006,81506,1,0
Sprite,Foreground,Centre,"SB/Ring.png",435,209 S,22,81339,81839,0.25,0.5 F,22,81339,81839,1,0
Sprite,Foreground,Centre,"SB/Ring.png",330,174 S,22,81672,82172,0.25,0.5 F,22,81672,82172,1,0
Sprite,Foreground,Centre,"SB/Ring.png",488,186 S,22,83006,83506,0.25,0.5 F,22,83006,83506,1,0
Sprite,Foreground,Centre,"SB/Ring.png",461,404 S,22,83672,84172,0.25,0.5 F,22,83672,84172,1,0
Sprite,Foreground,Centre,"SB/Ring.png",357,438 S,22,84006,84506,0.25,0.5 F,22,84006,84506,1,0
Sprite,Foreground,Centre,"SB/Ring.png",165,345 S,22,84672,85172,0.25,0.5 F,22,84672,85172,1,0
Sprite,Foreground,Centre,"SB/Ring.png",351,327 S,22,85339,85839,0.25,0.5 F,22,85339,85839,1,0
Sprite,Foreground,Centre,"SB/Ring.png",419,201 S,22,85839,86339,0.25,0.5 F,22,85839,86339,1,0
Sprite,Foreground,Centre,"SB/Ring.png",361,56 S,22,86339,86839,0.25,0.5 F,22,86339,86839,1,0
Sprite,Foreground,Centre,"SB/Ring.png",294,143 S,22,86672,87172,0.25,0.5 F,22,86672,87172,1,0
Sprite,Foreground,Centre,"SB/Ring.png",81,102 S,22,87339,87839,0.25,0.5 F,22,87339,87839,1,0
Sprite,Foreground,Centre,"SB/Ring.png",87,211 S,22,87672,88172,0.25,0.5 F,22,87672,88172,1,0
Sprite,Foreground,Centre,"SB/Ring.png",65,318 S,22,88006,88506,0.25,0.5 F,22,88006,88506,1,0
Sprite,Foreground,Centre,"SB/Ring.png",152,384 S,22,88339,88839,0.25,0.5 F,22,88339,88839,1,0
Sprite,Foreground,Centre,"SB/Ring.png",371,400 S,22,89006,89506,0.25,0.5 F,22,89006,89506,1,0
Sprite,Foreground,Centre,"SB/Ring.png",449,322 S,22,89339,89839,0.25,0.5 F,22,89339,89839,1,0
Sprite,Foreground,Centre,"SB/Ring.png",415,113 S,22,90006,90506,0.25,0.5 F,22,90006,90506,1,0
Sprite,Foreground,Centre,"SB/Ring.png",351,280 S,22,90672,91172,0.25,0.5 F,22,90672,91172,1,0
Sprite,Foreground,Centre,"SB/Ring.png",215,226 S,22,91172,91672,0.25,0.5 F,22,91172,91672,1,0
Sprite,Foreground,Centre,"SB/Ring.png",67,260 S,22,91672,92172,0.25,0.5 F,22,91672,92172,1,0
Sprite,Foreground,Centre,"SB/Ring.png",84,368 S,22,92006,92506,0.25,0.5 F,22,92006,92506,1,0
Sprite,Foreground,Centre,"SB/Ring.png",273,380 S,22,92672,93172,0.25,0.5 F,22,92672,93172,1,0
Sprite,Foreground,Centre,"SB/Ring.png",382,392 S,22,93006,93506,0.25,0.5 F,22,93006,93506,1,0
Sprite,Foreground,Centre,"SB/Ring.png",429,292 S,22,93339,93839,0.25,0.5 F,22,93339,93839,1,0
Sprite,Foreground,Centre,"SB/Ring.png",467,145 S,22,93839,94339,0.25,0.5 F,22,93839,94339,1,0
Sprite,Foreground,Centre,"SB/Ring.png",323,101 S,22,94339,94839,0.25,0.5 F,22,94339,94839,1,0
Sprite,Foreground,Centre,"SB/Ring.png",215,77 S,22,94672,95172,0.25,0.5 F,22,94672,95172,1,0
Sprite,Foreground,Centre,"SB/Ring.png",97,222 S,22,95339,95839,0.25,0.5 F,22,95339,95839,1,0
Sprite,Foreground,Centre,"SB/Ring.png",107,331 S,22,95672,96172,0.25,0.5 F,22,95672,96172,1,0
Sprite,Foreground,Centre,"SB/Ring.png",169,421 S,22,96006,96506,0.25,0.5 F,22,96006,96506,1,0
Sprite,Foreground,Centre,"SB/Ring.png",273,387 S,22,96339,96839,0.25,0.5 F,22,96339,96839,1,0
Sprite,Foreground,Centre,"SB/Ring.png",486,402 S,22,97006,97506,0.25,0.5 F,22,97006,97506,1,0
Sprite,Foreground,Centre,"SB/Ring.png",547,310 S,22,97339,97839,0.25,0.5 F,22,97339,97839,1,0
Sprite,Foreground,Centre,"SB/Ring.png",563,201 S,22,97672,98172,0.25,0.5 F,22,97672,98172,1,0
Sprite,Foreground,Centre,"SB/Ring.png",429,155 S,22,98172,98672,0.25,0.5 F,22,98172,98672,1,0
Sprite,Foreground,Centre,"SB/Ring.png",429,155 S,22,98339,98839,0.25,0.5 F,22,98339,98839,1,0
Sprite,Foreground,Centre,"SB/Ring.png",342,222 S,22,98672,99172,0.25,0.5 F,22,98672,99172,1,0
Sprite,Foreground,Centre,"SB/Ring.png",359,330 S,22,99006,99506,0.25,0.5 F,22,99006,99506,1,0
Sprite,Foreground,Centre,"SB/Ring.png",214,359 S,22,99506,100006,0.25,0.5 F,22,99506,100006,1,0
Sprite,Foreground,Centre,"SB/Ring.png",214,359 S,22,99672,100172,0.25,0.5 F,22,99672,100172,1,0
Sprite,Foreground,Centre,"SB/Ring.png",104,351 S,22,100006,100506,0.25,0.5 F,22,100006,100506,1,0
Sprite,Foreground,Centre,"SB/Ring.png",187,176 S,22,100672,101172,0.25,0.5 F,22,100672,101172,1,0
Sprite,Foreground,Centre,"SB/Ring.png",132,169 S,22,101172,101672,0.25,0.5 F,22,101172,101672,1,0
Sprite,Foreground,Centre,"SB/Ring.png",421,130 S,22,113339,113839,0.25,0.5 F,22,113339,113839,1,0
Sprite,Foreground,Centre,"SB/Ring.png",117,181 S,22,114339,114839,0.25,0.5 F,22,114339,114839,1,0
Sprite,Foreground,Centre,"SB/Ring.png",82,285 S,22,114672,115172,0.25,0.5 F,22,114672,115172,1,0
Sprite,Foreground,Centre,"SB/Ring.png",401,220 S,22,115672,116172,0.25,0.5 F,22,115672,116172,1,0
Sprite,Foreground,Centre,"SB/Ring.png",455,315 S,22,116006,116506,0.25,0.5 F,22,116006,116506,1,0
Sprite,Foreground,Centre,"SB/Ring.png",327,372 S,22,116672,117172,0.25,0.5 F,22,116672,117172,1,0
Sprite,Foreground,Centre,"SB/Ring.png",373,182 S,22,117339,117839,0.25,0.5 F,22,117339,117839,1,0
Sprite,Foreground,Centre,"SB/Ring.png",407,86 S,22,118006,118506,0.25,0.5 F,22,118006,118506,1,0
Sprite,Foreground,Centre,"SB/Ring.png",188,57 S,22,118672,119172,0.25,0.5 F,22,118672,119172,1,0
Sprite,Foreground,Centre,"SB/Ring.png",143,157 S,22,119006,119506,0.25,0.5 F,22,119006,119506,1,0
Sprite,Foreground,Centre,"SB/Ring.png",179,260 S,22,119339,119839,0.25,0.5 F,22,119339,119839,1,0
Sprite,Foreground,Centre,"SB/Ring.png",384,221 S,22,120006,120506,0.25,0.5 F,22,120006,120506,1,0
Sprite,Foreground,Centre,"SB/Ring.png",429,321 S,22,120340,120840,0.25,0.5 F,22,120340,120840,1,0
Sprite,Foreground,Centre,"SB/Ring.png",393,424 S,22,120673,121173,0.25,0.5 F,22,120673,121173,1,0
Sprite,Foreground,Centre,"SB/Ring.png",186,389 S,22,121339,121839,0.25,0.5 F,22,121339,121839,1,0
Sprite,Foreground,Centre,"SB/Ring.png",173,279 S,22,121672,122172,0.25,0.5 F,22,121672,122172,1,0
Sprite,Foreground,Centre,"SB/Ring.png",287,275 S,22,122006,122506,0.25,0.5 F,22,122006,122506,1,0
Sprite,Foreground,Centre,"SB/Ring.png",300,165 S,22,122339,122839,0.25,0.5 F,22,122339,122839,1,0
Sprite,Foreground,Centre,"SB/Ring.png",225,84 S,22,122672,123172,0.25,0.5 F,22,122672,123172,1,0
Sprite,Foreground,Centre,"SB/Ring.png",183,186 S,22,123672,124172,0.25,0.5 F,22,123672,124172,1,0
Sprite,Foreground,Centre,"SB/Ring.png",167,295 S,22,124006,124506,0.25,0.5 F,22,124006,124506,1,0
Sprite,Foreground,Centre,"SB/Ring.png",313,275 S,22,124506,125006,0.25,0.5 F,22,124506,125006,1,0
Sprite,Foreground,Centre,"SB/Ring.png",362,256 S,22,124672,125172,0.25,0.5 F,22,124672,125172,1,0
Sprite,Foreground,Centre,"SB/Ring.png",464,375 S,22,125172,125672,0.25,0.5 F,22,125172,125672,1,0
Sprite,Foreground,Centre,"SB/Ring.png",574,273 S,22,125672,126172,0.25,0.5 F,22,125672,126172,1,0
Sprite,Foreground,Centre,"SB/Ring.png",517,64 S,22,126339,126839,0.25,0.5 F,22,126339,126839,1,0
Sprite,Foreground,Centre,"SB/Ring.png",413,100 S,22,126672,127172,0.25,0.5 F,22,126672,127172,1,0
Sprite,Foreground,Centre,"SB/Ring.png",200,70 S,22,127339,127839,0.25,0.5 F,22,127339,127839,1,0
Sprite,Foreground,Centre,"SB/Ring.png",135,136 S,22,127672,128172,0.25,0.5 F,22,127672,128172,1,0
Sprite,Foreground,Centre,"SB/Ring.png",148,298 S,22,128172,128672,0.25,0.5 F,22,128172,128672,1,0
Sprite,Foreground,Centre,"SB/Ring.png",303,327 S,22,128672,129172,0.25,0.5 F,22,128672,129172,1,0
Sprite,Foreground,Centre,"SB/Ring.png",354,308 S,22,128839,129339,0.25,0.5 F,22,128839,129339,1,0
Sprite,Foreground,Centre,"SB/Ring.png",389,349 S,22,129339,129839,0.25,0.5 F,22,129339,129839,1,0
Sprite,Foreground,Centre,"SB/Ring.png",514,232 S,22,130006,130506,0.25,0.5 F,22,130006,130506,1,0
Sprite,Foreground,Centre,"SB/Ring.png",437,124 S,22,130506,131006,0.25,0.5 F,22,130506,131006,1,0
Sprite,Foreground,Centre,"SB/Ring.png",365,253 S,22,131006,131506,0.25,0.5 F,22,131006,131506,1,0
Sprite,Foreground,Centre,"SB/Ring.png",282,93 S,22,131672,132172,0.25,0.5 F,22,131672,132172,1,0
Sprite,Foreground,Centre,"SB/Ring.png",176,62 S,22,132006,132506,0.25,0.5 F,22,132006,132506,1,0
Sprite,Foreground,Centre,"SB/Ring.png",125,178 S,22,132672,133172,0.25,0.5 F,22,132672,133172,1,0
Sprite,Foreground,Centre,"SB/Ring.png",80,276 S,22,133006,133506,0.25,0.5 F,22,133006,133506,1,0
Sprite,Foreground,Centre,"SB/Ring.png",100,384 S,22,133339,133839,0.25,0.5 F,22,133339,133839,1,0
Sprite,Foreground,Centre,"SB/Ring.png",149,408 S,22,133506,134006,0.25,0.5 F,22,133506,134006,1,0
Sprite,Foreground,Centre,"SB/Ring.png",172,301 S,22,134339,134839,0.25,0.5 F,22,134339,134839,1,0
Sprite,Foreground,Centre,"SB/Ring.png",278,299 S,22,134672,135172,0.25,0.5 F,22,134672,135172,1,0
Sprite,Foreground,Centre,"SB/Ring.png",364,366 S,22,135006,135506,0.25,0.5 F,22,135006,135506,1,0
Sprite,Foreground,Centre,"SB/Ring.png",472,348 S,22,135339,135839,0.25,0.5 F,22,135339,135839,1,0
Sprite,Foreground,Centre,"SB/Ring.png",474,187 S,22,135839,136339,0.25,0.5 F,22,135839,136339,1,0
Sprite,Foreground,Centre,"SB/Ring.png",474,187 S,22,136006,136506,0.25,0.5 F,22,136006,136506,1,0
Sprite,Foreground,Centre,"SB/Ring.png",295,114 S,22,136672,137172,0.25,0.5 F,22,136672,137172,1,0
Sprite,Foreground,Centre,"SB/Ring.png",107,178 S,22,137339,137839,0.25,0.5 F,22,137339,137839,1,0
Sprite,Foreground,Centre,"SB/Ring.png",65,279 S,22,137672,138172,0.25,0.5 F,22,137672,138172,1,0
Sprite,Foreground,Centre,"SB/Ring.png",123,374 S,22,138006,138506,0.25,0.5 F,22,138006,138506,1,0
Sprite,Foreground,Centre,"SB/Ring.png",267,316 S,22,138506,139006,0.25,0.5 F,22,138506,139006,1,0
Sprite,Foreground,Centre,"SB/Ring.png",267,316 S,22,138672,139172,0.25,0.5 F,22,138672,139172,1,0
Sprite,Foreground,Centre,"SB/Ring.png",429,427 S,22,139339,139839,0.25,0.5 F,22,139339,139839,1,0
Sprite,Foreground,Centre,"SB/Ring.png",565,364 S,22,139839,140339,0.25,0.5 F,22,139839,140339,1,0
Sprite,Foreground,Centre,"SB/Ring.png",574,309 S,22,140006,140506,0.25,0.5 F,22,140006,140506,1,0
Sprite,Foreground,Centre,"SB/Ring.png",446,165 S,22,140672,141172,0.25,0.5 F,22,140672,141172,1,0
Sprite,Foreground,Centre,"SB/Ring.png",443,322 S,22,141172,141672,0.25,0.5 F,22,141172,141672,1,0
Sprite,Foreground,Centre,"SB/Ring.png",443,322 S,22,141339,141839,0.25,0.5 F,22,141339,141839,1,0
Sprite,Foreground,Centre,"SB/Ring.png",346,374 S,22,141672,142172,0.25,0.5 F,22,141672,142172,1,0
Sprite,Foreground,Centre,"SB/Ring.png",235,373 S,22,142006,142506,0.25,0.5 F,22,142006,142506,1,0
Sprite,Foreground,Centre,"SB/Ring.png",181,175 S,22,142672,143172,0.25,0.5 F,22,142672,143172,1,0
Sprite,Foreground,Centre,"SB/Ring.png",287,204 S,22,143006,143506,0.25,0.5 F,22,143006,143506,1,0
Sprite,Foreground,Centre,"SB/Ring.png",371,133 S,22,143339,143839,0.25,0.5 F,22,143339,143839,1,0
Sprite,Foreground,Centre,"SB/Ring.png",452,207 S,22,143672,144172,0.25,0.5 F,22,143672,144172,1,0
Sprite,Foreground,Centre,"SB/Ring.png",398,301 S,22,144006,144506,0.25,0.5 F,22,144006,144506,1,0
Sprite,Foreground,Centre,"SB/Ring.png",387,354 S,22,144172,144672,0.25,0.5 F,22,144172,144672,1,0
Sprite,Foreground,Centre,"SB/Ring.png",455,440 S,22,145006,145506,0.25,0.5 F,22,145006,145506,1,0
Sprite,Foreground,Centre,"SB/Ring.png",477,343 S,22,145339,145839,0.25,0.5 F,22,145339,145839,1,0
Sprite,Foreground,Centre,"SB/Ring.png",576,173 S,22,146006,146506,0.25,0.5 F,22,146006,146506,1,0
Sprite,Foreground,Centre,"SB/Ring.png",459,56 S,22,146672,147172,0.25,0.5 F,22,146672,147172,1,0
Sprite,Foreground,Centre,"SB/Ring.png",307,165 S,22,147339,147839,0.25,0.5 F,22,147339,147839,1,0
Sprite,Foreground,Centre,"SB/Ring.png",92,124 S,22,148006,148506,0.25,0.5 F,22,148006,148506,1,0
Sprite,Foreground,Centre,"SB/Ring.png",113,342 S,22,148672,149172,0.25,0.5 F,22,148672,149172,1,0
Sprite,Foreground,Centre,"SB/Ring.png",316,322 S,22,149339,149839,0.25,0.5 F,22,149339,149839,1,0
Sprite,Foreground,Centre,"SB/Ring.png",425,332 S,22,149672,150172,0.25,0.5 F,22,149672,150172,1,0
Sprite,Foreground,Centre,"SB/Ring.png",425,332 S,22,149839,150339,0.25,0.5 F,22,149839,150339,1,0
Sprite,Foreground,Centre,"SB/Ring.png",472,304 S,22,150672,151172,0.25,0.5 F,22,150672,151172,1,0
Sprite,Foreground,Centre,"SB/Ring.png",443,125 S,22,151339,151839,0.25,0.5 F,22,151339,151839,1,0
Sprite,Foreground,Centre,"SB/Ring.png",329,301 S,22,152006,152506,0.25,0.5 F,22,152006,152506,1,0
Sprite,Foreground,Centre,"SB/Ring.png",189,187 S,22,152673,153173,0.25,0.5 F,22,152673,153173,1,0
Sprite,Foreground,Centre,"SB/Ring.png",401,218 S,22,153339,153839,0.25,0.5 F,22,153339,153839,1,0
Sprite,Foreground,Centre,"SB/Ring.png",506,166 S,22,154006,154506,0.25,0.5 F,22,154006,154506,1,0
Sprite,Foreground,Centre,"SB/Ring.png",521,385 S,22,154672,155172,0.25,0.5 F,22,154672,155172,1,0
Sprite,Foreground,Centre,"SB/Ring.png",391,294 S,22,155172,155672,0.25,0.5 F,22,155172,155672,1,0
Sprite,Foreground,Centre,"SB/Ring.png",251,374 S,22,155672,156172,0.25,0.5 F,22,155672,156172,1,0
Sprite,Foreground,Centre,"SB/Ring.png",142,353 S,22,156006,156506,0.25,0.5 F,22,156006,156506,1,0
Sprite,Foreground,Centre,"SB/Ring.png",320,248 S,22,157339,157839,0.25,0.5 F,22,157339,157839,1,0
Sprite,Foreground,Centre,"SB/Ring.png",235,78 S,22,158006,158506,0.25,0.5 F,22,158006,158506,1,0
Sprite,Foreground,Centre,"SB/Ring.png",88,140 S,22,158506,159006,0.25,0.5 F,22,158506,159006,1,0
Sprite,Foreground,Centre,"SB/Ring.png",131,280 S,22,159006,159506,0.25,0.5 F,22,159006,159506,1,0
Sprite,Foreground,Centre,"SB/Ring.png",176,417 S,22,159506,160006,0.25,0.5 F,22,159506,160006,1,0
Sprite,Foreground,Centre,"SB/Ring.png",227,399 S,22,159672,160172,0.25,0.5 F,22,159672,160172,1,0
Sprite,Foreground,Centre,"SB/Ring.png",336,412 S,22,160006,160506,0.25,0.5 F,22,160006,160506,1,0
Sprite,Foreground,Centre,"SB/Ring.png",536,364 S,22,160673,161173,0.25,0.5 F,22,160673,161173,1,0
Sprite,Foreground,Centre,"SB/Ring.png",502,215 S,22,161172,161672,0.25,0.5 F,22,161172,161672,1,0
Sprite,Foreground,Centre,"SB/Ring.png",396,323 S,22,161672,162172,0.25,0.5 F,22,161672,162172,1,0
Sprite,Foreground,Centre,"SB/Ring.png",276,252 S,22,162173,162673,0.25,0.5 F,22,162173,162673,1,0
Sprite,Foreground,Centre,"SB/Ring.png",272,197 S,22,162339,162839,0.25,0.5 F,22,162339,162839,1,0
Sprite,Foreground,Centre,"SB/Ring.png",293,89 S,22,162672,163172,0.25,0.5 F,22,162672,163172,1,0
Sprite,Foreground,Centre,"SB/Ring.png",505,68 S,22,163339,163839,0.25,0.5 F,22,163339,163839,1,0
Sprite,Foreground,Centre,"SB/Ring.png",433,192 S,22,163839,164339,0.25,0.5 F,22,163839,164339,1,0
Sprite,Foreground,Centre,"SB/Ring.png",500,322 S,22,164339,164839,0.25,0.5 F,22,164339,164839,1,0
Sprite,Foreground,Centre,"SB/Ring.png",403,403 S,22,164839,165339,0.25,0.5 F,22,164839,165339,1,0
Sprite,Foreground,Centre,"SB/Ring.png",350,415 S,22,165006,165506,0.25,0.5 F,22,165006,165506,1,0
Sprite,Foreground,Centre,"SB/Ring.png",265,345 S,22,165339,165839,0.25,0.5 F,22,165339,165839,1,0
Sprite,Foreground,Centre,"SB/Ring.png",212,357 S,22,165506,166006,0.25,0.5 F,22,165506,166006,1,0
Sprite,Foreground,Centre,"SB/Ring.png",68,287 S,22,166006,166506,0.25,0.5 F,22,166006,166506,1,0
Sprite,Foreground,Centre,"SB/Ring.png",213,223 S,22,166506,167006,0.25,0.5 F,22,166506,167006,1,0
Sprite,Foreground,Centre,"SB/Ring.png",120,163 S,22,166839,167339,0.25,0.5 F,22,166839,167339,1,0
Sprite,Foreground,Centre,"SB/Ring.png",164,64 S,22,167672,168172,0.25,0.5 F,22,167672,168172,1,0
Sprite,Foreground,Centre,"SB/Ring.png",265,109 S,22,168006,168506,0.25,0.5 F,22,168006,168506,1,0
Sprite,Foreground,Centre,"SB/Ring.png",263,272 S,22,169172,169672,0.25,0.5 F,22,169172,169672,1,0
Sprite,Foreground,Centre,"SB/Ring.png",142,173 S,22,170006,170506,0.25,0.5 F,22,170006,170506,1,0
Sprite,Foreground,Centre,"SB/Ring.png",265,109 S,22,170672,171172,0.25,0.5 F,22,170672,171172,1,0
Sprite,Foreground,Centre,"SB/Ring.png",504,132 S,22,171839,172339,0.25,0.5 F,22,171839,172339,1,0
Sprite,Foreground,Centre,"SB/Ring.png",447,271 S,22,172339,172839,0.25,0.5 F,22,172339,172839,1,0
Sprite,Foreground,Centre,"SB/Ring.png",546,370 S,22,172839,173339,0.25,0.5 F,22,172839,173339,1,0
Sprite,Foreground,Centre,"SB/Ring.png",556,424 S,22,173006,173506,0.25,0.5 F,22,173006,173506,1,0
Sprite,Foreground,Centre,"SB/Ring.png",447,440 S,22,173339,173839,0.25,0.5 F,22,173339,173839,1,0
Sprite,Foreground,Centre,"SB/Ring.png",306,317 S,22,174006,174506,0.25,0.5 F,22,174006,174506,1,0
Sprite,Foreground,Centre,"SB/Ring.png",192,430 S,22,174506,175006,0.25,0.5 F,22,174506,175006,1,0
Sprite,Foreground,Centre,"SB/Ring.png",95,328 S,22,175006,175506,0.25,0.5 F,22,175006,175506,1,0
Sprite,Foreground,Centre,"SB/Ring.png",66,221 S,22,175339,175839,0.25,0.5 F,22,175339,175839,1,0
Sprite,Foreground,Centre,"SB/Ring.png",79,111 S,22,175672,176172,0.25,0.5 F,22,175672,176172,1,0
Sprite,Foreground,Centre,"SB/Ring.png",181,64 S,22,176006,176506,0.25,0.5 F,22,176006,176506,1,0
Sprite,Foreground,Centre,"SB/Ring.png",331,180 S,22,176672,177172,0.25,0.5 F,22,176672,177172,1,0
Sprite,Foreground,Centre,"SB/Ring.png",439,170 S,22,177006,177506,0.25,0.5 F,22,177006,177506,1,0
Sprite,Foreground,Centre,"SB/Ring.png",493,167 S,22,177172,177672,0.25,0.5 F,22,177172,177672,1,0
Sprite,Foreground,Centre,"SB/Ring.png",527,271 S,22,177506,178006,0.25,0.5 F,22,177506,178006,1,0
Sprite,Foreground,Centre,"SB/Ring.png",576,246 S,22,178172,178672,0.25,0.5 F,22,178172,178672,1,0
Sprite,Foreground,Centre,"SB/Ring.png",576,302 S,22,178339,178839,0.25,0.5 F,22,178339,178839,1,0
Sprite,Foreground,Centre,"SB/Ring.png",288,392 S,22,189339,189839,0.25,0.5 F,22,189339,189839,1,0
Sprite,Foreground,Centre,"SB/Ring.png",352,296 S,22,190672,191172,0.25,0.5 F,22,190672,191172,1,0
Sprite,Foreground,Centre,"SB/Ring.png",288,200 S,22,192006,192506,0.25,0.5 F,22,192006,192506,1,0
Sprite,Foreground,Centre,"SB/Ring.png",352,104 S,22,193339,193839,0.25,0.5 F,22,193339,193839,1,0
Sprite,Foreground,Centre,"SB/Ring.png",352,104 S,22,193506,194006,0.25,0.5 F,22,193506,194006,1,0
Sprite,Foreground,Centre,"SB/Ring.png",515,123 S,22,194006,194506,0.25,0.5 F,22,194006,194506,1,0
Sprite,Foreground,Centre,"SB/Ring.png",563,221 S,22,194339,194839,0.25,0.5 F,22,194339,194839,1,0
Sprite,Foreground,Centre,"SB/Ring.png",530,325 S,22,194672,195172,0.25,0.5 F,22,194672,195172,1,0
Sprite,Foreground,Centre,"SB/Ring.png",303,267 S,22,195506,196006,0.25,0.5 F,22,195506,196006,1,0
Sprite,Foreground,Centre,"SB/Ring.png",311,212 S,22,196006,196506,0.25,0.5 F,22,196006,196506,1,0
Sprite,Foreground,Centre,"SB/Ring.png",84,270 S,22,196840,197340,0.25,0.5 F,22,196840,197340,1,0
Sprite,Foreground,Centre,"SB/Ring.png",86,324 S,22,197339,197839,0.25,0.5 F,22,197339,197839,1,0
Sprite,Foreground,Centre,"SB/Ring.png",203,391 S,22,197839,198339,0.25,0.5 F,22,197839,198339,1,0
Sprite,Foreground,Centre,"SB/Ring.png",475,385 S,22,198672,199172,0.25,0.5 F,22,198672,199172,1,0
Sprite,Foreground,Centre,"SB/Ring.png",459,232 S,22,199172,199672,0.25,0.5 F,22,199172,199672,1,0
Sprite,Foreground,Centre,"SB/Ring.png",208,273 S,22,200006,200506,0.25,0.5 F,22,200006,200506,1,0
Sprite,Foreground,Centre,"SB/Ring.png",275,148 S,22,200506,201006,0.25,0.5 F,22,200506,201006,1,0
Sprite,Foreground,Centre,"SB/Ring.png",331,139 S,22,200672,201172,0.25,0.5 F,22,200672,201172,1,0
Sprite,Foreground,Centre,"SB/Ring.png",378,338 S,22,201339,201839,0.25,0.5 F,22,201339,201839,1,0
Sprite,Foreground,Centre,"SB/Ring.png",513,287 S,22,201839,202339,0.25,0.5 F,22,201839,202339,1,0
Sprite,Foreground,Centre,"SB/Ring.png",533,235 S,22,202006,202506,0.25,0.5 F,22,202006,202506,1,0
Sprite,Foreground,Centre,"SB/Ring.png",316,247 S,22,202672,203172,0.25,0.5 F,22,202672,203172,1,0
Sprite,Foreground,Centre,"SB/Ring.png",217,178 S,22,203172,203672,0.25,0.5 F,22,203172,203672,1,0
Sprite,Foreground,Centre,"SB/Ring.png",222,124 S,22,203338,203838,0.25,0.5 F,22,203338,203838,1,0
Sprite,Foreground,Centre,"SB/Ring.png",423,79 S,22,204006,204506,0.25,0.5 F,22,204006,204506,1,0
Sprite,Foreground,Centre,"SB/Ring.png",423,79 S,22,204172,204672,0.25,0.5 F,22,204172,204672,1,0
Sprite,Foreground,Centre,"SB/Ring.png",396,224 S,22,204672,205172,0.25,0.5 F,22,204672,205172,1,0
Sprite,Foreground,Centre,"SB/Ring.png",436,326 S,22,205006,205506,0.25,0.5 F,22,205006,205506,1,0
Sprite,Foreground,Centre,"SB/Ring.png",377,418 S,22,205339,205839,0.25,0.5 F,22,205339,205839,1,0
Sprite,Foreground,Centre,"SB/Ring.png",213,398 S,22,205839,206339,0.25,0.5 F,22,205839,206339,1,0
Sprite,Foreground,Centre,"SB/Ring.png",158,408 S,22,206006,206506,0.25,0.5 F,22,206006,206506,1,0
Sprite,Foreground,Centre,"SB/Ring.png",177,234 S,22,206672,207172,0.25,0.5 F,22,206672,207172,1,0
Sprite,Foreground,Centre,"SB/Ring.png",341,214 S,22,207172,207672,0.25,0.5 F,22,207172,207672,1,0
Sprite,Foreground,Centre,"SB/Ring.png",396,224 S,22,207339,207839,0.25,0.5 F,22,207339,207839,1,0
Sprite,Foreground,Centre,"SB/Ring.png",360,69 S,22,208006,208506,0.25,0.5 F,22,208006,208506,1,0
Sprite,Foreground,Centre,"SB/Ring.png",251,86 S,22,208339,208839,0.25,0.5 F,22,208339,208839,1,0
Sprite,Foreground,Centre,"SB/Ring.png",204,65 S,22,208506,209006,0.25,0.5 F,22,208506,209006,1,0
Sprite,Foreground,Centre,"SB/Ring.png",177,179 S,22,209172,209672,0.25,0.5 F,22,209172,209672,1,0
Sprite,Foreground,Centre,"SB/Ring.png",177,234 S,22,209339,209839,0.25,0.5 F,22,209339,209839,1,0
Sprite,Foreground,Centre,"SB/Ring.png",254,375 S,22,210672,211172,0.25,0.5 F,22,210672,211172,1,0
Sprite,Foreground,Centre,"SB/Ring.png",274,155 S,22,211339,211839,0.25,0.5 F,22,211339,211839,1,0
Sprite,Foreground,Centre,"SB/Ring.png",187,86 S,22,211672,212172,0.25,0.5 F,22,211672,212172,1,0
Sprite,Foreground,Centre,"SB/Ring.png",131,88 S,22,211839,212339,0.25,0.5 F,22,211839,212339,1,0
Sprite,Foreground,Centre,"SB/Ring.png",107,229 S,22,212339,212839,0.25,0.5 F,22,212339,212839,1,0
Sprite,Foreground,Centre,"SB/Ring.png",264,265 S,22,212839,213339,0.25,0.5 F,22,212839,213339,1,0
Sprite,Foreground,Centre,"SB/Ring.png",313,240 S,22,213006,213506,0.25,0.5 F,22,213006,213506,1,0
Sprite,Foreground,Centre,"SB/Ring.png",421,220 S,22,213339,213839,0.25,0.5 F,22,213339,213839,1,0
Sprite,Foreground,Centre,"SB/Ring.png",466,251 S,22,214006,214506,0.25,0.5 F,22,214006,214506,1,0
Sprite,Foreground,Centre,"SB/Ring.png",429,354 S,22,214839,215339,0.25,0.5 F,22,214839,215339,1,0
Sprite,Foreground,Centre,"SB/Ring.png",377,332 S,22,215506,216006,0.25,0.5 F,22,215506,216006,1,0
Sprite,Foreground,Centre,"SB/Ring.png",246,417 S,22,216006,216506,0.25,0.5 F,22,216006,216506,1,0
Sprite,Foreground,Centre,"SB/Ring.png",230,307 S,22,216339,216839,0.25,0.5 F,22,216339,216839,1,0
Sprite,Foreground,Centre,"SB/Ring.png",127,267 S,22,216672,217172,0.25,0.5 F,22,216672,217172,1,0
Sprite,Foreground,Centre,"SB/Ring.png",143,157 S,22,217005,217505,0.25,0.5 F,22,217005,217505,1,0
Sprite,Foreground,Centre,"SB/Ring.png",225,83 S,22,217339,217839,0.25,0.5 F,22,217339,217839,1,0
Sprite,Foreground,Centre,"SB/Ring.png",321,126 S,22,217672,218172,0.25,0.5 F,22,217672,218172,1,0
Sprite,Foreground,Centre,"SB/Ring.png",393,209 S,22,218006,218506,0.25,0.5 F,22,218006,218506,1,0
Sprite,Foreground,Centre,"SB/Ring.png",297,252 S,22,218339,218839,0.25,0.5 F,22,218339,218839,1,0
Sprite,Foreground,Centre,"SB/Ring.png",368,338 S,22,218672,219172,0.25,0.5 F,22,218672,219172,1,0
Sprite,Foreground,Centre,"SB/Ring.png",337,435 S,22,219006,219506,0.25,0.5 F,22,219006,219506,1,0
Sprite,Foreground,Centre,"SB/Ring.png",207,371 S,22,219506,220006,0.25,0.5 F,22,219506,220006,1,0
Sprite,Foreground,Centre,"SB/Ring.png",207,371 S,22,219672,220172,0.25,0.5 F,22,219672,220172,1,0
Sprite,Foreground,Centre,"SB/Ring.png",101,385 S,22,220006,220506,0.25,0.5 F,22,220006,220506,1,0
Sprite,Foreground,Centre,"SB/Ring.png",134,232 S,22,220506,221006,0.25,0.5 F,22,220506,221006,1,0
Sprite,Foreground,Centre,"SB/Ring.png",139,67 S,22,221006,221506,0.25,0.5 F,22,221006,221506,1,0
Sprite,Foreground,Centre,"SB/Ring.png",226,123 S,22,221339,221839,0.25,0.5 F,22,221339,221839,1,0
Sprite,Foreground,Centre,"SB/Ring.png",444,92 S,22,222006,222506,0.25,0.5 F,22,222006,222506,1,0
Sprite,Foreground,Centre,"SB/Ring.png",405,194 S,22,222339,222839,0.25,0.5 F,22,222339,222839,1,0
Sprite,Foreground,Centre,"SB/Ring.png",455,217 S,22,222506,223006,0.25,0.5 F,22,222506,223006,1,0
Sprite,Foreground,Centre,"SB/Ring.png",420,365 S,22,223006,223506,0.25,0.5 F,22,223006,223506,1,0
Sprite,Foreground,Centre,"SB/Ring.png",261,384 S,22,223506,224006,0.25,0.5 F,22,223506,224006,1,0
Sprite,Foreground,Centre,"SB/Ring.png",210,363 S,22,223672,224172,0.25,0.5 F,22,223672,224172,1,0
Sprite,Foreground,Centre,"SB/Ring.png",104,390 S,22,224006,224506,0.25,0.5 F,22,224006,224506,1,0
Sprite,Foreground,Centre,"SB/Ring.png",67,287 S,22,224339,224839,0.25,0.5 F,22,224339,224839,1,0
Sprite,Foreground,Centre,"SB/Ring.png",137,203 S,22,224672,225172,0.25,0.5 F,22,224672,225172,1,0
Sprite,Foreground,Centre,"SB/Ring.png",271,154 S,22,225172,225672,0.25,0.5 F,22,225172,225672,1,0
Sprite,Foreground,Centre,"SB/Ring.png",380,242 S,22,225672,226172,0.25,0.5 F,22,225672,226172,1,0
Sprite,Foreground,Centre,"SB/Ring.png",347,383 S,22,226172,226672,0.25,0.5 F,22,226172,226672,1,0
Sprite,Foreground,Centre,"SB/Ring.png",199,432 S,22,226672,227172,0.25,0.5 F,22,226672,227172,1,0
Sprite,Foreground,Centre,"SB/Ring.png",217,216 S,22,227339,227839,0.25,0.5 F,22,227339,227839,1,0
Sprite,Foreground,Centre,"SB/Ring.png",321,182 S,22,227672,228172,0.25,0.5 F,22,227672,228172,1,0
Sprite,Foreground,Centre,"SB/Ring.png",392,265 S,22,228006,228506,0.25,0.5 F,22,228006,228506,1,0
Sprite,Foreground,Centre,"SB/Ring.png",308,337 S,22,229006,229506,0.25,0.5 F,22,229006,229506,1,0
Sprite,Foreground,Centre,"SB/Ring.png",197,322 S,22,229339,229839,0.25,0.5 F,22,229339,229839,1,0
Sprite,Foreground,Centre,"SB/Ring.png",309,209 S,22,230006,230506,0.25,0.5 F,22,230006,230506,1,0
Sprite,Foreground,Centre,"SB/Ring.png",213,56 S,22,230672,231172,0.25,0.5 F,22,230672,231172,1,0
Sprite,Foreground,Centre,"SB/Ring.png",118,104 S,22,231005,231505,0.25,0.5 F,22,231005,231505,1,0
Sprite,Foreground,Centre,"SB/Ring.png",123,211 S,22,231339,231839,0.25,0.5 F,22,231339,231839,1,0
Sprite,Foreground,Centre,"SB/Ring.png",218,267 S,22,231672,232172,0.25,0.5 F,22,231672,232172,1,0
Sprite,Foreground,Centre,"SB/Ring.png",309,209 S,22,232006,232506,0.25,0.5 F,22,232006,232506,1,0
//Storyboard Sound Samples

[TimingPoints]
5360,333.333333333333,4,2,1,50,1,0
26673,333.333333333333,4,2,2,60,1,0
29339,-100,4,2,2,70,0,0
32006,-100,4,2,2,80,0,0
32672,-100,4,2,3,80,0,0
32839,-100,4,2,2,80,0,0
33172,-100,4,2,3,80,0,0
33339,-100,4,2,2,80,0,0
33506,-100,4,2,3,80,0,0
33672,-100,4,2,2,80,0,0
33839,-100,4,2,3,80,0,0
33922,-100,4,2,2,80,0,0
34006,-100,4,2,3,80,0,0
34172,-100,4,2,2,80,0,0
34506,-100,4,2,3,80,0,0
34672,-100,4,2,2,90,0,0
34839,-100,4,2,3,90,0,0
35006,-100,4,2,2,90,0,0
35339,-100,4,2,3,90,0,0
35506,-100,4,2,2,90,0,0
35839,-100,4,2,3,90,0,0
36006,-100,4,2,2,90,0,0
36172,-100,4,2,3,90,0,0
36339,-100,4,2,2,90,0,0
36506,-100,4,2,3,90,0,0
36589,-100,4,2,2,90,0,0
36672,-100,4,2,3,90,0,0
36839,-100,4,2,2,90,0,0
37256,-100,4,2,3,90,0,0
37339,-100,4,2,2,70,0,0
37672,-100,4,2,3,70,0,0
38006,-100,4,2,2,70,0,0
38672,-100,4,2,2,90,0,1
48672,-100,4,2,2,90,0,0
49339,-100,4,2,2,90,0,1
57506,-100,4,2,3,50,0,1
57672,-100,4,2,3,60,0,1
57839,-100,4,2,2,60,0,1
57922,-100,4,2,3,60,0,1
58006,-100,4,2,2,70,0,1
58089,-100,4,2,3,70,0,1
58339,-100,4,2,3,80,0,1
58589,-100,4,2,3,80,0,0
58672,-100,4,2,2,90,0,0
58839,-100,4,2,2,90,0,1
59506,-100,4,2,3,90,0,1
59672,-100,4,2,2,90,0,0
60006,-100,4,2,2,70,0,1
60172,-100,4,2,2,70,0,0
78839,-100,4,2,3,70,0,0
79006,-100,4,2,2,70,0,0
80172,-100,4,2,3,70,0,0
80339,-100,4,2,2,70,0,0
80506,-100,4,2,3,70,0,0
80672,-100,4,2,2,70,0,0
80756,-100,4,2,3,70,0,0
81006,-100,4,2,2,70,0,0
81089,-100,4,2,3,70,0,0
81339,-100,4,2,2,70,0,0
97506,-100,4,2,3,70,0,0
97672,-100,4,2,2,70,0,0
98089,-100,4,2,3,70,0,0
98172,-100,4,2,2,70,0,0
98839,-100,4,2,3,70,0,0
99006,-100,4,2,2,70,0,0
99256,-100,4,2,3,70,0,0
99339,-100,4,2,2,70,0,0
100089,-100,4,2,3,70,0,0
100339,-100,4,2,2,70,0,0
100422,-100,4,2,3,70,0,0
100672,-100,4,2,2,70,0,0
100756,-100,4,2,3,70,0,0
100839,-100,4,2,2,70,0,0
100922,-100,4,2,3,70,0,0
101006,-100,4,2,2,70,0,0
101506,-100,4,2,3,70,0,0
102339,-100,4,2,2,70,0,0
102422,-100,4,2,3,70,0,0
102672,-100,4,2,2,70,0,0
108006,-100,4,2,2,30,0,0
109339,-100,4,2,2,40,0,0
110672,-100,4,2,2,50,0,0
112006,-100,4,2,2,60,0,0
113339,-100,4,2,2,70,0,0
124006,-100,4,2,2,90,0,1
133506,-100,4,2,2,90,0,0
134256,-100,4,2,3,90,0,0
134339,-100,4,2,2,90,0,0
134589,-100,4,2,3,90,0,0
134672,-100,4,2,2,90,0,1
139506,-100,4,2,3,90,0,1
139672,-100,4,2,2,90,0,1
139839,-100,4,2,3,90,0,1
140006,-100,4,2,2,90,0,1
140172,-100,4,2,3,90,0,1
140339,-100,4,2,2,90,0,1
140506,-100,4,2,3,90,0,1
140672,-100,4,2,2,90,0,1
140839,-100,4,2,3,90,0,1
141006,-100,4,2,2,90,0,1
141172,-100,4,2,3,90,0,1
141339,-100,4,2,2,90,0,1
141506,-100,4,2,3,90,0,1
141672,-100,4,2,2,90,0,1
141839,-100,4,2,3,90,0,1
142006,-100,4,2,2,90,0,1
142172,-100,4,2,3,90,0,1
142339,-100,4,2,2,90,0,1
142506,-100,4,2,3,90,0,1
142672,-100,4,2,2,90,0,1
142756,-100,4,2,3,90,0,1
143006,-100,4,2,2,90,0,1
143089,-100,4,2,3,90,0,1
143339,-100,4,2,2,90,0,1
143381,-100,4,2,3,90,0,1
143672,-100,4,2,2,90,0,1
143714,-100,4,2,3,90,0,1
144006,-100,4,2,2,90,0,1
144172,-100,4,2,2,90,0,0
144922,-100,4,2,3,90,0,0
145006,-100,4,2,2,90,0,0
145256,-100,4,2,3,90,0,0
145339,-100,4,2,2,70,0,1
145506,-100,4,2,2,70,0,0
155839,-100,4,2,3,70,0,0
156006,-100,4,2,2,70,0,0
157339,-100,4,2,2,90,0,1
167506,-100,4,2,2,90,0,0
168006,-100,4,2,2,90,0,1
178339,-100,4,2,2,90,0,0
178672,-100,4,2,2,70,0,1
178756,-100,4,2,2,30,0,1
178839,-100,4,2,2,30,0,0
187839,-100,4,2,3,30,0,0
188339,-100,4,2,3,40,0,0
188672,-100,4,2,3,50,0,0
189006,-100,4,2,3,60,0,0
189339,-100,4,2,2,70,0,0
205506,-100,4,2,3,70,0,0
205672,-100,4,2,2,70,0,0
205839,-100,4,2,3,70,0,0
206006,-100,4,2,2,70,0,0
206172,-100,4,2,3,70,0,0
206339,-100,4,2,2,70,0,0
206506,-100,4,2,3,70,0,0
206672,-100,4,2,2,70,0,0
206839,-100,4,2,3,70,0,0
207006,-100,4,2,2,70,0,0
207172,-100,4,2,3,70,0,0
207339,-100,4,2,2,70,0,0
207506,-100,4,2,3,70,0,0
207672,-100,4,2,2,70,0,0
207756,-100,4,2,3,70,0,0
208006,-100,4,2,2,70,0,0
208089,-100,4,2,3,70,0,0
208339,-100,4,2,2,70,0,0
208422,-100,4,2,3,70,0,0
208672,-100,4,2,2,70,0,0
208756,-100,4,2,3,70,0,0
209006,-100,4,2,2,70,0,0
209089,-100,4,2,3,70,0,0
209339,-100,4,2,2,70,0,0
210672,-100,4,2,2,90,0,1
212172,-100,4,2,3,90,0,1
212339,-100,4,2,2,90,0,1
213172,-100,4,2,3,90,0,1
213339,-100,4,2,2,90,0,1
221172,-100,4,2,3,90,0,1
221339,-100,4,2,2,90,0,1
222839,-100,4,2,3,90,0,1
223006,-100,4,2,2,90,0,1
223839,-100,4,2,3,90,0,1
224006,-100,4,2,2,90,0,1
224339,-100,4,2,2,90,0,0
224672,-100,4,2,2,90,0,1
224714,-100,4,2,2,90,0,0
224922,-100,4,2,2,90,0,1
224964,-100,4,2,2,90,0,0
225172,-100,4,2,2,90,0,1
225214,-100,4,2,2,90,0,0
225422,-100,4,2,2,90,0,1
225464,-100,4,2,2,90,0,0
225672,-100,4,2,2,90,0,1
225714,-100,4,2,2,90,0,0
225922,-100,4,2,2,90,0,1
225964,-100,4,2,2,90,0,0
226172,-100,4,2,2,90,0,1
226214,-100,4,2,2,90,0,0
226672,-100,4,2,2,90,0,1
229506,-100,4,2,3,90,0,1
229672,-100,4,2,2,90,0,1
229839,-100,4,2,3,90,0,1
230006,-100,4,2,2,90,0,1
230172,-100,4,2,3,90,0,1
230339,-100,4,2,2,90,0,1
230506,-100,4,2,3,90,0,1
230672,-100,4,2,2,90,0,1
230756,-100,4,2,3,90,0,1
231006,-100,4,2,2,90,0,1
231089,-100,4,2,3,90,0,1
231339,-100,4,2,2,90,0,1
231422,-100,4,2,3,90,0,1
231672,-100,4,2,2,90,0,1
231756,-100,4,2,3,90,0,1
232006,-100,4,2,2,70,0,0

[Colours]
Combo1 : 0,128,128
Combo2 : 0,64,128
Combo3 : 0,128,255
Combo4 : 0,255,255
Combo5 : 128,128,255
Combo6 : 128,128,64
Combo7 : 128,0,255

[HitObjects]
356,227,5359,6,0,P|358:281|375:333,2,110,4|2|2,0:0|0:0|0:0,0:0:0:0:
389,121,6359,1,2,0:0:0:0:
333,26,6693,5,2,0:0:0:0:
226,5,7026,1,2,0:0:0:0:
126,51,7359,1,2,0:0:0:0:
82,152,7693,2,0,L|89:205,1,55,0|2,0:0|0:0,0:0:0:0:
97,260,8026,86,0,L|206:277,1,110,0|2,0:0|0:0,0:0:0:0:
287,350,8693,2,0,L|396:332,1,110,2|2,0:0|0:0,0:0:0:0:
489,277,9359,5,2,0:0:0:0:
508,168,9693,1,2,0:0:0:0:
445,78,10026,2,0,L|390:71,1,55,2|2,0:0|0:0,0:0:0:0:
370,19,10359,2,0,L|315:25,1,55,0|2,0:0|0:0,0:0:0:0:
261,12,10693,86,0,L|245:120,1,110,0|2,0:0|0:0,0:0:0:0:
182,210,11359,2,0,L|198:318,1,110,2|2,0:0|0:0,0:0:0:0:
305,344,12026,5,2,0:0:0:0:
411,314,12359,1,2,0:0:0:0:
458,214,12693,1,2,0:0:0:0:
444,104,13026,2,0,L|422:55,1,55,0|2,0:0|0:0,0:0:0:0:
370,68,13359,86,0,B|260:54,1,110,0|2,0:0|0:0,0:0:0:0:
226,96,13859,1,0,0:0:0:0:
226,96,14026,2,0,B|116:111,1,110,2|2,0:0|0:0,0:0:0:0:
25,171,14693,5,2,0:0:0:0:
9,280,15026,1,2,0:0:0:0:
92,352,15359,2,0,P|119:350|146:344,1,55,2|2,0:0|0:0,0:0:0:0:
196,372,15693,2,0,P|218:356|239:338,1,55,2|2,0:0|0:0,0:0:0:0:
232,279,16026,86,0,B|184:220|220:88|356:92|356:92|348:192|248:212|248:212|124:160|176:56|176:56|124:104|14:130|1:61|56:20|84:40|77:64,1,880,6|0,0:0|0:0,0:0:0:0:
92,172,19026,6,0,P|89:200|82:226,1,55,2|2,0:0|0:0,0:0:0:0:
68,279,19359,2,0,P|35:305|0:324,2,82.5,2|2|2,0:0|0:0|0:0,0:0:0:0:
108,316,20026,85,2,0:0:0:0:
215,337,20359,1,2,0:0:0:0:
292,258,20693,2,0,P|351:255|402:264,1,110,2|2,0:0|0:0,0:0:0:0:
508,289,21359,2,0,B|517:200|473:220|486:127,1,165,2|2,0:0|0:0,0:0:0:0:
359,22,22359,6,0,B|416:62|433:173|391:249|303:294|303:294|171:171|-4:226|-4:226|75:275|101:355|101:355|165:292|249:287,1,990,2|2,0:0|0:0,0:0:0:0:
295,190,25693,86,0,P|247:160|195:144,1,110,2|2,0:0|0:0,0:0:0:0:
89,118,26359,2,0,P|97:91|114:70,1,55,2|2,0:0|0:0,0:0:0:0:
153,42,26673,5,6,3:2:0:0:
260,66,27006,1,0,1:0:0:0:
355,15,27339,2,0,B|407:-2|407:-2|459:17,1,110,8|0,0:0|1:0,0:0:0:0:
401,110,28006,86,0,L|394:225,1,110,2|0,3:2|1:0,0:0:0:0:
303,281,28672,2,0,L|307:335,2,55,8|0|0,0:0|3:0|1:0,0:0:0:0:
200,241,29339,6,0,P|150:217|96:208,1,110,2|0,3:2|1:0,0:0:0:0:
175,130,30006,2,0,P|224:106|278:97,1,110,2|0,0:2|1:0,0:0:0:0:
198,21,30672,86,0,L|85:8,2,110,2|0|2,3:2|1:0|0:0,0:0:0:0:
306,0,31672,2,0,L|313:62,1,55,2|2,1:2|3:2,0:0:0:0:
274,94,32006,6,0,L|286:203,1,110,2|0,3:2|1:0,0:0:0:0:
180,230,32672,2,0,L|167:339,1,110,2|0,1:2|1:0,0:0:0:0:
270,371,33339,2,0,P|324:377|370:348,1,110,2|0,3:2|1:0,0:0:0:0:
423,252,34006,2,0,L|433:166,2,82.5,2|2|2,1:2|0:0|1:2,0:0:0:0:
368,259,34672,86,0,P|315:242|261:237,1,110,2|0,3:2|1:0,0:0:0:0:
221,276,35172,2,0,P|168:292|114:297,1,110,2|0,0:3|3:0,0:0:0:0:
60,286,35672,1,0,1:0:0:0:
23,183,36006,5,2,3:2:0:0:
121,137,36339,2,0,L|113:54,2,82.5,0|0|0,1:0|3:0|3:0,0:0:0:0:
171,158,37006,2,0,P|196:167|223:171,1,55,0|0,1:0|3:0,0:0:0:0:
273,148,37339,85,4,3:2:0:0:
275,256,37672,2,0,P|366:204|369:99,1,220,0|2,3:0|0:3,0:0:0:0:
277,42,38672,6,0,L|167:47,1,110,6|0,3:2|0:0,0:0:0:0:
115,27,39172,2,0,L|104:80,1,55,2|0,3:2|1:0,0:0:0:0:
90,134,39506,1,2,0:0:0:0:
128,234,39839,86,0,P|73:240|22:220,2,110,2|2|2,3:2|3:2|3:2,0:0:0:0:
181,220,40672,2,0,L|176:330,1,110,0|2,1:0|0:0,0:0:0:0:
219,363,41172,1,2,0:0:0:0:
272,345,41339,6,0,L|382:340,1,110,2|0,3:2|0:0,0:0:0:0:
434,360,41839,2,0,L|445:307,1,55,2|0,3:2|1:0,0:0:0:0:
459,253,42173,1,2,0:0:0:0:
506,154,42506,85,2,3:2:0:0:
419,86,42839,1,2,3:2:0:0:
310,109,43172,2,0,L|257:98,2,55,2|0|2,3:2|1:0|3:2,0:0:0:0:
285,216,43839,1,6,3:2:0:0:
285,216,44006,6,0,P|213:253|136:228,1,165,6|2,3:2|3:2,0:0:0:0:
110,181,44672,1,2,1:2:0:0:
151,79,45006,1,2,3:2:0:0:
151,79,45172,2,0,P|178:75|205:78,1,55,2|0,3:2|0:0,0:0:0:0:
257,98,45506,86,0,L|272:17,2,82.5,2|0|0,3:2|3:0|1:0,0:0:0:0:
337,173,46339,2,0,P|363:180|390:182,1,55,2|2,0:0|0:0,0:0:0:0:
443,167,46672,6,0,P|452:245|391:296,1,165,6|0,3:2|3:0,0:0:0:0:
337,302,47339,1,0,1:0:0:0:
250,232,47672,1,2,3:2:0:0:
250,232,47839,2,0,P|196:220|141:221,2,110,6|0|0,3:2|3:0|0:0,0:0:0:0:
298,204,48672,85,2,1:2:0:0:
404,175,49006,1,2,3:0:0:0:
491,244,49339,6,0,L|501:135,1,110,6|0,3:2|0:0,0:0:0:0:
461,97,49839,2,0,L|402:55,1,55,2|0,3:2|1:0,0:0:0:0:
371,33,50172,1,2,0:0:0:0:
276,90,50506,86,0,P|252:139|252:193,2,110,2|2|2,3:2|3:2|3:2,0:0:0:0:
230,59,51339,2,0,L|121:69,1,110,0|2,1:0|0:0,0:0:0:0:
83,110,51839,1,2,0:0:0:0:
49,154,52006,6,0,L|39:263,1,110,2|0,3:2|0:0,0:0:0:0:
79,301,52506,2,0,L|138:343,1,55,2|0,3:2|1:0,0:0:0:0:
168,365,52839,1,2,0:0:0:0:
268,321,53172,85,2,3:2:0:0:
193,239,53506,1,2,3:2:0:0:
270,160,53839,2,0,P|280:134|284:107,1,55,2|0,3:2|1:0,0:0:0:0:
254,63,54172,2,0,L|144:53,1,110,2|2,3:2|3:2,0:0:0:0:
91,67,54672,6,0,P|48:134|63:214,1,165,6|0,3:2|3:0,0:0:0:0:
111,243,55339,2,0,L|220:252,1,110,0|2,1:0|3:2,0:0:0:0:
275,258,55839,1,6,3:2:0:0:
371,204,56172,2,0,P|380:164|382:123,2,82.5,0|0|0,3:0|3:0|1:0,0:0:0:0:
382,313,57006,85,2,3:2:0:0:
382,313,57172,2,0,P|354:311|328:304,1,55,6|0,3:2|0:0,0:0:0:0:
282,272,57506,2,0,P|227:280|174:295,1,110,0|0,1:0|3:0,0:0:0:0:
125,319,58006,2,0,P|64:268|70:189,1,165,0|0,1:0|1:0,0:0:0:0:
123,92,58839,6,0,B|83:77|83:77|43:82,2,82.5,0|0|0,3:0|3:0|3:0,0:0:0:0:
170,119,59506,1,0,3:0:0:0:
170,119,59672,2,0,L|155:228,1,110,0|4,3:0|3:2,0:0:0:0:
91,317,60339,86,0,P|141:337|194:328,1,110,2|10,1:2|0:0,0:0:0:0:
283,263,61006,2,0,P|337:253|387:273,1,110,2|0,1:2|3:0,0:0:0:0:
466,349,61672,5,0,1:0:0:0:
501,244,62006,2,0,L|490:190,1,55,8|0,0:0|3:0,0:0:0:0:
512,139,62339,2,0,L|405:113,1,110,0|0,1:0|3:0,0:0:0:0:
303,154,63006,86,0,P|253:174|200:165,1,110,2|10,1:2|0:0,0:0:0:0:
111,100,63673,2,0,P|57:90|7:110,1,110,2|0,1:2|3:0,0:0:0:0:
68,200,64339,5,0,1:0:0:0:
93,306,64672,2,0,L|89:360,2,55,10|2|2,0:0|3:2|1:2,0:0:0:0:
178,234,65339,85,4,3:2:0:0:
244,321,65672,2,0,P|296:312|329:270,1,110,2|10,1:2|0:0,0:0:0:0:
368,167,66339,2,0,L|362:112,1,55,2|10,1:2|0:0,0:0:0:0:
325,71,66672,5,2,3:2:0:0:
216,59,67005,1,2,1:2:0:0:
171,160,67340,1,10,0:0:0:0:
253,233,67672,1,2,1:2:0:0:
348,178,68006,86,0,P|311:137|259:121,1,110,2|2,3:2|1:2,0:0:0:0:
162,71,68672,2,0,L|150:124,1,55,10|2,0:0|3:2,0:0:0:0:
108,160,69006,2,0,L|96:213,1,55,2|10,1:2|0:0,0:0:0:0:
62,258,69339,6,0,P|63:312|96:355,1,110,2|2,3:2|1:2,0:0:0:0:
203,378,70006,1,10,0:0:0:0:
297,322,70339,1,2,1:2:0:0:
404,342,70672,85,4,3:2:0:0:
484,266,71006,2,0,B|519:163|519:163|461:67,1,220,2|2,1:2|1:2,0:0:0:0:
369,7,72006,6,0,P|351:58|360:112,1,110,0|0,3:0|1:0,0:0:0:0:
379,220,72672,2,0,P|397:271|388:325,1,110,8|0,0:0|1:0,0:0:0:0:
286,282,73339,85,0,3:0:0:0:
200,350,73672,2,0,L|92:334,1,110,2|10,1:2|0:0,0:0:0:0:
18,251,74339,2,0,L|21:195,1,55,2|10,1:2|0:0,0:0:0:0:
27,141,74672,6,0,L|135:125,1,110,0|0,3:0|1:0,0:0:0:0:
213,46,75339,2,0,L|321:61,1,110,10|2,0:0|1:2,0:0:0:0:
425,22,76006,85,4,3:2:0:0:
497,104,76339,2,0,P|510:156|498:209,1,110,2|10,1:2|0:0,0:0:0:0:
445,306,77006,2,0,L|390:302,1,55,2|10,1:2|0:0,0:0:0:0:
335,298,77339,5,2,3:2:0:0:
227,321,77672,1,2,1:2:0:0:
171,225,78005,1,10,0:0:0:0:
246,143,78339,1,2,1:2:0:0:
346,189,78672,86,0,B|357:138|357:138|341:82,1,110,6|2,3:2|1:2,0:0:0:0:
241,35,79339,2,0,L|230:88,1,55,6|2,0:0|3:2,0:0:0:0:
246,143,79672,2,0,L|235:196,1,55,2|2,1:2|3:2,0:0:0:0:
204,243,80006,5,6,3:2:0:0:
259,338,80339,1,6,3:2:0:0:
368,339,80672,2,0,P|382:315|387:289,1,55,6|2,3:2|3:2,0:0:0:0:
423,243,81006,2,0,P|421:215|409:191,1,55,6|2,3:2|3:2,0:0:0:0:
371,153,81339,5,6,3:2:0:0:
266,118,81672,2,0,B|231:76|221:19|221:19|329:50|314:-24|435:20,1,330,2|0,1:2|3:0,0:0:0:0:
424,130,83006,86,0,L|405:294,1,165,2|2,1:2|3:2,0:0:0:0:
397,348,83672,1,0,1:0:0:0:
293,382,84006,6,0,P|240:374|199:338,1,110,0|0,3:0|1:0,0:0:0:0:
101,289,84672,2,0,P|134:246|185:229,1,110,8|0,0:0|1:0,0:0:0:0:
287,271,85339,86,0,L|303:163,1,110,0|0,3:0|1:0,0:0:0:0:
355,145,85839,2,0,L|338:36,1,110,8|0,0:0|3:0,0:0:0:0:
297,0,86339,1,0,1:0:0:0:
230,87,86672,6,0,P|175:93|123:79,1,110,2|2,3:2|1:2,0:0:0:0:
17,46,87339,2,0,L|21:100,1,55,10|2,0:0|3:2,0:0:0:0:
23,155,87672,1,0,1:0:0:0:
1,262,88006,85,0,3:0:0:0:
88,328,88339,2,0,L|252:341,1,165,2|2,1:2|3:2,0:0:0:0:
307,344,89006,1,0,1:0:0:0:
385,266,89339,6,0,B|401:214|401:214|374:164,1,110,0|0,3:0|1:0,0:0:0:0:
351,57,90006,2,0,B|298:68|298:68|268:116,1,110,8|0,0:0|1:0,0:0:0:0:
287,224,90672,86,0,L|177:219,1,110,0|0,3:0|1:0,0:0:0:0:
151,170,91172,2,0,L|41:165,1,110,8|0,0:0|3:0,0:0:0:0:
3,204,91672,1,0,1:0:0:0:
20,312,92006,6,0,P|54:353|107:364,1,110,6|2,3:2|1:2,0:0:0:0:
209,324,92672,2,0,L|263:331,1,55,10|2,0:0|3:2,0:0:0:0:
318,336,93006,1,0,1:0:0:0:
365,236,93339,86,0,P|380:183|367:131,1,110,0|2,3:0|1:2,0:0:0:0:
403,89,93839,2,0,P|365:49|313:34,1,110,10|2,0:0|3:2,0:0:0:0:
259,45,94339,1,0,1:0:0:0:
151,21,94672,6,0,L|137:130,1,110,2|2,3:2|1:2,0:0:0:0:
33,166,95339,2,0,L|39:220,1,55,10|2,0:0|3:2,0:0:0:0:
43,275,95672,1,0,1:0:0:0:
105,365,96006,85,0,3:0:0:0:
209,331,96339,2,0,P|291:316|372:326,1,165,2|2,1:2|3:2,0:0:0:0:
422,346,97006,1,0,1:0:0:0:
483,254,97339,6,0,L|487:195,1,55,0|8,3:0|3:2,0:0:0:0:
499,145,97672,2,0,P|471:99|419:87,1,110,0|8,1:0|0:0,0:0:0:0:
365,99,98172,1,0,3:0:0:0:
365,99,98339,1,0,1:0:0:0:
278,166,98672,86,0,L|281:220,1,55,0|8,3:0|3:2,0:0:0:0:
295,274,99006,2,0,P|269:305|230:317,1,82.5,0|0,1:0|3:0,0:0:0:0:
150,303,99506,1,0,3:0:0:0:
150,303,99672,2,0,L|95:299,1,55,0|8,1:0|3:2,0:0:0:0:
40,295,100006,6,0,P|24:242|39:190,1,110,0|0,3:0|3:0,0:0:0:0:
123,120,100672,2,0,P|148:130|170:146,2,55,0|0|0,3:0|3:0|1:0,0:0:0:0:
68,113,101172,86,0,B|43:105|16:110|16:110|-12:48|43:-20|173:-29|235:74|210:196|120:244,1,495,4|4,3:2|3:2,0:0:0:0:
256,192,109339,12,0,112006,3:0:0:0:
357,74,113339,6,0,P|248:59|138:54,1,220,6|0,3:2|3:0,0:0:0:0:
53,125,114339,1,0,3:0:0:0:
18,229,114672,2,0,P|127:224|236:209,1,220,2|0,3:2|3:0,0:0:0:0:
337,164,115672,1,0,3:0:0:0:
391,259,116006,86,0,P|381:313|364:365,1,110,2|0,3:2|3:0,0:0:0:0:
263,316,116672,2,0,P|246:263|236:209,1,110,0|0,3:0|3:0,0:0:0:0:
309,126,117339,6,0,L|418:111,1,110,0|0,3:0|3:0,0:0:0:0:
343,30,118006,2,0,L|233:15,1,110,2|0,3:2|3:0,0:0:0:0:
124,1,118672,85,2,3:2:0:0:
79,101,119006,1,0,3:0:0:0:
115,204,119339,2,0,P|168:214|223:219,1,110,2|0,3:2|3:0,0:0:0:0:
320,165,120006,5,2,3:2:0:0:
365,265,120340,1,0,3:0:0:0:
329,368,120673,2,0,P|275:378|220:383,1,110,2|0,3:2|3:0,0:0:0:0:
122,333,121339,86,0,L|115:278,1,55,2|0,3:2|3:0,0:0:0:0:
109,223,121672,1,0,3:0:0:0:
223,219,122006,2,0,L|229:164,1,55,0|0,3:0|3:0,0:0:0:0:
236,109,122339,1,0,3:0:0:0:
161,28,122672,6,0,P|106:26|53:40,2,110,0|0|0,3:0|3:0|3:0,0:0:0:0:
119,130,123672,2,0,L|111:184,1,55,2|2,0:0|0:0,0:0:0:0:
103,239,124006,6,0,B|148:267|148:267|204:239,1,110,6|0,3:2|3:0,0:0:0:0:
249,219,124506,1,10,0:0:0:0:
298,200,124672,2,0,P|337:237|354:289,1,110,2|2,3:2|3:2,0:0:0:0:
400,319,125172,2,0,P|417:267|456:229,1,110,10|8,0:0|0:0,0:0:0:0:
510,217,125672,6,0,L|501:107,1,110,2|2,3:2|3:2,0:0:0:0:
453,8,126339,1,2,3:2:0:0:
349,44,126672,86,0,P|295:54|240:52,1,110,2|2,3:2|3:2,0:0:0:0:
136,14,127339,2,0,L|125:67,1,55,2|10,3:2|0:0,0:0:0:0:
71,80,127672,2,0,L|81:133,1,55,2|10,3:2|0:0,0:0:0:0:
84,242,128172,6,0,P|130:270|184:276,1,110,10|10,0:0|0:0,0:0:0:0:
239,271,128672,1,2,3:2:0:0:
290,252,128839,2,0,L|301:198,2,55,10|2|10,0:0|3:2|0:0,0:0:0:0:
325,293,129339,86,0,B|375:314|375:314|421:283,1,110,2|0,3:2|3:0,0:0:0:0:
450,176,130006,2,0,L|428:68,1,110,2|2,3:2|3:2,0:0:0:0:
373,68,130506,2,0,L|351:175,1,110,10|8,0:0|0:0,0:0:0:0:
301,197,131006,6,0,P|248:189|222:142,1,110,2|2,3:2|3:2,0:0:0:0:
218,37,131672,1,2,3:2:0:0:
112,6,132006,86,0,L|4:28,1,110,2|2,3:2|3:2,0:0:0:0:
61,122,132672,2,0,L|49:175,1,55,2|10,3:2|0:0,0:0:0:0:
16,220,133006,2,0,L|27:273,1,55,0|10,3:0|0:0,0:0:0:0:
36,328,133339,5,0,3:0:0:0:
85,352,133506,2,0,P|123:362|165:361,2,82.5,6|6|2,3:2|3:2|1:2,0:0:0:0:
108,245,134339,2,0,P|133:234|160:231,1,55,2|2,3:2|3:2,0:0:0:0:
214,243,134672,85,6,3:2:0:0:
300,310,135006,1,0,3:0:0:0:
408,292,135339,2,0,P|422:239|425:184,1,110,2|2,3:2|3:2,0:0:0:0:
410,131,135839,1,10,0:0:0:0:
410,131,136006,6,0,L|300:144,1,110,2|2,3:2|3:2,0:0:0:0:
231,58,136672,2,0,L|121:44,1,110,2|2,3:2|3:2,0:0:0:0:
43,122,137339,85,2,3:2:0:0:
1,223,137672,1,2,3:2:0:0:
59,318,138006,2,0,P|114:320|166:301,1,110,2|2,3:2|3:2,0:0:0:0:
203,260,138506,1,10,0:0:0:0:
203,260,138672,6,0,L|311:275,1,110,2|2,3:2|3:2,0:0:0:0:
365,371,139339,2,0,L|473:355,1,110,2|2,3:2|3:2,0:0:0:0:
501,308,139839,1,2,3:2:0:0:
510,253,140006,86,0,L|486:145,1,110,2|0,3:2|3:0,0:0:0:0:
382,109,140672,2,0,L|405:216,1,110,2|2,3:2|3:2,0:0:0:0:
379,266,141172,1,2,3:2:0:0:
379,266,141339,5,2,3:2:0:0:
282,318,141672,1,2,3:2:0:0:
171,317,142006,2,0,P|131:278|110:228,1,110,2|2,3:2|3:2,0:0:0:0:
117,119,142672,85,2,3:2:0:0:
223,148,143006,1,2,3:2:0:0:
307,77,143339,2,0,P|326:95|343:117,1,55,2|2,3:2|3:2,0:0:0:0:
388,151,143672,2,0,P|381:177|370:202,1,55,0|2,3:0|3:2,0:0:0:0:
334,245,144006,5,0,3:0:0:0:
323,298,144172,2,0,L|241:291,2,82.5,4|4|0,3:2|3:2|1:2,0:0:0:0:
391,384,145006,2,0,P|410:365|423:341,1,55,0|0,3:0|3:0,0:0:0:0:
413,287,145339,6,0,P|409:232|421:178,1,110,6|0,3:2|1:0,0:0:0:0:
512,117,146006,2,0,P|515:62|503:8,1,110,10|0,0:0|1:0,0:0:0:0:
395,0,146672,70,0,L|281:8,1,110,2|0,3:2|1:0,0:0:0:0:
243,109,147339,2,0,L|133:101,1,110,10|0,0:0|1:0,0:0:0:0:
28,68,148006,22,0,B|41:232,1,165,2|10,3:2|0:0,0:0:0:0:
49,286,148672,2,0,P|99:308|153:314,1,110,10|0,0:0|1:0,0:0:0:0:
252,266,149339,69,2,3:2:0:0:
361,276,149672,1,0,1:0:0:0:
361,276,149839,2,0,L|383:392,2,110,10|2|10,0:0|3:2|0:0,0:0:0:0:
408,248,150672,22,0,P|444:208|449:154,1,110,2|2,3:2|1:2,0:0:0:0:
379,69,151339,2,0,P|342:108|337:162,1,110,10|0,0:0|1:0,0:0:0:0:
265,245,152006,70,0,P|212:257|163:233,1,110,2|2,3:2|1:2,0:0:0:0:
125,131,152673,2,0,P|177:118|226:142,1,110,10|0,0:0|1:0,0:0:0:0:
337,162,153339,22,0,L|348:52,1,110,2|2,3:2|1:2,0:0:0:0:
442,110,154006,2,0,L|453:219,1,110,10|2,0:0|1:2,0:0:0:0:
457,329,154672,70,0,P|416:322|381:301,1,82.5,2|2,1:2|3:2,0:0:0:0:
327,238,155172,2,0,P|286:244|251:265,1,82.5,2|2,1:2|3:2,0:0:0:0:
187,318,155672,2,0,L|118:303,1,55,2|2,1:2|3:2,0:0:0:0:
78,297,156006,1,0,3:0:0:0:
256,192,157339,22,0,L|266:82,1,110,6|2,3:2|1:2,0:0:0:0:
171,22,158006,2,0,L|72:34,1,82.5,2|2,3:2|3:2,0:0:0:0:
24,84,158506,2,0,P|34:137|23:191,1,110,10|8,1:2|3:2,0:0:0:0:
67,224,159006,2,0,P|56:277|66:331,1,110,0|0,1:0|3:0,0:0:0:0:
112,361,159506,1,8,3:2:0:0:
163,343,159672,1,0,1:0:0:0:
272,356,160006,70,0,L|383:370,1,110,2|2,3:2|1:2,0:0:0:0:
472,308,160673,2,0,P|484:269|486:227,1,82.5,2|2,3:2|3:2,0:0:0:0:
438,159,161172,2,0,P|386:174|366:224,1,110,10|10,1:2|3:2,0:0:0:0:
332,267,161672,2,0,P|279:278|237:244,1,110,2|2,1:2|3:2,0:0:0:0:
212,196,162173,1,8,3:2:0:0:
208,141,162339,1,0,1:0:0:0:
229,33,162672,22,0,L|353:48,1,110,2|2,3:2|1:2,0:0:0:0:
441,12,163339,2,0,P|448:52|439:92,1,82.5,2|2,3:2|3:2,0:0:0:0:
369,136,163839,2,0,P|361:189|391:234,1,110,10|10,1:2|3:2,0:0:0:0:
436,266,164339,2,0,P|433:318|395:357,1,110,2|2,1:2|3:2,0:0:0:0:
339,347,164839,1,8,3:2:0:0:
286,359,165006,1,0,1:0:0:0:
201,289,165339,69,6,3:2:0:0:
148,301,165506,2,0,L|41:272,1,110,0|0,1:0|3:0,0:0:0:0:
4,231,166006,2,0,L|110:202,1,110,6|2,1:2|0:0,0:0:0:0:
149,167,166506,1,6,3:2:0:0:
56,107,166839,22,0,P|21:85|0:51,2,82.5,2|0|0,3:2|3:0|1:0,0:0:0:0:
100,8,167672,1,2,3:2:0:0:
201,53,168006,70,0,P|333:116|239:235,1,330,6|0,3:2|0:0,0:0:0:0:
199,216,169172,22,0,B|119:192|125:246|37:220,1,165,10|0,1:2|1:0,0:0:0:0:
78,117,170006,2,0,P|100:67|99:12,1,110,0|2,3:0|1:2,0:0:0:0:
201,53,170672,70,0,B|255:57|306:84|306:84|327:36|382:6|382:6|445:10|483:42,1,330,2|2,3:2|0:0,0:0:0:0:
440,76,171839,22,0,P|427:129|429:184,1,110,10|10,1:2|3:2,0:0:0:0:
383,215,172339,2,0,P|399:267|427:314,1,110,0|2,1:0|3:2,0:0:0:0:
482,314,172839,1,10,3:2:0:0:
492,368,173006,1,2,1:2:0:0:
383,384,173339,70,0,L|276:367,1,110,2|0,3:2|1:0,0:0:0:0:
242,261,174006,2,0,P|204:276|177:307,1,82.5,0|0,3:0|3:0,0:0:0:0:
128,374,174506,2,0,P|122:320|86:279,1,110,10|8,1:2|3:2,0:0:0:0:
31,272,175006,21,2,1:2:0:0:
2,165,175339,2,0,L|6:110,1,55,2|10,3:2|3:2,0:0:0:0:
15,55,175672,1,2,1:2:0:0:
117,8,176006,70,0,B|140:28|140:28|219:24,1,110,6|2,3:2|0:0,0:0:0:0:
267,124,176672,2,0,L|320:120,1,55,6|2,3:2|0:0,0:0:0:0:
375,114,177006,1,2,0:0:0:0:
429,111,177172,1,6,3:2:0:0:
463,215,177506,22,0,P|424:221|384:212,2,82.5,6|6|0,3:2|3:2|1:0,0:0:0:0:
512,190,178172,1,0,3:0:0:0:
512,246,178339,2,0,L|512:356,1,110,0|6,1:0|3:2,0:0:0:0:
224,336,189339,6,0,L|59:351,2,165,6|2|2,3:2|0:0|0:0,0:0:0:0:
288,240,190672,2,0,L|452:255,2,165,2|2|2,0:0|0:0|0:0,0:0:0:0:
224,144,192006,2,0,L|59:159,2,165,2|2|2,0:0|0:0|0:0,0:0:0:0:
288,48,193339,21,0,0:0:0:0:
288,48,193506,2,0,L|417:61,1,110,2|0,0:0|0:0,0:0:0:0:
451,67,194006,1,2,0:0:0:0:
499,165,194339,1,2,0:0:0:0:
466,269,194672,70,0,P|394:307|314:293,1,165,2|2,0:0|0:0,0:0:0:0:
239,211,195506,2,0,L|234:265,2,55,0|2|0,0:0|0:0|0:0,0:0:0:0:
247,156,196006,22,0,P|175:117|95:131,1,165,2|2,0:0|0:0,0:0:0:0:
20,214,196840,2,0,L|15:159,2,55,0|2|0,0:0|0:0|0:0,0:0:0:0:
22,268,197339,70,0,L|131:280,1,110,2|0,3:2|3:0,0:0:0:0:
139,335,197839,2,0,L|302:313,1,165,2|2,0:0|3:2,0:0:0:0:
411,329,198672,22,0,P|408:274|378:229,1,110,2|0,3:2|3:0,0:0:0:0:
395,176,199172,2,0,P|320:150|252:192,1,165,2|2,0:0|3:2,0:0:0:0:
144,217,200006,70,0,L|158:108,1,110,6|0,3:2|3:0,0:0:0:0:
211,92,200506,1,2,0:0:0:0:
267,83,200672,2,0,L|252:191,1,110,0|2,3:0|3:2,0:0:0:0:
314,282,201339,22,0,P|367:293|419:277,1,110,2|0,3:2|3:0,0:0:0:0:
449,231,201839,1,2,0:0:0:0:
469,179,202006,2,0,P|415:167|363:183,1,110,0|2,3:0|3:2,0:0:0:0:
252,191,202672,70,0,L|143:176,1,110,2|0,3:2|3:0,0:0:0:0:
153,122,203172,1,2,0:0:0:0:
158,68,203338,2,0,L|266:82,1,110,0|2,3:0|3:2,0:0:0:0:
359,23,204006,21,0,3:0:0:0:
359,23,204172,2,0,P|379:73|367:126,1,110,2|0,0:0|0:0,0:0:0:0:
332,168,204672,1,2,3:2:0:0:
372,270,205006,1,2,3:2:0:0:
313,362,205339,70,0,L|204:346,1,110,2|0,3:2|3:0,0:0:0:0:
149,342,205839,1,2,3:2:0:0:
94,352,206006,2,0,P|50:321|43:268,1,110,0|2,3:0|3:2,0:0:0:0:
113,178,206672,22,0,L|221:162,1,110,2|0,3:2|3:0,0:0:0:0:
277,158,207172,1,2,3:2:0:0:
332,168,207339,2,0,P|375:137|382:84,1,110,0|2,3:0|3:2,0:0:0:0:
296,13,208006,69,2,3:2:0:0:
187,30,208339,1,0,3:0:0:0:
140,9,208506,2,0,P|65:24|63:100,1,165,2|2,3:2|3:2,0:0:0:0:
113,123,209172,1,0,3:0:0:0:
113,178,209339,1,0,3:0:0:0:
190,319,210672,22,0,L|200:209,1,110,4|6,3:2|3:2,0:0:0:0:
210,99,211339,1,0,1:0:0:0:
123,30,211672,69,0,1:0:0:0:
67,32,211839,2,0,P|29:70|14:122,1,110,4|0,3:2|3:0,0:0:0:0:
43,173,212339,2,0,L|152:183,1,110,4|0,3:2|1:0,0:0:0:0:
200,209,212839,1,0,3:0:0:0:
249,184,213006,2,0,L|303:178,1,55,0|0,1:0|3:0,0:0:0:0:
357,164,213339,22,0,P|354:123|334:87,2,82.5,4|6|6,3:2|3:2|3:2,0:0:0:0:
402,195,214006,2,0,P|438:177|479:175,2,82.5,4|4|4,3:2|3:2|3:2,0:0:0:0:
365,298,214839,70,0,P|386:332|420:355,2,82.5,4|4|0,3:2|3:2|1:0,0:0:0:0:
313,276,215506,2,0,P|285:277|258:283,1,55,0|0,3:0|1:0,0:0:0:0:
182,361,216006,22,0,L|174:306,1,55,0|8,3:0|0:0,0:0:0:0:
166,251,216339,1,2,1:2:0:0:
63,211,216672,2,0,L|71:156,1,55,8|0,0:0|3:0,0:0:0:0:
79,101,217005,1,2,1:2:0:0:
161,27,217339,70,0,P|188:26|212:39,1,55,0|8,3:0|0:0,0:0:0:0:
257,70,217672,1,2,1:2:0:0:
329,153,218006,2,0,P|301:152|277:165,1,55,8|0,0:0|3:0,0:0:0:0:
233,196,218339,1,2,1:2:0:0:
304,282,218672,22,0,L|310:336,1,55,2|8,3:2|0:0,0:0:0:0:
273,379,219006,2,0,P|219:383|168:364,1,110,0|10,1:0|0:0,0:0:0:0:
143,315,219506,1,2,3:2:0:0:
143,315,219672,2,0,P|116:309|88:306,1,55,2|10,1:2|0:0,0:0:0:0:
37,329,220006,70,0,L|26:247,1,82.5,2|2,1:2|3:2,0:0:0:0:
70,176,220506,2,0,L|80:94,1,82.5,2|2,1:2|3:2,0:0:0:0:
75,11,221006,2,0,P|102:14|127:24,1,55,2|2,1:2|3:2,0:0:0:0:
162,67,221339,22,0,L|278:52,1,110,4|4,3:2|3:2,0:0:0:0:
380,36,222006,1,0,1:0:0:0:
341,138,222339,69,0,1:0:0:0:
391,161,222506,2,0,P|404:213|391:266,1,110,4|0,3:2|3:0,0:0:0:0:
356,309,223006,2,0,L|246:303,1,110,4|0,3:2|1:0,0:0:0:0:
197,328,223506,1,0,3:0:0:0:
146,307,223672,2,0,L|83:311,1,55,0|0,1:0|3:0,0:0:0:0:
40,334,224006,21,4,3:2:0:0:
3,231,224339,1,2,3:2:0:0:
73,147,224672,70,0,B|116:147|116:147|152:160,1,82.5,2|2,3:2|3:2,0:0:0:0:
207,98,225172,2,0,B|228:135|228:135|234:174,1,82.5,2|2,3:2|3:2,0:0:0:0:
316,186,225672,2,0,B|294:223|294:223|263:248,1,82.5,2|2,3:2|3:2,0:0:0:0:
283,327,226172,22,0,B|248:326|248:326|229:319,1,55,2|2,3:2|0:0,0:0:0:0:
135,376,226672,70,0,P|131:321|134:266,1,110,6|0,3:2|3:0,0:0:0:0:
153,160,227339,1,0,3:0:0:0:
257,126,227672,1,0,3:0:0:0:
328,209,228006,22,0,B|370:213|370:213|397:206|397:206|436:210,2,110,2|2|2,3:2|3:2|3:2,0:0:0:0:
244,281,229006,1,2,3:2:0:0:
133,266,229339,70,0,B|116:215|116:215|133:161,1,110,2|2,3:2|3:2,0:0:0:0:
245,153,230006,2,0,B|262:99|262:99|245:48,1,110,2|2,3:2|3:2,0:0:0:0:
149,0,230672,21,2,3:2:0:0:
54,48,231005,1,0,3:0:0:0:
59,155,231339,2,0,P|81:170|107:180,1,55,2|2,3:2|3:2,0:0:0:0:
154,211,231672,2,0,P|180:205|205:194,1,55,2|0,3:2|3:0,0:0:0:0:
245,153,232006,1,4,3:2:0:0:
