osu file format v14

[General]
AudioFilename: audio.mp3
AudioLeadIn: 0
PreviewTime: 210506
Countdown: 0
SampleSet: Soft
StackLeniency: 0.7
Mode: 0
LetterboxInBreaks: 0
WidescreenStoryboard: 1
EpilepsyWarning: 1

[Editor]
Bookmarks: 5359,16026,26673,38672,49339,60006,70672,81339,92006,102672,113339,124006,134672,145339,156006,157339,168006,178672,189339,200006,210672,221339,232006
DistanceSpacing: 1.1
BeatDivisor: 1
GridSize: 32
TimelineZoom: 2.3

[Metadata]
Title:STORIA
TitleUnicode:STORIA
Artist:xi vs. sakuzyo
ArtistUnicode:xi vs. sakuzyo
Creator:- AzRaeL -
Version:Len's Extra
Source:Cytus
Tags:Electronic Instrumental Rhythm Video Game Drum And Bass DnB Rayark 削除 BMS ἱστορία Historia Chapter M Halcyon Niflheimr VitMaster Black Lair AXION Len ice08311 Storyboard
BeatmapID:3294925
BeatmapSetID:1532736

[Difficulty]
HPDrainRate:6.5
CircleSize:4
OverallDifficulty:8
ApproachRate:9.2
SliderMultiplier:1.9
SliderTickRate:1

[Events]
//Background and Video events
0,0,"BG.jpg",0,0
//Break Periods
2,102872,112742
//Storyboard Layer 0 (Background)
//Storyboard Layer 1 (Fail)
//Storyboard Layer 2 (Pass)
//Storyboard Layer 3 (Foreground)
Sprite,Foreground,Centre,"SB/Ring.png",233,175 S,22,5360,5860,0.25,0.5 F,22,5360,5860,1,0
Sprite,Foreground,Centre,"SB/Ring.png",149,239 S,22,5693,6193,0.25,0.5 F,22,5693,6193,1,0
Sprite,Foreground,Centre,"SB/Ring.png",330,169 S,22,5859,6359,0.25,0.5 F,22,5859,6359,1,0
Sprite,Foreground,Centre,"SB/Ring.png",300,400 S,22,6359,6859,0.25,0.5 F,22,6359,6859,1,0
Sprite,Foreground,Centre,"SB/Ring.png",224,295 S,22,6526,7026,0.25,0.5 F,22,6526,7026,1,0
Sprite,Foreground,Centre,"SB/Ring.png",405,226 S,22,6693,7193,0.25,0.5 F,22,6693,7193,1,0
Sprite,Foreground,Centre,"SB/Ring.png",300,400 S,22,7026,7526,0.25,0.5 F,22,7026,7526,1,0
Sprite,Foreground,Centre,"SB/Ring.png",115,395 S,22,7359,7859,0.25,0.5 F,22,7359,7859,1,0
Sprite,Foreground,Centre,"SB/Ring.png",65,226 S,22,7526,8026,0.25,0.5 F,22,7526,8026,1,0
Sprite,Foreground,Centre,"SB/Ring.png",240,272 S,22,7693,8193,0.25,0.5 F,22,7693,8193,1,0
Sprite,Foreground,Centre,"SB/Ring.png",138,301 S,22,7859,8359,0.25,0.5 F,22,7859,8359,1,0
Sprite,Foreground,Centre,"SB/Ring.png",162,201 S,22,8026,8526,0.25,0.5 F,22,8026,8526,1,0
Sprite,Foreground,Centre,"SB/Ring.png",327,155 S,22,8359,8859,0.25,0.5 F,22,8359,8859,1,0
Sprite,Foreground,Centre,"SB/Ring.png",240,272 S,22,8693,9193,0.25,0.5 F,22,8693,9193,1,0
Sprite,Foreground,Centre,"SB/Ring.png",380,306 S,22,9026,9526,0.25,0.5 F,22,9026,9526,1,0
Sprite,Foreground,Centre,"SB/Ring.png",503,239 S,22,9359,9859,0.25,0.5 F,22,9359,9859,1,0
Sprite,Foreground,Centre,"SB/Ring.png",254,142 S,22,9693,10193,0.25,0.5 F,22,9693,10193,1,0
Sprite,Foreground,Centre,"SB/Ring.png",445,105 S,22,10026,10526,0.25,0.5 F,22,10026,10526,1,0
Sprite,Foreground,Centre,"SB/Ring.png",322,250 S,22,10193,10693,0.25,0.5 F,22,10193,10693,1,0
Sprite,Foreground,Centre,"SB/Ring.png",432,227 S,22,10359,10859,0.25,0.5 F,22,10359,10859,1,0
Sprite,Foreground,Centre,"SB/Ring.png",324,128 S,22,10526,11026,0.25,0.5 F,22,10526,11026,1,0
Sprite,Foreground,Centre,"SB/Ring.png",227,231 S,22,10693,11193,0.25,0.5 F,22,10693,11193,1,0
Sprite,Foreground,Centre,"SB/Ring.png",371,395 S,22,11026,11526,0.25,0.5 F,22,11026,11526,1,0
Sprite,Foreground,Centre,"SB/Ring.png",371,186 S,22,11359,11859,0.25,0.5 F,22,11359,11859,1,0
Sprite,Foreground,Centre,"SB/Ring.png",465,336 S,22,11526,12026,0.25,0.5 F,22,11526,12026,1,0
Sprite,Foreground,Centre,"SB/Ring.png",576,222 S,22,11693,12193,0.25,0.5 F,22,11693,12193,1,0
Sprite,Foreground,Centre,"SB/Ring.png",382,324 S,22,12026,12526,0.25,0.5 F,22,12026,12526,1,0
Sprite,Foreground,Centre,"SB/Ring.png",462,158 S,22,12359,12859,0.25,0.5 F,22,12359,12859,1,0
Sprite,Foreground,Centre,"SB/Ring.png",223,141 S,22,12693,13193,0.25,0.5 F,22,12693,13193,1,0
Sprite,Foreground,Centre,"SB/Ring.png",299,245 S,22,12859,13359,0.25,0.5 F,22,12859,13359,1,0
Sprite,Foreground,Centre,"SB/Ring.png",352,106 S,22,13026,13526,0.25,0.5 F,22,13026,13526,1,0
Sprite,Foreground,Centre,"SB/Ring.png",216,168 S,22,13193,13693,0.25,0.5 F,22,13193,13693,1,0
Sprite,Foreground,Centre,"SB/Ring.png",371,186 S,22,13359,13859,0.25,0.5 F,22,13359,13859,1,0
Sprite,Foreground,Centre,"SB/Ring.png",504,287 S,22,13693,14193,0.25,0.5 F,22,13693,14193,1,0
Sprite,Foreground,Centre,"SB/Ring.png",575,129 S,22,13859,14359,0.25,0.5 F,22,13859,14359,1,0
Sprite,Foreground,Centre,"SB/Ring.png",392,274 S,22,14193,14693,0.25,0.5 F,22,14193,14693,1,0
Sprite,Foreground,Centre,"SB/Ring.png",490,356 S,22,14359,14859,0.25,0.5 F,22,14359,14859,1,0
Sprite,Foreground,Centre,"SB/Ring.png",371,186 S,22,14693,15193,0.25,0.5 F,22,14693,15193,1,0
Sprite,Foreground,Centre,"SB/Ring.png",284,265 S,22,15026,15526,0.25,0.5 F,22,15026,15526,1,0
Sprite,Foreground,Centre,"SB/Ring.png",197,344 S,22,15359,15859,0.25,0.5 F,22,15359,15859,1,0
Sprite,Foreground,Centre,"SB/Ring.png",148,213 S,22,15693,16193,0.25,0.5 F,22,15693,16193,1,0
Sprite,Foreground,Centre,"SB/Ring.png",64,279 S,22,16026,16526,0.25,0.5 F,22,16026,16526,1,0
Sprite,Foreground,Centre,"SB/Ring.png",434,362 S,22,17193,17693,0.25,0.5 F,22,17193,17693,1,0
Sprite,Foreground,Centre,"SB/Ring.png",503,304 S,22,17359,17859,0.25,0.5 F,22,17359,17859,1,0
Sprite,Foreground,Centre,"SB/Ring.png",473,440 S,22,17693,18193,0.25,0.5 F,22,17693,18193,1,0
Sprite,Foreground,Centre,"SB/Ring.png",384,279 S,22,18026,18526,0.25,0.5 F,22,18026,18526,1,0
Sprite,Foreground,Centre,"SB/Ring.png",345,357 S,22,18193,18693,0.25,0.5 F,22,18193,18693,1,0
Sprite,Foreground,Centre,"SB/Ring.png",315,221 S,22,18526,19026,0.25,0.5 F,22,18526,19026,1,0
Sprite,Foreground,Centre,"SB/Ring.png",104,344 S,22,19026,19526,0.25,0.5 F,22,19026,19526,1,0
Sprite,Foreground,Centre,"SB/Ring.png",211,408 S,22,19193,19693,0.25,0.5 F,22,19193,19693,1,0
Sprite,Foreground,Centre,"SB/Ring.png",89,371 S,22,19359,19859,0.25,0.5 F,22,19359,19859,1,0
Sprite,Foreground,Centre,"SB/Ring.png",78,105 S,22,19859,20359,0.25,0.5 F,22,19859,20359,1,0
Sprite,Foreground,Centre,"SB/Ring.png",147,168 S,22,20026,20526,0.25,0.5 F,22,20026,20526,1,0
Sprite,Foreground,Centre,"SB/Ring.png",360,220 S,22,20526,21026,0.25,0.5 F,22,20526,21026,1,0
Sprite,Foreground,Centre,"SB/Ring.png",360,220 S,22,20693,21193,0.25,0.5 F,22,20693,21193,1,0
Sprite,Foreground,Centre,"SB/Ring.png",525,90 S,22,21359,21859,0.25,0.5 F,22,21359,21859,1,0
Sprite,Foreground,Centre,"SB/Ring.png",533,401 S,22,21859,22359,0.25,0.5 F,22,21859,22359,1,0
Sprite,Foreground,Centre,"SB/Ring.png",481,214 S,22,22359,22859,0.25,0.5 F,22,22359,22859,1,0
Sprite,Foreground,Centre,"SB/Ring.png",279,306 S,22,22859,23359,0.25,0.5 F,22,22859,23359,1,0
Sprite,Foreground,Centre,"SB/Ring.png",254,225 S,22,23026,23526,0.25,0.5 F,22,23026,23526,1,0
Sprite,Foreground,Centre,"SB/Ring.png",308,159 S,22,23193,23693,0.25,0.5 F,22,23193,23693,1,0
Sprite,Foreground,Centre,"SB/Ring.png",87,182 S,22,23359,23859,0.25,0.5 F,22,23359,23859,1,0
Sprite,Foreground,Centre,"SB/Ring.png",167,210 S,22,23526,24026,0.25,0.5 F,22,23526,24026,1,0
Sprite,Foreground,Centre,"SB/Ring.png",190,292 S,22,23693,24193,0.25,0.5 F,22,23693,24193,1,0
Sprite,Foreground,Centre,"SB/Ring.png",155,370 S,22,23859,24359,0.25,0.5 F,22,23859,24359,1,0
Sprite,Foreground,Centre,"SB/Ring.png",346,244 S,22,24026,24526,0.25,0.5 F,22,24026,24526,1,0
Sprite,Foreground,Centre,"SB/Ring.png",363,327 S,22,24193,24693,0.25,0.5 F,22,24193,24693,1,0
Sprite,Foreground,Centre,"SB/Ring.png",509,165 S,22,24359,24859,0.25,0.5 F,22,24359,24859,1,0
Sprite,Foreground,Centre,"SB/Ring.png",492,248 S,22,24526,25026,0.25,0.5 F,22,24526,25026,1,0
Sprite,Foreground,Centre,"SB/Ring.png",303,91 S,22,24693,25193,0.25,0.5 F,22,24693,25193,1,0
Sprite,Foreground,Centre,"SB/Ring.png",422,194 S,22,24859,25359,0.25,0.5 F,22,24859,25359,1,0
Sprite,Foreground,Centre,"SB/Ring.png",269,178 S,22,25026,25526,0.25,0.5 F,22,25026,25526,1,0
Sprite,Foreground,Centre,"SB/Ring.png",402,95 S,22,25193,25693,0.25,0.5 F,22,25193,25693,1,0
Sprite,Foreground,Centre,"SB/Ring.png",346,243 S,22,25359,25859,0.25,0.5 F,22,25359,25859,1,0
Sprite,Foreground,Centre,"SB/Ring.png",206,395 S,22,25693,26193,0.25,0.5 F,22,25693,26193,1,0
Sprite,Foreground,Centre,"SB/Ring.png",166,151 S,22,26026,26526,0.25,0.5 F,22,26026,26526,1,0
Sprite,Foreground,Centre,"SB/Ring.png",250,132 S,22,26193,26693,0.25,0.5 F,22,26193,26693,1,0
Sprite,Foreground,Centre,"SB/Ring.png",177,305 S,22,26359,26859,0.25,0.5 F,22,26359,26859,1,0
Sprite,Foreground,Centre,"SB/Ring.png",93,286 S,22,26526,27026,0.25,0.5 F,22,26526,27026,1,0
Sprite,Foreground,Centre,"SB/Ring.png",226,225 S,22,26673,27173,0.25,0.5 F,22,26673,27173,1,0
Sprite,Foreground,Centre,"SB/Ring.png",450,361 S,22,27006,27506,0.25,0.5 F,22,27006,27506,1,0
Sprite,Foreground,Centre,"SB/Ring.png",408,180 S,22,27173,27673,0.25,0.5 F,22,27173,27673,1,0
Sprite,Foreground,Centre,"SB/Ring.png",408,180 S,22,27256,27756,0.25,0.5 F,22,27256,27756,1,0
Sprite,Foreground,Centre,"SB/Ring.png",408,180 S,22,27339,27839,0.25,0.5 F,22,27339,27839,1,0
Sprite,Foreground,Centre,"SB/Ring.png",533,287 S,22,27506,28006,0.25,0.5 F,22,27506,28006,1,0
Sprite,Foreground,Centre,"SB/Ring.png",334,323 S,22,27673,28173,0.25,0.5 F,22,27673,28173,1,0
Sprite,Foreground,Centre,"SB/Ring.png",244,353 S,22,28006,28506,0.25,0.5 F,22,28006,28506,1,0
Sprite,Foreground,Centre,"SB/Ring.png",413,265 S,22,28173,28673,0.25,0.5 F,22,28173,28673,1,0
Sprite,Foreground,Centre,"SB/Ring.png",299,228 S,22,28339,28839,0.25,0.5 F,22,28339,28839,1,0
Sprite,Foreground,Centre,"SB/Ring.png",280,93 S,22,28589,29089,0.25,0.5 F,22,28589,29089,1,0
Sprite,Foreground,Centre,"SB/Ring.png",318,65 S,22,28672,29172,0.25,0.5 F,22,28672,29172,1,0
Sprite,Foreground,Centre,"SB/Ring.png",365,61 S,22,28756,29256,0.25,0.5 F,22,28756,29256,1,0
Sprite,Foreground,Centre,"SB/Ring.png",405,87 S,22,28839,29339,0.25,0.5 F,22,28839,29339,1,0
Sprite,Foreground,Centre,"SB/Ring.png",204,172 S,22,29006,29506,0.25,0.5 F,22,29006,29506,1,0
Sprite,Foreground,Centre,"SB/Ring.png",314,312 S,22,29339,29839,0.25,0.5 F,22,29339,29839,1,0
Sprite,Foreground,Centre,"SB/Ring.png",213,252 S,22,29672,30172,0.25,0.5 F,22,29672,30172,1,0
Sprite,Foreground,Centre,"SB/Ring.png",368,393 S,22,29839,30339,0.25,0.5 F,22,29839,30339,1,0
Sprite,Foreground,Centre,"SB/Ring.png",368,393 S,22,29922,30422,0.25,0.5 F,22,29922,30422,1,0
Sprite,Foreground,Centre,"SB/Ring.png",368,393 S,22,30006,30506,0.25,0.5 F,22,30006,30506,1,0
Sprite,Foreground,Centre,"SB/Ring.png",177,356 S,22,30172,30672,0.25,0.5 F,22,30172,30672,1,0
Sprite,Foreground,Centre,"SB/Ring.png",304,210 S,22,30339,30839,0.25,0.5 F,22,30339,30839,1,0
Sprite,Foreground,Centre,"SB/Ring.png",268,406 S,22,30672,31172,0.25,0.5 F,22,30672,31172,1,0
Sprite,Foreground,Centre,"SB/Ring.png",409,275 S,22,30839,31339,0.25,0.5 F,22,30839,31339,1,0
Sprite,Foreground,Centre,"SB/Ring.png",409,275 S,22,30922,31422,0.25,0.5 F,22,30922,31422,1,0
Sprite,Foreground,Centre,"SB/Ring.png",409,275 S,22,31006,31506,0.25,0.5 F,22,31006,31506,1,0
Sprite,Foreground,Centre,"SB/Ring.png",197,264 S,22,31172,31672,0.25,0.5 F,22,31172,31672,1,0
Sprite,Foreground,Centre,"SB/Ring.png",189,222 S,22,31256,31756,0.25,0.5 F,22,31256,31756,1,0
Sprite,Foreground,Centre,"SB/Ring.png",180,179 S,22,31339,31839,0.25,0.5 F,22,31339,31839,1,0
Sprite,Foreground,Centre,"SB/Ring.png",105,301 S,22,31506,32006,0.25,0.5 F,22,31506,32006,1,0
Sprite,Foreground,Centre,"SB/Ring.png",278,198 S,22,31672,32172,0.25,0.5 F,22,31672,32172,1,0
Sprite,Foreground,Centre,"SB/Ring.png",487,241 S,22,32006,32506,0.25,0.5 F,22,32006,32506,1,0
Sprite,Foreground,Centre,"SB/Ring.png",328,261 S,22,32339,32839,0.25,0.5 F,22,32339,32839,1,0
Sprite,Foreground,Centre,"SB/Ring.png",255,89 S,22,32672,33172,0.25,0.5 F,22,32672,33172,1,0
Sprite,Foreground,Centre,"SB/Ring.png",255,89 S,22,32756,33256,0.25,0.5 F,22,32756,33256,1,0
Sprite,Foreground,Centre,"SB/Ring.png",255,89 S,22,32839,33339,0.25,0.5 F,22,32839,33339,1,0
Sprite,Foreground,Centre,"SB/Ring.png",363,183 S,22,33006,33506,0.25,0.5 F,22,33006,33506,1,0
Sprite,Foreground,Centre,"SB/Ring.png",524,351 S,22,33339,33839,0.25,0.5 F,22,33339,33839,1,0
Sprite,Foreground,Centre,"SB/Ring.png",431,331 S,22,33589,34089,0.25,0.5 F,22,33589,34089,1,0
Sprite,Foreground,Centre,"SB/Ring.png",431,331 S,22,33672,34172,0.25,0.5 F,22,33672,34172,1,0
Sprite,Foreground,Centre,"SB/Ring.png",229,217 S,22,33839,34339,0.25,0.5 F,22,33839,34339,1,0
Sprite,Foreground,Centre,"SB/Ring.png",280,348 S,22,34006,34506,0.25,0.5 F,22,34006,34506,1,0
Sprite,Foreground,Centre,"SB/Ring.png",274,378 S,22,34089,34589,0.25,0.5 F,22,34089,34589,1,0
Sprite,Foreground,Centre,"SB/Ring.png",269,404 S,22,34172,34672,0.25,0.5 F,22,34172,34672,1,0
Sprite,Foreground,Centre,"SB/Ring.png",452,212 S,22,34339,34839,0.25,0.5 F,22,34339,34839,1,0
Sprite,Foreground,Centre,"SB/Ring.png",138,358 S,22,34672,35172,0.25,0.5 F,22,34672,35172,1,0
Sprite,Foreground,Centre,"SB/Ring.png",216,81 S,22,35006,35506,0.25,0.5 F,22,35006,35506,1,0
Sprite,Foreground,Centre,"SB/Ring.png",246,216 S,22,35256,35756,0.25,0.5 F,22,35256,35756,1,0
Sprite,Foreground,Centre,"SB/Ring.png",292,227 S,22,35339,35839,0.25,0.5 F,22,35339,35839,1,0
Sprite,Foreground,Centre,"SB/Ring.png",337,215 S,22,35422,35922,0.25,0.5 F,22,35422,35922,1,0
Sprite,Foreground,Centre,"SB/Ring.png",368,180 S,22,35506,36006,0.25,0.5 F,22,35506,36006,1,0
Sprite,Foreground,Centre,"SB/Ring.png",480,321 S,22,35672,36172,0.25,0.5 F,22,35672,36172,1,0
Sprite,Foreground,Centre,"SB/Ring.png",165,197 S,22,36006,36506,0.25,0.5 F,22,36006,36506,1,0
Sprite,Foreground,Centre,"SB/Ring.png",214,336 S,22,36172,36672,0.25,0.5 F,22,36172,36672,1,0
Sprite,Foreground,Centre,"SB/Ring.png",295,138 S,22,36339,36839,0.25,0.5 F,22,36339,36839,1,0
Sprite,Foreground,Centre,"SB/Ring.png",547,260 S,22,36506,37006,0.25,0.5 F,22,36506,37006,1,0
Sprite,Foreground,Centre,"SB/Ring.png",504,232 S,22,36589,37089,0.25,0.5 F,22,36589,37089,1,0
Sprite,Foreground,Centre,"SB/Ring.png",456,230 S,22,36672,37172,0.25,0.5 F,22,36672,37172,1,0
Sprite,Foreground,Centre,"SB/Ring.png",416,256 S,22,36756,37256,0.25,0.5 F,22,36756,37256,1,0
Sprite,Foreground,Centre,"SB/Ring.png",395,299 S,22,36839,37339,0.25,0.5 F,22,36839,37339,1,0
Sprite,Foreground,Centre,"SB/Ring.png",463,403 S,22,37006,37506,0.25,0.5 F,22,37006,37506,1,0
Sprite,Foreground,Centre,"SB/Ring.png",258,258 S,22,37172,37672,0.25,0.5 F,22,37172,37672,1,0
Sprite,Foreground,Centre,"SB/Ring.png",486,138 S,22,37339,37839,0.25,0.5 F,22,37339,37839,1,0
Sprite,Foreground,Centre,"SB/Ring.png",492,115 S,22,37672,38172,0.25,0.5 F,22,37672,38172,1,0
Sprite,Foreground,Centre,"SB/Ring.png",309,71 S,22,37839,38339,0.25,0.5 F,22,37839,38339,1,0
Sprite,Foreground,Centre,"SB/Ring.png",498,94 S,22,38006,38506,0.25,0.5 F,22,38006,38506,1,0
Sprite,Foreground,Centre,"SB/Ring.png",270,170 S,22,38172,38672,0.25,0.5 F,22,38172,38672,1,0
Sprite,Foreground,Centre,"SB/Ring.png",457,262 S,22,38339,38839,0.25,0.5 F,22,38339,38839,1,0
Sprite,Foreground,Centre,"SB/Ring.png",460,275 S,22,38422,38922,0.25,0.5 F,22,38422,38922,1,0
Sprite,Foreground,Centre,"SB/Ring.png",463,288 S,22,38506,39006,0.25,0.5 F,22,38506,39006,1,0
Sprite,Foreground,Centre,"SB/Ring.png",466,302 S,22,38589,39089,0.25,0.5 F,22,38589,39089,1,0
Sprite,Foreground,Centre,"SB/Ring.png",469,315 S,22,38672,39172,0.25,0.5 F,22,38672,39172,1,0
Sprite,Foreground,Centre,"SB/Ring.png",519,108 S,22,38839,39339,0.25,0.5 F,22,38839,39339,1,0
Sprite,Foreground,Centre,"SB/Ring.png",475,333 S,22,39172,39672,0.25,0.5 F,22,39172,39672,1,0
Sprite,Foreground,Centre,"SB/Ring.png",523,125 S,22,39506,40006,0.25,0.5 F,22,39506,40006,1,0
Sprite,Foreground,Centre,"SB/Ring.png",395,263 S,22,39672,40172,0.25,0.5 F,22,39672,40172,1,0
Sprite,Foreground,Centre,"SB/Ring.png",276,135 S,22,39839,40339,0.25,0.5 F,22,39839,40339,1,0
Sprite,Foreground,Centre,"SB/Ring.png",206,227 S,22,40172,40672,0.25,0.5 F,22,40172,40672,1,0
Sprite,Foreground,Centre,"SB/Ring.png",286,311 S,22,40506,41006,0.25,0.5 F,22,40506,41006,1,0
Sprite,Foreground,Centre,"SB/Ring.png",203,393 S,22,40839,41339,0.25,0.5 F,22,40839,41339,1,0
Sprite,Foreground,Centre,"SB/Ring.png",105,340 S,22,41006,41506,0.25,0.5 F,22,41006,41506,1,0
Sprite,Foreground,Centre,"SB/Ring.png",101,310 S,22,41089,41589,0.25,0.5 F,22,41089,41589,1,0
Sprite,Foreground,Centre,"SB/Ring.png",98,280 S,22,41172,41672,0.25,0.5 F,22,41172,41672,1,0
Sprite,Foreground,Centre,"SB/Ring.png",96,250 S,22,41256,41756,0.25,0.5 F,22,41256,41756,1,0
Sprite,Foreground,Centre,"SB/Ring.png",93,220 S,22,41339,41839,0.25,0.5 F,22,41339,41839,1,0
Sprite,Foreground,Centre,"SB/Ring.png",286,311 S,22,41506,42006,0.25,0.5 F,22,41506,42006,1,0
Sprite,Foreground,Centre,"SB/Ring.png",150,129 S,22,41672,42172,0.25,0.5 F,22,41672,42172,1,0
Sprite,Foreground,Centre,"SB/Ring.png",196,300 S,22,41839,42339,0.25,0.5 F,22,41839,42339,1,0
Sprite,Foreground,Centre,"SB/Ring.png",359,88 S,22,42172,42672,0.25,0.5 F,22,42172,42672,1,0
Sprite,Foreground,Centre,"SB/Ring.png",392,201 S,22,42506,43006,0.25,0.5 F,22,42506,43006,1,0
Sprite,Foreground,Centre,"SB/Ring.png",337,366 S,22,42839,43339,0.25,0.5 F,22,42839,43339,1,0
Sprite,Foreground,Centre,"SB/Ring.png",508,327 S,22,43172,43672,0.25,0.5 F,22,43172,43672,1,0
Sprite,Foreground,Centre,"SB/Ring.png",412,299 S,22,43506,44006,0.25,0.5 F,22,43506,44006,1,0
Sprite,Foreground,Centre,"SB/Ring.png",412,299 S,22,43839,44339,0.25,0.5 F,22,43839,44339,1,0
Sprite,Foreground,Centre,"SB/Ring.png",337,366 S,22,44006,44506,0.25,0.5 F,22,44006,44506,1,0
Sprite,Foreground,Centre,"SB/Ring.png",318,186 S,22,44339,44839,0.25,0.5 F,22,44339,44839,1,0
Sprite,Foreground,Centre,"SB/Ring.png",433,267 S,22,44506,45006,0.25,0.5 F,22,44506,45006,1,0
Sprite,Foreground,Centre,"SB/Ring.png",433,267 S,22,44589,45089,0.25,0.5 F,22,44589,45089,1,0
Sprite,Foreground,Centre,"SB/Ring.png",433,267 S,22,44672,45172,0.25,0.5 F,22,44672,45172,1,0
Sprite,Foreground,Centre,"SB/Ring.png",405,86 S,22,45006,45506,0.25,0.5 F,22,45006,45506,1,0
Sprite,Foreground,Centre,"SB/Ring.png",318,186 S,22,45172,45672,0.25,0.5 F,22,45172,45672,1,0
Sprite,Foreground,Centre,"SB/Ring.png",83,288 S,22,45506,46006,0.25,0.5 F,22,45506,46006,1,0
Sprite,Foreground,Centre,"SB/Ring.png",169,136 S,22,45756,46256,0.25,0.5 F,22,45756,46256,1,0
Sprite,Foreground,Centre,"SB/Ring.png",170,305 S,22,46006,46506,0.25,0.5 F,22,46006,46506,1,0
Sprite,Foreground,Centre,"SB/Ring.png",341,265 S,22,46172,46672,0.25,0.5 F,22,46172,46672,1,0
Sprite,Foreground,Centre,"SB/Ring.png",359,104 S,22,46339,46839,0.25,0.5 F,22,46339,46839,1,0
Sprite,Foreground,Centre,"SB/Ring.png",315,282 S,22,46506,47006,0.25,0.5 F,22,46506,47006,1,0
Sprite,Foreground,Centre,"SB/Ring.png",257,99 S,22,46672,47172,0.25,0.5 F,22,46672,47172,1,0
Sprite,Foreground,Centre,"SB/Ring.png",331,364 S,22,47006,47506,0.25,0.5 F,22,47006,47506,1,0
Sprite,Foreground,Centre,"SB/Ring.png",485,245 S,22,47172,47672,0.25,0.5 F,22,47172,47672,1,0
Sprite,Foreground,Centre,"SB/Ring.png",316,386 S,22,47506,48006,0.25,0.5 F,22,47506,48006,1,0
Sprite,Foreground,Centre,"SB/Ring.png",276,192 S,22,47672,48172,0.25,0.5 F,22,47672,48172,1,0
Sprite,Foreground,Centre,"SB/Ring.png",520,221 S,22,47839,48339,0.25,0.5 F,22,47839,48339,1,0
Sprite,Foreground,Centre,"SB/Ring.png",511,397 S,22,48172,48672,0.25,0.5 F,22,48172,48672,1,0
Sprite,Foreground,Centre,"SB/Ring.png",390,237 S,22,48339,48839,0.25,0.5 F,22,48339,48839,1,0
Sprite,Foreground,Centre,"SB/Ring.png",390,237 S,22,48422,48922,0.25,0.5 F,22,48422,48922,1,0
Sprite,Foreground,Centre,"SB/Ring.png",505,92 S,22,48672,49172,0.25,0.5 F,22,48672,49172,1,0
Sprite,Foreground,Centre,"SB/Ring.png",302,98 S,22,49006,49506,0.25,0.5 F,22,49006,49506,1,0
Sprite,Foreground,Centre,"SB/Ring.png",285,88 S,22,49089,49589,0.25,0.5 F,22,49089,49589,1,0
Sprite,Foreground,Centre,"SB/Ring.png",266,84 S,22,49172,49672,0.25,0.5 F,22,49172,49672,1,0
Sprite,Foreground,Centre,"SB/Ring.png",247,87 S,22,49256,49756,0.25,0.5 F,22,49256,49756,1,0
Sprite,Foreground,Centre,"SB/Ring.png",231,97 S,22,49339,49839,0.25,0.5 F,22,49339,49839,1,0
Sprite,Foreground,Centre,"SB/Ring.png",265,289 S,22,49672,50172,0.25,0.5 F,22,49672,50172,1,0
Sprite,Foreground,Centre,"SB/Ring.png",101,193 S,22,49839,50339,0.25,0.5 F,22,49839,50339,1,0
Sprite,Foreground,Centre,"SB/Ring.png",194,363 S,22,50172,50672,0.25,0.5 F,22,50172,50672,1,0
Sprite,Foreground,Centre,"SB/Ring.png",265,203 S,22,50339,50839,0.25,0.5 F,22,50339,50839,1,0
Sprite,Foreground,Centre,"SB/Ring.png",385,330 S,22,50506,51006,0.25,0.5 F,22,50506,51006,1,0
Sprite,Foreground,Centre,"SB/Ring.png",297,413 S,22,50839,51339,0.25,0.5 F,22,50839,51339,1,0
Sprite,Foreground,Centre,"SB/Ring.png",359,245 S,22,51172,51672,0.25,0.5 F,22,51172,51672,1,0
Sprite,Foreground,Centre,"SB/Ring.png",497,337 S,22,51339,51839,0.25,0.5 F,22,51339,51839,1,0
Sprite,Foreground,Centre,"SB/Ring.png",441,95 S,22,51672,52172,0.25,0.5 F,22,51672,52172,1,0
Sprite,Foreground,Centre,"SB/Ring.png",401,71 S,22,51756,52256,0.25,0.5 F,22,51756,52256,1,0
Sprite,Foreground,Centre,"SB/Ring.png",357,73 S,22,51839,52339,0.25,0.5 F,22,51839,52339,1,0
Sprite,Foreground,Centre,"SB/Ring.png",321,96 S,22,51922,52422,0.25,0.5 F,22,51922,52422,1,0
Sprite,Foreground,Centre,"SB/Ring.png",309,139 S,22,52006,52506,0.25,0.5 F,22,52006,52506,1,0
Sprite,Foreground,Centre,"SB/Ring.png",347,223 S,22,52172,52672,0.25,0.5 F,22,52172,52672,1,0
Sprite,Foreground,Centre,"SB/Ring.png",263,261 S,22,52339,52839,0.25,0.5 F,22,52339,52839,1,0
Sprite,Foreground,Centre,"SB/Ring.png",485,187 S,22,52506,53006,0.25,0.5 F,22,52506,53006,1,0
Sprite,Foreground,Centre,"SB/Ring.png",401,149 S,22,52673,53173,0.25,0.5 F,22,52673,53173,1,0
Sprite,Foreground,Centre,"SB/Ring.png",301,345 S,22,52839,53339,0.25,0.5 F,22,52839,53339,1,0
Sprite,Foreground,Centre,"SB/Ring.png",385,307 S,22,53006,53506,0.25,0.5 F,22,53006,53506,1,0
Sprite,Foreground,Centre,"SB/Ring.png",216,161 S,22,53172,53672,0.25,0.5 F,22,53172,53672,1,0
Sprite,Foreground,Centre,"SB/Ring.png",199,252 S,22,53506,54006,0.25,0.5 F,22,53506,54006,1,0
Sprite,Foreground,Centre,"SB/Ring.png",119,296 S,22,53839,54339,0.25,0.5 F,22,53839,54339,1,0
Sprite,Foreground,Centre,"SB/Ring.png",198,150 S,22,54172,54672,0.25,0.5 F,22,54172,54672,1,0
Sprite,Foreground,Centre,"SB/Ring.png",112,193 S,22,54339,54839,0.25,0.5 F,22,54339,54839,1,0
Sprite,Foreground,Centre,"SB/Ring.png",247,376 S,22,54506,55006,0.25,0.5 F,22,54506,55006,1,0
Sprite,Foreground,Centre,"SB/Ring.png",247,376 S,22,54589,55089,0.25,0.5 F,22,54589,55089,1,0
Sprite,Foreground,Centre,"SB/Ring.png",247,376 S,22,54672,55172,0.25,0.5 F,22,54672,55172,1,0
Sprite,Foreground,Centre,"SB/Ring.png",430,375 S,22,55172,55672,0.25,0.5 F,22,55172,55672,1,0
Sprite,Foreground,Centre,"SB/Ring.png",370,276 S,22,55339,55839,0.25,0.5 F,22,55339,55839,1,0
Sprite,Foreground,Centre,"SB/Ring.png",561,267 S,22,55672,56172,0.25,0.5 F,22,55672,56172,1,0
Sprite,Foreground,Centre,"SB/Ring.png",481,154 S,22,55839,56339,0.25,0.5 F,22,55839,56339,1,0
Sprite,Foreground,Centre,"SB/Ring.png",443,323 S,22,56172,56672,0.25,0.5 F,22,56172,56672,1,0
Sprite,Foreground,Centre,"SB/Ring.png",557,370 S,22,56422,56922,0.25,0.5 F,22,56422,56922,1,0
Sprite,Foreground,Centre,"SB/Ring.png",306,305 S,22,56672,57172,0.25,0.5 F,22,56672,57172,1,0
Sprite,Foreground,Centre,"SB/Ring.png",361,384 S,22,57006,57506,0.25,0.5 F,22,57006,57506,1,0
Sprite,Foreground,Centre,"SB/Ring.png",163,199 S,22,57172,57672,0.25,0.5 F,22,57172,57672,1,0
Sprite,Foreground,Centre,"SB/Ring.png",472,271 S,22,57672,58172,0.25,0.5 F,22,57672,58172,1,0
Sprite,Foreground,Centre,"SB/Ring.png",223,329 S,22,58006,58506,0.25,0.5 F,22,58006,58506,1,0
Sprite,Foreground,Centre,"SB/Ring.png",197,335 S,22,58089,58589,0.25,0.5 F,22,58089,58589,1,0
Sprite,Foreground,Centre,"SB/Ring.png",175,352 S,22,58173,58673,0.25,0.5 F,22,58173,58673,1,0
Sprite,Foreground,Centre,"SB/Ring.png",163,377 S,22,58256,58756,0.25,0.5 F,22,58256,58756,1,0
Sprite,Foreground,Centre,"SB/Ring.png",162,405 S,22,58339,58839,0.25,0.5 F,22,58339,58839,1,0
Sprite,Foreground,Centre,"SB/Ring.png",211,421 S,22,58423,58923,0.25,0.5 F,22,58423,58923,1,0
Sprite,Foreground,Centre,"SB/Ring.png",261,417 S,22,58506,59006,0.25,0.5 F,22,58506,59006,1,0
Sprite,Foreground,Centre,"SB/Ring.png",299,385 S,22,58589,59089,0.25,0.5 F,22,58589,59089,1,0
Sprite,Foreground,Centre,"SB/Ring.png",339,222 S,22,58839,59339,0.25,0.5 F,22,58839,59339,1,0
Sprite,Foreground,Centre,"SB/Ring.png",409,153 S,22,59506,60006,0.25,0.5 F,22,59506,60006,1,0
Sprite,Foreground,Centre,"SB/Ring.png",508,366 S,22,59672,60172,0.25,0.5 F,22,59672,60172,1,0
Sprite,Foreground,Centre,"SB/Ring.png",374,391 S,22,60006,60506,0.25,0.5 F,22,60006,60506,1,0
Sprite,Foreground,Centre,"SB/Ring.png",559,103 S,22,60339,60839,0.25,0.5 F,22,60339,60839,1,0
Sprite,Foreground,Centre,"SB/Ring.png",533,239 S,22,60589,61089,0.25,0.5 F,22,60589,61089,1,0
Sprite,Foreground,Centre,"SB/Ring.png",491,230 S,22,60672,61172,0.25,0.5 F,22,60672,61172,1,0
Sprite,Foreground,Centre,"SB/Ring.png",448,220 S,22,60756,61256,0.25,0.5 F,22,60756,61256,1,0
Sprite,Foreground,Centre,"SB/Ring.png",406,210 S,22,60839,61339,0.25,0.5 F,22,60839,61339,1,0
Sprite,Foreground,Centre,"SB/Ring.png",142,153 S,22,61172,61672,0.25,0.5 F,22,61172,61672,1,0
Sprite,Foreground,Centre,"SB/Ring.png",142,153 S,22,61256,61756,0.25,0.5 F,22,61256,61756,1,0
Sprite,Foreground,Centre,"SB/Ring.png",142,153 S,22,61339,61839,0.25,0.5 F,22,61339,61839,1,0
Sprite,Foreground,Centre,"SB/Ring.png",283,303 S,22,61506,62006,0.25,0.5 F,22,61506,62006,1,0
Sprite,Foreground,Centre,"SB/Ring.png",248,123 S,22,61672,62172,0.25,0.5 F,22,61672,62172,1,0
Sprite,Foreground,Centre,"SB/Ring.png",214,394 S,22,62006,62506,0.25,0.5 F,22,62006,62506,1,0
Sprite,Foreground,Centre,"SB/Ring.png",195,355 S,22,62089,62589,0.25,0.5 F,22,62089,62589,1,0
Sprite,Foreground,Centre,"SB/Ring.png",157,334 S,22,62172,62672,0.25,0.5 F,22,62172,62672,1,0
Sprite,Foreground,Centre,"SB/Ring.png",114,329 S,22,62256,62756,0.25,0.5 F,22,62256,62756,1,0
Sprite,Foreground,Centre,"SB/Ring.png",78,353 S,22,62339,62839,0.25,0.5 F,22,62339,62839,1,0
Sprite,Foreground,Centre,"SB/Ring.png",195,251 S,22,62506,63006,0.25,0.5 F,22,62506,63006,1,0
Sprite,Foreground,Centre,"SB/Ring.png",314,394 S,22,62672,63172,0.25,0.5 F,22,62672,63172,1,0
Sprite,Foreground,Centre,"SB/Ring.png",484,189 S,22,63006,63506,0.25,0.5 F,22,63006,63506,1,0
Sprite,Foreground,Centre,"SB/Ring.png",550,306 S,22,63172,63672,0.25,0.5 F,22,63172,63672,1,0
Sprite,Foreground,Centre,"SB/Ring.png",550,306 S,22,63256,63756,0.25,0.5 F,22,63256,63756,1,0
Sprite,Foreground,Centre,"SB/Ring.png",550,306 S,22,63339,63839,0.25,0.5 F,22,63339,63839,1,0
Sprite,Foreground,Centre,"SB/Ring.png",209,218 S,22,63672,64172,0.25,0.5 F,22,63672,64172,1,0
Sprite,Foreground,Centre,"SB/Ring.png",343,191 S,22,63922,64422,0.25,0.5 F,22,63922,64422,1,0
Sprite,Foreground,Centre,"SB/Ring.png",363,153 S,22,64006,64506,0.25,0.5 F,22,64006,64506,1,0
Sprite,Foreground,Centre,"SB/Ring.png",361,110 S,22,64089,64589,0.25,0.5 F,22,64089,64589,1,0
Sprite,Foreground,Centre,"SB/Ring.png",337,74 S,22,64172,64672,0.25,0.5 F,22,64172,64672,1,0
Sprite,Foreground,Centre,"SB/Ring.png",274,135 S,22,64339,64839,0.25,0.5 F,22,64339,64839,1,0
Sprite,Foreground,Centre,"SB/Ring.png",428,215 S,22,64506,65006,0.25,0.5 F,22,64506,65006,1,0
Sprite,Foreground,Centre,"SB/Ring.png",293,303 S,22,64672,65172,0.25,0.5 F,22,64672,65172,1,0
Sprite,Foreground,Centre,"SB/Ring.png",287,329 S,22,64756,65256,0.25,0.5 F,22,64756,65256,1,0
Sprite,Foreground,Centre,"SB/Ring.png",280,356 S,22,64839,65339,0.25,0.5 F,22,64839,65339,1,0
Sprite,Foreground,Centre,"SB/Ring.png",427,309 S,22,65006,65506,0.25,0.5 F,22,65006,65506,1,0
Sprite,Foreground,Centre,"SB/Ring.png",433,283 S,22,65089,65589,0.25,0.5 F,22,65089,65589,1,0
Sprite,Foreground,Centre,"SB/Ring.png",440,256 S,22,65172,65672,0.25,0.5 F,22,65172,65672,1,0
Sprite,Foreground,Centre,"SB/Ring.png",507,375 S,22,65339,65839,0.25,0.5 F,22,65339,65839,1,0
Sprite,Foreground,Centre,"SB/Ring.png",347,238 S,22,65506,66006,0.25,0.5 F,22,65506,66006,1,0
Sprite,Foreground,Centre,"SB/Ring.png",479,102 S,22,65672,66172,0.25,0.5 F,22,65672,66172,1,0
Sprite,Foreground,Centre,"SB/Ring.png",427,309 S,22,66006,66506,0.25,0.5 F,22,66006,66506,1,0
Sprite,Foreground,Centre,"SB/Ring.png",287,184 S,22,66172,66672,0.25,0.5 F,22,66172,66672,1,0
Sprite,Foreground,Centre,"SB/Ring.png",266,359 S,22,66506,67006,0.25,0.5 F,22,66506,67006,1,0
Sprite,Foreground,Centre,"SB/Ring.png",512,281 S,22,66672,67172,0.25,0.5 F,22,66672,67172,1,0
Sprite,Foreground,Centre,"SB/Ring.png",441,227 S,22,66839,67339,0.25,0.5 F,22,66839,67339,1,0
Sprite,Foreground,Centre,"SB/Ring.png",341,318 S,22,67006,67506,0.25,0.5 F,22,67006,67506,1,0
Sprite,Foreground,Centre,"SB/Ring.png",266,359 S,22,67172,67672,0.25,0.5 F,22,67172,67672,1,0
Sprite,Foreground,Centre,"SB/Ring.png",176,225 S,22,67339,67839,0.25,0.5 F,22,67339,67839,1,0
Sprite,Foreground,Centre,"SB/Ring.png",103,187 S,22,67506,68006,0.25,0.5 F,22,67506,68006,1,0
Sprite,Foreground,Centre,"SB/Ring.png",68,336 S,22,67672,68172,0.25,0.5 F,22,67672,68172,1,0
Sprite,Foreground,Centre,"SB/Ring.png",235,299 S,22,67922,68422,0.25,0.5 F,22,67922,68422,1,0
Sprite,Foreground,Centre,"SB/Ring.png",251,281 S,22,68006,68506,0.25,0.5 F,22,68006,68506,1,0
Sprite,Foreground,Centre,"SB/Ring.png",448,269 S,22,68339,68839,0.25,0.5 F,22,68339,68839,1,0
Sprite,Foreground,Centre,"SB/Ring.png",422,394 S,22,68589,69089,0.25,0.5 F,22,68589,69089,1,0
Sprite,Foreground,Centre,"SB/Ring.png",422,394 S,22,68672,69172,0.25,0.5 F,22,68672,69172,1,0
Sprite,Foreground,Centre,"SB/Ring.png",351,226 S,22,68839,69339,0.25,0.5 F,22,68839,69339,1,0
Sprite,Foreground,Centre,"SB/Ring.png",557,199 S,22,69006,69506,0.25,0.5 F,22,69006,69506,1,0
Sprite,Foreground,Centre,"SB/Ring.png",516,211 S,22,69089,69589,0.25,0.5 F,22,69089,69589,1,0
Sprite,Foreground,Centre,"SB/Ring.png",475,198 S,22,69172,69672,0.25,0.5 F,22,69172,69672,1,0
Sprite,Foreground,Centre,"SB/Ring.png",448,164 S,22,69256,69756,0.25,0.5 F,22,69256,69756,1,0
Sprite,Foreground,Centre,"SB/Ring.png",454,121 S,22,69339,69839,0.25,0.5 F,22,69339,69839,1,0
Sprite,Foreground,Centre,"SB/Ring.png",545,93 S,22,69589,70089,0.25,0.5 F,22,69589,70089,1,0
Sprite,Foreground,Centre,"SB/Ring.png",545,93 S,22,69672,70172,0.25,0.5 F,22,69672,70172,1,0
Sprite,Foreground,Centre,"SB/Ring.png",362,141 S,22,69839,70339,0.25,0.5 F,22,69839,70339,1,0
Sprite,Foreground,Centre,"SB/Ring.png",270,118 S,22,70172,70672,0.25,0.5 F,22,70172,70672,1,0
Sprite,Foreground,Centre,"SB/Ring.png",174,179 S,22,70339,70839,0.25,0.5 F,22,70339,70839,1,0
Sprite,Foreground,Centre,"SB/Ring.png",179,210 S,22,70422,70922,0.25,0.5 F,22,70422,70922,1,0
Sprite,Foreground,Centre,"SB/Ring.png",184,243 S,22,70506,71006,0.25,0.5 F,22,70506,71006,1,0
Sprite,Foreground,Centre,"SB/Ring.png",188,275 S,22,70589,71089,0.25,0.5 F,22,70589,71089,1,0
Sprite,Foreground,Centre,"SB/Ring.png",193,307 S,22,70672,71172,0.25,0.5 F,22,70672,71172,1,0
Sprite,Foreground,Centre,"SB/Ring.png",284,261 S,22,70839,71339,0.25,0.5 F,22,70839,71339,1,0
Sprite,Foreground,Centre,"SB/Ring.png",233,405 S,22,71006,71506,0.25,0.5 F,22,71006,71506,1,0
Sprite,Foreground,Centre,"SB/Ring.png",99,325 S,22,71172,71672,0.25,0.5 F,22,71172,71672,1,0
Sprite,Foreground,Centre,"SB/Ring.png",99,325 S,22,71256,71756,0.25,0.5 F,22,71256,71756,1,0
Sprite,Foreground,Centre,"SB/Ring.png",99,325 S,22,71339,71839,0.25,0.5 F,22,71339,71839,1,0
Sprite,Foreground,Centre,"SB/Ring.png",388,137 S,22,71672,72172,0.25,0.5 F,22,71672,72172,1,0
Sprite,Foreground,Centre,"SB/Ring.png",357,267 S,22,71922,72422,0.25,0.5 F,22,71922,72422,1,0
Sprite,Foreground,Centre,"SB/Ring.png",386,298 S,22,72006,72506,0.25,0.5 F,22,72006,72506,1,0
Sprite,Foreground,Centre,"SB/Ring.png",426,312 S,22,72089,72589,0.25,0.5 F,22,72089,72589,1,0
Sprite,Foreground,Centre,"SB/Ring.png",467,304 S,22,72172,72672,0.25,0.5 F,22,72172,72672,1,0
Sprite,Foreground,Centre,"SB/Ring.png",438,221 S,22,72339,72839,0.25,0.5 F,22,72339,72839,1,0
Sprite,Foreground,Centre,"SB/Ring.png",372,374 S,22,72506,73006,0.25,0.5 F,22,72506,73006,1,0
Sprite,Foreground,Centre,"SB/Ring.png",268,242 S,22,72672,73172,0.25,0.5 F,22,72672,73172,1,0
Sprite,Foreground,Centre,"SB/Ring.png",224,218 S,22,72756,73256,0.25,0.5 F,22,72756,73256,1,0
Sprite,Foreground,Centre,"SB/Ring.png",177,225 S,22,72839,73339,0.25,0.5 F,22,72839,73339,1,0
Sprite,Foreground,Centre,"SB/Ring.png",236,398 S,22,73006,73506,0.25,0.5 F,22,73006,73506,1,0
Sprite,Foreground,Centre,"SB/Ring.png",276,374 S,22,73089,73589,0.25,0.5 F,22,73089,73589,1,0
Sprite,Foreground,Centre,"SB/Ring.png",298,331 S,22,73172,73672,0.25,0.5 F,22,73172,73672,1,0
Sprite,Foreground,Centre,"SB/Ring.png",117,293 S,22,73339,73839,0.25,0.5 F,22,73339,73839,1,0
Sprite,Foreground,Centre,"SB/Ring.png",206,308 S,22,73672,74172,0.25,0.5 F,22,73672,74172,1,0
Sprite,Foreground,Centre,"SB/Ring.png",258,108 S,22,73839,74339,0.25,0.5 F,22,73839,74339,1,0
Sprite,Foreground,Centre,"SB/Ring.png",258,108 S,22,73922,74422,0.25,0.5 F,22,73922,74422,1,0
Sprite,Foreground,Centre,"SB/Ring.png",258,108 S,22,74006,74506,0.25,0.5 F,22,74006,74506,1,0
Sprite,Foreground,Centre,"SB/Ring.png",337,286 S,22,74172,74672,0.25,0.5 F,22,74172,74672,1,0
Sprite,Foreground,Centre,"SB/Ring.png",144,210 S,22,74339,74839,0.25,0.5 F,22,74339,74839,1,0
Sprite,Foreground,Centre,"SB/Ring.png",434,200 S,22,74672,75172,0.25,0.5 F,22,74672,75172,1,0
Sprite,Foreground,Centre,"SB/Ring.png",441,158 S,22,74756,75256,0.25,0.5 F,22,74756,75256,1,0
Sprite,Foreground,Centre,"SB/Ring.png",448,116 S,22,74839,75339,0.25,0.5 F,22,74839,75339,1,0
Sprite,Foreground,Centre,"SB/Ring.png",337,286 S,22,75006,75506,0.25,0.5 F,22,75006,75506,1,0
Sprite,Foreground,Centre,"SB/Ring.png",344,328 S,22,75089,75589,0.25,0.5 F,22,75089,75589,1,0
Sprite,Foreground,Centre,"SB/Ring.png",351,370 S,22,75172,75672,0.25,0.5 F,22,75172,75672,1,0
Sprite,Foreground,Centre,"SB/Ring.png",557,393 S,22,75339,75839,0.25,0.5 F,22,75339,75839,1,0
Sprite,Foreground,Centre,"SB/Ring.png",575,348 S,22,75422,75922,0.25,0.5 F,22,75422,75922,1,0
Sprite,Foreground,Centre,"SB/Ring.png",560,303 S,22,75506,76006,0.25,0.5 F,22,75506,76006,1,0
Sprite,Foreground,Centre,"SB/Ring.png",520,275 S,22,75589,76089,0.25,0.5 F,22,75589,76089,1,0
Sprite,Foreground,Centre,"SB/Ring.png",472,276 S,22,75672,76172,0.25,0.5 F,22,75672,76172,1,0
Sprite,Foreground,Centre,"SB/Ring.png",439,308 S,22,75756,76256,0.25,0.5 F,22,75756,76256,1,0
Sprite,Foreground,Centre,"SB/Ring.png",430,354 S,22,75839,76339,0.25,0.5 F,22,75839,76339,1,0
Sprite,Foreground,Centre,"SB/Ring.png",269,394 S,22,76006,76506,0.25,0.5 F,22,76006,76506,1,0
Sprite,Foreground,Centre,"SB/Ring.png",255,299 S,22,76256,76756,0.25,0.5 F,22,76256,76756,1,0
Sprite,Foreground,Centre,"SB/Ring.png",255,299 S,22,76339,76839,0.25,0.5 F,22,76339,76839,1,0
Sprite,Foreground,Centre,"SB/Ring.png",398,138 S,22,76506,77006,0.25,0.5 F,22,76506,77006,1,0
Sprite,Foreground,Centre,"SB/Ring.png",321,213 S,22,76672,77172,0.25,0.5 F,22,76672,77172,1,0
Sprite,Foreground,Centre,"SB/Ring.png",91,298 S,22,77006,77506,0.25,0.5 F,22,77006,77506,1,0
Sprite,Foreground,Centre,"SB/Ring.png",255,299 S,22,77256,77756,0.25,0.5 F,22,77256,77756,1,0
Sprite,Foreground,Centre,"SB/Ring.png",268,311 S,22,77339,77839,0.25,0.5 F,22,77339,77839,1,0
Sprite,Foreground,Centre,"SB/Ring.png",354,332 S,22,77506,78006,0.25,0.5 F,22,77506,78006,1,0
Sprite,Foreground,Centre,"SB/Ring.png",531,243 S,22,77672,78172,0.25,0.5 F,22,77672,78172,1,0
Sprite,Foreground,Centre,"SB/Ring.png",463,177 S,22,77839,78339,0.25,0.5 F,22,77839,78339,1,0
Sprite,Foreground,Centre,"SB/Ring.png",366,228 S,22,78006,78506,0.25,0.5 F,22,78006,78506,1,0
Sprite,Foreground,Centre,"SB/Ring.png",501,350 S,22,78172,78672,0.25,0.5 F,22,78172,78672,1,0
Sprite,Foreground,Centre,"SB/Ring.png",454,211 S,22,78339,78839,0.25,0.5 F,22,78339,78839,1,0
Sprite,Foreground,Centre,"SB/Ring.png",445,247 S,22,78422,78922,0.25,0.5 F,22,78422,78922,1,0
Sprite,Foreground,Centre,"SB/Ring.png",435,284 S,22,78506,79006,0.25,0.5 F,22,78506,79006,1,0
Sprite,Foreground,Centre,"SB/Ring.png",426,320 S,22,78589,79089,0.25,0.5 F,22,78589,79089,1,0
Sprite,Foreground,Centre,"SB/Ring.png",417,356 S,22,78672,79172,0.25,0.5 F,22,78672,79172,1,0
Sprite,Foreground,Centre,"SB/Ring.png",92,383 S,22,79006,79506,0.25,0.5 F,22,79006,79506,1,0
Sprite,Foreground,Centre,"SB/Ring.png",209,306 S,22,79339,79839,0.25,0.5 F,22,79339,79839,1,0
Sprite,Foreground,Centre,"SB/Ring.png",370,96 S,22,79672,80172,0.25,0.5 F,22,79672,80172,1,0
Sprite,Foreground,Centre,"SB/Ring.png",388,134 S,22,79756,80256,0.25,0.5 F,22,79756,80256,1,0
Sprite,Foreground,Centre,"SB/Ring.png",384,176 S,22,79839,80339,0.25,0.5 F,22,79839,80339,1,0
Sprite,Foreground,Centre,"SB/Ring.png",356,208 S,22,79922,80422,0.25,0.5 F,22,79922,80422,1,0
Sprite,Foreground,Centre,"SB/Ring.png",315,221 S,22,80006,80506,0.25,0.5 F,22,80006,80506,1,0
Sprite,Foreground,Centre,"SB/Ring.png",315,221 S,22,80089,80589,0.25,0.5 F,22,80089,80589,1,0
Sprite,Foreground,Centre,"SB/Ring.png",315,221 S,22,80172,80672,0.25,0.5 F,22,80172,80672,1,0
Sprite,Foreground,Centre,"SB/Ring.png",136,117 S,22,80339,80839,0.25,0.5 F,22,80339,80839,1,0
Sprite,Foreground,Centre,"SB/Ring.png",136,117 S,22,80422,80922,0.25,0.5 F,22,80422,80922,1,0
Sprite,Foreground,Centre,"SB/Ring.png",136,117 S,22,80506,81006,0.25,0.5 F,22,80506,81006,1,0
Sprite,Foreground,Centre,"SB/Ring.png",271,126 S,22,80672,81172,0.25,0.5 F,22,80672,81172,1,0
Sprite,Foreground,Centre,"SB/Ring.png",93,242 S,22,80839,81339,0.25,0.5 F,22,80839,81339,1,0
Sprite,Foreground,Centre,"SB/Ring.png",306,267 S,22,81006,81506,0.25,0.5 F,22,81006,81506,1,0
Sprite,Foreground,Centre,"SB/Ring.png",148,390 S,22,81173,81673,0.25,0.5 F,22,81173,81673,1,0
Sprite,Foreground,Centre,"SB/Ring.png",83,269 S,22,81339,81839,0.25,0.5 F,22,81339,81839,1,0
Sprite,Foreground,Centre,"SB/Ring.png",376,438 S,22,81839,82339,0.25,0.5 F,22,81839,82339,1,0
Sprite,Foreground,Centre,"SB/Ring.png",402,342 S,22,82006,82506,0.25,0.5 F,22,82006,82506,1,0
Sprite,Foreground,Centre,"SB/Ring.png",489,385 S,22,82339,82839,0.25,0.5 F,22,82339,82839,1,0
Sprite,Foreground,Centre,"SB/Ring.png",512,258 S,22,82589,83089,0.25,0.5 F,22,82589,83089,1,0
Sprite,Foreground,Centre,"SB/Ring.png",512,258 S,22,82672,83172,0.25,0.5 F,22,82672,83172,1,0
Sprite,Foreground,Centre,"SB/Ring.png",427,154 S,22,82839,83339,0.25,0.5 F,22,82839,83339,1,0
Sprite,Foreground,Centre,"SB/Ring.png",433,190 S,22,83006,83506,0.25,0.5 F,22,83006,83506,1,0
Sprite,Foreground,Centre,"SB/Ring.png",489,385 S,22,83339,83839,0.25,0.5 F,22,83339,83839,1,0
Sprite,Foreground,Centre,"SB/Ring.png",400,312 S,22,83506,84006,0.25,0.5 F,22,83506,84006,1,0
Sprite,Foreground,Centre,"SB/Ring.png",139,175 S,22,83839,84339,0.25,0.5 F,22,83839,84339,1,0
Sprite,Foreground,Centre,"SB/Ring.png",190,265 S,22,84006,84506,0.25,0.5 F,22,84006,84506,1,0
Sprite,Foreground,Centre,"SB/Ring.png",85,357 S,22,84339,84839,0.25,0.5 F,22,84339,84839,1,0
Sprite,Foreground,Centre,"SB/Ring.png",240,392 S,22,84506,85006,0.25,0.5 F,22,84506,85006,1,0
Sprite,Foreground,Centre,"SB/Ring.png",179,238 S,22,84672,85172,0.25,0.5 F,22,84672,85172,1,0
Sprite,Foreground,Centre,"SB/Ring.png",181,107 S,22,84922,85422,0.25,0.5 F,22,84922,85422,1,0
Sprite,Foreground,Centre,"SB/Ring.png",181,107 S,22,85006,85506,0.25,0.5 F,22,85006,85506,1,0
Sprite,Foreground,Centre,"SB/Ring.png",371,247 S,22,85339,85839,0.25,0.5 F,22,85339,85839,1,0
Sprite,Foreground,Centre,"SB/Ring.png",435,312 S,22,85672,86172,0.25,0.5 F,22,85672,86172,1,0
Sprite,Foreground,Centre,"SB/Ring.png",526,315 S,22,86006,86506,0.25,0.5 F,22,86006,86506,1,0
Sprite,Foreground,Centre,"SB/Ring.png",541,361 S,22,86089,86589,0.25,0.5 F,22,86089,86589,1,0
Sprite,Foreground,Centre,"SB/Ring.png",552,403 S,22,86172,86672,0.25,0.5 F,22,86172,86672,1,0
Sprite,Foreground,Centre,"SB/Ring.png",478,94 S,22,86339,86839,0.25,0.5 F,22,86339,86839,1,0
Sprite,Foreground,Centre,"SB/Ring.png",451,237 S,22,86506,87006,0.25,0.5 F,22,86506,87006,1,0
Sprite,Foreground,Centre,"SB/Ring.png",499,77 S,22,86672,87172,0.25,0.5 F,22,86672,87172,1,0
Sprite,Foreground,Centre,"SB/Ring.png",442,277 S,22,87006,87506,0.25,0.5 F,22,87006,87506,1,0
Sprite,Foreground,Centre,"SB/Ring.png",333,133 S,22,87172,87672,0.25,0.5 F,22,87172,87672,1,0
Sprite,Foreground,Centre,"SB/Ring.png",333,133 S,22,87256,87756,0.25,0.5 F,22,87256,87756,1,0
Sprite,Foreground,Centre,"SB/Ring.png",333,133 S,22,87339,87839,0.25,0.5 F,22,87339,87839,1,0
Sprite,Foreground,Centre,"SB/Ring.png",187,334 S,22,87506,88006,0.25,0.5 F,22,87506,88006,1,0
Sprite,Foreground,Centre,"SB/Ring.png",358,227 S,22,87672,88172,0.25,0.5 F,22,87672,88172,1,0
Sprite,Foreground,Centre,"SB/Ring.png",248,165 S,22,87839,88339,0.25,0.5 F,22,87839,88339,1,0
Sprite,Foreground,Centre,"SB/Ring.png",289,374 S,22,88172,88672,0.25,0.5 F,22,88172,88672,1,0
Sprite,Foreground,Centre,"SB/Ring.png",294,346 S,22,88339,88839,0.25,0.5 F,22,88339,88839,1,0
Sprite,Foreground,Centre,"SB/Ring.png",132,406 S,22,88672,89172,0.25,0.5 F,22,88672,89172,1,0
Sprite,Foreground,Centre,"SB/Ring.png",102,371 S,22,88756,89256,0.25,0.5 F,22,88756,89256,1,0
Sprite,Foreground,Centre,"SB/Ring.png",98,324 S,22,88839,89339,0.25,0.5 F,22,88839,89339,1,0
Sprite,Foreground,Centre,"SB/Ring.png",308,158 S,22,89006,89506,0.25,0.5 F,22,89006,89506,1,0
Sprite,Foreground,Centre,"SB/Ring.png",187,334 S,22,89339,89839,0.25,0.5 F,22,89339,89839,1,0
Sprite,Foreground,Centre,"SB/Ring.png",349,395 S,22,89672,90172,0.25,0.5 F,22,89672,90172,1,0
Sprite,Foreground,Centre,"SB/Ring.png",458,221 S,22,89839,90339,0.25,0.5 F,22,89839,90339,1,0
Sprite,Foreground,Centre,"SB/Ring.png",477,313 S,22,90006,90506,0.25,0.5 F,22,90006,90506,1,0
Sprite,Foreground,Centre,"SB/Ring.png",428,313 S,22,90089,90589,0.25,0.5 F,22,90089,90589,1,0
Sprite,Foreground,Centre,"SB/Ring.png",388,284 S,22,90172,90672,0.25,0.5 F,22,90172,90672,1,0
Sprite,Foreground,Centre,"SB/Ring.png",447,114 S,22,90339,90839,0.25,0.5 F,22,90339,90839,1,0
Sprite,Foreground,Centre,"SB/Ring.png",347,158 S,22,90672,91172,0.25,0.5 F,22,90672,91172,1,0
Sprite,Foreground,Centre,"SB/Ring.png",222,114 S,22,91006,91506,0.25,0.5 F,22,91006,91506,1,0
Sprite,Foreground,Centre,"SB/Ring.png",263,242 S,22,91256,91756,0.25,0.5 F,22,91256,91756,1,0
Sprite,Foreground,Centre,"SB/Ring.png",260,276 S,22,91339,91839,0.25,0.5 F,22,91339,91839,1,0
Sprite,Foreground,Centre,"SB/Ring.png",252,311 S,22,91422,91922,0.25,0.5 F,22,91422,91922,1,0
Sprite,Foreground,Centre,"SB/Ring.png",248,343 S,22,91506,92006,0.25,0.5 F,22,91506,92006,1,0
Sprite,Foreground,Centre,"SB/Ring.png",168,314 S,22,91672,92172,0.25,0.5 F,22,91672,92172,1,0
Sprite,Foreground,Centre,"SB/Ring.png",352,260 S,22,91839,92339,0.25,0.5 F,22,91839,92339,1,0
Sprite,Foreground,Centre,"SB/Ring.png",222,113 S,22,92006,92506,0.25,0.5 F,22,92006,92506,1,0
Sprite,Foreground,Centre,"SB/Ring.png",252,311 S,22,92339,92839,0.25,0.5 F,22,92339,92839,1,0
Sprite,Foreground,Centre,"SB/Ring.png",290,181 S,22,92589,93089,0.25,0.5 F,22,92589,93089,1,0
Sprite,Foreground,Centre,"SB/Ring.png",333,161 S,22,92672,93172,0.25,0.5 F,22,92672,93172,1,0
Sprite,Foreground,Centre,"SB/Ring.png",379,165 S,22,92756,93256,0.25,0.5 F,22,92756,93256,1,0
Sprite,Foreground,Centre,"SB/Ring.png",418,191 S,22,92839,93339,0.25,0.5 F,22,92839,93339,1,0
Sprite,Foreground,Centre,"SB/Ring.png",430,336 S,22,93006,93506,0.25,0.5 F,22,93006,93506,1,0
Sprite,Foreground,Centre,"SB/Ring.png",485,410 S,22,93339,93839,0.25,0.5 F,22,93339,93839,1,0
Sprite,Foreground,Centre,"SB/Ring.png",540,234 S,22,93506,94006,0.25,0.5 F,22,93506,94006,1,0
Sprite,Foreground,Centre,"SB/Ring.png",512,228 S,22,93672,94172,0.25,0.5 F,22,93672,94172,1,0
Sprite,Foreground,Centre,"SB/Ring.png",373,83 S,22,94006,94506,0.25,0.5 F,22,94006,94506,1,0
Sprite,Foreground,Centre,"SB/Ring.png",352,260 S,22,94172,94672,0.25,0.5 F,22,94172,94672,1,0
Sprite,Foreground,Centre,"SB/Ring.png",485,136 S,22,94339,94839,0.25,0.5 F,22,94339,94839,1,0
Sprite,Foreground,Centre,"SB/Ring.png",279,195 S,22,94506,95006,0.25,0.5 F,22,94506,95006,1,0
Sprite,Foreground,Centre,"SB/Ring.png",279,195 S,22,94589,95089,0.25,0.5 F,22,94589,95089,1,0
Sprite,Foreground,Centre,"SB/Ring.png",279,195 S,22,94672,95172,0.25,0.5 F,22,94672,95172,1,0
Sprite,Foreground,Centre,"SB/Ring.png",324,335 S,22,95006,95506,0.25,0.5 F,22,95006,95506,1,0
Sprite,Foreground,Centre,"SB/Ring.png",94,207 S,22,95339,95839,0.25,0.5 F,22,95339,95839,1,0
Sprite,Foreground,Centre,"SB/Ring.png",142,369 S,22,95506,96006,0.25,0.5 F,22,95506,96006,1,0
Sprite,Foreground,Centre,"SB/Ring.png",149,133 S,22,95672,96172,0.25,0.5 F,22,95672,96172,1,0
Sprite,Foreground,Centre,"SB/Ring.png",96,300 S,22,95839,96339,0.25,0.5 F,22,95839,96339,1,0
Sprite,Foreground,Centre,"SB/Ring.png",363,172 S,22,96172,96672,0.25,0.5 F,22,96172,96672,1,0
Sprite,Foreground,Centre,"SB/Ring.png",357,144 S,22,96339,96839,0.25,0.5 F,22,96339,96839,1,0
Sprite,Foreground,Centre,"SB/Ring.png",247,169 S,22,96589,97089,0.25,0.5 F,22,96589,97089,1,0
Sprite,Foreground,Centre,"SB/Ring.png",227,157 S,22,96672,97172,0.25,0.5 F,22,96672,97172,1,0
Sprite,Foreground,Centre,"SB/Ring.png",245,278 S,22,97006,97506,0.25,0.5 F,22,97006,97506,1,0
Sprite,Foreground,Centre,"SB/Ring.png",365,120 S,22,97172,97672,0.25,0.5 F,22,97172,97672,1,0
Sprite,Foreground,Centre,"SB/Ring.png",492,217 S,22,97339,97839,0.25,0.5 F,22,97339,97839,1,0
Sprite,Foreground,Centre,"SB/Ring.png",570,173 S,22,97672,98172,0.25,0.5 F,22,97672,98172,1,0
Sprite,Foreground,Centre,"SB/Ring.png",416,268 S,22,97839,98339,0.25,0.5 F,22,97839,98339,1,0
Sprite,Foreground,Centre,"SB/Ring.png",389,228 S,22,97922,98422,0.25,0.5 F,22,97922,98422,1,0
Sprite,Foreground,Centre,"SB/Ring.png",345,207 S,22,98006,98506,0.25,0.5 F,22,98006,98506,1,0
Sprite,Foreground,Centre,"SB/Ring.png",297,210 S,22,98089,98589,0.25,0.5 F,22,98089,98589,1,0
Sprite,Foreground,Centre,"SB/Ring.png",265,244 S,22,98172,98672,0.25,0.5 F,22,98172,98672,1,0
Sprite,Foreground,Centre,"SB/Ring.png",185,339 S,22,98339,98839,0.25,0.5 F,22,98339,98839,1,0
Sprite,Foreground,Centre,"SB/Ring.png",165,149 S,22,98672,99172,0.25,0.5 F,22,98672,99172,1,0
Sprite,Foreground,Centre,"SB/Ring.png",72,279 S,22,98839,99339,0.25,0.5 F,22,98839,99339,1,0
Sprite,Foreground,Centre,"SB/Ring.png",279,123 S,22,99006,99506,0.25,0.5 F,22,99006,99506,1,0
Sprite,Foreground,Centre,"SB/Ring.png",261,215 S,22,99256,99756,0.25,0.5 F,22,99256,99756,1,0
Sprite,Foreground,Centre,"SB/Ring.png",261,215 S,22,99339,99839,0.25,0.5 F,22,99339,99839,1,0
Sprite,Foreground,Centre,"SB/Ring.png",165,149 S,22,99506,100006,0.25,0.5 F,22,99506,100006,1,0
Sprite,Foreground,Centre,"SB/Ring.png",378,101 S,22,99672,100172,0.25,0.5 F,22,99672,100172,1,0
Sprite,Foreground,Centre,"SB/Ring.png",425,318 S,22,99839,100339,0.25,0.5 F,22,99839,100339,1,0
Sprite,Foreground,Centre,"SB/Ring.png",222,367 S,22,100006,100506,0.25,0.5 F,22,100006,100506,1,0
Sprite,Foreground,Centre,"SB/Ring.png",222,367 S,22,100089,100589,0.25,0.5 F,22,100089,100589,1,0
Sprite,Foreground,Centre,"SB/Ring.png",222,367 S,22,100172,100672,0.25,0.5 F,22,100172,100672,1,0
Sprite,Foreground,Centre,"SB/Ring.png",102,192 S,22,100339,100839,0.25,0.5 F,22,100339,100839,1,0
Sprite,Foreground,Centre,"SB/Ring.png",102,192 S,22,100422,100922,0.25,0.5 F,22,100422,100922,1,0
Sprite,Foreground,Centre,"SB/Ring.png",102,192 S,22,100506,101006,0.25,0.5 F,22,100506,101006,1,0
Sprite,Foreground,Centre,"SB/Ring.png",353,132 S,22,100672,101172,0.25,0.5 F,22,100672,101172,1,0
Sprite,Foreground,Centre,"SB/Ring.png",353,132 S,22,100756,101256,0.25,0.5 F,22,100756,101256,1,0
Sprite,Foreground,Centre,"SB/Ring.png",353,132 S,22,100839,101339,0.25,0.5 F,22,100839,101339,1,0
Sprite,Foreground,Centre,"SB/Ring.png",401,345 S,22,101006,101506,0.25,0.5 F,22,101006,101506,1,0
Sprite,Foreground,Centre,"SB/Ring.png",87,325 S,22,101172,101672,0.25,0.5 F,22,101172,101672,1,0
Sprite,Foreground,Centre,"SB/Ring.png",279,298 S,22,101589,102089,0.25,0.5 F,22,101589,102089,1,0
Sprite,Foreground,Centre,"SB/Ring.png",311,302 S,22,101672,102172,0.25,0.5 F,22,101672,102172,1,0
Sprite,Foreground,Centre,"SB/Ring.png",342,291 S,22,101756,102256,0.25,0.5 F,22,101756,102256,1,0
Sprite,Foreground,Centre,"SB/Ring.png",364,266 S,22,101839,102339,0.25,0.5 F,22,101839,102339,1,0
Sprite,Foreground,Centre,"SB/Ring.png",370,233 S,22,101922,102422,0.25,0.5 F,22,101922,102422,1,0
Sprite,Foreground,Centre,"SB/Ring.png",359,204 S,22,102006,102506,0.25,0.5 F,22,102006,102506,1,0
Sprite,Foreground,Centre,"SB/Ring.png",308,193 S,22,102089,102589,0.25,0.5 F,22,102089,102589,1,0
Sprite,Foreground,Centre,"SB/Ring.png",279,149 S,22,102172,102672,0.25,0.5 F,22,102172,102672,1,0
Sprite,Foreground,Centre,"SB/Ring.png",284,96 S,22,102256,102756,0.25,0.5 F,22,102256,102756,1,0
Sprite,Foreground,Centre,"SB/Ring.png",342,56 S,22,102339,102839,0.25,0.5 F,22,102339,102839,1,0
Sprite,Foreground,Centre,"SB/Ring.png",540,116 S,22,102672,103172,0.25,0.5 F,22,102672,103172,1,0
Sprite,Foreground,Centre,"SB/Ring.png",121,161 S,22,113339,113839,0.25,0.5 F,22,113339,113839,1,0
Sprite,Foreground,Centre,"SB/Ring.png",362,164 S,22,113672,114172,0.25,0.5 F,22,113672,114172,1,0
Sprite,Foreground,Centre,"SB/Ring.png",243,373 S,22,114006,114506,0.25,0.5 F,22,114006,114506,1,0
Sprite,Foreground,Centre,"SB/Ring.png",220,281 S,22,114256,114756,0.25,0.5 F,22,114256,114756,1,0
Sprite,Foreground,Centre,"SB/Ring.png",220,281 S,22,114339,114839,0.25,0.5 F,22,114339,114839,1,0
Sprite,Foreground,Centre,"SB/Ring.png",397,361 S,22,114506,115006,0.25,0.5 F,22,114506,115006,1,0
Sprite,Foreground,Centre,"SB/Ring.png",467,353 S,22,114672,115172,0.25,0.5 F,22,114672,115172,1,0
Sprite,Foreground,Centre,"SB/Ring.png",497,239 S,22,115006,115506,0.25,0.5 F,22,115006,115506,1,0
Sprite,Foreground,Centre,"SB/Ring.png",527,120 S,22,115339,115839,0.25,0.5 F,22,115339,115839,1,0
Sprite,Foreground,Centre,"SB/Ring.png",416,149 S,22,115506,116006,0.25,0.5 F,22,115506,116006,1,0
Sprite,Foreground,Centre,"SB/Ring.png",416,149 S,22,115589,116089,0.25,0.5 F,22,115589,116089,1,0
Sprite,Foreground,Centre,"SB/Ring.png",416,149 S,22,115672,116172,0.25,0.5 F,22,115672,116172,1,0
Sprite,Foreground,Centre,"SB/Ring.png",324,82 S,22,115839,116339,0.25,0.5 F,22,115839,116339,1,0
Sprite,Foreground,Centre,"SB/Ring.png",150,209 S,22,116006,116506,0.25,0.5 F,22,116006,116506,1,0
Sprite,Foreground,Centre,"SB/Ring.png",289,351 S,22,116339,116839,0.25,0.5 F,22,116339,116839,1,0
Sprite,Foreground,Centre,"SB/Ring.png",211,102 S,22,116672,117172,0.25,0.5 F,22,116672,117172,1,0
Sprite,Foreground,Centre,"SB/Ring.png",296,179 S,22,116922,117422,0.25,0.5 F,22,116922,117422,1,0
Sprite,Foreground,Centre,"SB/Ring.png",323,172 S,22,117006,117506,0.25,0.5 F,22,117006,117506,1,0
Sprite,Foreground,Centre,"SB/Ring.png",508,317 S,22,117339,117839,0.25,0.5 F,22,117339,117839,1,0
Sprite,Foreground,Centre,"SB/Ring.png",289,351 S,22,117672,118172,0.25,0.5 F,22,117672,118172,1,0
Sprite,Foreground,Centre,"SB/Ring.png",401,412 S,22,117839,118339,0.25,0.5 F,22,117839,118339,1,0
Sprite,Foreground,Centre,"SB/Ring.png",332,253 S,22,118006,118506,0.25,0.5 F,22,118006,118506,1,0
Sprite,Foreground,Centre,"SB/Ring.png",210,386 S,22,118172,118672,0.25,0.5 F,22,118172,118672,1,0
Sprite,Foreground,Centre,"SB/Ring.png",201,349 S,22,118256,118756,0.25,0.5 F,22,118256,118756,1,0
Sprite,Foreground,Centre,"SB/Ring.png",194,315 S,22,118339,118839,0.25,0.5 F,22,118339,118839,1,0
Sprite,Foreground,Centre,"SB/Ring.png",109,123 S,22,118506,119006,0.25,0.5 F,22,118506,119006,1,0
Sprite,Foreground,Centre,"SB/Ring.png",86,209 S,22,118672,119172,0.25,0.5 F,22,118672,119172,1,0
Sprite,Foreground,Centre,"SB/Ring.png",331,253 S,22,119006,119506,0.25,0.5 F,22,119006,119506,1,0
Sprite,Foreground,Centre,"SB/Ring.png",298,87 S,22,119339,119839,0.25,0.5 F,22,119339,119839,1,0
Sprite,Foreground,Centre,"SB/Ring.png",453,148 S,22,119506,120006,0.25,0.5 F,22,119506,120006,1,0
Sprite,Foreground,Centre,"SB/Ring.png",453,148 S,22,119589,120089,0.25,0.5 F,22,119589,120089,1,0
Sprite,Foreground,Centre,"SB/Ring.png",453,148 S,22,119672,120172,0.25,0.5 F,22,119672,120172,1,0
Sprite,Foreground,Centre,"SB/Ring.png",308,371 S,22,120006,120506,0.25,0.5 F,22,120006,120506,1,0
Sprite,Foreground,Centre,"SB/Ring.png",560,363 S,22,120339,120839,0.25,0.5 F,22,120339,120839,1,0
Sprite,Foreground,Centre,"SB/Ring.png",539,171 S,22,120672,121172,0.25,0.5 F,22,120672,121172,1,0
Sprite,Foreground,Centre,"SB/Ring.png",358,131 S,22,120839,121339,0.25,0.5 F,22,120839,121339,1,0
Sprite,Foreground,Centre,"SB/Ring.png",366,170 S,22,120922,121422,0.25,0.5 F,22,120922,121422,1,0
Sprite,Foreground,Centre,"SB/Ring.png",376,209 S,22,121006,121506,0.25,0.5 F,22,121006,121506,1,0
Sprite,Foreground,Centre,"SB/Ring.png",443,64 S,22,121172,121672,0.25,0.5 F,22,121172,121672,1,0
Sprite,Foreground,Centre,"SB/Ring.png",291,234 S,22,121339,121839,0.25,0.5 F,22,121339,121839,1,0
Sprite,Foreground,Centre,"SB/Ring.png",269,141 S,22,121506,122006,0.25,0.5 F,22,121506,122006,1,0
Sprite,Foreground,Centre,"SB/Ring.png",216,292 S,22,121672,122172,0.25,0.5 F,22,121672,122172,1,0
Sprite,Foreground,Centre,"SB/Ring.png",176,117 S,22,121839,122339,0.25,0.5 F,22,121839,122339,1,0
Sprite,Foreground,Centre,"SB/Ring.png",125,266 S,22,122006,122506,0.25,0.5 F,22,122006,122506,1,0
Sprite,Foreground,Centre,"SB/Ring.png",299,322 S,22,122172,122672,0.25,0.5 F,22,122172,122672,1,0
Sprite,Foreground,Centre,"SB/Ring.png",199,198 S,22,122339,122839,0.25,0.5 F,22,122339,122839,1,0
Sprite,Foreground,Centre,"SB/Ring.png",149,364 S,22,122506,123006,0.25,0.5 F,22,122506,123006,1,0
Sprite,Foreground,Centre,"SB/Ring.png",326,395 S,22,122672,123172,0.25,0.5 F,22,122672,123172,1,0
Sprite,Foreground,Centre,"SB/Ring.png",307,359 S,22,122756,123256,0.25,0.5 F,22,122756,123256,1,0
Sprite,Foreground,Centre,"SB/Ring.png",299,322 S,22,122839,123339,0.25,0.5 F,22,122839,123339,1,0
Sprite,Foreground,Centre,"SB/Ring.png",301,284 S,22,122922,123422,0.25,0.5 F,22,122922,123422,1,0
Sprite,Foreground,Centre,"SB/Ring.png",308,245 S,22,123006,123506,0.25,0.5 F,22,123006,123506,1,0
Sprite,Foreground,Centre,"SB/Ring.png",319,208 S,22,123089,123589,0.25,0.5 F,22,123089,123589,1,0
Sprite,Foreground,Centre,"SB/Ring.png",340,176 S,22,123172,123672,0.25,0.5 F,22,123172,123672,1,0
Sprite,Foreground,Centre,"SB/Ring.png",367,149 S,22,123256,123756,0.25,0.5 F,22,123256,123756,1,0
Sprite,Foreground,Centre,"SB/Ring.png",401,131 S,22,123339,123839,0.25,0.5 F,22,123339,123839,1,0
Sprite,Foreground,Centre,"SB/Ring.png",448,364 S,22,123506,124006,0.25,0.5 F,22,123506,124006,1,0
Sprite,Foreground,Centre,"SB/Ring.png",394,248 S,22,123672,124172,0.25,0.5 F,22,123672,124172,1,0
Sprite,Foreground,Centre,"SB/Ring.png",522,260 S,22,123839,124339,0.25,0.5 F,22,123839,124339,1,0
Sprite,Foreground,Centre,"SB/Ring.png",307,359 S,22,124006,124506,0.25,0.5 F,22,124006,124506,1,0
Sprite,Foreground,Centre,"SB/Ring.png",137,384 S,22,124339,124839,0.25,0.5 F,22,124339,124839,1,0
Sprite,Foreground,Centre,"SB/Ring.png",218,92 S,22,124672,125172,0.25,0.5 F,22,124672,125172,1,0
Sprite,Foreground,Centre,"SB/Ring.png",223,262 S,22,125006,125506,0.25,0.5 F,22,125006,125506,1,0
Sprite,Foreground,Centre,"SB/Ring.png",386,169 S,22,125172,125672,0.25,0.5 F,22,125172,125672,1,0
Sprite,Foreground,Centre,"SB/Ring.png",318,256 S,22,125506,126006,0.25,0.5 F,22,125506,126006,1,0
Sprite,Foreground,Centre,"SB/Ring.png",482,336 S,22,125672,126172,0.25,0.5 F,22,125672,126172,1,0
Sprite,Foreground,Centre,"SB/Ring.png",375,400 S,22,126006,126506,0.25,0.5 F,22,126006,126506,1,0
Sprite,Foreground,Centre,"SB/Ring.png",255,352 S,22,126256,126756,0.25,0.5 F,22,126256,126756,1,0
Sprite,Foreground,Centre,"SB/Ring.png",220,366 S,22,126339,126839,0.25,0.5 F,22,126339,126839,1,0
Sprite,Foreground,Centre,"SB/Ring.png",192,180 S,22,126506,127006,0.25,0.5 F,22,126506,127006,1,0
Sprite,Foreground,Centre,"SB/Ring.png",65,291 S,22,126672,127172,0.25,0.5 F,22,126672,127172,1,0
Sprite,Foreground,Centre,"SB/Ring.png",257,104 S,22,127006,127506,0.25,0.5 F,22,127006,127506,1,0
Sprite,Foreground,Centre,"SB/Ring.png",289,274 S,22,127339,127839,0.25,0.5 F,22,127339,127839,1,0
Sprite,Foreground,Centre,"SB/Ring.png",545,371 S,22,127672,128172,0.25,0.5 F,22,127672,128172,1,0
Sprite,Foreground,Centre,"SB/Ring.png",502,398 S,22,127756,128256,0.25,0.5 F,22,127756,128256,1,0
Sprite,Foreground,Centre,"SB/Ring.png",451,391 S,22,127839,128339,0.25,0.5 F,22,127839,128339,1,0
Sprite,Foreground,Centre,"SB/Ring.png",375,243 S,22,128006,128506,0.25,0.5 F,22,128006,128506,1,0
Sprite,Foreground,Centre,"SB/Ring.png",483,309 S,22,128172,128672,0.25,0.5 F,22,128172,128672,1,0
Sprite,Foreground,Centre,"SB/Ring.png",576,144 S,22,128506,129006,0.25,0.5 F,22,128506,129006,1,0
Sprite,Foreground,Centre,"SB/Ring.png",374,76 S,22,128672,129172,0.25,0.5 F,22,128672,129172,1,0
Sprite,Foreground,Centre,"SB/Ring.png",554,133 S,22,128839,129339,0.25,0.5 F,22,128839,129339,1,0
Sprite,Foreground,Centre,"SB/Ring.png",334,186 S,22,129006,129506,0.25,0.5 F,22,129006,129506,1,0
Sprite,Foreground,Centre,"SB/Ring.png",472,98 S,22,129172,129672,0.25,0.5 F,22,129172,129672,1,0
Sprite,Foreground,Centre,"SB/Ring.png",278,118 S,22,129339,129839,0.25,0.5 F,22,129339,129839,1,0
Sprite,Foreground,Centre,"SB/Ring.png",306,285 S,22,129672,130172,0.25,0.5 F,22,129672,130172,1,0
Sprite,Foreground,Centre,"SB/Ring.png",94,348 S,22,130006,130506,0.25,0.5 F,22,130006,130506,1,0
Sprite,Foreground,Centre,"SB/Ring.png",260,153 S,22,130339,130839,0.25,0.5 F,22,130339,130839,1,0
Sprite,Foreground,Centre,"SB/Ring.png",168,83 S,22,130506,131006,0.25,0.5 F,22,130506,131006,1,0
Sprite,Foreground,Centre,"SB/Ring.png",175,293 S,22,130839,131339,0.25,0.5 F,22,130839,131339,1,0
Sprite,Foreground,Centre,"SB/Ring.png",373,201 S,22,131006,131506,0.25,0.5 F,22,131006,131506,1,0
Sprite,Foreground,Centre,"SB/Ring.png",345,395 S,22,131339,131839,0.25,0.5 F,22,131339,131839,1,0
Sprite,Foreground,Centre,"SB/Ring.png",224,383 S,22,131589,132089,0.25,0.5 F,22,131589,132089,1,0
Sprite,Foreground,Centre,"SB/Ring.png",202,394 S,22,131672,132172,0.25,0.5 F,22,131672,132172,1,0
Sprite,Foreground,Centre,"SB/Ring.png",147,204 S,22,131839,132339,0.25,0.5 F,22,131839,132339,1,0
Sprite,Foreground,Centre,"SB/Ring.png",96,395 S,22,132006,132506,0.25,0.5 F,22,132006,132506,1,0
Sprite,Foreground,Centre,"SB/Ring.png",268,303 S,22,132172,132672,0.25,0.5 F,22,132172,132672,1,0
Sprite,Foreground,Centre,"SB/Ring.png",99,291 S,22,132339,132839,0.25,0.5 F,22,132339,132839,1,0
Sprite,Foreground,Centre,"SB/Ring.png",65,120 S,22,132672,133172,0.25,0.5 F,22,132672,133172,1,0
Sprite,Foreground,Centre,"SB/Ring.png",174,187 S,22,132839,133339,0.25,0.5 F,22,132839,133339,1,0
Sprite,Foreground,Centre,"SB/Ring.png",378,133 S,22,133172,133672,0.25,0.5 F,22,133172,133672,1,0
Sprite,Foreground,Centre,"SB/Ring.png",219,91 S,22,133339,133839,0.25,0.5 F,22,133339,133839,1,0
Sprite,Foreground,Centre,"SB/Ring.png",341,205 S,22,133506,134006,0.25,0.5 F,22,133506,134006,1,0
Sprite,Foreground,Centre,"SB/Ring.png",280,313 S,22,133756,134256,0.25,0.5 F,22,133756,134256,1,0
Sprite,Foreground,Centre,"SB/Ring.png",333,440 S,22,134006,134506,0.25,0.5 F,22,134006,134506,1,0
Sprite,Foreground,Centre,"SB/Ring.png",446,425 S,22,134256,134756,0.25,0.5 F,22,134256,134756,1,0
Sprite,Foreground,Centre,"SB/Ring.png",464,430 S,22,134339,134839,0.25,0.5 F,22,134339,134839,1,0
Sprite,Foreground,Centre,"SB/Ring.png",263,231 S,22,134506,135006,0.25,0.5 F,22,134506,135006,1,0
Sprite,Foreground,Centre,"SB/Ring.png",280,313 S,22,134672,135172,0.25,0.5 F,22,134672,135172,1,0
Sprite,Foreground,Centre,"SB/Ring.png",359,185 S,22,135006,135506,0.25,0.5 F,22,135006,135506,1,0
Sprite,Foreground,Centre,"SB/Ring.png",529,377 S,22,135339,135839,0.25,0.5 F,22,135339,135839,1,0
Sprite,Foreground,Centre,"SB/Ring.png",478,72 S,22,135672,136172,0.25,0.5 F,22,135672,136172,1,0
Sprite,Foreground,Centre,"SB/Ring.png",500,97 S,22,135756,136256,0.25,0.5 F,22,135756,136256,1,0
Sprite,Foreground,Centre,"SB/Ring.png",513,128 S,22,135839,136339,0.25,0.5 F,22,135839,136339,1,0
Sprite,Foreground,Centre,"SB/Ring.png",516,161 S,22,135922,136422,0.25,0.5 F,22,135922,136422,1,0
Sprite,Foreground,Centre,"SB/Ring.png",509,193 S,22,136006,136506,0.25,0.5 F,22,136006,136506,1,0
Sprite,Foreground,Centre,"SB/Ring.png",492,222 S,22,136089,136589,0.25,0.5 F,22,136089,136589,1,0
Sprite,Foreground,Centre,"SB/Ring.png",467,241 S,22,136172,136672,0.25,0.5 F,22,136172,136672,1,0
Sprite,Foreground,Centre,"SB/Ring.png",383,201 S,22,136339,136839,0.25,0.5 F,22,136339,136839,1,0
Sprite,Foreground,Centre,"SB/Ring.png",552,285 S,22,136506,137006,0.25,0.5 F,22,136506,137006,1,0
Sprite,Foreground,Centre,"SB/Ring.png",385,293 S,22,136672,137172,0.25,0.5 F,22,136672,137172,1,0
Sprite,Foreground,Centre,"SB/Ring.png",288,335 S,22,136922,137422,0.25,0.5 F,22,136922,137422,1,0
Sprite,Foreground,Centre,"SB/Ring.png",273,315 S,22,137006,137506,0.25,0.5 F,22,137006,137506,1,0
Sprite,Foreground,Centre,"SB/Ring.png",161,277 S,22,137339,137839,0.25,0.5 F,22,137339,137839,1,0
Sprite,Foreground,Centre,"SB/Ring.png",185,383 S,22,137506,138006,0.25,0.5 F,22,137506,138006,1,0
Sprite,Foreground,Centre,"SB/Ring.png",251,219 S,22,137672,138172,0.25,0.5 F,22,137672,138172,1,0
Sprite,Foreground,Centre,"SB/Ring.png",94,169 S,22,138006,138506,0.25,0.5 F,22,138006,138506,1,0
Sprite,Foreground,Centre,"SB/Ring.png",275,97 S,22,138339,138839,0.25,0.5 F,22,138339,138839,1,0
Sprite,Foreground,Centre,"SB/Ring.png",284,128 S,22,138422,138922,0.25,0.5 F,22,138422,138922,1,0
Sprite,Foreground,Centre,"SB/Ring.png",290,160 S,22,138506,139006,0.25,0.5 F,22,138506,139006,1,0
Sprite,Foreground,Centre,"SB/Ring.png",289,192 S,22,138589,139089,0.25,0.5 F,22,138589,139089,1,0
Sprite,Foreground,Centre,"SB/Ring.png",282,225 S,22,138672,139172,0.25,0.5 F,22,138672,139172,1,0
Sprite,Foreground,Centre,"SB/Ring.png",276,258 S,22,138756,139256,0.25,0.5 F,22,138756,139256,1,0
Sprite,Foreground,Centre,"SB/Ring.png",280,290 S,22,138839,139339,0.25,0.5 F,22,138839,139339,1,0
Sprite,Foreground,Centre,"SB/Ring.png",312,384 S,22,139006,139506,0.25,0.5 F,22,139006,139506,1,0
Sprite,Foreground,Centre,"SB/Ring.png",448,295 S,22,139172,139672,0.25,0.5 F,22,139172,139672,1,0
Sprite,Foreground,Centre,"SB/Ring.png",555,404 S,22,139339,139839,0.25,0.5 F,22,139339,139839,1,0
Sprite,Foreground,Centre,"SB/Ring.png",365,280 S,22,139506,140006,0.25,0.5 F,22,139506,140006,1,0
Sprite,Foreground,Centre,"SB/Ring.png",385,362 S,22,139672,140172,0.25,0.5 F,22,139672,140172,1,0
Sprite,Foreground,Centre,"SB/Ring.png",545,241 S,22,139839,140339,0.25,0.5 F,22,139839,140339,1,0
Sprite,Foreground,Centre,"SB/Ring.png",528,317 S,22,140006,140506,0.25,0.5 F,22,140006,140506,1,0
Sprite,Foreground,Centre,"SB/Ring.png",418,126 S,22,140172,140672,0.25,0.5 F,22,140172,140672,1,0
Sprite,Foreground,Centre,"SB/Ring.png",470,218 S,22,140339,140839,0.25,0.5 F,22,140339,140839,1,0
Sprite,Foreground,Centre,"SB/Ring.png",512,71 S,22,140506,141006,0.25,0.5 F,22,140506,141006,1,0
Sprite,Foreground,Centre,"SB/Ring.png",263,218 S,22,140672,141172,0.25,0.5 F,22,140672,141172,1,0
Sprite,Foreground,Centre,"SB/Ring.png",390,284 S,22,140839,141339,0.25,0.5 F,22,140839,141339,1,0
Sprite,Foreground,Centre,"SB/Ring.png",322,111 S,22,141006,141506,0.25,0.5 F,22,141006,141506,1,0
Sprite,Foreground,Centre,"SB/Ring.png",303,143 S,22,141089,141589,0.25,0.5 F,22,141089,141589,1,0
Sprite,Foreground,Centre,"SB/Ring.png",278,171 S,22,141172,141672,0.25,0.5 F,22,141172,141672,1,0
Sprite,Foreground,Centre,"SB/Ring.png",242,183 S,22,141256,141756,0.25,0.5 F,22,141256,141756,1,0
Sprite,Foreground,Centre,"SB/Ring.png",203,187 S,22,141339,141839,0.25,0.5 F,22,141339,141839,1,0
Sprite,Foreground,Centre,"SB/Ring.png",165,180 S,22,141422,141922,0.25,0.5 F,22,141422,141922,1,0
Sprite,Foreground,Centre,"SB/Ring.png",134,158 S,22,141506,142006,0.25,0.5 F,22,141506,142006,1,0
Sprite,Foreground,Centre,"SB/Ring.png",178,87 S,22,141672,142172,0.25,0.5 F,22,141672,142172,1,0
Sprite,Foreground,Centre,"SB/Ring.png",77,225 S,22,141839,142339,0.25,0.5 F,22,141839,142339,1,0
Sprite,Foreground,Centre,"SB/Ring.png",167,367 S,22,142006,142506,0.25,0.5 F,22,142006,142506,1,0
Sprite,Foreground,Centre,"SB/Ring.png",157,264 S,22,142172,142672,0.25,0.5 F,22,142172,142672,1,0
Sprite,Foreground,Centre,"SB/Ring.png",157,264 S,22,142256,142756,0.25,0.5 F,22,142256,142756,1,0
Sprite,Foreground,Centre,"SB/Ring.png",157,264 S,22,142339,142839,0.25,0.5 F,22,142339,142839,1,0
Sprite,Foreground,Centre,"SB/Ring.png",71,341 S,22,142506,143006,0.25,0.5 F,22,142506,143006,1,0
Sprite,Foreground,Centre,"SB/Ring.png",263,393 S,22,142672,143172,0.25,0.5 F,22,142672,143172,1,0
Sprite,Foreground,Centre,"SB/Ring.png",266,364 S,22,142756,143256,0.25,0.5 F,22,142756,143256,1,0
Sprite,Foreground,Centre,"SB/Ring.png",261,335 S,22,142839,143339,0.25,0.5 F,22,142839,143339,1,0
Sprite,Foreground,Centre,"SB/Ring.png",250,308 S,22,142922,143422,0.25,0.5 F,22,142922,143422,1,0
Sprite,Foreground,Centre,"SB/Ring.png",229,289 S,22,143006,143506,0.25,0.5 F,22,143006,143506,1,0
Sprite,Foreground,Centre,"SB/Ring.png",204,274 S,22,143089,143589,0.25,0.5 F,22,143089,143589,1,0
Sprite,Foreground,Centre,"SB/Ring.png",181,256 S,22,143172,143672,0.25,0.5 F,22,143172,143672,1,0
Sprite,Foreground,Centre,"SB/Ring.png",166,230 S,22,143256,143756,0.25,0.5 F,22,143256,143756,1,0
Sprite,Foreground,Centre,"SB/Ring.png",155,204 S,22,143339,143839,0.25,0.5 F,22,143339,143839,1,0
Sprite,Foreground,Centre,"SB/Ring.png",156,177 S,22,143422,143922,0.25,0.5 F,22,143422,143922,1,0
Sprite,Foreground,Centre,"SB/Ring.png",166,146 S,22,143506,144006,0.25,0.5 F,22,143506,144006,1,0
Sprite,Foreground,Centre,"SB/Ring.png",189,118 S,22,143589,144089,0.25,0.5 F,22,143589,144089,1,0
Sprite,Foreground,Centre,"SB/Ring.png",226,98 S,22,143672,144172,0.25,0.5 F,22,143672,144172,1,0
Sprite,Foreground,Centre,"SB/Ring.png",274,97 S,22,143756,144256,0.25,0.5 F,22,143756,144256,1,0
Sprite,Foreground,Centre,"SB/Ring.png",321,123 S,22,143839,144339,0.25,0.5 F,22,143839,144339,1,0
Sprite,Foreground,Centre,"SB/Ring.png",349,179 S,22,143922,144422,0.25,0.5 F,22,143922,144422,1,0
Sprite,Foreground,Centre,"SB/Ring.png",333,249 S,22,144006,144506,0.25,0.5 F,22,144006,144506,1,0
Sprite,Foreground,Centre,"SB/Ring.png",535,309 S,22,144172,144672,0.25,0.5 F,22,144172,144672,1,0
Sprite,Foreground,Centre,"SB/Ring.png",498,155 S,22,144422,144922,0.25,0.5 F,22,144422,144922,1,0
Sprite,Foreground,Centre,"SB/Ring.png",489,138 S,22,144506,145006,0.25,0.5 F,22,144506,145006,1,0
Sprite,Foreground,Centre,"SB/Ring.png",423,246 S,22,144672,145172,0.25,0.5 F,22,144672,145172,1,0
Sprite,Foreground,Centre,"SB/Ring.png",439,421 S,22,144922,145422,0.25,0.5 F,22,144922,145422,1,0
Sprite,Foreground,Centre,"SB/Ring.png",429,439 S,22,145006,145506,0.25,0.5 F,22,145006,145506,1,0
Sprite,Foreground,Centre,"SB/Ring.png",324,394 S,22,145172,145672,0.25,0.5 F,22,145172,145672,1,0
Sprite,Foreground,Centre,"SB/Ring.png",301,391 S,22,145256,145756,0.25,0.5 F,22,145256,145756,1,0
Sprite,Foreground,Centre,"SB/Ring.png",278,388 S,22,145339,145839,0.25,0.5 F,22,145339,145839,1,0
Sprite,Foreground,Centre,"SB/Ring.png",116,386 S,22,145672,146172,0.25,0.5 F,22,145672,146172,1,0
Sprite,Foreground,Centre,"SB/Ring.png",159,222 S,22,145839,146339,0.25,0.5 F,22,145839,146339,1,0
Sprite,Foreground,Centre,"SB/Ring.png",165,262 S,22,145922,146422,0.25,0.5 F,22,145922,146422,1,0
Sprite,Foreground,Centre,"SB/Ring.png",170,302 S,22,146006,146506,0.25,0.5 F,22,146006,146506,1,0
Sprite,Foreground,Centre,"SB/Ring.png",262,250 S,22,146172,146672,0.25,0.5 F,22,146172,146672,1,0
Sprite,Foreground,Centre,"SB/Ring.png",76,264 S,22,146339,146839,0.25,0.5 F,22,146339,146839,1,0
Sprite,Foreground,Centre,"SB/Ring.png",133,96 S,22,146672,147172,0.25,0.5 F,22,146672,147172,1,0
Sprite,Foreground,Centre,"SB/Ring.png",436,89 S,22,147006,147506,0.25,0.5 F,22,147006,147506,1,0
Sprite,Foreground,Centre,"SB/Ring.png",324,158 S,22,147256,147756,0.25,0.5 F,22,147256,147756,1,0
Sprite,Foreground,Centre,"SB/Ring.png",319,200 S,22,147339,147839,0.25,0.5 F,22,147339,147839,1,0
Sprite,Foreground,Centre,"SB/Ring.png",330,241 S,22,147422,147922,0.25,0.5 F,22,147422,147922,1,0
Sprite,Foreground,Centre,"SB/Ring.png",362,269 S,22,147506,148006,0.25,0.5 F,22,147506,148006,1,0
Sprite,Foreground,Centre,"SB/Ring.png",435,223 S,22,147672,148172,0.25,0.5 F,22,147672,148172,1,0
Sprite,Foreground,Centre,"SB/Ring.png",358,359 S,22,147839,148339,0.25,0.5 F,22,147839,148339,1,0
Sprite,Foreground,Centre,"SB/Ring.png",405,197 S,22,148006,148506,0.25,0.5 F,22,148006,148506,1,0
Sprite,Foreground,Centre,"SB/Ring.png",576,225 S,22,148339,148839,0.25,0.5 F,22,148339,148839,1,0
Sprite,Foreground,Centre,"SB/Ring.png",430,81 S,22,148506,149006,0.25,0.5 F,22,148506,149006,1,0
Sprite,Foreground,Centre,"SB/Ring.png",399,110 S,22,148589,149089,0.25,0.5 F,22,148589,149089,1,0
Sprite,Foreground,Centre,"SB/Ring.png",358,124 S,22,148672,149172,0.25,0.5 F,22,148672,149172,1,0
Sprite,Foreground,Centre,"SB/Ring.png",314,121 S,22,148756,149256,0.25,0.5 F,22,148756,149256,1,0
Sprite,Foreground,Centre,"SB/Ring.png",284,90 S,22,148839,149339,0.25,0.5 F,22,148839,149339,1,0
Sprite,Foreground,Centre,"SB/Ring.png",187,105 S,22,149006,149506,0.25,0.5 F,22,149006,149506,1,0
Sprite,Foreground,Centre,"SB/Ring.png",280,349 S,22,149339,149839,0.25,0.5 F,22,149339,149839,1,0
Sprite,Foreground,Centre,"SB/Ring.png",385,328 S,22,149672,150172,0.25,0.5 F,22,149672,150172,1,0
Sprite,Foreground,Centre,"SB/Ring.png",174,367 S,22,149839,150339,0.25,0.5 F,22,149839,150339,1,0
Sprite,Foreground,Centre,"SB/Ring.png",179,332 S,22,149922,150422,0.25,0.5 F,22,149922,150422,1,0
Sprite,Foreground,Centre,"SB/Ring.png",176,297 S,22,150006,150506,0.25,0.5 F,22,150006,150506,1,0
Sprite,Foreground,Centre,"SB/Ring.png",170,263 S,22,150089,150589,0.25,0.5 F,22,150089,150589,1,0
Sprite,Foreground,Centre,"SB/Ring.png",156,231 S,22,150172,150672,0.25,0.5 F,22,150172,150672,1,0
Sprite,Foreground,Centre,"SB/Ring.png",83,272 S,22,150339,150839,0.25,0.5 F,22,150339,150839,1,0
Sprite,Foreground,Centre,"SB/Ring.png",249,236 S,22,150506,151006,0.25,0.5 F,22,150506,151006,1,0
Sprite,Foreground,Centre,"SB/Ring.png",221,70 S,22,150672,151172,0.25,0.5 F,22,150672,151172,1,0
Sprite,Foreground,Centre,"SB/Ring.png",205,163 S,22,150922,151422,0.25,0.5 F,22,150922,151422,1,0
Sprite,Foreground,Centre,"SB/Ring.png",205,163 S,22,151006,151506,0.25,0.5 F,22,151006,151506,1,0
Sprite,Foreground,Centre,"SB/Ring.png",136,104 S,22,151172,151672,0.25,0.5 F,22,151172,151672,1,0
Sprite,Foreground,Centre,"SB/Ring.png",305,159 S,22,151339,151839,0.25,0.5 F,22,151339,151839,1,0
Sprite,Foreground,Centre,"SB/Ring.png",286,296 S,22,151672,152172,0.25,0.5 F,22,151672,152172,1,0
Sprite,Foreground,Centre,"SB/Ring.png",374,241 S,22,152006,152506,0.25,0.5 F,22,152006,152506,1,0
Sprite,Foreground,Centre,"SB/Ring.png",385,369 S,22,152256,152756,0.25,0.5 F,22,152256,152756,1,0
Sprite,Foreground,Centre,"SB/Ring.png",385,369 S,22,152339,152839,0.25,0.5 F,22,152339,152839,1,0
Sprite,Foreground,Centre,"SB/Ring.png",292,157 S,22,152672,153172,0.25,0.5 F,22,152672,153172,1,0
Sprite,Foreground,Centre,"SB/Ring.png",284,184 S,22,152756,153256,0.25,0.5 F,22,152756,153256,1,0
Sprite,Foreground,Centre,"SB/Ring.png",277,212 S,22,152839,153339,0.25,0.5 F,22,152839,153339,1,0
Sprite,Foreground,Centre,"SB/Ring.png",277,240 S,22,152922,153422,0.25,0.5 F,22,152922,153422,1,0
Sprite,Foreground,Centre,"SB/Ring.png",282,268 S,22,153006,153506,0.25,0.5 F,22,153006,153506,1,0
Sprite,Foreground,Centre,"SB/Ring.png",286,296 S,22,153089,153589,0.25,0.5 F,22,153089,153589,1,0
Sprite,Foreground,Centre,"SB/Ring.png",285,324 S,22,153172,153672,0.25,0.5 F,22,153172,153672,1,0
Sprite,Foreground,Centre,"SB/Ring.png",280,351 S,22,153256,153756,0.25,0.5 F,22,153256,153756,1,0
Sprite,Foreground,Centre,"SB/Ring.png",294,389 S,22,153339,153839,0.25,0.5 F,22,153339,153839,1,0
Sprite,Foreground,Centre,"SB/Ring.png",174,144 S,22,153672,154172,0.25,0.5 F,22,153672,154172,1,0
Sprite,Foreground,Centre,"SB/Ring.png",106,233 S,22,153839,154339,0.25,0.5 F,22,153839,154339,1,0
Sprite,Foreground,Centre,"SB/Ring.png",106,233 S,22,153922,154422,0.25,0.5 F,22,153922,154422,1,0
Sprite,Foreground,Centre,"SB/Ring.png",106,233 S,22,154006,154506,0.25,0.5 F,22,154006,154506,1,0
Sprite,Foreground,Centre,"SB/Ring.png",299,118 S,22,154339,154839,0.25,0.5 F,22,154339,154839,1,0
Sprite,Foreground,Centre,"SB/Ring.png",388,257 S,22,154506,155006,0.25,0.5 F,22,154506,155006,1,0
Sprite,Foreground,Centre,"SB/Ring.png",473,143 S,22,154672,155172,0.25,0.5 F,22,154672,155172,1,0
Sprite,Foreground,Centre,"SB/Ring.png",308,164 S,22,154922,155422,0.25,0.5 F,22,154922,155422,1,0
Sprite,Foreground,Centre,"SB/Ring.png",151,278 S,22,155172,155672,0.25,0.5 F,22,155172,155672,1,0
Sprite,Foreground,Centre,"SB/Ring.png",251,254 S,22,155422,155922,0.25,0.5 F,22,155422,155922,1,0
Sprite,Foreground,Centre,"SB/Ring.png",237,384 S,22,155672,156172,0.25,0.5 F,22,155672,156172,1,0
Sprite,Foreground,Centre,"SB/Ring.png",273,414 S,22,155756,156256,0.25,0.5 F,22,155756,156256,1,0
Sprite,Foreground,Centre,"SB/Ring.png",320,420 S,22,155839,156339,0.25,0.5 F,22,155839,156339,1,0
Sprite,Foreground,Centre,"SB/Ring.png",363,403 S,22,155922,156422,0.25,0.5 F,22,155922,156422,1,0
Sprite,Foreground,Centre,"SB/Ring.png",388,362 S,22,156006,156506,0.25,0.5 F,22,156006,156506,1,0
Sprite,Foreground,Centre,"SB/Ring.png",337,282 S,22,156172,156672,0.25,0.5 F,22,156172,156672,1,0
Sprite,Foreground,Centre,"SB/Ring.png",394,202 S,22,156339,156839,0.25,0.5 F,22,156339,156839,1,0
Sprite,Foreground,Centre,"SB/Ring.png",394,202 S,22,156422,156922,0.25,0.5 F,22,156422,156922,1,0
Sprite,Foreground,Centre,"SB/Ring.png",527,92 S,22,156589,157089,0.25,0.5 F,22,156589,157089,1,0
Sprite,Foreground,Centre,"SB/Ring.png",568,177 S,22,156756,157256,0.25,0.5 F,22,156756,157256,1,0
Sprite,Foreground,Centre,"SB/Ring.png",496,235 S,22,156922,157422,0.25,0.5 F,22,156922,157422,1,0
Sprite,Foreground,Centre,"SB/Ring.png",496,235 S,22,157006,157506,0.25,0.5 F,22,157006,157506,1,0
Sprite,Foreground,Centre,"SB/Ring.png",567,291 S,22,157172,157672,0.25,0.5 F,22,157172,157672,1,0
Sprite,Foreground,Centre,"SB/Ring.png",493,369 S,22,157339,157839,0.25,0.5 F,22,157339,157839,1,0
Sprite,Foreground,Centre,"SB/Ring.png",304,396 S,22,157672,158172,0.25,0.5 F,22,157672,158172,1,0
Sprite,Foreground,Centre,"SB/Ring.png",158,256 S,22,157839,158339,0.25,0.5 F,22,157839,158339,1,0
Sprite,Foreground,Centre,"SB/Ring.png",158,256 S,22,157922,158422,0.25,0.5 F,22,157922,158422,1,0
Sprite,Foreground,Centre,"SB/Ring.png",158,256 S,22,158006,158506,0.25,0.5 F,22,158006,158506,1,0
Sprite,Foreground,Centre,"SB/Ring.png",281,277 S,22,158256,158756,0.25,0.5 F,22,158256,158756,1,0
Sprite,Foreground,Centre,"SB/Ring.png",313,149 S,22,158506,159006,0.25,0.5 F,22,158506,159006,1,0
Sprite,Foreground,Centre,"SB/Ring.png",468,194 S,22,158672,159172,0.25,0.5 F,22,158672,159172,1,0
Sprite,Foreground,Centre,"SB/Ring.png",546,259 S,22,159006,159506,0.25,0.5 F,22,159006,159506,1,0
Sprite,Foreground,Centre,"SB/Ring.png",401,121 S,22,159339,159839,0.25,0.5 F,22,159339,159839,1,0
Sprite,Foreground,Centre,"SB/Ring.png",451,285 S,22,159506,160006,0.25,0.5 F,22,159506,160006,1,0
Sprite,Foreground,Centre,"SB/Ring.png",292,252 S,22,159672,160172,0.25,0.5 F,22,159672,160172,1,0
Sprite,Foreground,Centre,"SB/Ring.png",254,231 S,22,159756,160256,0.25,0.5 F,22,159756,160256,1,0
Sprite,Foreground,Centre,"SB/Ring.png",211,232 S,22,159839,160339,0.25,0.5 F,22,159839,160339,1,0
Sprite,Foreground,Centre,"SB/Ring.png",174,253 S,22,159922,160422,0.25,0.5 F,22,159922,160422,1,0
Sprite,Foreground,Centre,"SB/Ring.png",162,294 S,22,160006,160506,0.25,0.5 F,22,160006,160506,1,0
Sprite,Foreground,Centre,"SB/Ring.png",509,338 S,22,160339,160839,0.25,0.5 F,22,160339,160839,1,0
Sprite,Foreground,Centre,"SB/Ring.png",366,307 S,22,160672,161172,0.25,0.5 F,22,160672,161172,1,0
Sprite,Foreground,Centre,"SB/Ring.png",376,175 S,22,160922,161422,0.25,0.5 F,22,160922,161422,1,0
Sprite,Foreground,Centre,"SB/Ring.png",504,172 S,22,161172,161672,0.25,0.5 F,22,161172,161672,1,0
Sprite,Foreground,Centre,"SB/Ring.png",388,76 S,22,161339,161839,0.25,0.5 F,22,161339,161839,1,0
Sprite,Foreground,Centre,"SB/Ring.png",300,220 S,22,161506,162006,0.25,0.5 F,22,161506,162006,1,0
Sprite,Foreground,Centre,"SB/Ring.png",162,112 S,22,161839,162339,0.25,0.5 F,22,161839,162339,1,0
Sprite,Foreground,Centre,"SB/Ring.png",162,112 S,22,161922,162422,0.25,0.5 F,22,161922,162422,1,0
Sprite,Foreground,Centre,"SB/Ring.png",162,112 S,22,162006,162506,0.25,0.5 F,22,162006,162506,1,0
Sprite,Foreground,Centre,"SB/Ring.png",84,216 S,22,162172,162672,0.25,0.5 F,22,162172,162672,1,0
Sprite,Foreground,Centre,"SB/Ring.png",286,127 S,22,162339,162839,0.25,0.5 F,22,162339,162839,1,0
Sprite,Foreground,Centre,"SB/Ring.png",156,84 S,22,162506,163006,0.25,0.5 F,22,162506,163006,1,0
Sprite,Foreground,Centre,"SB/Ring.png",184,213 S,22,162672,163172,0.25,0.5 F,22,162672,163172,1,0
Sprite,Foreground,Centre,"SB/Ring.png",377,390 S,22,163006,163506,0.25,0.5 F,22,163006,163506,1,0
Sprite,Foreground,Centre,"SB/Ring.png",422,223 S,22,163339,163839,0.25,0.5 F,22,163339,163839,1,0
Sprite,Foreground,Centre,"SB/Ring.png",289,224 S,22,163589,164089,0.25,0.5 F,22,163589,164089,1,0
Sprite,Foreground,Centre,"SB/Ring.png",287,358 S,22,163839,164339,0.25,0.5 F,22,163839,164339,1,0
Sprite,Foreground,Centre,"SB/Ring.png",353,135 S,22,164006,164506,0.25,0.5 F,22,164006,164506,1,0
Sprite,Foreground,Centre,"SB/Ring.png",178,306 S,22,164339,164839,0.25,0.5 F,22,164339,164839,1,0
Sprite,Foreground,Centre,"SB/Ring.png",92,180 S,22,164506,165006,0.25,0.5 F,22,164506,165006,1,0
Sprite,Foreground,Centre,"SB/Ring.png",92,180 S,22,164589,165089,0.25,0.5 F,22,164589,165089,1,0
Sprite,Foreground,Centre,"SB/Ring.png",92,180 S,22,164672,165172,0.25,0.5 F,22,164672,165172,1,0
Sprite,Foreground,Centre,"SB/Ring.png",413,315 S,22,165006,165506,0.25,0.5 F,22,165006,165506,1,0
Sprite,Foreground,Centre,"SB/Ring.png",154,404 S,22,165339,165839,0.25,0.5 F,22,165339,165839,1,0
Sprite,Foreground,Centre,"SB/Ring.png",253,263 S,22,165506,166006,0.25,0.5 F,22,165506,166006,1,0
Sprite,Foreground,Centre,"SB/Ring.png",159,110 S,22,165672,166172,0.25,0.5 F,22,165672,166172,1,0
Sprite,Foreground,Centre,"SB/Ring.png",253,263 S,22,165839,166339,0.25,0.5 F,22,165839,166339,1,0
Sprite,Foreground,Centre,"SB/Ring.png",283,134 S,22,166006,166506,0.25,0.5 F,22,166006,166506,1,0
Sprite,Foreground,Centre,"SB/Ring.png",150,298 S,22,166172,166672,0.25,0.5 F,22,166172,166672,1,0
Sprite,Foreground,Centre,"SB/Ring.png",338,327 S,22,166339,166839,0.25,0.5 F,22,166339,166839,1,0
Sprite,Foreground,Centre,"SB/Ring.png",154,185 S,22,166506,167006,0.25,0.5 F,22,166506,167006,1,0
Sprite,Foreground,Centre,"SB/Ring.png",256,359 S,22,166839,167339,0.25,0.5 F,22,166839,167339,1,0
Sprite,Foreground,Centre,"SB/Ring.png",256,359 S,22,166922,167422,0.25,0.5 F,22,166922,167422,1,0
Sprite,Foreground,Centre,"SB/Ring.png",338,327 S,22,167089,167589,0.25,0.5 F,22,167089,167589,1,0
Sprite,Foreground,Centre,"SB/Ring.png",338,327 S,22,167172,167672,0.25,0.5 F,22,167172,167672,1,0
Sprite,Foreground,Centre,"SB/Ring.png",356,244 S,22,167339,167839,0.25,0.5 F,22,167339,167839,1,0
Sprite,Foreground,Centre,"SB/Ring.png",382,104 S,22,167506,168006,0.25,0.5 F,22,167506,168006,1,0
Sprite,Foreground,Centre,"SB/Ring.png",543,149 S,22,167672,168172,0.25,0.5 F,22,167672,168172,1,0
Sprite,Foreground,Centre,"SB/Ring.png",545,160 S,22,167756,168256,0.25,0.5 F,22,167756,168256,1,0
Sprite,Foreground,Centre,"SB/Ring.png",548,172 S,22,167839,168339,0.25,0.5 F,22,167839,168339,1,0
Sprite,Foreground,Centre,"SB/Ring.png",550,184 S,22,167922,168422,0.25,0.5 F,22,167922,168422,1,0
Sprite,Foreground,Centre,"SB/Ring.png",553,197 S,22,168006,168506,0.25,0.5 F,22,168006,168506,1,0
Sprite,Foreground,Centre,"SB/Ring.png",370,176 S,22,168339,168839,0.25,0.5 F,22,168339,168839,1,0
Sprite,Foreground,Centre,"SB/Ring.png",174,103 S,22,168506,169006,0.25,0.5 F,22,168506,169006,1,0
Sprite,Foreground,Centre,"SB/Ring.png",174,103 S,22,168589,169089,0.25,0.5 F,22,168589,169089,1,0
Sprite,Foreground,Centre,"SB/Ring.png",174,103 S,22,168672,169172,0.25,0.5 F,22,168672,169172,1,0
Sprite,Foreground,Centre,"SB/Ring.png",232,191 S,22,168922,169422,0.25,0.5 F,22,168922,169422,1,0
Sprite,Foreground,Centre,"SB/Ring.png",208,365 S,22,169172,169672,0.25,0.5 F,22,169172,169672,1,0
Sprite,Foreground,Centre,"SB/Ring.png",208,365 S,22,169256,169756,0.25,0.5 F,22,169256,169756,1,0
Sprite,Foreground,Centre,"SB/Ring.png",208,365 S,22,169339,169839,0.25,0.5 F,22,169339,169839,1,0
Sprite,Foreground,Centre,"SB/Ring.png",232,191 S,22,169672,170172,0.25,0.5 F,22,169672,170172,1,0
Sprite,Foreground,Centre,"SB/Ring.png",307,315 S,22,169839,170339,0.25,0.5 F,22,169839,170339,1,0
Sprite,Foreground,Centre,"SB/Ring.png",459,226 S,22,170006,170506,0.25,0.5 F,22,170006,170506,1,0
Sprite,Foreground,Centre,"SB/Ring.png",319,289 S,22,170172,170672,0.25,0.5 F,22,170172,170672,1,0
Sprite,Foreground,Centre,"SB/Ring.png",531,367 S,22,170339,170839,0.25,0.5 F,22,170339,170839,1,0
Sprite,Foreground,Centre,"SB/Ring.png",361,135 S,22,170506,171006,0.25,0.5 F,22,170506,171006,1,0
Sprite,Foreground,Centre,"SB/Ring.png",361,135 S,22,170589,171089,0.25,0.5 F,22,170589,171089,1,0
Sprite,Foreground,Centre,"SB/Ring.png",361,135 S,22,170672,171172,0.25,0.5 F,22,170672,171172,1,0
Sprite,Foreground,Centre,"SB/Ring.png",208,365 S,22,171006,171506,0.25,0.5 F,22,171006,171506,1,0
Sprite,Foreground,Centre,"SB/Ring.png",171,174 S,22,171339,171839,0.25,0.5 F,22,171339,171839,1,0
Sprite,Foreground,Centre,"SB/Ring.png",299,218 S,22,171589,172089,0.25,0.5 F,22,171589,172089,1,0
Sprite,Foreground,Centre,"SB/Ring.png",299,218 S,22,171672,172172,0.25,0.5 F,22,171672,172172,1,0
Sprite,Foreground,Centre,"SB/Ring.png",326,85 S,22,171839,172339,0.25,0.5 F,22,171839,172339,1,0
Sprite,Foreground,Centre,"SB/Ring.png",520,201 S,22,172006,172506,0.25,0.5 F,22,172006,172506,1,0
Sprite,Foreground,Centre,"SB/Ring.png",402,234 S,22,172256,172756,0.25,0.5 F,22,172256,172756,1,0
Sprite,Foreground,Centre,"SB/Ring.png",392,266 S,22,172339,172839,0.25,0.5 F,22,172339,172839,1,0
Sprite,Foreground,Centre,"SB/Ring.png",546,404 S,22,172506,173006,0.25,0.5 F,22,172506,173006,1,0
Sprite,Foreground,Centre,"SB/Ring.png",462,348 S,22,172672,173172,0.25,0.5 F,22,172672,173172,1,0
Sprite,Foreground,Centre,"SB/Ring.png",114,327 S,22,173006,173506,0.25,0.5 F,22,173006,173506,1,0
Sprite,Foreground,Centre,"SB/Ring.png",158,309 S,22,173089,173589,0.25,0.5 F,22,173089,173589,1,0
Sprite,Foreground,Centre,"SB/Ring.png",204,317 S,22,173172,173672,0.25,0.5 F,22,173172,173672,1,0
Sprite,Foreground,Centre,"SB/Ring.png",238,350 S,22,173256,173756,0.25,0.5 F,22,173256,173756,1,0
Sprite,Foreground,Centre,"SB/Ring.png",249,396 S,22,173339,173839,0.25,0.5 F,22,173339,173839,1,0
Sprite,Foreground,Centre,"SB/Ring.png",412,115 S,22,173672,174172,0.25,0.5 F,22,173672,174172,1,0
Sprite,Foreground,Centre,"SB/Ring.png",552,375 S,22,174006,174506,0.25,0.5 F,22,174006,174506,1,0
Sprite,Foreground,Centre,"SB/Ring.png",443,322 S,22,174256,174756,0.25,0.5 F,22,174256,174756,1,0
Sprite,Foreground,Centre,"SB/Ring.png",321,364 S,22,174506,175006,0.25,0.5 F,22,174506,175006,1,0
Sprite,Foreground,Centre,"SB/Ring.png",402,189 S,22,175006,175506,0.25,0.5 F,22,175006,175506,1,0
Sprite,Foreground,Centre,"SB/Ring.png",235,136 S,22,175172,175672,0.25,0.5 F,22,175172,175672,1,0
Sprite,Foreground,Centre,"SB/Ring.png",92,361 S,22,175339,175839,0.25,0.5 F,22,175339,175839,1,0
Sprite,Foreground,Centre,"SB/Ring.png",266,306 S,22,175506,176006,0.25,0.5 F,22,175506,176006,1,0
Sprite,Foreground,Centre,"SB/Ring.png",266,306 S,22,175589,176089,0.25,0.5 F,22,175589,176089,1,0
Sprite,Foreground,Centre,"SB/Ring.png",266,306 S,22,175672,176172,0.25,0.5 F,22,175672,176172,1,0
Sprite,Foreground,Centre,"SB/Ring.png",157,189 S,22,175839,176339,0.25,0.5 F,22,175839,176339,1,0
Sprite,Foreground,Centre,"SB/Ring.png",284,386 S,22,176006,176506,0.25,0.5 F,22,176006,176506,1,0
Sprite,Foreground,Centre,"SB/Ring.png",274,126 S,22,176339,176839,0.25,0.5 F,22,176339,176839,1,0
Sprite,Foreground,Centre,"SB/Ring.png",453,139 S,22,176672,177172,0.25,0.5 F,22,176672,177172,1,0
Sprite,Foreground,Centre,"SB/Ring.png",336,244 S,22,176839,177339,0.25,0.5 F,22,176839,177339,1,0
Sprite,Foreground,Centre,"SB/Ring.png",482,291 S,22,177006,177506,0.25,0.5 F,22,177006,177506,1,0
Sprite,Foreground,Centre,"SB/Ring.png",315,216 S,22,177172,177672,0.25,0.5 F,22,177172,177672,1,0
Sprite,Foreground,Centre,"SB/Ring.png",278,415 S,22,177506,178006,0.25,0.5 F,22,177506,178006,1,0
Sprite,Foreground,Centre,"SB/Ring.png",278,415 S,22,177589,178089,0.25,0.5 F,22,177589,178089,1,0
Sprite,Foreground,Centre,"SB/Ring.png",143,407 S,22,177756,178256,0.25,0.5 F,22,177756,178256,1,0
Sprite,Foreground,Centre,"SB/Ring.png",174,276 S,22,178006,178506,0.25,0.5 F,22,178006,178506,1,0
Sprite,Foreground,Centre,"SB/Ring.png",155,173 S,22,178172,178672,0.25,0.5 F,22,178172,178672,1,0
Sprite,Foreground,Centre,"SB/Ring.png",138,69 S,22,178339,178839,0.25,0.5 F,22,178339,178839,1,0
Sprite,Foreground,Centre,"SB/Ring.png",503,107 S,22,178672,179172,0.25,0.5 F,22,178672,179172,1,0
Sprite,Foreground,Centre,"SB/Ring.png",505,268 S,22,179006,179506,0.25,0.5 F,22,179006,179506,1,0
Sprite,Foreground,Centre,"SB/Ring.png",422,241 S,22,179172,179672,0.25,0.5 F,22,179172,179672,1,0
Sprite,Foreground,Centre,"SB/Ring.png",440,329 S,22,179672,180172,0.25,0.5 F,22,179672,180172,1,0
Sprite,Foreground,Centre,"SB/Ring.png",505,268 S,22,180006,180506,0.25,0.5 F,22,180006,180506,1,0
Sprite,Foreground,Centre,"SB/Ring.png",515,181 S,22,180172,180672,0.25,0.5 F,22,180172,180672,1,0
Sprite,Foreground,Centre,"SB/Ring.png",526,96 S,22,180339,180839,0.25,0.5 F,22,180339,180839,1,0
Sprite,Foreground,Centre,"SB/Ring.png",374,178 S,22,180506,181006,0.25,0.5 F,22,180506,181006,1,0
Sprite,Foreground,Centre,"SB/Ring.png",148,91 S,22,181006,181506,0.25,0.5 F,22,181006,181506,1,0
Sprite,Foreground,Centre,"SB/Ring.png",206,213 S,22,181339,181839,0.25,0.5 F,22,181339,181839,1,0
Sprite,Foreground,Centre,"SB/Ring.png",122,245 S,22,181506,182006,0.25,0.5 F,22,181506,182006,1,0
Sprite,Foreground,Centre,"SB/Ring.png",64,183 S,22,181672,182172,0.25,0.5 F,22,181672,182172,1,0
Sprite,Foreground,Centre,"SB/Ring.png",120,257 S,22,181839,182339,0.25,0.5 F,22,181839,182339,1,0
Sprite,Foreground,Centre,"SB/Ring.png",217,329 S,22,182339,182839,0.25,0.5 F,22,182339,182839,1,0
Sprite,Foreground,Centre,"SB/Ring.png",458,334 S,22,182672,183172,0.25,0.5 F,22,182672,183172,1,0
Sprite,Foreground,Centre,"SB/Ring.png",371,361 S,22,183006,183506,0.25,0.5 F,22,183006,183506,1,0
Sprite,Foreground,Centre,"SB/Ring.png",543,376 S,22,183172,183672,0.25,0.5 F,22,183172,183672,1,0
Sprite,Foreground,Centre,"SB/Ring.png",414,131 S,22,183672,184172,0.25,0.5 F,22,183672,184172,1,0
Sprite,Foreground,Centre,"SB/Ring.png",502,162 S,22,184006,184506,0.25,0.5 F,22,184006,184506,1,0
Sprite,Foreground,Centre,"SB/Ring.png",327,112 S,22,184172,184672,0.25,0.5 F,22,184172,184672,1,0
Sprite,Foreground,Centre,"SB/Ring.png",489,71 S,22,184339,184839,0.25,0.5 F,22,184339,184839,1,0
Sprite,Foreground,Centre,"SB/Ring.png",426,240 S,22,184506,185006,0.25,0.5 F,22,184506,185006,1,0
Sprite,Foreground,Centre,"SB/Ring.png",225,246 S,22,185006,185506,0.25,0.5 F,22,185006,185506,1,0
Sprite,Foreground,Centre,"SB/Ring.png",110,131 S,22,185339,185839,0.25,0.5 F,22,185339,185839,1,0
Sprite,Foreground,Centre,"SB/Ring.png",140,216 S,22,185506,186006,0.25,0.5 F,22,185506,186006,1,0
Sprite,Foreground,Centre,"SB/Ring.png",122,303 S,22,185672,186172,0.25,0.5 F,22,185672,186172,1,0
Sprite,Foreground,Centre,"SB/Ring.png",170,376 S,22,185839,186339,0.25,0.5 F,22,185839,186339,1,0
Sprite,Foreground,Centre,"SB/Ring.png",429,278 S,22,186339,186839,0.25,0.5 F,22,186339,186839,1,0
Sprite,Foreground,Centre,"SB/Ring.png",228,140 S,22,186672,187172,0.25,0.5 F,22,186672,187172,1,0
Sprite,Foreground,Centre,"SB/Ring.png",319,78 S,22,187006,187506,0.25,0.5 F,22,187006,187506,1,0
Sprite,Foreground,Centre,"SB/Ring.png",407,142 S,22,187172,187672,0.25,0.5 F,22,187172,187672,1,0
Sprite,Foreground,Centre,"SB/Ring.png",384,391 S,22,187672,188172,0.25,0.5 F,22,187672,188172,1,0
Sprite,Foreground,Centre,"SB/Ring.png",290,370 S,22,187922,188422,0.25,0.5 F,22,187922,188422,1,0
Sprite,Foreground,Centre,"SB/Ring.png",269,366 S,22,188006,188506,0.25,0.5 F,22,188006,188506,1,0
Sprite,Foreground,Centre,"SB/Ring.png",210,259 S,22,188172,188672,0.25,0.5 F,22,188172,188672,1,0
Sprite,Foreground,Centre,"SB/Ring.png",127,416 S,22,188339,188839,0.25,0.5 F,22,188339,188839,1,0
Sprite,Foreground,Centre,"SB/Ring.png",97,396 S,22,188422,188922,0.25,0.5 F,22,188422,188922,1,0
Sprite,Foreground,Centre,"SB/Ring.png",84,362 S,22,188506,189006,0.25,0.5 F,22,188506,189006,1,0
Sprite,Foreground,Centre,"SB/Ring.png",84,326 S,22,188589,189089,0.25,0.5 F,22,188589,189089,1,0
Sprite,Foreground,Centre,"SB/Ring.png",97,285 S,22,188672,189172,0.25,0.5 F,22,188672,189172,1,0
Sprite,Foreground,Centre,"SB/Ring.png",128,255 S,22,188756,189256,0.25,0.5 F,22,188756,189256,1,0
Sprite,Foreground,Centre,"SB/Ring.png",147,217 S,22,188839,189339,0.25,0.5 F,22,188839,189339,1,0
Sprite,Foreground,Centre,"SB/Ring.png",147,174 S,22,188922,189422,0.25,0.5 F,22,188922,189422,1,0
Sprite,Foreground,Centre,"SB/Ring.png",126,133 S,22,189006,189506,0.25,0.5 F,22,189006,189506,1,0
Sprite,Foreground,Centre,"SB/Ring.png",214,79 S,22,189172,189672,0.25,0.5 F,22,189172,189672,1,0
Sprite,Foreground,Centre,"SB/Ring.png",227,174 S,22,189339,189839,0.25,0.5 F,22,189339,189839,1,0
Sprite,Foreground,Centre,"SB/Ring.png",269,366 S,22,189672,190172,0.25,0.5 F,22,189672,190172,1,0
Sprite,Foreground,Centre,"SB/Ring.png",433,285 S,22,189839,190339,0.25,0.5 F,22,189839,190339,1,0
Sprite,Foreground,Centre,"SB/Ring.png",433,285 S,22,189922,190422,0.25,0.5 F,22,189922,190422,1,0
Sprite,Foreground,Centre,"SB/Ring.png",433,285 S,22,190006,190506,0.25,0.5 F,22,190006,190506,1,0
Sprite,Foreground,Centre,"SB/Ring.png",184,380 S,22,190339,190839,0.25,0.5 F,22,190339,190839,1,0
Sprite,Foreground,Centre,"SB/Ring.png",448,255 S,22,190672,191172,0.25,0.5 F,22,190672,191172,1,0
Sprite,Foreground,Centre,"SB/Ring.png",516,156 S,22,191006,191506,0.25,0.5 F,22,191006,191506,1,0
Sprite,Foreground,Centre,"SB/Ring.png",367,231 S,22,191172,191672,0.25,0.5 F,22,191172,191672,1,0
Sprite,Foreground,Centre,"SB/Ring.png",331,223 S,22,191256,191756,0.25,0.5 F,22,191256,191756,1,0
Sprite,Foreground,Centre,"SB/Ring.png",300,214 S,22,191339,191839,0.25,0.5 F,22,191339,191839,1,0
Sprite,Foreground,Centre,"SB/Ring.png",307,314 S,22,191506,192006,0.25,0.5 F,22,191506,192006,1,0
Sprite,Foreground,Centre,"SB/Ring.png",360,136 S,22,191672,192172,0.25,0.5 F,22,191672,192172,1,0
Sprite,Foreground,Centre,"SB/Ring.png",226,272 S,22,192006,192506,0.25,0.5 F,22,192006,192506,1,0
Sprite,Foreground,Centre,"SB/Ring.png",275,111 S,22,192339,192839,0.25,0.5 F,22,192339,192839,1,0
Sprite,Foreground,Centre,"SB/Ring.png",100,88 S,22,192506,193006,0.25,0.5 F,22,192506,193006,1,0
Sprite,Foreground,Centre,"SB/Ring.png",100,88 S,22,192589,193089,0.25,0.5 F,22,192589,193089,1,0
Sprite,Foreground,Centre,"SB/Ring.png",100,88 S,22,192672,193172,0.25,0.5 F,22,192672,193172,1,0
Sprite,Foreground,Centre,"SB/Ring.png",226,272 S,22,193006,193506,0.25,0.5 F,22,193006,193506,1,0
Sprite,Foreground,Centre,"SB/Ring.png",68,351 S,22,193339,193839,0.25,0.5 F,22,193339,193839,1,0
Sprite,Foreground,Centre,"SB/Ring.png",147,401 S,22,193506,194006,0.25,0.5 F,22,193506,194006,1,0
Sprite,Foreground,Centre,"SB/Ring.png",232,362 S,22,193672,194172,0.25,0.5 F,22,193672,194172,1,0
Sprite,Foreground,Centre,"SB/Ring.png",312,411 S,22,193839,194339,0.25,0.5 F,22,193839,194339,1,0
Sprite,Foreground,Centre,"SB/Ring.png",327,406 S,22,193922,194422,0.25,0.5 F,22,193922,194422,1,0
Sprite,Foreground,Centre,"SB/Ring.png",339,401 S,22,194006,194506,0.25,0.5 F,22,194006,194506,1,0
Sprite,Foreground,Centre,"SB/Ring.png",288,202 S,22,194172,194672,0.25,0.5 F,22,194172,194672,1,0
Sprite,Foreground,Centre,"SB/Ring.png",310,305 S,22,194339,194839,0.25,0.5 F,22,194339,194839,1,0
Sprite,Foreground,Centre,"SB/Ring.png",375,130 S,22,194506,195006,0.25,0.5 F,22,194506,195006,1,0
Sprite,Foreground,Centre,"SB/Ring.png",204,165 S,22,194672,195172,0.25,0.5 F,22,194672,195172,1,0
Sprite,Foreground,Centre,"SB/Ring.png",232,362 S,22,195006,195506,0.25,0.5 F,22,195006,195506,1,0
Sprite,Foreground,Centre,"SB/Ring.png",343,292 S,22,195172,195672,0.25,0.5 F,22,195172,195672,1,0
Sprite,Foreground,Centre,"SB/Ring.png",343,292 S,22,195256,195756,0.25,0.5 F,22,195256,195756,1,0
Sprite,Foreground,Centre,"SB/Ring.png",343,292 S,22,195339,195839,0.25,0.5 F,22,195339,195839,1,0
Sprite,Foreground,Centre,"SB/Ring.png",538,166 S,22,195672,196172,0.25,0.5 F,22,195672,196172,1,0
Sprite,Foreground,Centre,"SB/Ring.png",434,223 S,22,195839,196339,0.25,0.5 F,22,195839,196339,1,0
Sprite,Foreground,Centre,"SB/Ring.png",537,280 S,22,196006,196506,0.25,0.5 F,22,196006,196506,1,0
Sprite,Foreground,Centre,"SB/Ring.png",421,117 S,22,196172,196672,0.25,0.5 F,22,196172,196672,1,0
Sprite,Foreground,Centre,"SB/Ring.png",421,117 S,22,196256,196756,0.25,0.5 F,22,196256,196756,1,0
Sprite,Foreground,Centre,"SB/Ring.png",420,117 S,22,196339,196839,0.25,0.5 F,22,196339,196839,1,0
Sprite,Foreground,Centre,"SB/Ring.png",256,342 S,22,196672,197172,0.25,0.5 F,22,196672,197172,1,0
Sprite,Foreground,Centre,"SB/Ring.png",142,76 S,22,197006,197506,0.25,0.5 F,22,197006,197506,1,0
Sprite,Foreground,Centre,"SB/Ring.png",123,186 S,22,197256,197756,0.25,0.5 F,22,197256,197756,1,0
Sprite,Foreground,Centre,"SB/Ring.png",119,211 S,22,197339,197839,0.25,0.5 F,22,197339,197839,1,0
Sprite,Foreground,Centre,"SB/Ring.png",217,166 S,22,197506,198006,0.25,0.5 F,22,197506,198006,1,0
Sprite,Foreground,Centre,"SB/Ring.png",450,130 S,22,197839,198339,0.25,0.5 F,22,197839,198339,1,0
Sprite,Foreground,Centre,"SB/Ring.png",453,345 S,22,198172,198672,0.25,0.5 F,22,198172,198672,1,0
Sprite,Foreground,Centre,"SB/Ring.png",351,301 S,22,198339,198839,0.25,0.5 F,22,198339,198839,1,0
Sprite,Foreground,Centre,"SB/Ring.png",97,236 S,22,198672,199172,0.25,0.5 F,22,198672,199172,1,0
Sprite,Foreground,Centre,"SB/Ring.png",162,385 S,22,198839,199339,0.25,0.5 F,22,198839,199339,1,0
Sprite,Foreground,Centre,"SB/Ring.png",190,215 S,22,199006,199506,0.25,0.5 F,22,199006,199506,1,0
Sprite,Foreground,Centre,"SB/Ring.png",67,408 S,22,199172,199672,0.25,0.5 F,22,199172,199672,1,0
Sprite,Foreground,Centre,"SB/Ring.png",152,291 S,22,199339,199839,0.25,0.5 F,22,199339,199839,1,0
Sprite,Foreground,Centre,"SB/Ring.png",64,160 S,22,199506,200006,0.25,0.5 F,22,199506,200006,1,0
Sprite,Foreground,Centre,"SB/Ring.png",70,321 S,22,199672,200172,0.25,0.5 F,22,199672,200172,1,0
Sprite,Foreground,Centre,"SB/Ring.png",230,282 S,22,199839,200339,0.25,0.5 F,22,199839,200339,1,0
Sprite,Foreground,Centre,"SB/Ring.png",402,237 S,22,200006,200506,0.25,0.5 F,22,200006,200506,1,0
Sprite,Foreground,Centre,"SB/Ring.png",301,161 S,22,200339,200839,0.25,0.5 F,22,200339,200839,1,0
Sprite,Foreground,Centre,"SB/Ring.png",547,175 S,22,200672,201172,0.25,0.5 F,22,200672,201172,1,0
Sprite,Foreground,Centre,"SB/Ring.png",431,139 S,22,200922,201422,0.25,0.5 F,22,200922,201422,1,0
Sprite,Foreground,Centre,"SB/Ring.png",399,146 S,22,201006,201506,0.25,0.5 F,22,201006,201506,1,0
Sprite,Foreground,Centre,"SB/Ring.png",314,252 S,22,201172,201672,0.25,0.5 F,22,201172,201672,1,0
Sprite,Foreground,Centre,"SB/Ring.png",250,78 S,22,201339,201839,0.25,0.5 F,22,201339,201839,1,0
Sprite,Foreground,Centre,"SB/Ring.png",112,201 S,22,201506,202006,0.25,0.5 F,22,201506,202006,1,0
Sprite,Foreground,Centre,"SB/Ring.png",112,201 S,22,201589,202089,0.25,0.5 F,22,201589,202089,1,0
Sprite,Foreground,Centre,"SB/Ring.png",112,201 S,22,201672,202172,0.25,0.5 F,22,201672,202172,1,0
Sprite,Foreground,Centre,"SB/Ring.png",301,161 S,22,202006,202506,0.25,0.5 F,22,202006,202506,1,0
Sprite,Foreground,Centre,"SB/Ring.png",274,332 S,22,202172,202672,0.25,0.5 F,22,202172,202672,1,0
Sprite,Foreground,Centre,"SB/Ring.png",449,271 S,22,202339,202839,0.25,0.5 F,22,202339,202839,1,0
Sprite,Foreground,Centre,"SB/Ring.png",208,272 S,22,202672,203172,0.25,0.5 F,22,202672,203172,1,0
Sprite,Foreground,Centre,"SB/Ring.png",301,161 S,22,203006,203506,0.25,0.5 F,22,203006,203506,1,0
Sprite,Foreground,Centre,"SB/Ring.png",317,67 S,22,203256,203756,0.25,0.5 F,22,203256,203756,1,0
Sprite,Foreground,Centre,"SB/Ring.png",317,67 S,22,203339,203839,0.25,0.5 F,22,203339,203839,1,0
Sprite,Foreground,Centre,"SB/Ring.png",378,227 S,22,203506,204006,0.25,0.5 F,22,203506,204006,1,0
Sprite,Foreground,Centre,"SB/Ring.png",213,168 S,22,203672,204172,0.25,0.5 F,22,203672,204172,1,0
Sprite,Foreground,Centre,"SB/Ring.png",286,335 S,22,204006,204506,0.25,0.5 F,22,204006,204506,1,0
Sprite,Foreground,Centre,"SB/Ring.png",120,315 S,22,204339,204839,0.25,0.5 F,22,204339,204839,1,0
Sprite,Foreground,Centre,"SB/Ring.png",208,272 S,22,204672,205172,0.25,0.5 F,22,204672,205172,1,0
Sprite,Foreground,Centre,"SB/Ring.png",169,88 S,22,204839,205339,0.25,0.5 F,22,204839,205339,1,0
Sprite,Foreground,Centre,"SB/Ring.png",298,212 S,22,205006,205506,0.25,0.5 F,22,205006,205506,1,0
Sprite,Foreground,Centre,"SB/Ring.png",118,196 S,22,205172,205672,0.25,0.5 F,22,205172,205672,1,0
Sprite,Foreground,Centre,"SB/Ring.png",284,106 S,22,205339,205839,0.25,0.5 F,22,205339,205839,1,0
Sprite,Foreground,Centre,"SB/Ring.png",377,124 S,22,205589,206089,0.25,0.5 F,22,205589,206089,1,0
Sprite,Foreground,Centre,"SB/Ring.png",377,124 S,22,205672,206172,0.25,0.5 F,22,205672,206172,1,0
Sprite,Foreground,Centre,"SB/Ring.png",518,86 S,22,205839,206339,0.25,0.5 F,22,205839,206339,1,0
Sprite,Foreground,Centre,"SB/Ring.png",521,119 S,22,205922,206422,0.25,0.5 F,22,205922,206422,1,0
Sprite,Foreground,Centre,"SB/Ring.png",524,152 S,22,206006,206506,0.25,0.5 F,22,206006,206506,1,0
Sprite,Foreground,Centre,"SB/Ring.png",430,380 S,22,206339,206839,0.25,0.5 F,22,206339,206839,1,0
Sprite,Foreground,Centre,"SB/Ring.png",298,212 S,22,206672,207172,0.25,0.5 F,22,206672,207172,1,0
Sprite,Foreground,Centre,"SB/Ring.png",396,291 S,22,207006,207506,0.25,0.5 F,22,207006,207506,1,0
Sprite,Foreground,Centre,"SB/Ring.png",304,368 S,22,207339,207839,0.25,0.5 F,22,207339,207839,1,0
Sprite,Foreground,Centre,"SB/Ring.png",393,203 S,22,207506,208006,0.25,0.5 F,22,207506,208006,1,0
Sprite,Foreground,Centre,"SB/Ring.png",337,91 S,22,207672,208172,0.25,0.5 F,22,207672,208172,1,0
Sprite,Foreground,Centre,"SB/Ring.png",300,103 S,22,207756,208256,0.25,0.5 F,22,207756,208256,1,0
Sprite,Foreground,Centre,"SB/Ring.png",262,109 S,22,207839,208339,0.25,0.5 F,22,207839,208339,1,0
Sprite,Foreground,Centre,"SB/Ring.png",225,115 S,22,207922,208422,0.25,0.5 F,22,207922,208422,1,0
Sprite,Foreground,Centre,"SB/Ring.png",184,89 S,22,208006,208506,0.25,0.5 F,22,208006,208506,1,0
Sprite,Foreground,Centre,"SB/Ring.png",136,90 S,22,208089,208589,0.25,0.5 F,22,208089,208589,1,0
Sprite,Foreground,Centre,"SB/Ring.png",97,117 S,22,208172,208672,0.25,0.5 F,22,208172,208672,1,0
Sprite,Foreground,Centre,"SB/Ring.png",81,162 S,22,208256,208756,0.25,0.5 F,22,208256,208756,1,0
Sprite,Foreground,Centre,"SB/Ring.png",98,204 S,22,208339,208839,0.25,0.5 F,22,208339,208839,1,0
Sprite,Foreground,Centre,"SB/Ring.png",157,322 S,22,208506,209006,0.25,0.5 F,22,208506,209006,1,0
Sprite,Foreground,Centre,"SB/Ring.png",244,362 S,22,208672,209172,0.25,0.5 F,22,208672,209172,1,0
Sprite,Foreground,Centre,"SB/Ring.png",284,347 S,22,208756,209256,0.25,0.5 F,22,208756,209256,1,0
Sprite,Foreground,Centre,"SB/Ring.png",326,343 S,22,208839,209339,0.25,0.5 F,22,208839,209339,1,0
Sprite,Foreground,Centre,"SB/Ring.png",368,349 S,22,208922,209422,0.25,0.5 F,22,208922,209422,1,0
Sprite,Foreground,Centre,"SB/Ring.png",406,367 S,22,209006,209506,0.25,0.5 F,22,209006,209506,1,0
Sprite,Foreground,Centre,"SB/Ring.png",451,248 S,22,209172,209672,0.25,0.5 F,22,209172,209672,1,0
Sprite,Foreground,Centre,"SB/Ring.png",398,132 S,22,209339,209839,0.25,0.5 F,22,209339,209839,1,0
Sprite,Foreground,Centre,"SB/Ring.png",322,69 S,22,210339,210839,0.25,0.5 F,22,210339,210839,1,0
Sprite,Foreground,Centre,"SB/Ring.png",294,107 S,22,210422,210922,0.25,0.5 F,22,210422,210922,1,0
Sprite,Foreground,Centre,"SB/Ring.png",291,154 S,22,210506,211006,0.25,0.5 F,22,210506,211006,1,0
Sprite,Foreground,Centre,"SB/Ring.png",308,198 S,22,210589,211089,0.25,0.5 F,22,210589,211089,1,0
Sprite,Foreground,Centre,"SB/Ring.png",347,224 S,22,210672,211172,0.25,0.5 F,22,210672,211172,1,0
Sprite,Foreground,Centre,"SB/Ring.png",167,384 S,22,211006,211506,0.25,0.5 F,22,211006,211506,1,0
Sprite,Foreground,Centre,"SB/Ring.png",256,305 S,22,211339,211839,0.25,0.5 F,22,211339,211839,1,0
Sprite,Foreground,Centre,"SB/Ring.png",256,305 S,22,211672,212172,0.25,0.5 F,22,211672,212172,1,0
Sprite,Foreground,Centre,"SB/Ring.png",277,418 S,22,211839,212339,0.25,0.5 F,22,211839,212339,1,0
Sprite,Foreground,Centre,"SB/Ring.png",448,387 S,22,212256,212756,0.25,0.5 F,22,212256,212756,1,0
Sprite,Foreground,Centre,"SB/Ring.png",447,387 S,22,212339,212839,0.25,0.5 F,22,212339,212839,1,0
Sprite,Foreground,Centre,"SB/Ring.png",321,86 S,22,212672,213172,0.25,0.5 F,22,212672,213172,1,0
Sprite,Foreground,Centre,"SB/Ring.png",376,241 S,22,212839,213339,0.25,0.5 F,22,212839,213339,1,0
Sprite,Foreground,Centre,"SB/Ring.png",494,129 S,22,213006,213506,0.25,0.5 F,22,213006,213506,1,0
Sprite,Foreground,Centre,"SB/Ring.png",292,183 S,22,213172,213672,0.25,0.5 F,22,213172,213672,1,0
Sprite,Foreground,Centre,"SB/Ring.png",292,183 S,22,213256,213756,0.25,0.5 F,22,213256,213756,1,0
Sprite,Foreground,Centre,"SB/Ring.png",292,183 S,22,213339,213839,0.25,0.5 F,22,213339,213839,1,0
Sprite,Foreground,Centre,"SB/Ring.png",169,138 S,22,213589,214089,0.25,0.5 F,22,213589,214089,1,0
Sprite,Foreground,Centre,"SB/Ring.png",171,266 S,22,213839,214339,0.25,0.5 F,22,213839,214339,1,0
Sprite,Foreground,Centre,"SB/Ring.png",350,323 S,22,214006,214506,0.25,0.5 F,22,214006,214506,1,0
Sprite,Foreground,Centre,"SB/Ring.png",473,278 S,22,214256,214756,0.25,0.5 F,22,214256,214756,1,0
Sprite,Foreground,Centre,"SB/Ring.png",485,399 S,22,214506,215006,0.25,0.5 F,22,214506,215006,1,0
Sprite,Foreground,Centre,"SB/Ring.png",186,118 S,22,214839,215339,0.25,0.5 F,22,214839,215339,1,0
Sprite,Foreground,Centre,"SB/Ring.png",319,170 S,22,215006,215506,0.25,0.5 F,22,215006,215506,1,0
Sprite,Foreground,Centre,"SB/Ring.png",319,170 S,22,215089,215589,0.25,0.5 F,22,215089,215589,1,0
Sprite,Foreground,Centre,"SB/Ring.png",460,121 S,22,215256,215756,0.25,0.5 F,22,215256,215756,1,0
Sprite,Foreground,Centre,"SB/Ring.png",460,121 S,22,215339,215839,0.25,0.5 F,22,215339,215839,1,0
Sprite,Foreground,Centre,"SB/Ring.png",319,61 S,22,215506,216006,0.25,0.5 F,22,215506,216006,1,0
Sprite,Foreground,Centre,"SB/Ring.png",319,170 S,22,215672,216172,0.25,0.5 F,22,215672,216172,1,0
Sprite,Foreground,Centre,"SB/Ring.png",317,355 S,22,216006,216506,0.25,0.5 F,22,216006,216506,1,0
Sprite,Foreground,Centre,"SB/Ring.png",297,401 S,22,216089,216589,0.25,0.5 F,22,216089,216589,1,0
Sprite,Foreground,Centre,"SB/Ring.png",253,419 S,22,216172,216672,0.25,0.5 F,22,216172,216672,1,0
Sprite,Foreground,Centre,"SB/Ring.png",205,411 S,22,216256,216756,0.25,0.5 F,22,216256,216756,1,0
Sprite,Foreground,Centre,"SB/Ring.png",171,378 S,22,216339,216839,0.25,0.5 F,22,216339,216839,1,0
Sprite,Foreground,Centre,"SB/Ring.png",186,131 S,22,216672,217172,0.25,0.5 F,22,216672,217172,1,0
Sprite,Foreground,Centre,"SB/Ring.png",191,168 S,22,216756,217256,0.25,0.5 F,22,216756,217256,1,0
Sprite,Foreground,Centre,"SB/Ring.png",195,205 S,22,216839,217339,0.25,0.5 F,22,216839,217339,1,0
Sprite,Foreground,Centre,"SB/Ring.png",198,242 S,22,216922,217422,0.25,0.5 F,22,216922,217422,1,0
Sprite,Foreground,Centre,"SB/Ring.png",202,280 S,22,217006,217506,0.25,0.5 F,22,217006,217506,1,0
Sprite,Foreground,Centre,"SB/Ring.png",525,220 S,22,217339,217839,0.25,0.5 F,22,217339,217839,1,0
Sprite,Foreground,Centre,"SB/Ring.png",479,205 S,22,217422,217922,0.25,0.5 F,22,217422,217922,1,0
Sprite,Foreground,Centre,"SB/Ring.png",434,222 S,22,217506,218006,0.25,0.5 F,22,217506,218006,1,0
Sprite,Foreground,Centre,"SB/Ring.png",409,262 S,22,217589,218089,0.25,0.5 F,22,217589,218089,1,0
Sprite,Foreground,Centre,"SB/Ring.png",408,308 S,22,217672,218172,0.25,0.5 F,22,217672,218172,1,0
Sprite,Foreground,Centre,"SB/Ring.png",305,298 S,22,218006,218506,0.25,0.5 F,22,218006,218506,1,0
Sprite,Foreground,Centre,"SB/Ring.png",303,250 S,22,218089,218589,0.25,0.5 F,22,218089,218589,1,0
Sprite,Foreground,Centre,"SB/Ring.png",322,206 S,22,218172,218672,0.25,0.5 F,22,218172,218672,1,0
Sprite,Foreground,Centre,"SB/Ring.png",345,164 S,22,218256,218756,0.25,0.5 F,22,218256,218756,1,0
Sprite,Foreground,Centre,"SB/Ring.png",333,118 S,22,218339,218839,0.25,0.5 F,22,218339,218839,1,0
Sprite,Foreground,Centre,"SB/Ring.png",209,104 S,22,218589,219089,0.25,0.5 F,22,218589,219089,1,0
Sprite,Foreground,Centre,"SB/Ring.png",209,104 S,22,218672,219172,0.25,0.5 F,22,218672,219172,1,0
Sprite,Foreground,Centre,"SB/Ring.png",128,152 S,22,218839,219339,0.25,0.5 F,22,218839,219339,1,0
Sprite,Foreground,Centre,"SB/Ring.png",209,235 S,22,219006,219506,0.25,0.5 F,22,219006,219506,1,0
Sprite,Foreground,Centre,"SB/Ring.png",116,285 S,22,219172,219672,0.25,0.5 F,22,219172,219672,1,0
Sprite,Foreground,Centre,"SB/Ring.png",164,406 S,22,219339,219839,0.25,0.5 F,22,219339,219839,1,0
Sprite,Foreground,Centre,"SB/Ring.png",303,342 S,22,219506,220006,0.25,0.5 F,22,219506,220006,1,0
Sprite,Foreground,Centre,"SB/Ring.png",450,405 S,22,219672,220172,0.25,0.5 F,22,219672,220172,1,0
Sprite,Foreground,Centre,"SB/Ring.png",460,373 S,22,219756,220256,0.25,0.5 F,22,219756,220256,1,0
Sprite,Foreground,Centre,"SB/Ring.png",472,342 S,22,219839,220339,0.25,0.5 F,22,219839,220339,1,0
Sprite,Foreground,Centre,"SB/Ring.png",480,309 S,22,219922,220422,0.25,0.5 F,22,219922,220422,1,0
Sprite,Foreground,Centre,"SB/Ring.png",489,276 S,22,220006,220506,0.25,0.5 F,22,220006,220506,1,0
Sprite,Foreground,Centre,"SB/Ring.png",409,141 S,22,220256,220756,0.25,0.5 F,22,220256,220756,1,0
Sprite,Foreground,Centre,"SB/Ring.png",396,129 S,22,220339,220839,0.25,0.5 F,22,220339,220839,1,0
Sprite,Foreground,Centre,"SB/Ring.png",386,213 S,22,220506,221006,0.25,0.5 F,22,220506,221006,1,0
Sprite,Foreground,Centre,"SB/Ring.png",268,247 S,22,220756,221256,0.25,0.5 F,22,220756,221256,1,0
Sprite,Foreground,Centre,"SB/Ring.png",246,268 S,22,220839,221339,0.25,0.5 F,22,220839,221339,1,0
Sprite,Foreground,Centre,"SB/Ring.png",65,159 S,22,221006,221506,0.25,0.5 F,22,221006,221506,1,0
Sprite,Foreground,Centre,"SB/Ring.png",87,199 S,22,221089,221589,0.25,0.5 F,22,221089,221589,1,0
Sprite,Foreground,Centre,"SB/Ring.png",127,221 S,22,221172,221672,0.25,0.5 F,22,221172,221672,1,0
Sprite,Foreground,Centre,"SB/Ring.png",174,216 S,22,221256,221756,0.25,0.5 F,22,221256,221756,1,0
Sprite,Foreground,Centre,"SB/Ring.png",213,189 S,22,221339,221839,0.25,0.5 F,22,221339,221839,1,0
Sprite,Foreground,Centre,"SB/Ring.png",426,306 S,22,221672,222172,0.25,0.5 F,22,221672,222172,1,0
Sprite,Foreground,Centre,"SB/Ring.png",321,250 S,22,222006,222506,0.25,0.5 F,22,222006,222506,1,0
Sprite,Foreground,Centre,"SB/Ring.png",321,250 S,22,222339,222839,0.25,0.5 F,22,222339,222839,1,0
Sprite,Foreground,Centre,"SB/Ring.png",130,294 S,22,222506,223006,0.25,0.5 F,22,222506,223006,1,0
Sprite,Foreground,Centre,"SB/Ring.png",272,349 S,22,222922,223422,0.25,0.5 F,22,222922,223422,1,0
Sprite,Foreground,Centre,"SB/Ring.png",271,349 S,22,223006,223506,0.25,0.5 F,22,223006,223506,1,0
Sprite,Foreground,Centre,"SB/Ring.png",361,72 S,22,223339,223839,0.25,0.5 F,22,223339,223839,1,0
Sprite,Foreground,Centre,"SB/Ring.png",397,236 S,22,223506,224006,0.25,0.5 F,22,223506,224006,1,0
Sprite,Foreground,Centre,"SB/Ring.png",230,181 S,22,223672,224172,0.25,0.5 F,22,223672,224172,1,0
Sprite,Foreground,Centre,"SB/Ring.png",338,300 S,22,224006,224506,0.25,0.5 F,22,224006,224506,1,0
Sprite,Foreground,Centre,"SB/Ring.png",516,276 S,22,224339,224839,0.25,0.5 F,22,224339,224839,1,0
Sprite,Foreground,Centre,"SB/Ring.png",516,276 S,22,224672,225172,0.25,0.5 F,22,224672,225172,1,0
Sprite,Foreground,Centre,"SB/Ring.png",348,154 S,22,224922,225422,0.25,0.5 F,22,224922,225422,1,0
Sprite,Foreground,Centre,"SB/Ring.png",497,135 S,22,225172,225672,0.25,0.5 F,22,225172,225672,1,0
Sprite,Foreground,Centre,"SB/Ring.png",338,300 S,22,225422,225922,0.25,0.5 F,22,225422,225922,1,0
Sprite,Foreground,Centre,"SB/Ring.png",184,394 S,22,225672,226172,0.25,0.5 F,22,225672,226172,1,0
Sprite,Foreground,Centre,"SB/Ring.png",482,289 S,22,225922,226422,0.25,0.5 F,22,225922,226422,1,0
Sprite,Foreground,Centre,"SB/Ring.png",195,100 S,22,226172,226672,0.25,0.5 F,22,226172,226672,1,0
Sprite,Foreground,Centre,"SB/Ring.png",166,187 S,22,226339,226839,0.25,0.5 F,22,226339,226839,1,0
Sprite,Foreground,Centre,"SB/Ring.png",110,129 S,22,226672,227172,0.25,0.5 F,22,226672,227172,1,0
Sprite,Foreground,Centre,"SB/Ring.png",265,213 S,22,226839,227339,0.25,0.5 F,22,226839,227339,1,0
Sprite,Foreground,Centre,"SB/Ring.png",281,178 S,22,226922,227422,0.25,0.5 F,22,226922,227422,1,0
Sprite,Foreground,Centre,"SB/Ring.png",314,158 S,22,227006,227506,0.25,0.5 F,22,227006,227506,1,0
Sprite,Foreground,Centre,"SB/Ring.png",351,152 S,22,227089,227589,0.25,0.5 F,22,227089,227589,1,0
Sprite,Foreground,Centre,"SB/Ring.png",388,156 S,22,227172,227672,0.25,0.5 F,22,227172,227672,1,0
Sprite,Foreground,Centre,"SB/Ring.png",422,173 S,22,227256,227756,0.25,0.5 F,22,227256,227756,1,0
Sprite,Foreground,Centre,"SB/Ring.png",442,204 S,22,227339,227839,0.25,0.5 F,22,227339,227839,1,0
Sprite,Foreground,Centre,"SB/Ring.png",501,310 S,22,227672,228172,0.25,0.5 F,22,227672,228172,1,0
Sprite,Foreground,Centre,"SB/Ring.png",416,352 S,22,228006,228506,0.25,0.5 F,22,228006,228506,1,0
Sprite,Foreground,Centre,"SB/Ring.png",382,333 S,22,228089,228589,0.25,0.5 F,22,228089,228589,1,0
Sprite,Foreground,Centre,"SB/Ring.png",345,324 S,22,228172,228672,0.25,0.5 F,22,228172,228672,1,0
Sprite,Foreground,Centre,"SB/Ring.png",306,328 S,22,228256,228756,0.25,0.5 F,22,228256,228756,1,0
Sprite,Foreground,Centre,"SB/Ring.png",273,348 S,22,228339,228839,0.25,0.5 F,22,228339,228839,1,0
Sprite,Foreground,Centre,"SB/Ring.png",240,382 S,22,228422,228922,0.25,0.5 F,22,228422,228922,1,0
Sprite,Foreground,Centre,"SB/Ring.png",194,398 S,22,228506,229006,0.25,0.5 F,22,228506,229006,1,0
Sprite,Foreground,Centre,"SB/Ring.png",148,386 S,22,228589,229089,0.25,0.5 F,22,228589,229089,1,0
Sprite,Foreground,Centre,"SB/Ring.png",114,352 S,22,228672,229172,0.25,0.5 F,22,228672,229172,1,0
Sprite,Foreground,Centre,"SB/Ring.png",136,222 S,22,229006,229506,0.25,0.5 F,22,229006,229506,1,0
Sprite,Foreground,Centre,"SB/Ring.png",217,245 S,22,229339,229839,0.25,0.5 F,22,229339,229839,1,0
Sprite,Foreground,Centre,"SB/Ring.png",240,240 S,22,229422,229922,0.25,0.5 F,22,229422,229922,1,0
Sprite,Foreground,Centre,"SB/Ring.png",263,233 S,22,229506,230006,0.25,0.5 F,22,229506,230006,1,0
Sprite,Foreground,Centre,"SB/Ring.png",458,83 S,22,229672,230172,0.25,0.5 F,22,229672,230172,1,0
Sprite,Foreground,Centre,"SB/Ring.png",435,88 S,22,229756,230256,0.25,0.5 F,22,229756,230256,1,0
Sprite,Foreground,Centre,"SB/Ring.png",412,95 S,22,229839,230339,0.25,0.5 F,22,229839,230339,1,0
Sprite,Foreground,Centre,"SB/Ring.png",266,83 S,22,230006,230506,0.25,0.5 F,22,230006,230506,1,0
Sprite,Foreground,Centre,"SB/Ring.png",404,243 S,22,230172,230672,0.25,0.5 F,22,230172,230672,1,0
Sprite,Foreground,Centre,"SB/Ring.png",554,259 S,22,230339,230839,0.25,0.5 F,22,230339,230839,1,0
Sprite,Foreground,Centre,"SB/Ring.png",394,404 S,22,230506,231006,0.25,0.5 F,22,230506,231006,1,0
Sprite,Foreground,Centre,"SB/Ring.png",312,240 S,22,230672,231172,0.25,0.5 F,22,230672,231172,1,0
Sprite,Foreground,Centre,"SB/Ring.png",278,273 S,22,230756,231256,0.25,0.5 F,22,230756,231256,1,0
Sprite,Foreground,Centre,"SB/Ring.png",230,277 S,22,230839,231339,0.25,0.5 F,22,230839,231339,1,0
Sprite,Foreground,Centre,"SB/Ring.png",185,261 S,22,230922,231422,0.25,0.5 F,22,230922,231422,1,0
Sprite,Foreground,Centre,"SB/Ring.png",154,223 S,22,231006,231506,0.25,0.5 F,22,231006,231506,1,0
Sprite,Foreground,Centre,"SB/Ring.png",114,149 S,22,231339,231839,0.25,0.5 F,22,231339,231839,1,0
Sprite,Foreground,Centre,"SB/Ring.png",198,152 S,22,231672,232172,0.25,0.5 F,22,231672,232172,1,0
Sprite,Foreground,Centre,"SB/Ring.png",297,313 S,22,231839,232339,0.25,0.5 F,22,231839,232339,1,0
Sprite,Foreground,Centre,"SB/Ring.png",464,210 S,22,232006,232506,0.25,0.5 F,22,232006,232506,1,0
//Storyboard Sound Samples

[TimingPoints]
5360,333.333333333333,4,2,1,50,1,0
5360,-133.333333333333,4,2,1,50,0,0
26673,333.333333333333,4,2,2,60,1,0
26673,-100,4,2,2,60,0,0
29339,-100,4,2,2,70,0,0
32006,-100,4,2,2,80,0,0
32672,-100,4,2,3,80,0,0
32839,-100,4,2,2,80,0,0
33172,-100,4,2,3,80,0,0
33339,-100,4,2,2,80,0,0
33506,-100,4,2,3,80,0,0
33672,-100,4,2,2,80,0,0
33839,-100,4,2,3,80,0,0
33922,-100,4,2,2,80,0,0
34006,-100,4,2,3,80,0,0
34172,-100,4,2,2,80,0,0
34506,-100,4,2,3,80,0,0
34672,-100,4,2,2,90,0,0
34839,-100,4,2,3,90,0,0
35006,-100,4,2,2,90,0,0
35339,-100,4,2,3,90,0,0
35506,-100,4,2,2,90,0,0
35839,-100,4,2,3,90,0,0
36006,-100,4,2,2,90,0,0
36172,-100,4,2,3,90,0,0
36339,-100,4,2,2,90,0,0
36506,-100,4,2,3,90,0,0
36589,-100,4,2,2,90,0,0
36672,-100,4,2,3,90,0,0
36839,-100,4,2,2,90,0,0
37256,-100,4,2,3,90,0,0
37339,-100,4,2,2,70,0,0
37672,-100,4,2,3,70,0,0
38006,-100,4,2,2,70,0,0
38672,-100,4,2,2,90,0,1
48672,-100,4,2,2,90,0,0
49339,-100,4,2,2,90,0,1
57506,-100,4,2,3,50,0,1
57672,-100,4,2,3,60,0,1
57839,-100,4,2,2,60,0,1
57922,-100,4,2,3,60,0,1
58006,-100,4,2,2,70,0,1
58089,-100,4,2,3,70,0,1
58339,-100,4,2,3,80,0,1
58589,-100,4,2,3,80,0,0
58672,-100,4,2,2,90,0,0
58839,-83.3333333333333,4,2,2,90,0,1
59506,-83.3333333333333,4,2,3,90,0,1
59672,-166.666666666667,4,2,2,90,0,0
60006,-100,4,2,2,70,0,1
60172,-100,4,2,2,70,0,0
78839,-100,4,2,3,70,0,0
79006,-100,4,2,2,70,0,0
80172,-100,4,2,3,70,0,0
80339,-100,4,2,2,70,0,0
80506,-100,4,2,3,70,0,0
80672,-100,4,2,2,70,0,0
80756,-100,4,2,3,70,0,0
81006,-100,4,2,2,70,0,0
81089,-100,4,2,3,70,0,0
81339,-100,4,2,2,70,0,0
97506,-100,4,2,3,70,0,0
97672,-100,4,2,2,70,0,0
98089,-100,4,2,3,70,0,0
98172,-100,4,2,2,70,0,0
98839,-100,4,2,3,70,0,0
99006,-100,4,2,2,70,0,0
99256,-100,4,2,3,70,0,0
99339,-100,4,2,2,70,0,0
100089,-100,4,2,3,70,0,0
100339,-100,4,2,2,70,0,0
100422,-100,4,2,3,70,0,0
100672,-100,4,2,2,70,0,0
100756,-100,4,2,3,70,0,0
100839,-100,4,2,2,70,0,0
100922,-100,4,2,3,70,0,0
101006,-100,4,2,2,70,0,0
101506,-100,4,2,3,70,0,0
102339,-83.3333333333333,4,2,2,70,0,0
102422,-83.3333333333333,4,2,3,70,0,0
102672,-83.3333333333333,4,2,2,70,0,0
108006,-83.3333333333333,4,2,2,30,0,0
109339,-83.3333333333333,4,2,2,40,0,0
110672,-83.3333333333333,4,2,2,50,0,0
112006,-83.3333333333333,4,2,2,60,0,0
113339,-100,4,2,2,70,0,0
124006,-100,4,2,2,90,0,1
133506,-100,4,2,2,90,0,0
134256,-100,4,2,3,90,0,0
134339,-100,4,2,2,90,0,0
134589,-100,4,2,3,90,0,0
134672,-100,4,2,2,90,0,1
139506,-100,4,2,3,90,0,1
139672,-100,4,2,2,90,0,1
139839,-100,4,2,3,90,0,1
140006,-100,4,2,2,90,0,1
140172,-100,4,2,3,90,0,1
140339,-100,4,2,2,90,0,1
140506,-100,4,2,3,90,0,1
140672,-100,4,2,2,90,0,1
140839,-100,4,2,3,90,0,1
141006,-100,4,2,2,90,0,1
141172,-100,4,2,3,90,0,1
141339,-100,4,2,2,90,0,1
141506,-100,4,2,3,90,0,1
141672,-100,4,2,2,90,0,1
141839,-100,4,2,3,90,0,1
142006,-100,4,2,2,90,0,1
142172,-100,4,2,3,90,0,1
142339,-100,4,2,2,90,0,1
142506,-100,4,2,3,90,0,1
142672,-100,4,2,2,90,0,1
142756,-100,4,2,3,90,0,1
143006,-100,4,2,2,90,0,1
143089,-100,4,2,3,90,0,1
143339,-100,4,2,2,90,0,1
143381,-100,4,2,3,90,0,1
143672,-100,4,2,2,90,0,1
143714,-100,4,2,3,90,0,1
144006,-100,4,2,2,90,0,1
144172,-100,4,2,2,90,0,0
144922,-100,4,2,3,90,0,0
145006,-100,4,2,2,90,0,0
145256,-100,4,2,3,90,0,0
145339,-100,4,2,2,70,0,1
145506,-100,4,2,2,70,0,0
155839,-100,4,2,3,70,0,0
156006,-100,4,2,2,70,0,0
157339,-100,4,2,2,90,0,1
167506,-100,4,2,2,90,0,0
168006,-100,4,2,2,90,0,1
174506,-133.333333333333,4,2,2,90,0,1
175006,-100,4,2,2,90,0,1
178339,-100,4,2,2,90,0,0
178672,-133.333333333333,4,2,2,70,0,1
178756,-133.333333333333,4,2,2,30,0,1
178839,-133.333333333333,4,2,2,30,0,0
187839,-133.333333333333,4,2,3,30,0,0
188339,-133.333333333333,4,2,3,40,0,0
188672,-133.333333333333,4,2,3,50,0,0
189006,-111.111111111111,4,2,3,60,0,0
189339,-111.111111111111,4,2,2,70,0,0
200006,-100,4,2,2,70,0,0
205506,-100,4,2,3,70,0,0
205672,-100,4,2,2,70,0,0
205839,-100,4,2,3,70,0,0
206006,-100,4,2,2,70,0,0
206172,-100,4,2,3,70,0,0
206339,-100,4,2,2,70,0,0
206506,-100,4,2,3,70,0,0
206672,-100,4,2,2,70,0,0
206839,-100,4,2,3,70,0,0
207006,-100,4,2,2,70,0,0
207172,-100,4,2,3,70,0,0
207339,-100,4,2,2,70,0,0
207506,-100,4,2,3,70,0,0
207672,-100,4,2,2,70,0,0
207756,-100,4,2,3,70,0,0
208006,-100,4,2,2,70,0,0
208089,-100,4,2,3,70,0,0
208339,-100,4,2,2,70,0,0
208422,-100,4,2,3,70,0,0
208672,-100,4,2,2,70,0,0
208756,-100,4,2,3,70,0,0
209006,-100,4,2,2,70,0,0
209089,-100,4,2,3,70,0,0
209339,-200,4,2,2,70,0,0
210339,-100,4,2,2,70,0,0
210672,-83.3333333333333,4,2,2,90,0,1
211672,-100,4,2,2,90,0,1
212172,-100,4,2,3,90,0,1
212339,-100,4,2,2,90,0,1
213172,-100,4,2,3,90,0,1
213339,-100,4,2,2,90,0,1
221172,-100,4,2,3,90,0,1
221339,-83.3333333333333,4,2,2,90,0,1
222339,-100,4,2,2,90,0,1
222839,-100,4,2,3,90,0,1
223006,-100,4,2,2,90,0,1
223839,-100,4,2,3,90,0,1
224006,-100,4,2,2,90,0,1
224339,-100,4,2,2,90,0,0
224672,-100,4,2,2,90,0,1
224714,-100,4,2,2,90,0,0
224922,-100,4,2,2,90,0,1
224964,-100,4,2,2,90,0,0
225172,-100,4,2,2,90,0,1
225214,-100,4,2,2,90,0,0
225422,-100,4,2,2,90,0,1
225464,-100,4,2,2,90,0,0
225672,-100,4,2,2,90,0,1
225714,-100,4,2,2,90,0,0
225922,-100,4,2,2,90,0,1
225964,-100,4,2,2,90,0,0
226172,-100,4,2,2,90,0,1
226214,-100,4,2,2,90,0,0
226672,-100,4,2,2,90,0,1
229506,-100,4,2,3,90,0,1
229672,-100,4,2,2,90,0,1
229839,-100,4,2,3,90,0,1
230006,-100,4,2,2,90,0,1
230172,-100,4,2,3,90,0,1
230339,-100,4,2,2,90,0,1
230506,-100,4,2,3,90,0,1
230672,-100,4,2,2,90,0,1
230756,-100,4,2,3,90,0,1
231006,-100,4,2,2,90,0,1
231089,-100,4,2,3,90,0,1
231339,-100,4,2,2,90,0,1
231422,-100,4,2,3,90,0,1
231672,-100,4,2,2,90,0,1
231756,-100,4,2,3,90,0,1
232006,-100,4,2,2,70,0,0
242672,-100,4,2,2,5,0,0

[Colours]
Combo1 : 0,128,128
Combo2 : 0,64,128
Combo3 : 0,128,255
Combo4 : 0,255,255
Combo5 : 128,128,255
Combo6 : 128,128,64
Combo7 : 128,0,255

[HitObjects]
169,119,5360,6,0,P|165:83|160:48,1,71.2500027179719,4|0,0:0|0:0,0:0:0:0:
85,183,5693,1,2,0:0:0:0:
266,113,5859,2,0,P|251:191|244:256,1,142.500005435944
236,344,6359,1,2,0:0:0:0:
160,239,6526,1,0,0:0:0:0:
341,170,6693,6,0,P|335:204|329:240,1,71.2500027179719,2|0,0:0|0:0,0:0:0:0:
236,344,7026,2,0,P|201:334|160:331,1,71.2500027179719,2|0,0:0|0:0,0:0:0:0:
51,339,7359,1,2,0:0:0:0:
1,170,7526,1,2,0:0:0:0:
176,216,7693,1,0,0:0:0:0:
74,245,7859,1,2,0:0:0:0:
98,145,8026,86,0,P|104:109|109:74,1,71.2500027179719
263,99,8359,2,0,P|259:64|252:27,1,71.2500027179719,2|0,0:0|0:0,0:0:0:0:
176,216,8693,6,0,L|162:301,1,71.2500027179719,2|0,0:0|0:0,0:0:0:0:
316,250,9026,2,0,P|325:284|331:319,1,71.2500027179719,2|0,0:0|0:0,0:0:0:0:
439,183,9359,86,0,L|347:168,1,71.2500027179719,2|0,0:0|0:0,0:0:0:0:
190,86,9693,2,0,L|263:71,1,71.2500027179719,2|0,0:0|0:0,0:0:0:0:
381,49,10026,5,2,0:0:0:0:
258,194,10193,1,2,0:0:0:0:
368,171,10359,1,0,0:0:0:0:
260,72,10526,1,2,0:0:0:0:
163,175,10693,86,0,P|156:208|152:250,1,71.2500027179719
307,339,11026,2,0,P|314:306|318:264,1,71.2500027179719,2|0,0:0|0:0,0:0:0:0:
307,130,11359,5,2,0:0:0:0:
401,280,11526,1,0,0:0:0:0:
512,166,11693,2,0,L|438:179,1,71.2500027179719,2|0,0:0|0:0,0:0:0:0:
318,268,12026,86,0,L|307:339,1,71.2500027179719,2|0,0:0|0:0,0:0:0:0:
398,102,12359,2,0,L|412:24,1,71.2500027179719,2|0,0:0|0:0,0:0:0:0:
159,85,12693,1,2,0:0:0:0:
235,189,12859,1,2,0:0:0:0:
288,50,13026,1,0,0:0:0:0:
152,112,13193,1,2,0:0:0:0:
307,130,13359,6,0,P|344:141|374:157,1,71.2500027179719
440,231,13693,1,2,0:0:0:0:
511,73,13859,2,0,P|474:84|444:100,1,71.2500027179719,0|2,0:0|0:0,0:0:0:0:
328,218,14193,1,0,0:0:0:0:
426,300,14359,2,0,L|440:230,1,71.2500027179719,2|0,0:0|0:0,0:0:0:0:
307,130,14693,86,0,L|294:59,1,71.2500027179719,2|0,0:0|0:0,0:0:0:0:
220,209,15026,2,0,L|200:114,1,71.2500027179719,2|0,0:0|0:0,0:0:0:0:
133,288,15359,2,0,L|106:174,1,106.875004076958,2|0,0:0|0:0,0:0:0:0:
84,157,15693,2,0,L|102:79,1,71.2500027179719,2|2,0:0|0:0,0:0:0:0:
0,223,16026,6,0,B|103:294|188:203|188:203|276:111|382:186,1,427.500016307831,6|2,0:0|0:0,0:0:0:0:
370,306,17193,85,0,0:0:0:0:
439,248,17359,2,0,P|477:258|510:261,1,71.2500027179719,2|0,0:0|0:0,0:0:0:0:
409,384,17693,2,0,P|447:374|480:371,1,71.2500027179719,2|0,0:0|0:0,0:0:0:0:
320,223,18026,1,2,0:0:0:0:
281,301,18193,2,0,P|243:291|210:288,1,71.2500027179719,2|0,0:0|0:0,0:0:0:0:
251,165,18526,2,0,P|213:175|180:178,1,71.2500027179719,2|0,0:0|0:0,0:0:0:0:
40,288,19026,5,2,0:0:0:0:
147,352,19193,1,2,0:0:0:0:
25,315,19359,2,0,L|18:267|0:174,1,142.500005435944,2|0,0:0|0:0,0:0:0:0:
14,49,19859,1,2,0:0:0:0:
83,112,20026,2,0,P|153:100|223:87,1,142.500005435944,2|2,0:0|0:0,0:0:0:0:
296,164,20526,1,0,0:0:0:0:
296,164,20693,2,0,P|365:178|435:190,1,142.500005435944,2|2,0:0|0:0,0:0:0:0:
461,34,21359,86,0,P|419:83|428:178,1,142.500005435944,2|0,0:0|0:0,0:0:0:0:
469,345,21859,2,0,P|506:283|491:211,1,142.500005435944,2|0,0:0|0:0,0:0:0:0:
417,158,22359,2,0,P|346:169|276:182,1,142.500005435944,2|2,0:0|0:0,0:0:0:0:
215,250,22859,5,0,0:0:0:0:
190,169,23026,1,2,0:0:0:0:
244,103,23193,1,0,0:0:0:0:
23,126,23359,85,2,0:0:0:0:
103,154,23526,1,2,0:0:0:0:
126,236,23693,1,0,0:0:0:0:
91,314,23859,1,2,0:0:0:0:
282,188,24026,5,0,0:0:0:0:
299,271,24193,1,0,0:0:0:0:
445,109,24359,1,2,0:0:0:0:
428,192,24526,1,0,0:0:0:0:
239,35,24693,85,2,0:0:0:0:
358,138,24859,1,0,0:0:0:0:
205,122,25026,1,2,0:0:0:0:
338,39,25193,1,0,0:0:0:0:
282,187,25359,6,0,P|274:222|269:258,1,71.2500027179719,2|0,0:0|0:0,0:0:0:0:
142,339,25693,2,0,P|138:303|132:268,1,71.2500027179719,2|0,0:0|0:0,0:0:0:0:
102,95,26026,85,2,0:0:0:0:
186,76,26193,1,2,0:0:0:0:
113,249,26359,1,2,0:0:0:0:
29,230,26526,1,2,0:0:0:0:
162,169,26673,6,0,P|207:183|255:200,1,95,6|8,3:2|0:0,0:0:0:0:
386,305,27006,1,0,1:0:0:0:
344,124,27173,1,8,0:0:0:0:
344,124,27256,1,0,0:0:0:0:
344,124,27339,1,8,0:0:0:0:
469,231,27506,1,0,3:0:0:0:
270,267,27673,86,0,P|286:311|296:358,1,95,0|8,1:0|0:0,0:0:0:0:
180,297,28006,1,2,3:2:0:0:
349,209,28173,1,8,0:0:0:0:
235,172,28339,2,0,P|220:126|212:79,1,95,0|8,1:0|0:0,0:0:0:0:
216,37,28589,1,0,3:0:0:0:
254,9,28672,1,8,0:0:0:0:
301,5,28756,1,0,0:0:0:0:
341,31,28839,1,0,3:0:0:0:
140,116,29006,2,0,L|42:97,1,95,0|8,1:0|0:0,0:0:0:0:
250,256,29339,6,0,P|296:244|342:235,1,95,2|8,3:2|0:0,0:0:0:0:
149,196,29672,1,0,1:0:0:0:
304,337,29839,1,8,0:0:0:0:
304,337,29922,1,8,0:0:0:0:
304,337,30006,1,2,0:2:0:0:
113,300,30172,1,0,3:0:0:0:
240,154,30339,2,0,L|227:248,1,95,0|8,1:0|0:0,0:0:0:0:
204,350,30672,85,2,3:2:0:0:
345,219,30839,1,8,0:0:0:0:
345,219,30922,1,0,0:0:0:0:
345,219,31006,1,0,1:0:0:0:
133,208,31172,1,8,0:0:0:0:
125,166,31256,1,0,3:0:0:0:
116,123,31339,1,2,0:0:0:0:
41,245,31506,1,2,3:2:0:0:
214,142,31672,2,0,P|221:95|226:47,1,95,2|2,1:2|3:2,0:0:0:0:
423,185,32006,6,0,P|374:136|305:142,1,142.5,2|0,3:2|0:0,0:0:0:0:
264,205,32339,2,0,L|251:304,1,95,0|2,1:0|0:3,0:0:0:0:
191,33,32672,1,2,1:2:0:0:
191,33,32756,1,0,1:0:0:0:
191,33,32839,1,0,3:0:0:0:
299,127,33006,2,0,P|346:121|392:112,1,95,0|0,1:0|1:0,0:0:0:0:
460,295,33339,86,0,P|414:282|367:275,1,95,2|0,3:2|1:0,0:0:0:0:
367,275,33589,1,0,0:0:0:0:
367,275,33672,1,0,1:0:0:0:
165,161,33839,2,0,L|177:214,1,47.5,0|0,3:0|3:0,0:0:0:0:
216,292,34006,1,2,1:2:0:0:
210,322,34089,1,0,1:0:0:0:
205,348,34172,1,0,3:0:0:0:
388,156,34339,6,0,L|287:183,1,95,0|2,1:0|1:2,0:0:0:0:
74,302,34672,2,0,B|71:251|71:251|56:209,1,95,2|0,3:2|1:0,0:0:0:0:
152,25,35006,2,0,B|148:68|148:68|159:119,1,95,0|2,1:0|0:3,0:0:0:0:
182,160,35256,1,2,0:3:0:0:
228,171,35339,1,0,1:0:0:0:
273,159,35422,1,0,1:0:0:0:
304,124,35506,1,0,3:0:0:0:
416,265,35672,2,0,P|371:249|324:245,1,95,0|0,1:0|1:0,0:0:0:0:
101,141,36006,85,2,3:2:0:0:
150,280,36172,1,0,1:0:0:0:
231,82,36339,1,0,1:0:0:0:
483,204,36506,1,0,3:0:0:0:
440,176,36589,1,0,3:0:0:0:
392,174,36672,1,0,1:0:0:0:
352,200,36756,1,0,1:0:0:0:
331,243,36839,1,0,3:0:0:0:
399,347,37006,5,0,1:0:0:0:
194,202,37172,1,0,3:0:0:0:
422,82,37339,85,4,3:2:0:0:
428,59,37672,5,0,3:0:0:0:
245,15,37839,1,0,0:0:0:0:
434,38,38006,86,0,L|387:49,1,47.5,2|2,0:0|0:0,0:0:0:0:
206,114,38172,2,0,L|274:135,1,47.5,2|2,0:0|0:0,0:0:0:0:
393,206,38339,5,2,0:3:0:0:
396,219,38422,1,2,0:3:0:0:
399,232,38506,1,2,0:3:0:0:
402,246,38589,1,2,0:3:0:0:
405,259,38672,85,6,3:2:0:0:
455,52,38839,1,0,0:0:0:0:
411,277,39172,6,0,L|431:184,1,95,2|0,3:2|1:0,0:0:0:0:
459,69,39506,1,2,0:0:0:0:
331,207,39672,1,0,0:0:0:0:
212,79,39839,86,0,P|257:64|304:57,1,95,2|0,3:2|0:0,0:0:0:0:
142,171,40172,2,0,P|95:163|51:144,1,95,2|0,3:2|0:0,0:0:0:0:
222,255,40506,2,0,P|267:239|314:233,1,95,2|0,3:2|1:0,0:0:0:0:
139,337,40839,1,2,0:0:0:0:
41,284,41006,1,2,0:0:0:0:
37,254,41089,1,2,0:0:0:0:
34,224,41172,1,2,0:0:0:0:
32,194,41256,1,2,0:0:0:0:
29,164,41339,5,2,3:2:0:0:
222,255,41506,1,0,0:0:0:0:
86,73,41672,1,0,0:0:0:0:
132,244,41839,86,0,P|140:197|152:147,1,95,2|0,3:2|1:0,0:0:0:0:
295,32,42172,2,0,P|249:51|204:58,1,95,2|0,0:0|0:0,0:0:0:0:
328,145,42506,6,0,P|375:150|418:170,1,95,2|0,3:2|0:0,0:0:0:0:
273,310,42839,2,0,P|254:266|250:219,1,95,2|0,3:2|0:0,0:0:0:0:
444,271,43172,2,0,P|416:309|377:336,1,95,2|0,3:2|1:0,0:0:0:0:
348,243,43506,1,2,3:2:0:0:
348,243,43839,1,6,3:2:0:0:
273,310,44006,86,0,L|249:144,1,142.5,6|0,3:2|0:0,0:0:0:0:
254,130,44339,1,0,0:0:0:0:
369,211,44506,1,2,3:2:0:0:
369,211,44589,1,2,0:0:0:0:
369,211,44672,2,0,P|415:196|462:189,1,95,2|2,1:2|0:0,0:0:0:0:
341,30,45006,1,2,3:2:0:0:
254,130,45172,2,0,P|208:145|161:148,1,95,2|0,3:2|0:0,0:0:0:0:
19,232,45506,6,0,P|13:184|0:139,1,95,2|0,3:2|0:0,0:0:0:0:
105,80,45756,2,0,P|90:125|89:172,1,95,0|0,3:0|0:0,0:0:0:0:
106,249,46006,1,0,1:0:0:0:
277,209,46172,1,2,0:0:0:0:
295,48,46339,85,2,0:0:0:0:
251,226,46506,1,2,0:0:0:0:
193,43,46672,6,0,P|202:89|212:136,1,95,6|0,3:2|0:0,0:0:0:0:
267,308,47006,1,0,0:0:0:0:
421,189,47172,2,0,P|381:163|334:156,1,95,0|0,3:0|1:0,0:0:0:0:
252,330,47506,1,2,0:0:0:0:
212,136,47672,1,2,3:2:0:0:
456,165,47839,86,0,L|429:322,1,142.5,6|0,3:2|0:0,0:0:0:0:
447,341,48172,1,0,3:0:0:0:
326,181,48339,1,0,0:0:0:0:
326,181,48422,2,0,L|340:245,1,47.5,0|0,3:0|0:0,0:0:0:0:
441,36,48672,2,0,P|391:84|322:84,1,142.5,2|2,1:2|0:0,0:0:0:0:
238,42,49006,1,2,3:0:0:0:
221,32,49089,1,2,0:3:0:0:
202,28,49172,1,2,0:3:0:0:
183,31,49256,1,2,0:3:0:0:
167,41,49339,6,0,P|158:87|149:134,1,95,6|0,3:2|0:0,0:0:0:0:
201,233,49672,1,0,0:0:0:0:
37,137,49839,2,0,P|45:183|55:230,1,95,2|0,3:2|1:0,0:0:0:0:
130,307,50172,1,2,0:0:0:0:
201,147,50339,1,0,0:0:0:0:
321,274,50506,86,0,P|366:261|412:249,1,95,2|0,3:2|0:0,0:0:0:0:
233,357,50839,2,0,P|187:344|141:332,1,95,2|0,3:2|0:0,0:0:0:0:
295,189,51172,1,2,3:2:0:0:
433,281,51339,2,0,P|453:238|458:191,1,95,0|2,1:0|0:0,0:0:0:0:
377,39,51672,1,2,0:0:0:0:
337,15,51756,1,2,0:0:0:0:
293,17,51839,1,2,0:0:0:0:
257,40,51922,1,2,0:0:0:0:
245,83,52006,5,2,3:2:0:0:
283,167,52172,1,0,0:0:0:0:
199,205,52339,1,0,0:0:0:0:
421,131,52506,85,2,3:2:0:0:
337,93,52673,1,0,1:0:0:0:
237,289,52839,1,2,0:0:0:0:
321,251,53006,1,0,0:0:0:0:
152,105,53172,6,0,P|198:93|244:83,1,95,2|0,3:2|0:0,0:0:0:0:
135,196,53506,2,0,P|177:218|218:241,1,95,2|0,3:2|0:0,0:0:0:0:
55,240,53839,2,0,P|63:286|70:333,1,95,2|0,3:2|1:0,0:0:0:0:
134,94,54172,1,2,3:2:0:0:
48,137,54339,1,0,0:0:0:0:
183,320,54506,85,2,3:2:0:0:
183,320,54589,1,2,0:0:0:0:
183,320,54672,2,0,B|270:351|279:273|370:321,1,190,6|0,3:2|0:0,0:0:0:0:
366,319,55172,1,0,3:0:0:0:
306,220,55339,2,0,P|303:172|319:128,1,95,0|2,1:0|0:0,0:0:0:0:
497,211,55672,1,2,3:2:0:0:
417,98,55839,2,0,L|396:241,1,142.5,6|0,3:2|0:0,0:0:0:0:
379,267,56172,2,0,B|420:269|420:269|473:289,1,95,0|0,3:0|0:0,0:0:0:0:
493,314,56422,1,0,3:0:0:0:
242,249,56672,6,0,P|204:304|210:362,1,95,0|2,1:0|0:0,0:0:0:0:
297,328,57006,1,2,3:2:0:0:
99,143,57172,2,0,P|195:168|260:110,1,190,6|0,3:2|1:0,0:0:0:0:
408,215,57672,2,0,P|360:218|296:177,1,95,0|0,1:0|3:0,0:0:0:0:
159,273,58006,85,0,1:0:0:0:
133,279,58089,1,0,1:0:0:0:
111,296,58173,1,0,1:0:0:0:
99,321,58256,1,0,1:0:0:0:
98,349,58339,5,0,1:0:0:0:
147,365,58423,1,0,1:0:0:0:
197,361,58506,1,0,1:0:0:0:
235,329,58589,1,0,1:0:0:0:
275,166,58839,86,0,B|248:214|248:214|233:356,2,170.999994781494,0|0|0,3:0|3:0|3:0,0:0:0:0:
345,97,59506,1,0,3:0:0:0:
444,310,59672,2,0,P|410:288|357:285,1,85.4999973907472,0|0,3:0|0:0,0:0:0:0:
310,335,60006,6,0,L|328:226,1,95,4|8,3:2|0:0,0:0:0:0:
495,47,60339,2,0,L|476:153,1,95,2|8,1:2|0:0,0:0:0:0:
469,183,60589,1,0,0:0:0:0:
427,174,60672,1,10,0:0:0:0:
384,164,60756,1,0,0:0:0:0:
342,154,60839,2,0,P|293:167|245:177,1,95,2|2,3:2|1:2,0:0:0:0:
78,97,61172,85,10,0:0:0:0:
78,97,61256,1,0,0:0:0:0:
78,97,61339,1,0,3:0:0:0:
219,247,61506,1,10,0:0:0:0:
184,67,61672,2,0,L|163:173,1,95,0|10,1:0|0:0,0:0:0:0:
150,338,62006,5,8,0:0:0:0:
131,299,62089,1,0,0:0:0:0:
93,278,62172,1,0,3:0:0:0:
50,273,62256,1,0,0:0:0:0:
14,297,62339,1,0,1:0:0:0:
131,195,62506,1,8,0:0:0:0:
250,338,62672,86,0,P|296:337|337:313,1,95,0|8,3:0|0:0,0:0:0:0:
420,133,63006,1,2,1:2:0:0:
486,250,63172,1,8,0:0:0:0:
486,250,63256,1,0,0:0:0:0:
486,250,63339,2,0,B|445:236|445:236|393:231,1,95,10|2,0:0|3:2,0:0:0:0:
145,162,63672,2,0,B|188:166|188:166|238:154,1,95,2|10,1:2|0:0,0:0:0:0:
279,135,63922,1,0,0:0:0:0:
299,97,64006,1,0,3:0:0:0:
297,54,64089,1,0,0:0:0:0:
273,18,64172,1,10,0:0:0:0:
210,79,64339,5,0,1:0:0:0:
364,159,64506,1,8,0:0:0:0:
229,247,64672,1,10,0:0:0:0:
223,273,64756,1,2,0:0:0:0:
216,300,64839,2,0,L|200:364,1,47.5,2|2,3:2|0:0,0:0:0:0:
363,253,65006,1,2,1:2:0:0:
369,227,65089,1,2,0:0:0:0:
376,200,65172,2,0,L|387:153,1,47.5,10|2,0:0|0:0,0:0:0:0:
443,319,65339,85,4,3:2:0:0:
283,182,65506,1,8,0:0:0:0:
415,46,65672,2,0,L|386:160,1,95,2|8,1:2|0:0,0:0:0:0:
363,253,66006,1,10,0:0:0:0:
223,128,66172,2,0,P|178:112|129:108,1,95,2|2,3:2|1:2,0:0:0:0:
202,303,66506,1,10,0:0:0:0:
448,225,66672,6,0,L|461:159,1,47.5,2|2,3:2|0:0,0:0:0:0:
377,171,66839,2,0,L|385:124,1,47.5,10|2,0:0|0:0,0:0:0:0:
277,262,67006,86,0,L|290:332,1,47.5,2|2,1:2|0:0,0:0:0:0:
202,303,67172,2,0,L|214:365,1,47.5,10|2,0:0|0:0,0:0:0:0:
112,169,67339,6,0,L|125:102,1,47.5,10|2,0:0|0:0,0:0:0:0:
39,131,67506,2,0,L|56:59,1,47.5,2|2,3:2|0:0,0:0:0:0:
4,280,67672,86,0,P|47:261|94:256,1,95,2|10,1:2|0:0,0:0:0:0:
171,243,67922,1,2,0:0:0:0:
187,225,68006,6,0,B|201:189|201:189|209:128,1,95,2|8,3:2|0:0,0:0:0:0:
384,213,68339,2,0,B|369:248|369:248|361:308,1,95,2|10,1:2|0:0,0:0:0:0:
358,338,68589,1,2,0:0:0:0:
358,338,68672,1,10,0:0:0:0:
287,170,68839,1,2,3:2:0:0:
493,143,69006,85,2,1:2:0:0:
452,155,69089,1,2,0:0:0:0:
411,142,69172,1,10,0:0:0:0:
384,108,69256,1,2,0:0:0:0:
390,65,69339,2,0,P|437:51|481:38,1,95,2|10,3:2|0:0,0:0:0:0:
481,37,69589,1,2,0:0:0:0:
481,37,69672,1,2,1:2:0:0:
298,85,69839,2,0,P|252:78|207:63,1,95,8|10,0:0|0:0,0:0:0:0:
206,62,70172,1,2,3:2:0:0:
110,123,70339,5,2,1:2:0:0:
115,154,70422,1,2,0:0:0:0:
120,187,70506,1,10,0:0:0:0:
124,219,70589,1,2,0:0:0:0:
129,251,70672,1,4,3:2:0:0:
220,205,70839,1,8,0:0:0:0:
169,349,71006,85,2,1:2:0:0:
35,269,71172,1,8,0:0:0:0:
35,269,71256,1,0,0:0:0:0:
35,269,71339,2,0,P|81:260|128:251,1,95,10|2,0:0|3:2,0:0:0:0:
324,81,71672,2,0,P|299:121|292:173,1,95,2|10,1:2|0:0,0:0:0:0:
293,211,71922,1,0,0:0:0:0:
322,242,72006,1,0,3:0:0:0:
362,256,72089,1,0,0:0:0:0:
403,248,72172,1,10,0:0:0:0:
374,165,72339,5,0,1:0:0:0:
308,318,72506,1,10,0:0:0:0:
204,186,72672,1,8,0:0:0:0:
160,162,72756,1,0,0:0:0:0:
113,169,72839,1,0,3:0:0:0:
172,342,73006,1,0,1:0:0:0:
212,318,73089,1,0,0:0:0:0:
234,275,73172,1,8,0:0:0:0:
53,237,73339,86,0,P|60:288|81:327,1,95,0|8,3:0|0:0,0:0:0:0:
142,252,73672,1,2,1:2:0:0:
194,52,73839,1,8,0:0:0:0:
194,52,73922,1,0,0:0:0:0:
194,52,74006,1,10,0:0:0:0:
273,230,74172,1,2,3:2:0:0:
80,154,74339,2,0,P|126:147|178:140,1,95,2|10,1:2|0:0,0:0:0:0:
370,144,74672,5,0,3:0:0:0:
377,102,74756,1,0,0:0:0:0:
384,60,74839,1,10,0:0:0:0:
273,230,75006,1,0,1:0:0:0:
280,272,75089,1,0,0:0:0:0:
287,314,75172,1,8,0:0:0:0:
493,337,75339,85,10,0:0:0:0:
511,292,75422,1,2,0:0:0:0:
496,247,75506,1,2,3:2:0:0:
456,219,75589,1,2,0:0:0:0:
408,220,75672,1,2,1:2:0:0:
375,252,75756,1,2,0:0:0:0:
366,298,75839,1,10,0:0:0:0:
205,338,76006,6,0,L|189:226,1,95,4|8,3:2|0:0,0:0:0:0:
191,243,76256,1,0,0:0:0:0:
191,243,76339,1,2,1:2:0:0:
334,82,76506,1,8,0:0:0:0:
257,157,76672,2,0,P|211:144|165:132,1,95,10|2,0:0|3:2,0:0:0:0:
27,242,77006,2,0,P|71:225|118:223,1,95,2|10,1:2|0:0,0:0:0:0:
191,243,77256,85,0,0:0:0:0:
204,255,77339,2,0,L|214:319,1,47.5,2|2,3:2|0:0,0:0:0:0:
290,276,77506,2,0,L|295:325,1,47.5,10|2,0:0|0:0,0:0:0:0:
467,187,77672,6,0,L|478:138,1,47.5,2|2,1:2|0:0,0:0:0:0:
399,121,77839,2,0,L|409:74,1,47.5,10|2,0:0|0:0,0:0:0:0:
302,172,78006,86,0,L|251:155,1,47.5,10|2,0:0|0:0,0:0:0:0:
437,294,78172,2,0,L|483:304,1,47.5,2|2,3:2|0:0,0:0:0:0:
390,155,78339,5,2,1:2:0:0:
381,191,78422,1,2,0:0:0:0:
371,228,78506,1,10,0:0:0:0:
362,264,78589,1,2,0:0:0:0:
353,300,78672,86,0,P|308:282|262:271,1,95,6|2,3:2|3:2,0:0:0:0:
28,327,79006,2,0,P|95:336|140:285,1,142.5,2|0,1:2|3:0,0:0:0:0:
145,250,79339,2,0,B|131:215|131:215|128:149,1,95,6|2,0:0|3:2,0:0:0:0:
306,40,79672,1,2,1:2:0:0:
324,78,79756,1,2,0:0:0:0:
320,120,79839,1,2,3:2:0:0:
292,152,79922,1,2,0:0:0:0:
251,165,80006,5,6,3:2:0:0:
251,165,80089,1,2,0:0:0:0:
251,165,80172,2,0,L|187:152,1,47.5,2|2,3:2|0:0,0:0:0:0:
72,61,80339,1,6,3:2:0:0:
72,61,80422,1,2,0:0:0:0:
72,61,80506,2,0,L|136:48,1,47.5,2|2,3:2|0:0,0:0:0:0:
207,70,80672,86,0,L|216:23,1,47.5,6|2,3:2|3:2,0:0:0:0:
29,186,80839,2,0,L|19:139,1,47.5,2|2,3:2|3:2,0:0:0:0:
242,211,81006,6,0,L|251:164,1,47.5,6|2,3:2|3:2,0:0:0:0:
84,334,81173,2,0,L|74:287,1,47.5,2|2,3:2|3:2,0:0:0:0:
19,213,81339,6,0,P|108:198|167:268,1,190,6|2,3:2|1:2,0:0:0:0:
312,382,81839,1,8,0:0:0:0:
338,286,82006,2,0,P|291:284|249:305,1,95,10|2,0:0|3:2,0:0:0:0:
425,329,82339,2,0,L|441:235,1,95,0|10,1:0|0:0,0:0:0:0:
448,202,82589,1,0,0:0:0:0:
448,202,82672,1,0,3:0:0:0:
363,98,82839,86,0,L|356:65,2,31.6666666666667,10|2|2,0:0|0:0|0:0,0:0:0:0:
369,134,83006,2,0,P|415:124|460:110,1,95,2|10,1:2|0:0,0:0:0:0:
425,329,83339,1,8,0:0:0:0:
336,256,83506,2,0,P|288:262|243:275,1,95,2|0,3:2|1:0,0:0:0:0:
75,119,83839,1,10,0:0:0:0:
126,209,84006,6,0,P|108:276|43:305,1,142.5,0|0,3:0|0:0,0:0:0:0:
21,301,84339,1,0,1:0:0:0:
176,336,84506,1,8,0:0:0:0:
115,182,84672,2,0,P|107:135|106:85,1,95,8|0,0:0|3:0,0:0:0:0:
117,51,84922,1,0,0:0:0:0:
117,51,85006,2,0,P|163:65|212:77,1,95,0|8,1:0|0:0,0:0:0:0:
307,191,85339,86,0,P|260:202|212:216,1,95,0|8,3:0|0:0,0:0:0:0:
371,256,85672,2,0,L|322:370,1,95,0|8,1:0|0:0,0:0:0:0:
462,259,86006,1,8,0:0:0:0:
477,305,86089,1,0,0:0:0:0:
488,347,86172,1,0,3:0:0:0:
414,38,86339,1,0,1:0:0:0:
387,181,86506,1,8,0:0:0:0:
435,21,86672,6,0,L|412:135,1,95,2|8,3:2|0:0,0:0:0:0:
378,221,87006,1,2,1:2:0:0:
269,77,87172,1,8,0:0:0:0:
269,77,87256,1,0,0:0:0:0:
269,77,87339,1,10,0:0:0:0:
123,278,87506,1,2,3:2:0:0:
294,171,87672,1,0,1:0:0:0:
184,109,87839,86,0,P|192:156|201:203,1,95,10|0,0:0|3:0,0:0:0:0:
225,318,88172,2,0,L|218:357,2,31.6666666666667,10|2|2,0:0|0:0|0:0,0:0:0:0:
230,290,88339,2,0,P|276:302|317:329,1,95,2|10,1:2|0:0,0:0:0:0:
68,350,88672,1,8,0:0:0:0:
38,315,88756,1,0,0:0:0:0:
34,268,88839,1,2,3:2:0:0:
244,102,89006,2,0,L|228:195,1,95,0|10,1:0|0:0,0:0:0:0:
123,278,89339,6,0,P|192:291|262:305,1,142.5,0|0,3:0|0:0,0:0:0:0:
285,339,89672,1,0,1:0:0:0:
394,165,89839,1,8,0:0:0:0:
413,257,90006,1,8,0:0:0:0:
364,257,90089,1,0,0:0:0:0:
324,228,90172,1,0,3:0:0:0:
383,58,90339,2,0,P|429:66|468:92,1,95,0|8,1:0|0:0,0:0:0:0:
283,102,90672,86,0,P|288:54|304:10,1,95,0|8,3:0|0:0,0:0:0:0:
158,58,91006,2,0,P|175:107|180:156,1,95,0|8,1:0|0:0,0:0:0:0:
199,186,91256,1,0,0:0:0:0:
196,220,91339,1,8,0:0:0:0:
188,255,91422,1,0,0:0:0:0:
184,287,91506,1,0,3:0:0:0:
104,258,91672,5,0,1:0:0:0:
288,204,91839,1,8,0:0:0:0:
158,57,92006,2,0,P|115:76|65:80,1,95,6|8,3:2|0:0,0:0:0:0:
188,255,92339,2,0,L|206:145,1,95,2|8,1:2|0:0,0:0:0:0:
226,125,92589,1,0,0:0:0:0:
269,105,92672,1,10,0:0:0:0:
315,109,92756,1,0,0:0:0:0:
354,135,92839,1,2,3:2:0:0:
366,280,93006,2,0,B|334:274|334:274|273:291,1,95,0|10,1:0|0:0,0:0:0:0:
421,354,93339,85,0,3:0:0:0:
476,178,93506,2,0,L|512:186,2,31.6666666666667,10|2|2,0:0|0:0|0:0,0:0:0:0:
448,172,93672,2,0,L|473:284,1,95,2|10,1:2|0:0,0:0:0:0:
309,27,94006,1,8,0:0:0:0:
288,204,94172,1,2,3:2:0:0:
421,80,94339,1,0,1:0:0:0:
215,139,94506,5,10,0:0:0:0:
215,139,94589,1,0,0:0:0:0:
215,139,94672,2,0,P|168:129|115:115,1,95,2|8,3:2|0:0,0:0:0:0:
260,279,95006,2,0,P|207:288|166:297,1,95,2|8,1:2|0:0,0:0:0:0:
30,151,95339,1,10,0:0:0:0:
78,313,95506,1,2,3:2:0:0:
85,77,95672,1,0,1:0:0:0:
32,244,95839,86,0,P|74:222|120:212,1,95,10|0,0:0|3:0,0:0:0:0:
299,116,96172,2,0,L|309:163,2,31.6666666666667,10|2|2,0:0|0:0|0:0,0:0:0:0:
293,88,96339,2,0,P|251:110|205:120,1,95,2|10,1:2|0:0,0:0:0:0:
183,113,96589,1,0,0:0:0:0:
163,101,96672,2,0,L|151:41,2,47.5,8|0|2,0:0|0:0|3:2,0:0:0:0:
181,222,97006,1,0,1:0:0:0:
301,64,97172,1,10,0:0:0:0:
428,161,97339,6,0,B|437:194|437:194|426:259,1,95,0|8,3:0|3:2,0:0:0:0:
506,117,97672,1,0,1:0:0:0:
352,212,97839,1,8,0:0:0:0:
325,172,97922,1,0,0:0:0:0:
281,151,98006,1,8,0:0:0:0:
233,154,98089,1,0,3:0:0:0:
201,188,98172,1,0,3:0:0:0:
121,283,98339,86,0,P|112:236|101:178,1,95,0|8,1:0|0:0,0:0:0:0:
101,93,98672,1,0,3:0:0:0:
8,223,98839,1,8,3:2:0:0:
215,67,99006,2,0,P|205:113|198:160,1,95,0|8,1:0|0:0,0:0:0:0:
197,159,99256,1,0,3:0:0:0:
197,159,99339,1,8,0:0:0:0:
101,93,99506,1,0,3:0:0:0:
314,45,99672,1,0,1:0:0:0:
361,262,99839,1,8,3:2:0:0:
158,311,100006,5,0,3:0:0:0:
158,311,100089,1,0,3:0:0:0:
158,311,100172,2,0,L|99:293,1,47.5,0|0,3:0|3:0,0:0:0:0:
38,136,100339,85,0,3:0:0:0:
38,136,100422,1,0,3:0:0:0:
38,136,100506,2,0,L|98:122,1,47.5,0|0,3:0|3:0,0:0:0:0:
289,76,100672,5,0,3:0:0:0:
289,76,100756,1,0,3:0:0:0:
289,76,100839,2,0,L|269:151,1,47.5,0|0,3:0|3:0,0:0:0:0:
337,289,101006,1,0,1:0:0:0:
23,269,101172,86,0,P|96:212|188:224,1,190,4|2,3:2|3:2,0:0:0:0:
215,242,101589,1,0,3:0:0:0:
247,246,101672,1,2,3:2:0:0:
278,235,101756,1,0,3:0:0:0:
300,210,101839,1,0,3:0:0:0:
306,177,101922,1,0,3:0:0:0:
295,148,102006,5,0,3:0:0:0:
244,137,102089,1,0,3:0:0:0:
215,93,102172,1,2,3:2:0:0:
220,40,102256,1,2,3:2:0:0:
278,0,102339,86,0,L|362:16|446:32,1,170.999994781494,6|0,1:2|3:0,0:0:0:0:
476,60,102672,1,4,3:2:0:0:
57,105,113339,6,0,P|104:114|147:131,1,95,6|0,3:2|0:0,0:0:0:0:
298,108,113672,2,0,P|267:144|229:173,1,95,0|0,3:0|0:0,0:0:0:0:
179,317,114006,2,0,P|162:272|156:225,1,95,0|0,3:0|0:0,0:0:0:0:
156,225,114256,1,0,0:0:0:0:
156,225,114339,1,0,3:0:0:0:
333,305,114506,2,0,L|380:324,1,47.5
403,297,114672,86,0,L|300:320,1,95,2|0,3:2|0:0,0:0:0:0:
433,183,115006,2,0,L|306:216,1,95,0|0,3:0|0:0,0:0:0:0:
463,64,115339,1,0,3:0:0:0:
352,93,115506,1,0,0:0:0:0:
352,93,115589,1,0,0:0:0:0:
352,93,115672,1,0,3:0:0:0:
260,26,115839,1,0,0:0:0:0:
86,153,116006,6,0,P|64:195|61:242,1,95,2|0,3:2|0:0,0:0:0:0:
225,295,116339,2,0,P|245:252|249:205,1,95,0|0,3:0|0:0,0:0:0:0:
147,46,116672,2,0,P|163:91|199:120,1,95,0|0,3:0|0:0,0:0:0:0:
232,123,116922,1,0,0:0:0:0:
259,116,117006,2,0,L|351:94,1,95,0|0,3:0|0:0,0:0:0:0:
444,261,117339,86,0,P|397:249|348:240,1,95,0|0,3:0|0:0,0:0:0:0:
225,295,117672,1,0,3:0:0:0:
337,356,117839,1,0,0:0:0:0:
268,197,118006,1,2,3:2:0:0:
146,330,118172,1,0,0:0:0:0:
137,293,118256,1,0,0:0:0:0:
130,259,118339,2,0,L|119:206,1,47.5,0|0,3:0|0:0,0:0:0:0:
45,67,118506,2,0,L|33:113,1,47.5
22,153,118672,6,0,P|68:143|119:131,1,95,2|0,3:2|0:0,0:0:0:0:
267,197,119006,2,0,P|282:127|264:59,1,142.5,0|0,3:0|0:0,0:0:0:0:
234,31,119339,1,2,3:2:0:0:
389,92,119506,1,0,0:0:0:0:
389,92,119589,1,2,0:0:0:0:
389,92,119672,2,0,P|377:138|370:185,1,95,0|2,3:0|0:0,0:0:0:0:
244,315,120006,86,0,P|282:288|327:272,1,95,2|0,3:2|0:0,0:0:0:0:
496,307,120339,2,0,P|452:288|416:257,1,95,0|2,3:0|0:0,0:0:0:0:
475,115,120672,1,2,3:2:0:0:
294,75,120839,1,0,0:0:0:0:
302,114,120922,1,2,0:0:0:0:
312,153,121006,1,0,3:0:0:0:
379,8,121172,1,2,0:0:0:0:
227,178,121339,5,2,3:2:0:0:
205,85,121506,1,0,3:0:0:0:
152,236,121672,85,0,3:0:0:0:
112,61,121839,1,0,3:0:0:0:
61,210,122006,5,0,3:0:0:0:
235,266,122172,1,0,3:0:0:0:
135,142,122339,85,0,3:0:0:0:
85,308,122506,1,0,3:0:0:0:
262,339,122672,5,0,3:0:0:0:
243,303,122756,1,0,3:0:0:0:
235,266,122839,1,0,3:0:0:0:
237,228,122922,1,0,3:0:0:0:
244,189,123006,1,0,3:0:0:0:
255,152,123089,1,0,3:0:0:0:
276,120,123172,1,0,3:0:0:0:
303,93,123256,1,0,3:0:0:0:
337,75,123339,1,0,3:0:0:0:
384,308,123506,85,2,0:0:0:0:
330,192,123672,1,2,0:0:0:0:
458,204,123839,1,2,0:0:0:0:
243,303,124006,22,0,P|177:318|102:328,1,142.5,6|0,3:2|0:0,0:0:0:0:
73,328,124339,2,0,B|73:288|73:288|54:236,1,95,0|10,3:0|0:0,0:0:0:0:
154,36,124672,6,0,B|136:131|136:131|147:175,1,142.5,2|0,3:2|0:0,0:0:0:0:
159,206,125006,1,2,3:2:0:0:
322,113,125172,2,0,P|316:68|308:18,1,95,10|0,0:0|3:0,0:0:0:0:
254,200,125506,1,8,0:0:0:0:
418,280,125672,2,0,P|428:233|443:188,1,95,2|10,3:2|0:0,0:0:0:0:
311,344,126006,2,0,P|273:315|229:298,1,95,2|10,3:2|0:0,0:0:0:0:
191,296,126256,1,2,0:0:0:0:
156,310,126339,1,2,3:2:0:0:
128,124,126506,1,10,0:0:0:0:
1,235,126672,86,0,L|93:214,1,95,2|8,3:2|0:0,0:0:0:0:
193,48,127006,2,0,P|204:118|218:196,1,142.5,2|0,3:2|0:0,0:0:0:0:
225,218,127339,6,0,P|264:192|311:187,1,95,2|10,3:2|0:0,0:0:0:0:
481,315,127672,1,2,3:2:0:0:
438,342,127756,1,0,0:0:0:0:
387,335,127839,1,10,0:0:0:0:
311,187,128006,1,0,3:0:0:0:
419,253,128172,86,0,L|438:117,1,95,10|0,0:0|3:0,0:0:0:0:
512,88,128506,1,10,0:0:0:0:
310,20,128672,1,2,3:2:0:0:
490,77,128839,1,10,0:0:0:0:
270,130,129006,1,2,3:2:0:0:
408,42,129172,1,10,0:0:0:0:
214,62,129339,6,0,P|239:129|244:200,1,142.5,2|0,3:2|0:0,0:0:0:0:
242,229,129672,2,0,P|195:239|144:254,1,95,0|10,3:0|0:0,0:0:0:0:
30,292,130006,2,0,P|21:245|6:200,1,95,2|8,3:2|0:0,0:0:0:0:
196,97,130339,1,2,3:2:0:0:
104,27,130506,86,0,P|84:75|87:135,1,95,10|0,0:0|3:0,0:0:0:0:
111,237,130839,1,8,0:0:0:0:
309,145,131006,2,0,P|331:192|331:252,1,95,2|10,3:2|0:0,0:0:0:0:
281,339,131339,2,0,P|234:328|188:317,1,95,2|10,3:2|0:0,0:0:0:0:
160,327,131589,1,2,0:0:0:0:
138,338,131672,1,2,3:2:0:0:
83,148,131839,1,10,0:0:0:0:
32,339,132006,5,2,3:2:0:0:
204,247,132172,1,8,0:0:0:0:
35,235,132339,2,0,P|33:163|18:94,1,142.5,2|0,3:2|0:0,0:0:0:0:
1,64,132672,1,2,3:2:0:0:
110,131,132839,2,0,B|145:139|145:139|216:122,1,95,10|0,0:0|3:0,0:0:0:0:
314,77,133172,1,10,0:0:0:0:
155,35,133339,1,0,3:0:0:0:
277,149,133506,86,0,P|289:194|297:241,1,95,6|0,3:2|0:0,0:0:0:0:
216,257,133756,6,0,P|204:296|194:353,1,95,6|0,3:2|0:0,0:0:0:0:
269,384,134006,86,0,L|363:361,1,95,2|2,1:2|3:2,0:0:0:0:
382,369,134256,1,0,3:0:0:0:
400,374,134339,1,2,3:2:0:0:
199,175,134506,2,0,L|210:256,1,47.5,2|0,3:2|3:0,0:0:0:0:
216,257,134672,6,0,P|171:241|124:231,1,95,6|8,3:2|0:0,0:0:0:0:
295,129,135006,2,0,P|339:146|384:159,1,95,0|10,3:0|0:0,0:0:0:0:
465,321,135339,2,0,P|473:274|487:228,1,95,2|8,3:2|0:0,0:0:0:0:
414,16,135672,85,2,3:2:0:0:
436,41,135756,1,2,0:0:0:0:
449,72,135839,1,10,0:0:0:0:
452,105,135922,1,2,0:0:0:0:
445,137,136006,1,2,3:2:0:0:
428,166,136089,1,2,0:0:0:0:
403,185,136172,1,10,0:0:0:0:
319,145,136339,1,2,3:2:0:0:
488,229,136506,1,10,0:0:0:0:
321,237,136672,6,0,L|335:331,1,95,2|10,3:2|0:0,0:0:0:0:
224,279,136922,1,2,0:0:0:0:
209,259,137006,2,0,L|228:364,1,95,2|10,3:2|0:0,0:0:0:0:
97,221,137339,85,2,3:2:0:0:
121,327,137506,1,8,0:0:0:0:
187,163,137672,2,0,P|118:144|44:119,1,142.5,2|0,3:2|0:0,0:0:0:0:
30,113,138006,2,0,P|51:75|67:25,1,95,2|10,3:2|0:0,0:0:0:0:
211,41,138339,5,2,3:2:0:0:
220,72,138422,1,2,0:0:0:0:
226,104,138506,1,10,0:0:0:0:
225,136,138589,1,2,0:0:0:0:
218,169,138672,1,2,3:2:0:0:
212,202,138756,1,2,0:0:0:0:
216,234,138839,1,10,0:0:0:0:
248,328,139006,85,2,3:2:0:0:
384,239,139172,1,10,0:0:0:0:
491,348,139339,1,2,3:2:0:0:
301,224,139506,6,0,L|313:275,1,47.5,2|0,3:2|3:0,0:0:0:0:
321,306,139672,1,2,3:2:0:0:
481,185,139839,2,0,L|471:231,1,47.5,2|0,3:2|0:0,0:0:0:0:
464,261,140006,85,2,3:2:0:0:
354,70,140172,1,0,3:0:0:0:
406,162,140339,5,0,3:0:0:0:
448,15,140506,1,2,3:2:0:0:
199,162,140672,85,2,3:2:0:0:
326,228,140839,1,0,3:0:0:0:
258,55,141006,5,2,3:2:0:0:
239,87,141089,1,2,0:0:0:0:
214,115,141172,1,2,3:2:0:0:
178,127,141256,1,2,0:0:0:0:
139,131,141339,1,2,3:2:0:0:
101,124,141422,1,2,0:0:0:0:
70,102,141506,1,2,3:2:0:0:
114,31,141672,85,2,3:2:0:0:
13,169,141839,1,2,3:2:0:0:
103,311,142006,1,2,3:2:0:0:
93,208,142172,1,2,3:2:0:0:
93,208,142256,1,2,0:0:0:0:
93,208,142339,1,2,3:2:0:0:
7,285,142506,1,2,3:2:0:0:
199,337,142672,5,2,3:2:0:0:
202,308,142756,1,0,3:0:0:0:
197,279,142839,1,0,3:0:0:0:
186,252,142922,1,0,3:0:0:0:
165,233,143006,85,2,3:2:0:0:
140,218,143089,1,0,3:0:0:0:
117,200,143172,1,0,3:0:0:0:
102,174,143256,1,0,3:0:0:0:
91,148,143339,5,2,3:2:0:0:
92,121,143422,1,0,3:0:0:0:
102,90,143506,1,2,3:2:0:0:
125,62,143589,1,0,3:0:0:0:
162,42,143672,85,0,3:0:0:0:
210,41,143756,1,0,3:0:0:0:
257,67,143839,1,2,3:2:0:0:
285,123,143922,1,0,3:0:0:0:
269,193,144006,5,0,3:0:0:0:
471,253,144172,2,0,P|477:205|490:160,1,95,4|0,3:2|0:0,0:0:0:0:
434,99,144422,1,4,3:2:0:0:
425,82,144506,2,0,L|410:160,1,47.5
359,190,144672,2,0,P|372:235|379:284,1,95,0|0,1:2|3:0,0:0:0:0:
375,365,144922,85,0,3:0:0:0:
365,383,145006,2,0,L|432:373,1,47.5,0|0,3:0|0:0,0:0:0:0:
260,338,145172,1,0,3:0:0:0:
237,335,145256,1,0,3:0:0:0:
214,332,145339,22,0,B|180:341|180:341|160:323|160:323|127:345|74:336,1,142.5,6|0,3:2|0:0,0:0:0:0:
52,330,145672,1,0,1:0:0:0:
95,166,145839,1,10,0:0:0:0:
101,206,145922,1,0,0:0:0:0:
106,246,146006,1,10,0:0:0:0:
198,194,146172,1,2,3:2:0:0:
12,208,146339,2,0,P|6:160|0:113,1,95,0|10,1:0|0:0,0:0:0:0:
69,40,146672,70,0,P|107:67|152:81,1,95,2|8,3:2|0:0,0:0:0:0:
372,33,147006,2,0,P|325:42|284:66,1,95,0|10,1:0|0:0,0:0:0:0:
260,102,147256,1,0,0:0:0:0:
255,144,147339,1,10,0:0:0:0:
266,185,147422,1,0,0:0:0:0:
298,213,147506,1,2,3:2:0:0:
371,167,147672,21,0,1:0:0:0:
294,303,147839,1,10,0:0:0:0:
341,141,148006,70,0,P|398:155|486:172,1,142.5,2|0,3:2|0:0,0:0:0:0:
512,169,148339,1,0,1:0:0:0:
366,25,148506,1,10,0:0:0:0:
335,54,148589,1,0,0:0:0:0:
294,68,148672,1,10,0:0:0:0:
250,65,148756,1,0,0:0:0:0:
220,34,148839,1,2,3:2:0:0:
123,49,149006,2,0,P|136:94|145:141,1,95,0|10,1:0|0:0,0:0:0:0:
216,293,149339,22,0,P|222:245|234:199,1,95,2|8,3:2|0:0,0:0:0:0:
321,272,149672,1,0,1:0:0:0:
110,311,149839,1,10,0:0:0:0:
115,276,149922,1,0,0:0:0:0:
112,241,150006,1,8,0:0:0:0:
106,207,150089,1,0,0:0:0:0:
92,175,150172,1,2,3:2:0:0:
19,216,150339,1,2,1:2:0:0:
185,180,150506,1,10,0:0:0:0:
157,14,150672,70,0,L|140:118,1,95,2|8,3:2|0:0,0:0:0:0:
141,107,150922,1,0,0:0:0:0:
141,107,151006,1,2,1:2:0:0:
72,48,151172,1,8,0:0:0:0:
241,103,151339,2,0,P|289:93|333:79,1,95,10|2,0:0|3:2,0:0:0:0:
222,240,151672,2,0,P|174:226|130:214,1,95,0|10,1:0|0:0,0:0:0:0:
310,185,152006,2,0,P|319:238|332:304,1,95,2|8,3:2|0:0,0:0:0:0:
321,313,152256,1,0,0:0:0:0:
321,313,152339,2,0,P|370:298|413:291,1,95,2|8,1:2|0:0,0:0:0:0:
228,101,152672,21,10,0:0:0:0:
220,128,152756,1,2,0:0:0:0:
213,156,152839,1,2,3:2:0:0:
213,184,152922,1,2,0:0:0:0:
218,212,153006,1,0,1:0:0:0:
222,240,153089,1,2,0:0:0:0:
221,268,153172,1,10,0:0:0:0:
216,295,153256,1,2,0:0:0:0:
230,333,153339,70,0,P|184:319|135:311,1,95,2|8,3:2|0:0,0:0:0:0:
110,88,153672,1,2,1:2:0:0:
42,177,153839,1,8,0:0:0:0:
42,177,153922,1,2,0:0:0:0:
42,177,154006,2,0,P|86:196|133:198,1,95,10|2,0:0|3:2,0:0:0:0:
235,62,154339,2,0,L|248:126,1,47.5,2|2,1:2|0:0,0:0:0:0:
324,201,154506,2,0,L|331:135,1,47.5,10|2,0:0|0:0,0:0:0:0:
409,87,154672,22,0,P|362:78|313:61,1,95,2|2,1:2|0:0,0:0:0:0:
244,108,154922,2,0,P|196:111|150:123,1,95,2|2,3:2|0:0,0:0:0:0:
87,222,155172,2,0,P|79:175|67:129,1,95,2|2,1:2|0:0,0:0:0:0:
187,198,155422,2,0,P|169:254|162:321,1,95,2|2,3:2|0:0,0:0:0:0:
173,328,155672,1,2,1:2:0:0:
209,358,155756,1,2,0:0:0:0:
256,364,155839,1,2,3:2:0:0:
299,347,155922,1,2,3:2:0:0:
324,306,156006,69,0,3:0:0:0:
273,226,156172,1,2,0:3:0:0:
330,146,156339,1,2,0:3:0:0:
330,146,156422,1,2,0:3:0:0:
463,36,156589,21,2,0:0:0:0:
504,121,156756,1,2,0:0:0:0:
432,179,156922,1,2,0:0:0:0:
432,179,157006,2,0,L|424:233,1,47.5,2|2,0:0|0:0,0:0:0:0:
503,235,157172,2,0,L|515:297,1,47.5,2|2,0:0|0:0,0:0:0:0:
429,313,157339,70,0,P|390:299|336:291,1,95,6|8,3:2|0:0,0:0:0:0:
240,340,157672,1,2,1:2:0:0:
94,200,157839,1,8,0:0:0:0:
94,200,157922,1,0,0:0:0:0:
94,200,158006,2,0,P|140:226|205:224,1,95,2|8,3:2|0:0,0:0:0:0:
217,221,158256,2,0,P|222:173|228:126,1,95,2|0,3:2|0:0,0:0:0:0:
249,93,158506,1,10,1:2:0:0:
404,138,158672,22,0,P|359:154|316:174,1,95,0|8,0:0|3:2,0:0:0:0:
482,203,159006,2,0,P|470:250|454:294,1,95,0|8,1:0|0:0,0:0:0:0:
337,65,159339,1,0,3:0:0:0:
387,229,159506,1,8,3:2:0:0:
228,196,159672,1,0,1:0:0:0:
190,175,159756,1,0,0:0:0:0:
147,176,159839,1,10,0:0:0:0:
110,197,159922,1,2,0:0:0:0:
98,238,160006,70,0,P|109:284|117:332,1,95,2|8,3:2|0:0,0:0:0:0:
445,282,160339,2,0,P|383:313|323:279,1,142.5,2|0,1:2|0:0,0:0:0:0:
302,251,160672,22,0,P|311:204|318:157,1,95,2|8,3:2|0:0,0:0:0:0:
312,119,160922,2,0,B|343:134|343:134|404:138,1,95,2|0,3:2|0:0,0:0:0:0:
440,116,161172,1,10,1:2:0:0:
324,20,161339,1,0,0:0:0:0:
236,164,161506,70,0,P|190:158|147:137,1,95,10|2,3:2|1:2,0:0:0:0:
98,56,161839,1,10,0:0:0:0:
98,56,161922,1,0,0:0:0:0:
98,56,162006,1,2,3:2:0:0:
20,160,162172,1,8,3:2:0:0:
222,71,162339,1,0,1:0:0:0:
92,28,162506,1,10,0:0:0:0:
120,157,162672,22,0,P|103:205|99:253,1,95,2|8,3:2|0:0,0:0:0:0:
313,334,163006,2,0,P|344:271|344:200,1,142.5,2|0,1:2|0:0,0:0:0:0:
358,167,163339,70,0,L|264:184,1,95,2|8,3:2|0:0,0:0:0:0:
225,168,163589,2,0,P|236:214|240:261,1,95,2|0,3:2|0:0,0:0:0:0:
223,302,163839,1,10,1:2:0:0:
289,79,164006,22,0,P|242:69|196:58,1,95,0|10,0:0|3:2,0:0:0:0:
114,250,164339,1,2,1:2:0:0:
28,124,164506,1,10,0:0:0:0:
28,124,164589,1,0,0:0:0:0:
28,124,164672,2,0,L|140:149,1,95,2|8,3:2|3:2,0:0:0:0:
349,259,165006,2,0,P|302:267|255:277,1,95,0|10,1:0|0:0,0:0:0:0:
90,348,165339,69,6,3:2:0:0:
189,207,165506,1,0,1:0:0:0:
95,54,165672,1,2,0:0:0:0:
189,207,165839,1,0,3:0:0:0:
219,78,166006,21,6,1:2:0:0:
86,242,166172,1,2,0:0:0:0:
274,271,166339,1,2,0:0:0:0:
90,129,166506,70,0,L|118:296,1,142.5,6|0,3:2|0:0,0:0:0:0:
192,303,166839,1,2,3:2:0:0:
192,303,166922,2,0,L|180:370,1,47.5,2|0,0:0|0:0,0:0:0:0:
274,271,167089,1,0,3:0:0:0:
274,271,167172,2,0,L|319:310,1,47.5
292,188,167339,1,0,1:0:0:0:
318,48,167506,1,0,3:0:0:0:
479,93,167672,1,2,3:2:0:0:
481,104,167756,1,2,0:0:0:0:
484,116,167839,1,2,0:0:0:0:
486,128,167922,1,2,0:0:0:0:
489,141,168006,22,0,P|419:123|349:115,1,142.5,6|0,3:2|0:0,0:0:0:0:
306,120,168339,1,0,1:0:0:0:
110,47,168506,1,8,0:0:0:0:
110,47,168589,1,0,0:0:0:0:
110,47,168672,2,0,P|128:104|135:162,1,95,0|8,3:0|0:0,0:0:0:0:
168,135,168922,2,0,P|151:185|139:251,1,95,0|0,3:0|0:0,0:0:0:0:
144,309,169172,69,10,1:2:0:0:
144,309,169256,1,2,0:0:0:0:
144,309,169339,2,0,L|35:276,1,95,2|8,0:0|3:2,0:0:0:0:
168,135,169672,1,0,1:0:0:0:
243,259,169839,1,8,0:0:0:0:
395,170,170006,21,0,3:0:0:0:
255,233,170172,1,8,3:2:0:0:
467,311,170339,1,2,1:2:0:0:
297,79,170506,1,8,0:0:0:0:
297,79,170589,1,0,0:0:0:0:
297,79,170672,2,0,B|312:115|312:115|304:180,1,95,2|8,3:2|0:0,0:0:0:0:
144,309,171006,2,0,P|95:315|44:326,1,95,0|8,1:0|0:0,0:0:0:0:
107,118,171339,70,0,P|152:131|199:139,1,95,0|10,3:0|0:0,0:0:0:0:
235,162,171589,1,2,3:2:0:0:
235,162,171672,2,0,L|248:89,1,47.5,2|0,0:0|0:0,0:0:0:0:
262,29,171839,1,10,1:2:0:0:
456,145,172006,2,0,P|408:141|364:156,1,95,0|10,0:0|3:2,0:0:0:0:
338,178,172256,1,0,0:0:0:0:
328,210,172339,1,0,1:0:0:0:
482,348,172506,1,10,0:0:0:0:
398,292,172672,22,0,P|347:307|294:324,1,95,2|10,3:2|3:2,0:0:0:0:
50,271,173006,1,2,1:2:0:0:
94,253,173089,1,2,0:0:0:0:
140,261,173172,1,10,0:0:0:0:
174,294,173256,1,2,0:0:0:0:
185,340,173339,70,0,L|200:246,1,95,2|8,3:2|0:0,0:0:0:0:
348,59,173672,2,0,L|326:178,1,95,0|8,1:0|0:0,0:0:0:0:
488,319,174006,2,0,P|441:303|395:290,1,95,0|8,3:0|0:0,0:0:0:0:
379,266,174256,2,0,P|333:278|286:288,1,95,0|0,3:0|0:0,0:0:0:0:
257,308,174506,22,0,P|228:243|235:173,1,142.500005435944,10|8,1:2|3:2,0:0:0:0:
338,133,175006,1,2,1:2:0:0:
171,80,175172,1,10,0:0:0:0:
28,305,175339,69,2,3:2:0:0:
202,250,175506,1,10,3:2:0:0:
202,250,175589,1,2,0:0:0:0:
202,250,175672,1,2,1:2:0:0:
93,133,175839,1,10,0:0:0:0:
220,330,176006,22,0,L|236:236,1,95,6|0,3:2|0:0,0:0:0:0:
210,70,176339,2,0,P|275:97|346:100,1,142.5,2|0,0:0|0:0,0:0:0:0:
389,83,176672,69,6,3:2:0:0:
272,188,176839,1,2,0:0:0:0:
418,235,177006,1,2,0:0:0:0:
251,160,177172,2,0,P|261:230|270:301,1,142.5,6|0,3:2|0:0,0:0:0:0:
214,359,177506,1,6,3:2:0:0:
214,359,177589,2,0,L|140:343,1,47.5,2|0,0:0|0:0,0:0:0:0:
79,351,177756,2,0,P|88:306|98:258,1,95,6|0,3:2|0:0,0:0:0:0:
110,220,178006,21,0,1:0:0:0:
91,117,178172,1,0,3:0:0:0:
74,13,178339,1,0,1:0:0:0:
439,51,178672,6,0,P|426:112|421:144,1,71.2500027179719,6|2,3:2|0:0,0:0:0:0:
441,212,179006,1,2,0:0:0:0:
358,185,179172,2,0,P|285:170|210:158,1,142.500005435944,2|2,0:0|0:0,0:0:0:0:
376,273,179672,2,0,P|396:335|403:362,1,71.2500027179719,2|2,0:0|0:0,0:0:0:0:
441,212,180006,21,0,0:0:0:0:
451,125,180172,1,2,0:0:0:0:
462,40,180339,1,2,0:0:0:0:
310,122,180506,2,0,P|242:128|187:82,1,142.500005435944,2|2,0:0|0:0,0:0:0:0:
84,35,181006,2,0,P|79:70|72:112,1,71.2500027179719,2|2,0:0|0:0,0:0:0:0:
142,157,181339,69,2,0:0:0:0:
58,189,181506,1,2,0:0:0:0:
0,127,181672,1,2,0:0:0:0:
56,201,181839,2,0,P|67:250|72:357,1,142.500005435944,2|2,0:0|0:0,0:0:0:0:
153,273,182339,2,0,P|188:265|230:261,1,71.2500027179719,2|2,0:0|0:0,0:0:0:0:
394,278,182672,22,0,P|389:313|383:348,1,71.2500027179719,0|2,0:0|0:0,0:0:0:0:
307,305,183006,1,2,0:0:0:0:
479,320,183172,2,0,L|488:249|497:178,1,142.500005435944,2|2,0:0|0:0,0:0:0:0:
350,75,183672,2,0,P|348:110|357:144,1,71.2500027179719,2|2,0:0|0:0,0:0:0:0:
438,106,184006,1,2,0:0:0:0:
263,56,184172,1,2,0:0:0:0:
425,15,184339,1,2,0:0:0:0:
362,184,184506,70,0,P|306:142|232:154,1,142.500005435944,2|2,0:0|0:0,0:0:0:0:
161,190,185006,2,0,P|157:219|150:260,1,71.2500027179719,2|2,0:0|0:0,0:0:0:0:
46,75,185339,21,0,0:0:0:0:
76,160,185506,1,2,0:0:0:0:
58,247,185672,1,2,0:0:0:0:
106,320,185839,2,0,P|176:310|247:299,1,142.500005435944,2|2,0:0|0:0,0:0:0:0:
365,222,186339,2,0,P|330:214|297:200,1,71.2500027179719,2|2,0:0|0:0,0:0:0:0:
164,84,186672,70,0,L|176:154,1,71.2500027179719,2|2,0:0|0:0,0:0:0:0:
255,22,187006,1,2,0:0:0:0:
343,86,187172,2,0,P|332:156|322:226,1,142.500005435944,2|2,0:0|0:0,0:0:0:0:
320,335,187672,2,0,P|285:326|244:317,1,71.2500027179719,2|2,0:0|1:2,0:0:0:0:
226,314,187922,1,0,1:0:0:0:
205,310,188006,1,0,1:0:0:0:
146,203,188172,1,2,1:2:0:0:
63,360,188339,21,2,1:2:0:0:
33,340,188422,1,0,1:0:0:0:
20,306,188506,1,2,1:2:0:0:
20,270,188589,1,0,1:0:0:0:
33,229,188672,69,0,1:0:0:0:
64,199,188756,1,0,1:0:0:0:
83,161,188839,1,2,1:2:0:0:
83,118,188922,1,0,1:0:0:0:
62,77,189006,22,0,P|42:67|22:62,1,42.7499986953736,2|0,1:2|1:0,0:0:0:0:
150,23,189172,2,0,P|173:18|191:11,1,42.7499986953736,2|0,1:2|1:0,0:0:0:0:
163,118,189339,70,0,P|167:160|175:213,1,85.4999973907472,6|0,3:2|0:0,0:0:0:0:
205,310,189672,1,0,0:0:0:0:
369,229,189839,1,2,0:0:0:0:
369,229,189922,1,0,0:0:0:0:
369,229,190006,2,0,P|303:217|270:209,1,85.4999973907472
120,324,190339,2,0,P|162:317|204:309,1,85.4999973907472,2|0,0:0|0:0,0:0:0:0:
384,199,190672,22,0,P|390:242|397:284,1,85.4999973907472,2|0,0:0|0:0,0:0:0:0:
452,100,191006,1,0,0:0:0:0:
303,175,191172,1,2,0:0:0:0:
267,167,191256,1,0,0:0:0:0:
236,158,191339,1,0,0:0:0:0:
243,258,191506,1,0,0:0:0:0:
296,80,191672,2,0,P|336:70|384:57,1,85.4999973907472,2|0,0:0|0:0,0:0:0:0:
162,216,192006,70,0,P|145:176|146:134,1,85.4999973907472,2|0,0:0|0:0,0:0:0:0:
211,55,192339,1,0,0:0:0:0:
36,32,192506,1,2,0:0:0:0:
36,32,192589,1,0,0:0:0:0:
36,32,192672,2,0,B|50:65|50:65|52:135,1,85.4999973907472
162,216,193006,2,0,P|120:227|74:240,1,85.4999973907472,2|0,0:0|0:0,0:0:0:0:
4,295,193339,21,0,0:0:0:0:
83,345,193506,1,2,0:0:0:0:
168,306,193672,1,0,0:0:0:0:
248,355,193839,1,0,0:0:0:0:
263,350,193922,1,0,0:0:0:0:
275,345,194006,1,2,0:0:0:0:
224,146,194172,1,0,0:0:0:0:
246,249,194339,1,2,0:0:0:0:
311,74,194506,1,0,0:0:0:0:
140,109,194672,70,0,P|98:97|57:86,1,85.4999973907472,2|0,0:0|0:0,0:0:0:0:
168,306,195006,1,0,0:0:0:0:
279,236,195172,1,2,0:0:0:0:
279,236,195256,1,0,0:0:0:0:
279,236,195339,2,0,L|388:265,1,85.4999973907472
474,110,195672,1,2,0:0:0:0:
370,167,195839,1,0,0:0:0:0:
473,224,196006,21,2,0:0:0:0:
357,61,196172,1,0,0:0:0:0:
357,61,196256,1,0,0:0:0:0:
356,61,196339,2,0,P|350:103|345:146,1,85.4999973907472,0|2,0:0|0:0,0:0:0:0:
192,286,196672,2,0,P|197:245|205:191,1,85.4999973907472
78,20,197006,2,0,L|59:132,1,85.4999973907472,2|0,0:0|0:0,0:0:0:0:
59,130,197256,1,0,0:0:0:0:
55,155,197339,1,2,3:2:0:0:
153,110,197506,70,0,P|196:117|236:130,1,85.4999973907472,0|0,0:0|3:0,0:0:0:0:
386,74,197839,2,0,P|368:112|358:154,1,85.4999973907472,2|0,0:0|3:0,0:0:0:0:
389,289,198172,1,0,0:0:0:0:
287,245,198339,2,0,L|245:253|203:261,1,85.4999973907472,2|0,3:2|0:0,0:0:0:0:
33,180,198672,21,2,3:2:0:0:
98,329,198839,1,0,0:0:0:0:
126,159,199006,1,0,3:0:0:0:
3,352,199172,69,2,0:0:0:0:
88,235,199339,1,0,3:0:0:0:
0,104,199506,1,0,0:0:0:0:
6,265,199672,21,2,3:2:0:0:
166,226,199839,1,0,0:0:0:0:
338,181,200006,70,0,P|329:227|323:274,1,95,6|0,3:2|0:0,0:0:0:0:
237,105,200339,2,0,P|245:58|251:11,1,95,0|2,3:0|0:0,0:0:0:0:
483,119,200672,2,0,P|441:95|391:86,1,95,0|0,3:0|0:0,0:0:0:0:
367,83,200922,1,0,0:0:0:0:
335,90,201006,1,2,3:2:0:0:
250,196,201172,21,0,0:0:0:0:
186,22,201339,1,2,3:2:0:0:
48,145,201506,1,0,0:0:0:0:
48,145,201589,1,0,0:0:0:0:
48,145,201672,2,0,P|95:145|150:131,1,95,0|2,3:0|0:0,0:0:0:0:
237,105,202006,1,0,3:0:0:0:
210,276,202172,1,0,0:0:0:0:
385,215,202339,2,0,P|336:198|291:193,1,95,2|0,3:2|0:0,0:0:0:0:
144,216,202672,70,0,P|133:268|125:308,1,95,2|0,3:2|0:0,0:0:0:0:
237,105,203006,2,0,P|246:58|253:11,1,95,0|2,3:0|0:0,0:0:0:0:
253,11,203256,1,0,0:0:0:0:
253,11,203339,1,0,3:0:0:0:
314,171,203506,1,0,0:0:0:0:
149,112,203672,2,0,P|102:118|60:153,1,95,2|0,3:2|0:0,0:0:0:0:
222,279,204006,22,0,P|239:235|234:174,1,95,0|2,3:0|0:0,0:0:0:0:
56,259,204339,2,0,P|84:296|136:315,1,95,0|0,3:0|0:0,0:0:0:0:
144,216,204672,1,2,3:2:0:0:
105,32,204839,1,0,0:0:0:0:
234,156,205006,1,2,3:2:0:0:
54,140,205172,1,0,0:0:0:0:
220,50,205339,70,0,P|272:61|319:70,1,95,2|0,3:2|3:0,0:0:0:0:
313,68,205589,1,0,0:0:0:0:
313,68,205672,1,0,3:0:0:0:
454,30,205839,1,2,3:2:0:0:
457,63,205922,1,0,0:0:0:0:
460,96,206006,2,0,L|446:200,1,95,0|0,3:0|3:0,0:0:0:0:
366,324,206339,2,0,P|354:278|332:235,1,95,2|0,3:2|3:0,0:0:0:0:
234,156,206672,22,0,P|183:165|128:174,1,95,2|0,3:2|3:0,0:0:0:0:
332,235,207006,2,0,L|447:205,1,95,0|2,3:0|3:2,0:0:0:0:
240,312,207339,1,0,3:0:0:0:
329,147,207506,2,0,L|318:96,1,47.5,0|0,3:0|0:0,0:0:0:0:
273,35,207672,1,2,3:2:0:0:
236,47,207756,1,0,3:0:0:0:
198,53,207839,1,0,3:0:0:0:
161,59,207922,1,0,3:0:0:0:
120,33,208006,69,2,3:2:0:0:
72,34,208089,1,0,3:0:0:0:
33,61,208172,1,0,3:0:0:0:
17,106,208256,1,0,3:0:0:0:
34,148,208339,22,0,P|38:172|41:202,1,47.5,0|0,3:0|3:0,0:0:0:0:
93,266,208506,2,0,P|87:289|82:318,1,47.5,2|0,3:2|3:0,0:0:0:0:
180,306,208672,69,0,3:0:0:0:
220,291,208756,1,0,3:0:0:0:
262,287,208839,1,0,3:0:0:0:
304,293,208922,1,0,3:0:0:0:
342,311,209006,2,0,L|388:322,1,47.5,2|0,3:2|3:0,0:0:0:0:
387,192,209172,2,0,L|442:192,1,47.5,0|0,3:0|3:0,0:0:0:0:
334,76,209339,22,0,B|391:56|391:56|485:75|485:75|419:22,1,237.5,0|0,3:0|0:0,0:0:0:0:
258,13,210339,1,2,0:3:0:0:
230,51,210422,1,2,0:3:0:0:
227,98,210506,1,2,0:3:0:0:
244,142,210589,1,2,0:3:0:0:
283,168,210672,70,0,P|307:216|304:286,1,113.999996520996,4|0,3:2|0:0,0:0:0:0:
103,328,211006,2,0,P|79:280|82:210,1,113.999996520996,6|0,3:2|0:0,0:0:0:0:
192,249,211339,1,0,1:0:0:0:
192,249,211672,21,0,1:0:0:0:
213,362,211839,2,0,P|283:316|401:343,1,190,4|0,3:2|3:0,0:0:0:0:
384,331,212256,1,0,3:0:0:0:
383,331,212339,2,0,P|397:285|405:238,1,95,4|2,3:2|0:0,0:0:0:0:
257,30,212672,69,0,1:0:0:0:
312,185,212839,1,0,3:0:0:0:
430,73,213006,1,0,1:0:0:0:
228,127,213172,1,0,3:0:0:0:
228,127,213256,1,0,3:0:0:0:
228,127,213339,2,0,P|180:122|138:101,1,95,4|0,3:2|0:0,0:0:0:0:
105,82,213589,2,0,P|110:129|117:176,1,95,6|0,3:2|0:0,0:0:0:0:
107,210,213839,1,6,3:2:0:0:
286,267,214006,22,0,P|334:263|375:241,1,95,4|0,3:2|0:0,0:0:0:0:
409,222,214256,2,0,P|403:269|396:316,1,95,4|0,3:2|0:0,0:0:0:0:
421,343,214506,1,4,3:2:0:0:
122,62,214839,69,4,3:2:0:0:
255,114,215006,1,0,0:0:0:0:
255,114,215089,1,4,3:2:0:0:
396,65,215256,1,0,0:0:0:0:
396,65,215339,1,0,1:0:0:0:
255,5,215506,1,0,3:0:0:0:
255,114,215672,2,0,B|228:184|284:184|256:251,1,142.5,0|0,1:0|0:0,0:0:0:0:
253,299,216006,21,0,3:0:0:0:
233,345,216089,1,8,0:0:0:0:
189,363,216172,1,8,0:0:0:0:
141,355,216256,1,8,0:0:0:0:
107,322,216339,2,0,P|64:301|17:295,1,95,2|8,1:2|0:0,0:0:0:0:
122,75,216672,69,8,0:0:0:0:
127,112,216756,1,8,0:0:0:0:
131,149,216839,1,0,3:0:0:0:
134,186,216922,1,8,0:0:0:0:
138,224,217006,2,0,P|183:238|230:244,1,95,2|8,1:2|0:0,0:0:0:0:
461,164,217339,21,0,3:0:0:0:
415,149,217422,1,8,0:0:0:0:
370,166,217506,1,8,0:0:0:0:
345,206,217589,1,8,0:0:0:0:
344,252,217672,2,0,P|364:295|370:342,1,95,2|8,1:2|0:0,0:0:0:0:
241,242,218006,69,8,0:0:0:0:
239,194,218089,1,8,0:0:0:0:
258,150,218172,1,0,3:0:0:0:
281,108,218256,1,8,0:0:0:0:
269,62,218339,2,0,P|226:40|176:37,1,95,2|8,1:2|0:0,0:0:0:0:
145,48,218589,1,0,0:0:0:0:
145,48,218672,22,0,L|158:113,1,47.5,2|0,3:2|0:0,0:0:0:0:
64,96,218839,2,0,L|41:166,1,47.5,8|0,0:0|0:0,0:0:0:0:
145,179,219006,2,0,L|163:226,1,47.5,0|0,1:0|0:0,0:0:0:0:
52,229,219172,2,0,L|39:274,1,47.5,8|0,0:0|0:0,0:0:0:0:
100,350,219339,70,0,L|146:340,1,47.5,10|2,0:0|0:0,0:0:0:0:
239,286,219506,2,0,L|283:302,1,47.5,2|2,3:2|0:0,0:0:0:0:
386,349,219672,1,2,1:2:0:0:
396,317,219756,1,2,0:0:0:0:
408,286,219839,1,10,0:0:0:0:
416,253,219922,1,2,0:0:0:0:
425,220,220006,22,0,P|414:173|407:126,1,95,2|2,1:2|0:0,0:0:0:0:
345,85,220256,1,2,3:2:0:0:
332,73,220339,2,0,L|342:6,1,47.5,2|2,0:0|0:0,0:0:0:0:
322,157,220506,70,0,P|275:164|230:178,1,95,2|2,1:2|0:0,0:0:0:0:
204,191,220756,1,2,3:2:0:0:
182,212,220839,1,2,0:0:0:0:
1,103,221006,1,2,1:2:0:0:
23,143,221089,1,2,0:0:0:0:
63,165,221172,1,2,3:2:0:0:
110,160,221256,1,2,3:2:0:0:
149,133,221339,22,0,P|165:78|171:22,1,113.999996520996,4|0,3:2|0:0,0:0:0:0:
362,250,221672,2,0,P|346:305|340:361,1,113.999996520996,4|0,3:2|0:0,0:0:0:0:
257,194,222006,1,0,1:0:0:0:
257,194,222339,69,0,1:0:0:0:
66,238,222506,2,0,P|94:294|221:280,1,190,4|0,3:2|3:0,0:0:0:0:
208,293,222922,1,0,3:0:0:0:
207,293,223006,2,0,P|253:307|298:322,1,95,4|0,3:2|0:0,0:0:0:0:
297,16,223339,21,0,1:0:0:0:
333,180,223506,1,0,3:0:0:0:
166,125,223672,2,0,P|120:137|73:145,1,95,0|0,1:0|3:0,0:0:0:0:
274,244,224006,2,0,P|342:225|415:217,1,142.5,4|0,3:2|0:0,0:0:0:0:
452,220,224339,1,2,3:2:0:0:
452,220,224672,70,0,L|442:284,1,47.5,2|0,3:2|0:0,0:0:0:0:
284,98,224922,22,0,L|274:43,1,47.5,2|0,3:2|0:0,0:0:0:0:
433,79,225172,70,0,L|420:151,1,47.5,2|0,3:2|0:0,0:0:0:0:
274,244,225422,22,0,L|258:157,1,47.5,2|0,3:2|0:0,0:0:0:0:
120,338,225672,70,0,L|167:327,1,47.5,2|0,3:2|0:0,0:0:0:0:
418,233,225922,22,0,L|362:220,1,47.5,2|0,3:2|0:0,0:0:0:0:
131,44,226172,70,0,L|118:103,1,47.5,2|0,3:2|0:0,0:0:0:0:
102,131,226339,22,0,L|116:195,2,63.3333333333333,2|2|2,0:0|0:0|0:0,0:0:0:0:
46,73,226672,69,6,3:2:0:0:
201,157,226839,1,2,0:0:0:0:
217,122,226922,1,0,0:0:0:0:
250,102,227006,1,0,3:0:0:0:
287,96,227089,1,0,0:0:0:0:
324,100,227172,1,2,0:0:0:0:
358,117,227256,1,0,0:0:0:0:
378,148,227339,22,0,L|367:198,3,47.5,0|0|2|0,3:0|0:0|0:0|0:0,0:0:0:0:
437,254,227672,2,0,L|447:300,3,47.5,0|0|2|0,3:0|0:0|0:0|0:0,0:0:0:0:
352,296,228006,69,2,3:2:0:0:
318,277,228089,1,0,0:0:0:0:
281,268,228172,1,2,0:0:0:0:
242,272,228256,1,0,0:0:0:0:
209,292,228339,21,2,3:2:0:0:
176,326,228422,1,0,0:0:0:0:
130,342,228506,1,2,0:0:0:0:
84,330,228589,1,0,0:0:0:0:
50,296,228672,70,0,P|46:278|39:250,3,47.5,2|0|2|0,3:2|0:0|0:0|0:0,0:0:0:0:
72,166,229006,2,0,L|60:109,3,47.5,2|0|2|0,3:2|0:0|0:0|0:0,0:0:0:0:
153,189,229339,1,2,3:2:0:0:
176,184,229422,1,0,0:0:0:0:
199,177,229506,2,0,L|263:158,1,47.5,2|0,3:2|0:0,0:0:0:0:
394,27,229672,1,2,3:2:0:0:
371,32,229756,1,0,0:0:0:0:
348,39,229839,2,0,L|284:58,1,47.5,2|0,3:2|0:0,0:0:0:0:
202,27,230006,22,0,L|221:111,1,47.5,2|0,3:2|0:0,0:0:0:0:
340,187,230172,2,0,L|328:138,1,47.5,2|0,3:2|0:0,0:0:0:0:
490,203,230339,2,0,L|467:288,1,47.5,2|0,3:2|0:0,0:0:0:0:
330,348,230506,2,0,L|341:289,1,47.5,2|0,3:2|0:0,0:0:0:0:
248,184,230672,69,2,3:2:0:0:
214,217,230756,1,0,3:0:0:0:
166,221,230839,1,0,3:0:0:0:
121,205,230922,1,0,3:0:0:0:
90,167,231006,2,0,L|60:181,6,23.75,0|0|0|0|2|0|2,3:0|0:0|3:0|0:0|3:2|0:0|3:2,0:0:0:0:
50,93,231339,2,0,L|-8:77,3,47.5,2|2|2|2,3:2|3:2|3:2|3:2,0:0:0:0:
134,96,231672,22,0,L|150:19,1,47.5,2|0,3:2|3:0,0:0:0:0:
233,257,231839,2,0,L|217:338,1,47.5,0|0,3:0|3:0,0:0:0:0:
400,154,232006,69,4,3:2:0:0:
256,192,232089,12,0,242672,0:0:0:0:
