osu file format v14

[General]
AudioFilename: audio.mp3
AudioLeadIn: 0
PreviewTime: 82115
Countdown: 0
SampleSet: Normal
StackLeniency: 0.7
Mode: 1
LetterboxInBreaks: 0
WidescreenStoryboard: 0

[Editor]
DistanceSpacing: 0.6
BeatDivisor: 12
GridSize: 32
TimelineZoom: 2.1

[Metadata]
Title:Cyberspace
TitleUnicode:Cyberspace
Artist:xi vs. Feryquitous
ArtistUnicode:xi vs. Feryquitous
Creator:MTDex
Version:Neuromancer
Source:
Tags:electronic instrumental diverse system 5th quietus ray dvsp-0214 c95 comiket 95 genjuro faputa
BeatmapID:2109557
BeatmapSetID:1007934

[Difficulty]
HPDrainRate:4
CircleSize:5
OverallDifficulty:7
ApproachRate:5
SliderMultiplier:1.4
SliderTickRate:1

[Events]
//Background and Video events
0,0,"BG.jpg",0,15
//Break Periods
//Storyboard Layer 0 (Background)
//Storyboard Layer 1 (Fail)
//Storyboard Layer 2 (Pass)
//Storyboard Layer 3 (Foreground)
//Storyboard Layer 4 (Overlay)
//Storyboard Sound Samples

[TimingPoints]
549,400,4,1,0,100,1,0
549,-100,4,1,0,70,0,0
5349,-80,4,1,0,85,0,0
6949,-80,4,1,0,100,0,0
15249,-100,4,1,0,100,0,0
21349,-86.9565217391304,4,1,0,100,0,0
27749,-83.3333333333333,4,1,0,100,0,0
34149,-80,4,1,0,100,0,0
40549,-80,4,1,0,100,0,1
40749,-66.6666666666667,4,1,0,100,0,1
53349,-66.6666666666667,4,1,0,100,0,0
53649,-80,4,1,0,85,0,0
53949,-100,4,1,0,85,0,0
59749,-86.9565217391304,4,1,0,100,0,0
63149,-80,4,1,0,100,0,0
66349,-90.9090909090909,4,1,0,85,0,0
72749,-80,4,1,0,100,0,0
79149,-86.9565217391304,4,1,0,85,0,0
79749,-95.2380952380952,4,1,0,70,0,0
80149,-111.111111111111,4,1,0,70,0,0
80549,-80,4,1,0,85,0,0
81749,-57.1428571428571,4,1,0,100,0,0
82149,-80,4,1,0,100,0,1
91149,-74.0740740740741,4,1,0,100,0,1
103949,-68.9655172413793,4,1,0,100,0,1
107749,-68.9655172413793,4,1,0,100,0,0
108149,-80,4,1,0,100,0,0
122349,-86.9565217391304,4,1,0,85,0,0
133349,-83.3333333333333,4,1,0,85,0,0
134949,-80,4,1,0,85,0,0
146415,-100,4,1,0,85,0,0
147749,-100,4,1,0,100,0,1
158949,-100,4,1,0,100,0,0
159215,-80,4,1,0,100,0,0
160549,-80,4,1,0,100,0,1
173349,-80,4,1,0,100,0,0
173549,-100,4,1,0,70,0,0
179949,-86.9565217391304,4,1,0,85,0,0
184449,-80,4,1,0,85,0,0
186149,-80,4,1,0,100,0,0
192749,-74.0740740740741,4,1,0,100,0,0
199149,-80,4,1,0,85,0,0
199749,-86.9565217391304,4,1,0,70,0,0
200149,-100,4,1,0,100,0,0
200549,-80,4,1,0,70,0,0
201749,-57.1428571428571,4,1,0,100,0,0
202149,-80,4,1,0,100,0,0
202349,-90.9090909090909,4,1,0,85,0,0
202949,-105.263157894737,4,1,0,70,0,0
203349,-80,4,1,0,85,0,0
205349,-74.0740740740741,4,1,0,100,0,1
213949,-68.9655172413793,4,1,0,100,0,1
226749,-64.5161290322581,4,1,0,100,0,1
230949,-64.5161290322581,4,1,0,100,0,0
231349,-80,4,1,0,100,0,0
251949,-74.0740740740741,4,1,0,100,0,0
253549,-71.4285714285714,4,1,0,100,0,0
256549,-68.9655172413793,4,1,0,100,0,0

[HitObjects]
256,192,549,5,4,0:0:0:0:
256,192,749,1,0,0:0:0:0:
256,192,949,1,8,0:0:0:0:
256,192,1149,1,0,0:0:0:0:
256,192,1249,1,8,0:0:0:0:
256,192,1349,1,0,0:0:0:0:
256,192,1549,1,0,0:0:0:0:
256,192,1749,1,8,0:0:0:0:
256,192,2149,1,0,0:0:0:0:
256,192,2549,1,8,0:0:0:0:
256,192,2749,1,0,0:0:0:0:
256,192,2849,1,8,0:0:0:0:
256,192,3049,1,8,0:0:0:0:
256,192,3149,1,0,0:0:0:0:
256,192,3349,1,8,0:0:0:0:
256,192,3549,1,0,0:0:0:0:
256,192,3749,1,0,0:0:0:0:
256,192,3949,1,0,0:0:0:0:
256,192,4149,1,8,0:0:0:0:
256,192,4349,1,0,0:0:0:0:
256,192,4449,1,8,0:0:0:0:
256,192,4549,1,0,0:0:0:0:
256,192,4749,1,0,0:0:0:0:
256,192,4949,1,8,0:0:0:0:
256,192,5349,1,0,0:0:0:0:
256,192,5415,1,0,0:0:0:0:
256,192,5482,1,0,0:0:0:0:
256,192,5549,1,0,0:0:0:0:
256,192,5649,1,0,0:0:0:0:
256,192,5749,1,8,0:0:0:0:
256,192,5849,1,0,0:0:0:0:
256,192,5949,1,8,0:0:0:0:
256,192,6049,1,8,0:0:0:0:
256,192,6149,1,0,0:0:0:0:
256,192,6215,1,0,0:0:0:0:
256,192,6282,1,0,0:0:0:0:
256,192,6349,1,8,0:0:0:0:
256,192,6415,1,8,0:0:0:0:
256,192,6482,1,8,0:0:0:0:
256,192,6549,1,0,0:0:0:0:
256,192,6599,1,0,0:0:0:0:
256,192,6649,1,0,0:0:0:0:
256,192,6749,1,8,0:0:0:0:
256,192,6799,1,8,0:0:0:0:
256,192,6849,1,8,0:0:0:0:
256,192,6949,1,4,0:0:0:0:
256,192,7149,1,4,0:0:0:0:
256,192,7349,1,0,0:0:0:0:
256,192,7449,1,0,0:0:0:0:
256,192,7549,1,8,0:0:0:0:
256,192,7649,1,8,0:0:0:0:
256,192,7749,1,4,0:0:0:0:
256,192,8049,1,4,0:0:0:0:
256,192,8249,1,8,0:0:0:0:
256,192,8349,1,4,0:0:0:0:
256,192,8549,1,4,0:0:0:0:
256,192,8749,1,4,0:0:0:0:
256,192,8949,1,0,0:0:0:0:
256,192,9049,1,8,0:0:0:0:
256,192,9149,1,0,0:0:0:0:
256,192,9215,1,0,0:0:0:0:
256,192,9282,1,0,0:0:0:0:
256,192,9349,1,8,0:0:0:0:
256,192,9415,1,8,0:0:0:0:
256,192,9482,1,8,0:0:0:0:
256,192,9549,1,0,0:0:0:0:
256,192,9615,1,0,0:0:0:0:
256,192,9682,1,8,0:0:0:0:
256,192,9749,1,0,0:0:0:0:
256,192,9849,1,0,0:0:0:0:
256,192,9949,1,8,0:0:0:0:
256,192,10015,1,8,0:0:0:0:
256,192,10082,1,8,0:0:0:0:
256,192,10149,1,0,0:0:0:0:
256,192,10349,1,4,0:0:0:0:
256,192,10549,1,0,0:0:0:0:
256,192,10649,1,8,0:0:0:0:
256,192,10749,1,0,0:0:0:0:
256,192,10949,1,8,0:0:0:0:
256,192,11049,1,0,0:0:0:0:
256,192,11149,1,8,0:0:0:0:
256,192,11249,1,8,0:0:0:0:
256,192,11349,1,0,0:0:0:0:
256,192,11415,1,0,0:0:0:0:
256,192,11482,1,0,0:0:0:0:
256,192,11549,1,8,0:0:0:0:
256,192,11615,1,8,0:0:0:0:
256,192,11682,1,8,0:0:0:0:
256,192,11749,1,0,0:0:0:0:
256,192,11949,1,0,0:0:0:0:
256,192,12149,1,8,0:0:0:0:
256,192,12349,1,8,0:0:0:0:
256,192,12415,1,8,0:0:0:0:
256,192,12482,1,8,0:0:0:0:
256,192,12549,1,0,0:0:0:0:
256,192,12615,1,0,0:0:0:0:
256,192,12682,1,0,0:0:0:0:
256,192,12749,1,8,0:0:0:0:
256,192,12815,1,8,0:0:0:0:
256,192,12882,1,8,0:0:0:0:
256,192,12949,1,0,0:0:0:0:
256,192,13015,1,0,0:0:0:0:
256,192,13082,1,8,0:0:0:0:
256,192,13149,1,0,0:0:0:0:
256,192,13215,1,8,0:0:0:0:
256,192,13282,1,8,0:0:0:0:
256,192,13349,1,0,0:0:0:0:
256,192,13449,1,0,0:0:0:0:
256,192,13549,1,8,0:0:0:0:
256,192,13649,1,0,0:0:0:0:
256,192,13749,1,8,0:0:0:0:
256,192,13849,1,8,0:0:0:0:
256,192,13949,1,0,0:0:0:0:
256,192,14049,1,0,0:0:0:0:
256,192,14149,1,8,0:0:0:0:
256,192,14249,1,8,0:0:0:0:
256,192,14349,1,0,0:0:0:0:
256,192,14449,1,8,0:0:0:0:
256,192,14549,1,0,0:0:0:0:
256,192,14649,1,0,0:0:0:0:
256,192,14699,1,0,0:0:0:0:
256,192,14749,1,8,0:0:0:0:
256,192,14849,1,8,0:0:0:0:
256,192,14949,1,0,0:0:0:0:
256,192,15249,1,8,0:0:0:0:
256,192,15349,1,0,0:0:0:0:
256,192,15549,1,8,0:0:0:0:
256,192,15749,1,0,0:0:0:0:
256,192,15949,1,8,0:0:0:0:
256,192,16015,1,8,0:0:0:0:
256,192,16082,1,8,0:0:0:0:
256,192,16149,1,0,0:0:0:0:
256,192,16249,1,8,0:0:0:0:
256,192,16449,1,8,0:0:0:0:
256,192,16549,1,0,0:0:0:0:
256,192,16849,1,8,0:0:0:0:
256,192,16949,1,0,0:0:0:0:
256,192,17149,1,8,0:0:0:0:
256,192,17349,1,0,0:0:0:0:
256,192,17549,1,8,0:0:0:0:
256,192,17649,1,0,0:0:0:0:
256,192,17849,1,0,0:0:0:0:
256,192,17949,1,8,0:0:0:0:
256,192,18149,1,0,0:0:0:0:
256,192,18549,1,0,0:0:0:0:
256,192,18749,1,8,0:0:0:0:
256,192,18849,1,8,0:0:0:0:
256,192,18949,1,0,0:0:0:0:
256,192,19149,1,8,0:0:0:0:
256,192,19349,1,0,0:0:0:0:
256,192,19449,1,8,0:0:0:0:
256,192,19749,1,0,0:0:0:0:
256,192,20049,1,8,0:0:0:0:
256,192,20149,1,0,0:0:0:0:
256,192,20349,1,0,0:0:0:0:
256,192,20415,1,0,0:0:0:0:
256,192,20482,1,0,0:0:0:0:
256,192,20549,1,8,0:0:0:0:
256,192,20749,1,0,0:0:0:0:
256,192,20949,1,0,0:0:0:0:
256,192,21049,1,0,0:0:0:0:
256,192,21149,1,8,0:0:0:0:
256,192,21249,1,8,0:0:0:0:
256,192,21349,1,4,0:0:0:0:
256,192,21649,1,8,0:0:0:0:
256,192,21749,1,0,0:0:0:0:
256,192,21949,1,8,0:0:0:0:
256,192,22149,1,0,0:0:0:0:
256,192,22349,1,8,0:0:0:0:
256,192,22415,1,8,0:0:0:0:
256,192,22482,1,8,0:0:0:0:
256,192,22549,1,0,0:0:0:0:
256,192,22649,1,8,0:0:0:0:
256,192,22749,1,8,0:0:0:0:
256,192,22849,1,8,0:0:0:0:
256,192,22949,1,0,0:0:0:0:
256,192,23015,1,8,0:0:0:0:
256,192,23082,1,8,0:0:0:0:
256,192,23149,1,8,0:0:0:0:
256,192,23249,1,8,0:0:0:0:
256,192,23349,1,0,0:0:0:0:
256,192,23449,1,0,0:0:0:0:
256,192,23549,1,8,0:0:0:0:
256,192,23649,1,8,0:0:0:0:
256,192,23749,1,0,0:0:0:0:
256,192,23949,1,8,0:0:0:0:
256,192,24049,1,0,0:0:0:0:
256,192,24249,1,0,0:0:0:0:
256,192,24349,1,8,0:0:0:0:
256,192,24549,1,0,0:0:0:0:
256,192,24615,1,8,0:0:0:0:
256,192,24682,1,8,0:0:0:0:
256,192,24749,1,8,0:0:0:0:
256,192,24849,1,8,0:0:0:0:
256,192,24949,1,0,0:0:0:0:
256,192,25049,1,8,0:0:0:0:
256,192,25149,1,8,0:0:0:0:
256,192,25249,1,8,0:0:0:0:
256,192,25349,1,0,0:0:0:0:
256,192,25449,1,0,0:0:0:0:
256,192,25549,1,8,0:0:0:0:
256,192,25649,1,8,0:0:0:0:
256,192,25749,1,0,0:0:0:0:
256,192,25849,1,8,0:0:0:0:
256,192,25949,1,8,0:0:0:0:
256,192,26049,1,8,0:0:0:0:
256,192,26149,1,0,0:0:0:0:
256,192,26215,1,8,0:0:0:0:
256,192,26282,1,8,0:0:0:0:
256,192,26349,1,8,0:0:0:0:
256,192,26449,1,0,0:0:0:0:
256,192,26649,1,0,0:0:0:0:
256,192,26749,1,8,0:0:0:0:
256,192,26815,1,8,0:0:0:0:
256,192,26882,1,8,0:0:0:0:
256,192,26949,1,0,0:0:0:0:
256,192,27015,1,0,0:0:0:0:
256,192,27082,1,0,0:0:0:0:
256,192,27149,1,8,0:0:0:0:
256,192,27215,1,0,0:0:0:0:
256,192,27282,1,0,0:0:0:0:
256,192,27349,1,8,0:0:0:0:
256,192,27415,1,8,0:0:0:0:
256,192,27482,1,0,0:0:0:0:
256,192,27549,1,8,0:0:0:0:
256,192,27649,1,8,0:0:0:0:
256,192,27749,1,4,0:0:0:0:
256,192,27949,1,8,0:0:0:0:
256,192,28049,1,8,0:0:0:0:
256,192,28149,1,0,0:0:0:0:
256,192,28349,1,8,0:0:0:0:
256,192,28449,1,8,0:0:0:0:
256,192,28549,1,0,0:0:0:0:
256,192,28649,1,0,0:0:0:0:
256,192,28749,1,8,0:0:0:0:
256,192,28849,1,8,0:0:0:0:
256,192,28949,1,0,0:0:0:0:
256,192,29049,1,8,0:0:0:0:
256,192,29149,1,8,0:0:0:0:
256,192,29249,1,8,0:0:0:0:
256,192,29349,1,0,0:0:0:0:
256,192,29415,1,8,0:0:0:0:
256,192,29482,1,8,0:0:0:0:
256,192,29549,1,8,0:0:0:0:
256,192,29649,1,8,0:0:0:0:
256,192,29749,1,0,0:0:0:0:
256,192,29949,1,8,0:0:0:0:
256,192,30049,1,8,0:0:0:0:
256,192,30149,1,0,0:0:0:0:
256,192,30349,1,8,0:0:0:0:
256,192,30449,1,0,0:0:0:0:
256,192,30649,1,0,0:0:0:0:
256,192,30749,1,8,0:0:0:0:
256,192,30949,1,4,0:0:0:0:
256,192,31349,1,8,0:0:0:0:
256,192,31449,1,8,0:0:0:0:
256,192,31549,1,0,0:0:0:0:
256,192,31749,1,0,0:0:0:0:
256,192,31949,1,8,0:0:0:0:
256,192,32049,1,8,0:0:0:0:
256,192,32149,1,0,0:0:0:0:
256,192,32249,1,8,0:0:0:0:
256,192,32349,1,8,0:0:0:0:
256,192,32449,1,8,0:0:0:0:
256,192,32549,1,0,0:0:0:0:
256,192,32615,1,8,0:0:0:0:
256,192,32682,1,8,0:0:0:0:
256,192,32749,1,8,0:0:0:0:
256,192,32849,1,8,0:0:0:0:
256,192,32949,1,0,0:0:0:0:
256,192,33149,1,8,0:0:0:0:
256,192,33215,1,8,0:0:0:0:
256,192,33282,1,8,0:0:0:0:
256,192,33349,1,0,0:0:0:0:
256,192,33415,1,0,0:0:0:0:
256,192,33482,1,0,0:0:0:0:
256,192,33549,1,8,0:0:0:0:
256,192,33649,1,0,0:0:0:0:
256,192,33749,1,0,0:0:0:0:
256,192,33815,1,0,0:0:0:0:
256,192,33882,1,0,0:0:0:0:
256,192,33949,1,8,0:0:0:0:
256,192,34049,1,8,0:0:0:0:
256,192,34149,1,0,0:0:0:0:
256,192,34249,1,0,0:0:0:0:
256,192,34349,1,8,0:0:0:0:
256,192,34449,1,0,0:0:0:0:
256,192,34549,1,8,0:0:0:0:
256,192,34649,1,8,0:0:0:0:
256,192,34749,1,0,0:0:0:0:
256,192,34849,1,8,0:0:0:0:
256,192,34949,1,0,0:0:0:0:
256,192,35049,1,0,0:0:0:0:
256,192,35149,1,8,0:0:0:0:
256,192,35249,1,0,0:0:0:0:
256,192,35349,1,8,0:0:0:0:
256,192,35449,1,8,0:0:0:0:
256,192,35549,1,0,0:0:0:0:
256,192,35649,1,0,0:0:0:0:
256,192,35749,1,8,0:0:0:0:
256,192,35849,1,8,0:0:0:0:
256,192,35949,1,0,0:0:0:0:
256,192,36049,1,8,0:0:0:0:
256,192,36149,1,0,0:0:0:0:
256,192,36249,1,0,0:0:0:0:
256,192,36349,1,8,0:0:0:0:
256,192,36449,1,0,0:0:0:0:
256,192,36549,1,8,0:0:0:0:
256,192,36649,1,0,0:0:0:0:
256,192,36749,1,8,0:0:0:0:
256,192,36849,1,8,0:0:0:0:
256,192,36949,1,0,0:0:0:0:
256,192,37049,1,8,0:0:0:0:
256,192,37149,1,0,0:0:0:0:
256,192,37249,1,0,0:0:0:0:
256,192,37349,1,0,0:0:0:0:
256,192,37415,1,0,0:0:0:0:
256,192,37482,1,0,0:0:0:0:
256,192,37549,1,8,0:0:0:0:
256,192,37649,1,0,0:0:0:0:
256,192,37749,1,8,0:0:0:0:
256,192,37849,1,8,0:0:0:0:
256,192,37949,1,0,0:0:0:0:
256,192,38049,1,0,0:0:0:0:
256,192,38149,1,8,0:0:0:0:
256,192,38249,1,0,0:0:0:0:
256,192,38349,1,0,0:0:0:0:
256,192,38415,1,0,0:0:0:0:
256,192,38482,1,0,0:0:0:0:
256,192,38549,1,8,0:0:0:0:
256,192,38649,1,0,0:0:0:0:
256,192,38749,1,8,0:0:0:0:
256,192,38849,1,8,0:0:0:0:
256,192,38949,1,0,0:0:0:0:
256,192,39015,1,0,0:0:0:0:
256,192,39082,1,0,0:0:0:0:
256,192,39149,1,8,0:0:0:0:
256,192,39249,1,8,0:0:0:0:
256,192,39349,1,0,0:0:0:0:
256,192,39415,1,0,0:0:0:0:
256,192,39482,1,0,0:0:0:0:
256,192,39549,1,8,0:0:0:0:
256,192,39649,1,8,0:0:0:0:
256,192,39749,1,0,0:0:0:0:
256,192,39815,1,0,0:0:0:0:
256,192,39882,1,0,0:0:0:0:
256,192,39949,1,8,0:0:0:0:
256,192,40015,1,0,0:0:0:0:
256,192,40082,1,8,0:0:0:0:
256,192,40149,1,8,0:0:0:0:
256,192,40215,1,0,0:0:0:0:
256,192,40282,1,0,0:0:0:0:
256,192,40349,1,8,0:0:0:0:
256,192,40415,1,8,0:0:0:0:
256,192,40482,1,8,0:0:0:0:
256,192,40549,1,0,0:0:0:0:
256,192,40749,1,8,0:0:0:0:
256,192,40849,1,0,0:0:0:0:
256,192,41049,1,8,0:0:0:0:
256,192,41149,1,0,0:0:0:0:
256,192,41349,1,0,0:0:0:0:
256,192,41399,1,0,0:0:0:0:
256,192,41449,1,0,0:0:0:0:
256,192,41499,1,0,0:0:0:0:
256,192,41549,1,8,0:0:0:0:
256,192,41649,1,0,0:0:0:0:
256,192,41749,1,8,0:0:0:0:
256,192,41849,1,8,0:0:0:0:
256,192,41949,1,0,0:0:0:0:
256,192,42049,1,0,0:0:0:0:
256,192,42149,1,8,0:0:0:0:
256,192,42249,1,8,0:0:0:0:
256,192,42349,1,0,0:0:0:0:
256,192,42449,1,8,0:0:0:0:
256,192,42549,1,0,0:0:0:0:
256,192,42749,1,8,0:0:0:0:
256,192,42849,1,0,0:0:0:0:
256,192,42949,1,0,0:0:0:0:
256,192,42999,1,0,0:0:0:0:
256,192,43049,1,0,0:0:0:0:
256,192,43099,1,0,0:0:0:0:
256,192,43149,1,8,0:0:0:0:
256,192,43249,1,0,0:0:0:0:
256,192,43349,1,8,0:0:0:0:
256,192,43415,1,8,0:0:0:0:
256,192,43482,1,8,0:0:0:0:
256,192,43549,1,0,0:0:0:0:
256,192,43599,1,0,0:0:0:0:
256,192,43649,1,8,0:0:0:0:
256,192,43749,1,4,0:0:0:0:
256,192,43949,1,8,0:0:0:0:
256,192,44049,1,0,0:0:0:0:
256,192,44249,1,8,0:0:0:0:
256,192,44349,1,0,0:0:0:0:
256,192,44549,1,0,0:0:0:0:
256,192,44599,1,0,0:0:0:0:
256,192,44649,1,0,0:0:0:0:
256,192,44699,1,0,0:0:0:0:
256,192,44749,1,8,0:0:0:0:
256,192,44849,1,8,0:0:0:0:
256,192,44949,1,0,0:0:0:0:
256,192,45049,1,8,0:0:0:0:
256,192,45149,1,0,0:0:0:0:
256,192,45249,1,8,0:0:0:0:
256,192,45349,1,0,0:0:0:0:
256,192,45449,1,0,0:0:0:0:
256,192,45549,1,8,0:0:0:0:
256,192,45649,1,8,0:0:0:0:
256,192,45749,1,0,0:0:0:0:
256,192,45882,1,8,0:0:0:0:
256,192,45949,1,0,0:0:0:0:
256,192,46082,1,0,0:0:0:0:
256,192,46149,1,8,0:0:0:0:
256,192,46215,1,0,0:0:0:0:
256,192,46282,1,0,0:0:0:0:
256,192,46349,1,8,0:0:0:0:
256,192,46482,1,0,0:0:0:0:
256,192,46549,1,8,0:0:0:0:
256,192,46615,1,0,0:0:0:0:
256,192,46682,1,8,0:0:0:0:
256,192,46749,1,8,0:0:0:0:
256,192,46815,1,0,0:0:0:0:
256,192,46882,1,0,0:0:0:0:
256,192,46949,1,8,0:0:0:0:
256,192,47149,1,8,0:0:0:0:
256,192,47249,1,0,0:0:0:0:
256,192,47449,1,0,0:0:0:0:
256,192,47549,1,8,0:0:0:0:
256,192,47649,1,8,0:0:0:0:
256,192,47749,1,0,0:0:0:0:
256,192,47799,1,0,0:0:0:0:
256,192,47849,1,0,0:0:0:0:
256,192,47899,1,0,0:0:0:0:
256,192,47949,1,8,0:0:0:0:
256,192,48049,1,0,0:0:0:0:
256,192,48149,1,8,0:0:0:0:
256,192,48249,1,8,0:0:0:0:
256,192,48349,1,0,0:0:0:0:
256,192,48449,1,8,0:0:0:0:
256,192,48549,1,0,0:0:0:0:
256,192,48649,1,0,0:0:0:0:
256,192,48749,1,8,0:0:0:0:
256,192,48849,1,0,0:0:0:0:
256,192,48949,1,8,0:0:0:0:
256,192,49049,1,8,0:0:0:0:
256,192,49149,1,0,0:0:0:0:
256,192,49249,1,0,0:0:0:0:
256,192,49349,1,8,0:0:0:0:
256,192,49399,1,8,0:0:0:0:
256,192,49449,1,8,0:0:0:0:
256,192,49499,1,8,0:0:0:0:
256,192,49549,1,0,0:0:0:0:
256,192,49649,1,0,0:0:0:0:
256,192,49749,1,8,0:0:0:0:
256,192,49815,1,0,0:0:0:0:
256,192,49882,1,0,0:0:0:0:
256,192,49949,1,8,0:0:0:0:
256,192,50049,1,8,0:0:0:0:
256,192,50149,1,0,0:0:0:0:
256,192,50349,1,8,0:0:0:0:
256,192,50449,1,0,0:0:0:0:
256,192,50649,1,8,0:0:0:0:
256,192,50749,1,0,0:0:0:0:
256,192,50849,1,0,0:0:0:0:
256,192,50949,1,8,0:0:0:0:
256,192,50999,1,8,0:0:0:0:
256,192,51049,1,8,0:0:0:0:
256,192,51099,1,8,0:0:0:0:
256,192,51149,1,0,0:0:0:0:
256,192,51249,1,8,0:0:0:0:
256,192,51349,1,0,0:0:0:0:
256,192,51449,1,8,0:0:0:0:
256,192,51549,1,8,0:0:0:0:
256,192,51649,1,0,0:0:0:0:
256,192,51749,1,0,0:0:0:0:
256,192,51849,1,8,0:0:0:0:
256,192,51949,1,8,0:0:0:0:
256,192,52049,1,0,0:0:0:0:
256,192,52149,1,8,0:0:0:0:
256,192,52282,1,8,0:0:0:0:
256,192,52349,1,0,0:0:0:0:
256,192,52482,1,0,0:0:0:0:
256,192,52549,1,8,0:0:0:0:
256,192,52615,1,8,0:0:0:0:
256,192,52682,1,0,0:0:0:0:
256,192,52749,1,8,0:0:0:0:
256,192,52882,1,8,0:0:0:0:
256,192,52949,1,0,0:0:0:0:
256,192,53015,1,0,0:0:0:0:
256,192,53082,1,8,0:0:0:0:
256,192,53149,1,0,0:0:0:0:
256,192,53215,1,8,0:0:0:0:
256,192,53282,1,8,0:0:0:0:
256,192,53349,1,0,0:0:0:0:
256,192,53649,1,0,0:0:0:0:
256,192,53949,1,8,0:0:0:0:
256,192,54249,1,0,0:0:0:0:
256,192,54349,1,8,0:0:0:0:
256,192,54549,1,8,0:0:0:0:
256,192,54649,1,0,0:0:0:0:
256,192,54949,1,8,0:0:0:0:
256,192,55249,1,8,0:0:0:0:
256,192,55349,1,0,0:0:0:0:
256,192,55549,1,8,0:0:0:0:
256,192,55849,1,0,0:0:0:0:
256,192,55949,1,8,0:0:0:0:
256,192,56149,1,8,0:0:0:0:
256,192,56249,1,0,0:0:0:0:
256,192,56349,1,8,0:0:0:0:
256,192,56399,1,8,0:0:0:0:
256,192,56449,1,8,0:0:0:0:
256,192,56549,1,0,0:0:0:0:
256,192,56849,1,0,0:0:0:0:
256,192,57149,1,8,0:0:0:0:
256,192,57449,1,0,0:0:0:0:
256,192,57549,1,8,0:0:0:0:
256,192,57749,1,8,0:0:0:0:
256,192,57849,1,0,0:0:0:0:
256,192,58149,1,0,0:0:0:0:
256,192,58449,1,8,0:0:0:0:
256,192,58549,1,0,0:0:0:0:
256,192,58749,1,8,0:0:0:0:
256,192,59049,1,0,0:0:0:0:
256,192,59149,1,8,0:0:0:0:
256,192,59349,1,0,0:0:0:0:
256,192,59449,1,0,0:0:0:0:
256,192,59549,1,8,0:0:0:0:
256,192,59749,1,4,0:0:0:0:
256,192,59949,1,8,0:0:0:0:
256,192,60049,1,8,0:0:0:0:
256,192,60149,1,0,0:0:0:0:
256,192,60349,1,8,0:0:0:0:
256,192,60549,1,0,0:0:0:0:
256,192,60649,1,0,0:0:0:0:
256,192,60749,1,8,0:0:0:0:
256,192,60949,1,0,0:0:0:0:
256,192,61049,1,0,0:0:0:0:
256,192,61149,1,8,0:0:0:0:
256,192,61249,1,8,0:0:0:0:
256,192,61349,1,0,0:0:0:0:
256,192,61549,1,8,0:0:0:0:
256,192,61649,1,8,0:0:0:0:
256,192,61749,1,0,0:0:0:0:
256,192,61949,1,8,0:0:0:0:
256,192,62149,1,0,0:0:0:0:
256,192,62249,1,0,0:0:0:0:
256,192,62349,1,8,0:0:0:0:
256,192,62549,1,0,0:0:0:0:
256,192,62649,1,8,0:0:0:0:
256,192,62749,1,8,0:0:0:0:
256,192,62849,1,8,0:0:0:0:
256,192,62949,1,0,0:0:0:0:
256,192,63149,1,0,0:0:0:0:
256,192,63249,1,8,0:0:0:0:
256,192,63349,1,0,0:0:0:0:
256,192,63549,1,8,0:0:0:0:
256,192,63749,1,0,0:0:0:0:
256,192,63849,1,0,0:0:0:0:
256,192,63949,1,8,0:0:0:0:
256,192,64049,1,0,0:0:0:0:
256,192,64149,1,0,0:0:0:0:
256,192,64215,1,0,0:0:0:0:
256,192,64282,1,0,0:0:0:0:
256,192,64349,1,8,0:0:0:0:
256,192,64449,1,8,0:0:0:0:
256,192,64549,1,0,0:0:0:0:
256,192,64649,1,0,0:0:0:0:
256,192,64749,1,8,0:0:0:0:
256,192,64849,1,0,0:0:0:0:
256,192,64949,1,8,0:0:0:0:
256,192,65049,1,0,0:0:0:0:
256,192,65149,1,8,0:0:0:0:
256,192,65249,1,8,0:0:0:0:
256,192,65349,1,0,0:0:0:0:
256,192,65415,1,0,0:0:0:0:
256,192,65482,1,8,0:0:0:0:
256,192,65549,1,8,0:0:0:0:
256,192,65615,1,0,0:0:0:0:
256,192,65682,1,0,0:0:0:0:
256,192,65749,1,8,0:0:0:0:
256,192,65849,1,0,0:0:0:0:
256,192,65949,1,8,0:0:0:0:
256,192,66049,1,8,0:0:0:0:
256,192,66149,1,4,0:0:0:0:
256,192,66349,1,0,0:0:0:0:
256,192,66549,1,8,0:0:0:0:
256,192,66749,1,0,0:0:0:0:
256,192,67149,1,0,0:0:0:0:
256,192,67349,1,8,0:0:0:0:
256,192,67449,1,0,0:0:0:0:
256,192,67749,1,0,0:0:0:0:
256,192,67949,1,8,0:0:0:0:
256,192,68049,1,8,0:0:0:0:
256,192,68149,1,0,0:0:0:0:
256,192,68349,1,8,0:0:0:0:
256,192,68449,1,0,0:0:0:0:
256,192,68649,1,0,0:0:0:0:
256,192,68749,1,8,0:0:0:0:
256,192,68949,1,0,0:0:0:0:
256,192,69049,1,0,0:0:0:0:
256,192,69149,1,8,0:0:0:0:
256,192,69249,1,8,0:0:0:0:
256,192,69349,1,0,0:0:0:0:
256,192,69449,1,8,0:0:0:0:
256,192,69549,1,0,0:0:0:0:
256,192,69649,1,8,0:0:0:0:
256,192,69749,1,8,0:0:0:0:
256,192,69849,1,0,0:0:0:0:
256,192,69949,1,8,0:0:0:0:
256,192,70049,1,0,0:0:0:0:
256,192,70149,1,0,0:0:0:0:
256,192,70249,1,8,0:0:0:0:
256,192,70349,1,0,0:0:0:0:
256,192,70449,1,8,0:0:0:0:
256,192,70549,1,8,0:0:0:0:
256,192,70649,1,0,0:0:0:0:
256,192,70749,1,8,0:0:0:0:
256,192,70849,1,0,0:0:0:0:
256,192,70949,1,8,0:0:0:0:
256,192,71015,1,0,0:0:0:0:
256,192,71082,1,8,0:0:0:0:
256,192,71149,1,8,0:0:0:0:
256,192,71215,1,0,0:0:0:0:
256,192,71282,1,0,0:0:0:0:
256,192,71349,1,8,0:0:0:0:
256,192,71415,1,8,0:0:0:0:
256,192,71482,1,0,0:0:0:0:
256,192,71549,1,8,0:0:0:0:
256,192,71615,1,0,0:0:0:0:
256,192,71682,1,0,0:0:0:0:
256,192,71749,1,8,0:0:0:0:
256,192,71815,1,8,0:0:0:0:
256,192,71882,1,0,0:0:0:0:
256,192,71949,1,0,0:0:0:0:
256,192,72015,1,0,0:0:0:0:
256,192,72082,1,0,0:0:0:0:
256,192,72149,1,8,0:0:0:0:
256,192,72249,1,0,0:0:0:0:
256,192,72349,1,8,0:0:0:0:
256,192,72415,1,8,0:0:0:0:
256,192,72482,1,8,0:0:0:0:
256,192,72549,1,0,0:0:0:0:
256,192,72749,1,4,0:0:0:0:
256,192,72949,1,0,0:0:0:0:
256,192,73049,1,0,0:0:0:0:
256,192,73149,1,8,0:0:0:0:
256,192,73249,1,8,0:0:0:0:
256,192,73349,1,4,0:0:0:0:
256,192,73649,1,4,0:0:0:0:
256,192,73849,1,8,0:0:0:0:
256,192,73949,1,4,0:0:0:0:
256,192,74149,1,4,0:0:0:0:
256,192,74349,1,4,0:0:0:0:
256,192,74549,1,0,0:0:0:0:
256,192,74649,1,8,0:0:0:0:
256,192,74749,1,0,0:0:0:0:
256,192,74815,1,0,0:0:0:0:
256,192,74882,1,0,0:0:0:0:
256,192,74949,1,8,0:0:0:0:
256,192,75015,1,8,0:0:0:0:
256,192,75082,1,8,0:0:0:0:
256,192,75149,1,0,0:0:0:0:
256,192,75215,1,0,0:0:0:0:
256,192,75282,1,8,0:0:0:0:
256,192,75349,1,0,0:0:0:0:
256,192,75449,1,0,0:0:0:0:
256,192,75549,1,8,0:0:0:0:
256,192,75615,1,8,0:0:0:0:
256,192,75682,1,8,0:0:0:0:
256,192,75749,1,0,0:0:0:0:
256,192,75949,1,4,0:0:0:0:
256,192,76149,1,0,0:0:0:0:
256,192,76249,1,8,0:0:0:0:
256,192,76349,1,0,0:0:0:0:
256,192,76449,1,0,0:0:0:0:
256,192,76549,1,8,0:0:0:0:
256,192,76749,1,0,0:0:0:0:
256,192,76849,1,8,0:0:0:0:
256,192,76949,1,0,0:0:0:0:
256,192,77015,1,0,0:0:0:0:
256,192,77082,1,0,0:0:0:0:
256,192,77149,1,8,0:0:0:0:
256,192,77215,1,8,0:0:0:0:
256,192,77282,1,8,0:0:0:0:
256,192,77349,1,0,0:0:0:0:
256,192,77549,1,0,0:0:0:0:
256,192,77749,1,0,0:0:0:0:
256,192,77849,1,8,0:0:0:0:
256,192,77949,1,0,0:0:0:0:
256,192,78015,1,0,0:0:0:0:
256,192,78082,1,0,0:0:0:0:
256,192,78149,1,8,0:0:0:0:
256,192,78249,1,0,0:0:0:0:
256,192,78349,1,8,0:0:0:0:
256,192,78415,1,8,0:0:0:0:
256,192,78482,1,8,0:0:0:0:
256,192,78549,1,0,0:0:0:0:
256,192,78649,1,8,0:0:0:0:
256,192,78749,1,0,0:0:0:0:
256,192,78815,1,0,0:0:0:0:
256,192,78882,1,0,0:0:0:0:
256,192,78949,1,8,0:0:0:0:
256,192,79149,1,0,0:0:0:0:
256,192,79249,1,0,0:0:0:0:
256,192,79349,1,8,0:0:0:0:
256,192,79749,1,0,0:0:0:0:
256,192,80149,1,8,0:0:0:0:
256,192,80549,1,0,0:0:0:0:
256,192,80615,1,0,0:0:0:0:
256,192,80682,1,0,0:0:0:0:
256,192,80749,1,8,0:0:0:0:
256,192,80849,1,8,0:0:0:0:
256,192,80949,1,0,0:0:0:0:
256,192,81049,1,8,0:0:0:0:
256,192,81149,1,0,0:0:0:0:
256,192,81249,1,0,0:0:0:0:
256,192,81349,1,0,0:0:0:0:
256,192,81415,1,0,0:0:0:0:
256,192,81482,1,0,0:0:0:0:
256,192,81549,1,8,0:0:0:0:
256,192,81649,1,0,0:0:0:0:
256,192,81749,1,12,0:0:0:0:
256,192,82149,1,4,0:0:0:0:
256,192,82349,1,8,0:0:0:0:
256,192,82449,1,8,0:0:0:0:
256,192,82549,1,0,0:0:0:0:
256,192,82749,1,8,0:0:0:0:
256,192,82849,1,8,0:0:0:0:
256,192,82949,1,0,0:0:0:0:
256,192,83149,1,8,0:0:0:0:
256,192,83249,1,8,0:0:0:0:
256,192,83349,1,0,0:0:0:0:
256,192,83415,1,0,0:0:0:0:
256,192,83482,1,0,0:0:0:0:
256,192,83549,1,8,0:0:0:0:
256,192,83649,1,8,0:0:0:0:
256,192,83749,1,0,0:0:0:0:
256,192,83949,1,8,0:0:0:0:
256,192,84049,1,8,0:0:0:0:
256,192,84149,1,0,0:0:0:0:
256,192,84349,1,8,0:0:0:0:
256,192,84449,1,8,0:0:0:0:
256,192,84549,1,0,0:0:0:0:
256,192,84749,1,8,0:0:0:0:
256,192,84849,1,8,0:0:0:0:
256,192,84949,1,0,0:0:0:0:
256,192,85015,1,0,0:0:0:0:
256,192,85082,1,0,0:0:0:0:
256,192,85149,1,8,0:0:0:0:
256,192,85249,1,8,0:0:0:0:
256,192,85349,1,0,0:0:0:0:
256,192,85549,1,8,0:0:0:0:
256,192,85649,1,8,0:0:0:0:
256,192,85749,1,0,0:0:0:0:
256,192,85949,1,8,0:0:0:0:
256,192,86049,1,8,0:0:0:0:
256,192,86149,1,0,0:0:0:0:
256,192,86249,1,0,0:0:0:0:
256,192,86349,1,8,0:0:0:0:
256,192,86449,1,0,0:0:0:0:
256,192,86549,1,8,0:0:0:0:
256,192,86649,1,8,0:0:0:0:
256,192,86749,1,0,0:0:0:0:
256,192,86849,1,8,0:0:0:0:
256,192,86949,1,0,0:0:0:0:
256,192,87149,1,0,0:0:0:0:
256,192,87249,1,8,0:0:0:0:
256,192,87449,1,8,0:0:0:0:
256,192,87549,1,0,0:0:0:0:
256,192,87749,1,0,0:0:0:0:
256,192,87849,1,8,0:0:0:0:
256,192,87949,1,8,0:0:0:0:
256,192,88049,1,0,0:0:0:0:
256,192,88149,1,0,0:0:0:0:
256,192,88215,1,0,0:0:0:0:
256,192,88282,1,0,0:0:0:0:
256,192,88349,1,8,0:0:0:0:
256,192,88449,1,8,0:0:0:0:
256,192,88549,1,0,0:0:0:0:
256,192,88749,1,8,0:0:0:0:
256,192,88849,1,8,0:0:0:0:
256,192,88949,1,0,0:0:0:0:
256,192,89149,1,8,0:0:0:0:
256,192,89249,1,8,0:0:0:0:
256,192,89349,1,0,0:0:0:0:
256,192,89549,1,8,0:0:0:0:
256,192,89649,1,8,0:0:0:0:
256,192,89749,1,0,0:0:0:0:
256,192,89815,1,0,0:0:0:0:
256,192,89882,1,0,0:0:0:0:
256,192,89949,1,8,0:0:0:0:
256,192,90049,1,8,0:0:0:0:
256,192,90149,1,0,0:0:0:0:
256,192,90349,1,8,0:0:0:0:
256,192,90449,1,8,0:0:0:0:
256,192,90549,1,0,0:0:0:0:
256,192,90749,1,8,0:0:0:0:
256,192,90849,1,8,0:0:0:0:
256,192,90949,1,0,0:0:0:0:
256,192,91149,1,8,0:0:0:0:
256,192,91249,1,8,0:0:0:0:
256,192,91349,1,0,0:0:0:0:
256,192,91415,1,0,0:0:0:0:
256,192,91482,1,0,0:0:0:0:
256,192,91549,1,8,0:0:0:0:
256,192,91649,1,8,0:0:0:0:
256,192,91749,1,0,0:0:0:0:
256,192,91815,1,0,0:0:0:0:
256,192,91882,1,0,0:0:0:0:
256,192,91949,1,8,0:0:0:0:
256,192,92049,1,8,0:0:0:0:
256,192,92149,1,0,0:0:0:0:
256,192,92249,1,8,0:0:0:0:
256,192,92349,1,0,0:0:0:0:
256,192,92415,1,8,0:0:0:0:
256,192,92482,1,8,0:0:0:0:
256,192,92549,1,0,0:0:0:0:
256,192,92649,1,0,0:0:0:0:
256,192,92749,1,8,0:0:0:0:
256,192,92849,1,8,0:0:0:0:
256,192,92949,1,0,0:0:0:0:
256,192,93015,1,0,0:0:0:0:
256,192,93082,1,8,0:0:0:0:
256,192,93149,1,0,0:0:0:0:
256,192,93215,1,8,0:0:0:0:
256,192,93282,1,8,0:0:0:0:
256,192,93349,1,0,0:0:0:0:
256,192,93449,1,8,0:0:0:0:
256,192,93549,1,8,0:0:0:0:
256,192,93649,1,0,0:0:0:0:
256,192,93749,1,8,0:0:0:0:
256,192,93849,1,8,0:0:0:0:
256,192,93949,1,0,0:0:0:0:
256,192,94049,1,8,0:0:0:0:
256,192,94149,1,8,0:0:0:0:
256,192,94249,1,0,0:0:0:0:
256,192,94349,1,8,0:0:0:0:
256,192,94449,1,8,0:0:0:0:
256,192,94549,1,0,0:0:0:0:
256,192,94615,1,0,0:0:0:0:
256,192,94682,1,0,0:0:0:0:
256,192,94749,1,8,0:0:0:0:
256,192,94849,1,8,0:0:0:0:
256,192,94949,1,0,0:0:0:0:
256,192,95149,1,8,0:0:0:0:
256,192,95249,1,8,0:0:0:0:
256,192,95349,1,0,0:0:0:0:
256,192,95549,1,8,0:0:0:0:
256,192,95649,1,8,0:0:0:0:
256,192,95749,1,0,0:0:0:0:
256,192,95949,1,8,0:0:0:0:
256,192,96049,1,8,0:0:0:0:
256,192,96149,1,0,0:0:0:0:
256,192,96215,1,0,0:0:0:0:
256,192,96282,1,0,0:0:0:0:
256,192,96349,1,8,0:0:0:0:
256,192,96449,1,8,0:0:0:0:
256,192,96549,1,0,0:0:0:0:
256,192,96749,1,8,0:0:0:0:
256,192,96849,1,8,0:0:0:0:
256,192,96949,1,0,0:0:0:0:
256,192,97149,1,8,0:0:0:0:
256,192,97249,1,8,0:0:0:0:
256,192,97349,1,0,0:0:0:0:
256,192,97549,1,8,0:0:0:0:
256,192,97649,1,8,0:0:0:0:
256,192,97749,1,0,0:0:0:0:
256,192,97815,1,0,0:0:0:0:
256,192,97882,1,0,0:0:0:0:
256,192,97949,1,8,0:0:0:0:
256,192,98049,1,8,0:0:0:0:
256,192,98149,1,0,0:0:0:0:
256,192,98349,1,8,0:0:0:0:
256,192,98449,1,8,0:0:0:0:
256,192,98549,1,0,0:0:0:0:
256,192,98749,1,8,0:0:0:0:
256,192,98849,1,8,0:0:0:0:
256,192,98949,1,0,0:0:0:0:
256,192,99049,1,0,0:0:0:0:
256,192,99149,1,8,0:0:0:0:
256,192,99249,1,0,0:0:0:0:
256,192,99349,1,8,0:0:0:0:
256,192,99449,1,8,0:0:0:0:
256,192,99549,1,0,0:0:0:0:
256,192,99649,1,8,0:0:0:0:
256,192,99749,1,0,0:0:0:0:
256,192,99949,1,0,0:0:0:0:
256,192,100049,1,8,0:0:0:0:
256,192,100249,1,8,0:0:0:0:
256,192,100349,1,0,0:0:0:0:
256,192,100549,1,0,0:0:0:0:
256,192,100649,1,8,0:0:0:0:
256,192,100849,1,8,0:0:0:0:
256,192,100949,1,0,0:0:0:0:
256,192,101049,1,8,0:0:0:0:
256,192,101149,1,8,0:0:0:0:
256,192,101249,1,8,0:0:0:0:
256,192,101349,1,0,0:0:0:0:
256,192,101549,1,8,0:0:0:0:
256,192,101649,1,8,0:0:0:0:
256,192,101749,1,0,0:0:0:0:
256,192,101949,1,8,0:0:0:0:
256,192,102049,1,8,0:0:0:0:
256,192,102149,1,0,0:0:0:0:
256,192,102349,1,8,0:0:0:0:
256,192,102449,1,8,0:0:0:0:
256,192,102549,1,0,0:0:0:0:
256,192,102615,1,0,0:0:0:0:
256,192,102682,1,0,0:0:0:0:
256,192,102749,1,8,0:0:0:0:
256,192,102849,1,8,0:0:0:0:
256,192,102949,1,0,0:0:0:0:
256,192,103149,1,8,0:0:0:0:
256,192,103249,1,8,0:0:0:0:
256,192,103349,1,0,0:0:0:0:
256,192,103549,1,8,0:0:0:0:
256,192,103649,1,8,0:0:0:0:
256,192,103749,1,0,0:0:0:0:
256,192,103949,1,8,0:0:0:0:
256,192,104049,1,8,0:0:0:0:
256,192,104149,1,0,0:0:0:0:
256,192,104215,1,0,0:0:0:0:
256,192,104282,1,0,0:0:0:0:
256,192,104349,1,8,0:0:0:0:
256,192,104449,1,8,0:0:0:0:
256,192,104549,1,0,0:0:0:0:
256,192,104615,1,0,0:0:0:0:
256,192,104682,1,0,0:0:0:0:
256,192,104749,1,8,0:0:0:0:
256,192,104849,1,8,0:0:0:0:
256,192,104949,1,0,0:0:0:0:
256,192,105049,1,8,0:0:0:0:
256,192,105149,1,0,0:0:0:0:
256,192,105215,1,8,0:0:0:0:
256,192,105282,1,8,0:0:0:0:
256,192,105349,1,0,0:0:0:0:
256,192,105449,1,0,0:0:0:0:
256,192,105549,1,8,0:0:0:0:
256,192,105649,1,8,0:0:0:0:
256,192,105749,1,0,0:0:0:0:
256,192,105815,1,0,0:0:0:0:
256,192,105882,1,8,0:0:0:0:
256,192,105949,1,8,0:0:0:0:
256,192,106015,1,0,0:0:0:0:
256,192,106082,1,8,0:0:0:0:
256,192,106149,1,0,0:0:0:0:
256,192,106249,1,8,0:0:0:0:
256,192,106349,1,8,0:0:0:0:
256,192,106449,1,0,0:0:0:0:
256,192,106549,1,8,0:0:0:0:
256,192,106649,1,8,0:0:0:0:
256,192,106749,1,0,0:0:0:0:
256,192,106849,1,8,0:0:0:0:
256,192,106949,1,8,0:0:0:0:
256,192,107049,1,0,0:0:0:0:
256,192,107149,1,8,0:0:0:0:
256,192,107249,1,8,0:0:0:0:
256,192,107349,1,0,0:0:0:0:
256,192,107415,1,0,0:0:0:0:
256,192,107482,1,0,0:0:0:0:
256,192,107549,1,8,0:0:0:0:
256,192,107649,1,8,0:0:0:0:
256,192,107749,1,0,0:0:0:0:
256,192,108149,1,0,0:0:0:0:
256,192,108349,1,0,0:0:0:0:
256,192,108549,1,8,0:0:0:0:
256,192,108649,1,8,0:0:0:0:
256,192,108749,1,0,0:0:0:0:
256,192,108849,1,0,0:0:0:0:
256,192,108949,1,8,0:0:0:0:
256,192,109015,1,8,0:0:0:0:
256,192,109082,1,0,0:0:0:0:
256,192,109149,1,8,0:0:0:0:
256,192,109249,1,8,0:0:0:0:
256,192,109349,1,0,0:0:0:0:
256,192,109449,1,0,0:0:0:0:
256,192,109549,1,8,0:0:0:0:
256,192,109649,1,8,0:0:0:0:
256,192,109749,1,0,0:0:0:0:
256,192,109882,1,0,0:0:0:0:
256,192,109949,1,8,0:0:0:0:
256,192,110049,1,8,0:0:0:0:
256,192,110149,1,0,0:0:0:0:
256,192,110249,1,0,0:0:0:0:
256,192,110349,1,8,0:0:0:0:
256,192,110449,1,8,0:0:0:0:
256,192,110549,1,0,0:0:0:0:
256,192,110649,1,8,0:0:0:0:
256,192,110749,1,8,0:0:0:0:
256,192,110849,1,8,0:0:0:0:
256,192,110949,1,0,0:0:0:0:
256,192,111015,1,0,0:0:0:0:
256,192,111082,1,0,0:0:0:0:
256,192,111149,1,8,0:0:0:0:
256,192,111249,1,0,0:0:0:0:
256,192,111349,1,8,0:0:0:0:
256,192,111449,1,8,0:0:0:0:
256,192,111549,1,0,0:0:0:0:
256,192,111649,1,0,0:0:0:0:
256,192,111749,1,8,0:0:0:0:
256,192,111849,1,8,0:0:0:0:
256,192,111949,1,0,0:0:0:0:
256,192,112049,1,8,0:0:0:0:
256,192,112149,1,0,0:0:0:0:
256,192,112249,1,0,0:0:0:0:
256,192,112349,1,8,0:0:0:0:
256,192,112549,1,0,0:0:0:0:
256,192,112649,1,0,0:0:0:0:
256,192,112749,1,8,0:0:0:0:
256,192,112849,1,8,0:0:0:0:
256,192,112949,1,0,0:0:0:0:
256,192,113149,1,8,0:0:0:0:
256,192,113249,1,8,0:0:0:0:
256,192,113349,1,0,0:0:0:0:
256,192,113449,1,8,0:0:0:0:
256,192,113549,1,0,0:0:0:0:
256,192,113649,1,0,0:0:0:0:
256,192,113749,1,8,0:0:0:0:
256,192,113849,1,0,0:0:0:0:
256,192,113949,1,8,0:0:0:0:
256,192,114049,1,8,0:0:0:0:
256,192,114149,1,0,0:0:0:0:
256,192,114215,1,0,0:0:0:0:
256,192,114282,1,0,0:0:0:0:
256,192,114349,1,8,0:0:0:0:
256,192,114449,1,8,0:0:0:0:
256,192,114549,1,0,0:0:0:0:
256,192,114649,1,8,0:0:0:0:
256,192,114749,1,0,0:0:0:0:
256,192,114815,1,0,0:0:0:0:
256,192,114882,1,0,0:0:0:0:
256,192,114949,1,8,0:0:0:0:
256,192,115015,1,8,0:0:0:0:
256,192,115082,1,8,0:0:0:0:
256,192,115149,1,0,0:0:0:0:
256,192,115249,1,8,0:0:0:0:
256,192,115349,1,0,0:0:0:0:
256,192,115415,1,0,0:0:0:0:
256,192,115482,1,0,0:0:0:0:
256,192,115549,1,8,0:0:0:0:
256,192,115649,1,8,0:0:0:0:
256,192,115749,1,0,0:0:0:0:
256,192,115849,1,0,0:0:0:0:
256,192,115949,1,8,0:0:0:0:
256,192,116049,1,0,0:0:0:0:
256,192,116149,1,8,0:0:0:0:
256,192,116249,1,8,0:0:0:0:
256,192,116349,1,0,0:0:0:0:
256,192,116449,1,0,0:0:0:0:
256,192,116549,1,8,0:0:0:0:
256,192,116649,1,8,0:0:0:0:
256,192,116749,1,0,0:0:0:0:
256,192,116849,1,8,0:0:0:0:
256,192,116949,1,0,0:0:0:0:
256,192,117049,1,0,0:0:0:0:
256,192,117149,1,8,0:0:0:0:
256,192,117349,1,0,0:0:0:0:
256,192,117449,1,0,0:0:0:0:
256,192,117549,1,8,0:0:0:0:
256,192,117649,1,0,0:0:0:0:
256,192,117749,1,8,0:0:0:0:
256,192,117849,1,8,0:0:0:0:
256,192,117949,1,0,0:0:0:0:
256,192,118049,1,0,0:0:0:0:
256,192,118149,1,8,0:0:0:0:
256,192,118199,1,8,0:0:0:0:
256,192,118249,1,8,0:0:0:0:
256,192,118299,1,8,0:0:0:0:
256,192,118349,1,0,0:0:0:0:
256,192,118449,1,8,0:0:0:0:
256,192,118549,1,0,0:0:0:0:
256,192,118649,1,0,0:0:0:0:
256,192,118749,1,8,0:0:0:0:
256,192,118815,1,8,0:0:0:0:
256,192,118882,1,8,0:0:0:0:
256,192,118949,1,0,0:0:0:0:
256,192,119015,1,0,0:0:0:0:
256,192,119082,1,0,0:0:0:0:
256,192,119149,1,8,0:0:0:0:
256,192,119249,1,0,0:0:0:0:
256,192,119349,1,8,0:0:0:0:
256,192,119449,1,8,0:0:0:0:
256,192,119549,1,0,0:0:0:0:
256,192,119649,1,0,0:0:0:0:
256,192,119749,1,8,0:0:0:0:
256,192,119849,1,0,0:0:0:0:
256,192,119949,1,0,0:0:0:0:
256,192,120015,1,0,0:0:0:0:
256,192,120082,1,0,0:0:0:0:
256,192,120149,1,8,0:0:0:0:
256,192,120249,1,0,0:0:0:0:
256,192,120349,1,8,0:0:0:0:
256,192,120449,1,8,0:0:0:0:
256,192,120549,1,0,0:0:0:0:
256,192,120615,1,0,0:0:0:0:
256,192,120682,1,0,0:0:0:0:
256,192,120749,1,8,0:0:0:0:
256,192,120849,1,8,0:0:0:0:
256,192,120949,1,0,0:0:0:0:
256,192,121015,1,8,0:0:0:0:
256,192,121082,1,8,0:0:0:0:
256,192,121149,1,0,0:0:0:0:
256,192,121249,1,0,0:0:0:0:
256,192,121349,1,8,0:0:0:0:
256,192,121415,1,0,0:0:0:0:
256,192,121482,1,0,0:0:0:0:
256,192,121549,1,8,0:0:0:0:
256,192,121615,1,8,0:0:0:0:
256,192,121682,1,8,0:0:0:0:
256,192,121749,1,0,0:0:0:0:
256,192,121815,1,0,0:0:0:0:
256,192,121882,1,8,0:0:0:0:
256,192,121949,1,0,0:0:0:0:
256,192,122015,1,8,0:0:0:0:
256,192,122082,1,8,0:0:0:0:
256,192,122149,1,0,0:0:0:0:
256,192,122349,1,0,0:0:0:0:
256,192,122549,1,8,0:0:0:0:
256,192,122749,1,8,0:0:0:0:
256,192,122849,1,8,0:0:0:0:
256,192,122949,1,0,0:0:0:0:
256,192,123049,1,8,0:0:0:0:
256,192,123149,1,8,0:0:0:0:
256,192,123249,1,8,0:0:0:0:
256,192,123349,1,0,0:0:0:0:
256,192,123449,1,8,0:0:0:0:
256,192,123549,1,8,0:0:0:0:
256,192,123599,1,8,0:0:0:0:
256,192,123649,1,8,0:0:0:0:
256,192,123699,1,8,0:0:0:0:
256,192,123749,1,0,0:0:0:0:
256,192,123849,1,0,0:0:0:0:
256,192,123899,1,0,0:0:0:0:
256,192,123949,1,0,0:0:0:0:
256,192,124049,1,8,0:0:0:0:
256,192,124149,1,0,0:0:0:0:
256,192,124349,1,8,0:0:0:0:
256,192,124449,1,8,0:0:0:0:
256,192,124549,1,0,0:0:0:0:
256,192,124649,1,8,0:0:0:0:
256,192,124749,1,8,0:0:0:0:
256,192,124849,1,8,0:0:0:0:
256,192,124949,1,0,0:0:0:0:
256,192,125049,1,0,0:0:0:0:
256,192,125149,1,0,0:0:0:0:
256,192,125199,1,0,0:0:0:0:
256,192,125249,1,0,0:0:0:0:
256,192,125299,1,0,0:0:0:0:
256,192,125349,1,8,0:0:0:0:
256,192,125449,1,8,0:0:0:0:
256,192,125549,1,0,0:0:0:0:
256,192,125649,1,8,0:0:0:0:
256,192,125749,1,0,0:0:0:0:
256,192,125949,1,0,0:0:0:0:
256,192,126049,1,0,0:0:0:0:
256,192,126149,1,8,0:0:0:0:
256,192,126249,1,8,0:0:0:0:
256,192,126349,1,0,0:0:0:0:
256,192,126449,1,0,0:0:0:0:
256,192,126549,1,8,0:0:0:0:
256,192,126649,1,0,0:0:0:0:
256,192,126749,1,8,0:0:0:0:
256,192,126799,1,8,0:0:0:0:
256,192,126849,1,8,0:0:0:0:
256,192,126899,1,8,0:0:0:0:
256,192,126949,1,0,0:0:0:0:
256,192,127049,1,0,0:0:0:0:
256,192,127149,1,8,0:0:0:0:
256,192,127249,1,8,0:0:0:0:
256,192,127349,1,0,0:0:0:0:
256,192,127549,1,8,0:0:0:0:
256,192,127649,1,8,0:0:0:0:
256,192,127749,1,0,0:0:0:0:
256,192,127815,1,0,0:0:0:0:
256,192,127882,1,0,0:0:0:0:
256,192,127949,1,8,0:0:0:0:
256,192,128049,1,8,0:0:0:0:
256,192,128149,1,0,0:0:0:0:
256,192,128215,1,0,0:0:0:0:
256,192,128282,1,8,0:0:0:0:
256,192,128349,1,0,0:0:0:0:
256,192,128415,1,8,0:0:0:0:
256,192,128482,1,8,0:0:0:0:
256,192,128549,1,0,0:0:0:0:
256,192,128749,1,0,0:0:0:0:
256,192,128949,1,8,0:0:0:0:
256,192,129149,1,8,0:0:0:0:
256,192,129249,1,8,0:0:0:0:
256,192,129349,1,0,0:0:0:0:
256,192,129449,1,8,0:0:0:0:
256,192,129549,1,8,0:0:0:0:
256,192,129649,1,8,0:0:0:0:
256,192,129749,1,0,0:0:0:0:
256,192,129849,1,8,0:0:0:0:
256,192,129949,1,8,0:0:0:0:
256,192,129999,1,8,0:0:0:0:
256,192,130049,1,8,0:0:0:0:
256,192,130099,1,8,0:0:0:0:
256,192,130149,1,0,0:0:0:0:
256,192,130249,1,0,0:0:0:0:
256,192,130299,1,0,0:0:0:0:
256,192,130349,1,8,0:0:0:0:
256,192,130449,1,8,0:0:0:0:
256,192,130549,1,0,0:0:0:0:
256,192,130749,1,8,0:0:0:0:
256,192,130849,1,8,0:0:0:0:
256,192,130949,1,0,0:0:0:0:
256,192,131049,1,8,0:0:0:0:
256,192,131149,1,8,0:0:0:0:
256,192,131249,1,8,0:0:0:0:
256,192,131349,1,0,0:0:0:0:
256,192,131449,1,0,0:0:0:0:
256,192,131549,1,0,0:0:0:0:
256,192,131599,1,0,0:0:0:0:
256,192,131649,1,0,0:0:0:0:
256,192,131699,1,0,0:0:0:0:
256,192,131749,1,8,0:0:0:0:
256,192,131849,1,8,0:0:0:0:
256,192,131949,1,0,0:0:0:0:
256,192,132049,1,8,0:0:0:0:
256,192,132149,1,0,0:0:0:0:
256,192,132349,1,0,0:0:0:0:
256,192,132449,1,0,0:0:0:0:
256,192,132549,1,8,0:0:0:0:
256,192,132649,1,0,0:0:0:0:
256,192,132749,1,8,0:0:0:0:
256,192,132849,1,8,0:0:0:0:
256,192,132949,1,0,0:0:0:0:
256,192,133049,1,0,0:0:0:0:
256,192,133149,1,8,0:0:0:0:
256,192,133249,1,8,0:0:0:0:
256,192,133349,1,0,0:0:0:0:
256,192,133449,1,8,0:0:0:0:
256,192,133549,1,0,0:0:0:0:
256,192,133649,1,0,0:0:0:0:
256,192,133749,1,8,0:0:0:0:
256,192,133849,1,0,0:0:0:0:
256,192,133949,1,8,0:0:0:0:
256,192,134049,1,0,0:0:0:0:
256,192,134149,1,0,0:0:0:0:
256,192,134199,1,0,0:0:0:0:
256,192,134249,1,0,0:0:0:0:
256,192,134349,1,8,0:0:0:0:
256,192,134449,1,0,0:0:0:0:
256,192,134549,1,8,0:0:0:0:
256,192,134599,1,8,0:0:0:0:
256,192,134649,1,8,0:0:0:0:
256,192,134699,1,8,0:0:0:0:
256,192,134749,1,0,0:0:0:0:
256,192,134849,1,8,0:0:0:0:
256,192,134949,1,4,0:0:0:0:
256,192,135149,1,0,0:0:0:0:
256,192,135349,1,8,0:0:0:0:
256,192,135549,1,8,0:0:0:0:
256,192,135649,1,8,0:0:0:0:
256,192,135749,1,0,0:0:0:0:
256,192,135849,1,8,0:0:0:0:
256,192,135949,1,8,0:0:0:0:
256,192,136049,1,8,0:0:0:0:
256,192,136149,1,0,0:0:0:0:
256,192,136249,1,8,0:0:0:0:
256,192,136349,1,8,0:0:0:0:
256,192,136399,1,8,0:0:0:0:
256,192,136449,1,8,0:0:0:0:
256,192,136499,1,8,0:0:0:0:
256,192,136549,1,0,0:0:0:0:
256,192,136649,1,0,0:0:0:0:
256,192,136699,1,8,0:0:0:0:
256,192,136749,1,0,0:0:0:0:
256,192,136849,1,8,0:0:0:0:
256,192,136949,1,0,0:0:0:0:
256,192,137149,1,8,0:0:0:0:
256,192,137249,1,8,0:0:0:0:
256,192,137349,1,0,0:0:0:0:
256,192,137449,1,8,0:0:0:0:
256,192,137549,1,8,0:0:0:0:
256,192,137649,1,8,0:0:0:0:
256,192,137749,1,0,0:0:0:0:
256,192,137849,1,8,0:0:0:0:
256,192,137949,1,8,0:0:0:0:
256,192,137999,1,8,0:0:0:0:
256,192,138049,1,8,0:0:0:0:
256,192,138099,1,8,0:0:0:0:
256,192,138149,1,0,0:0:0:0:
256,192,138249,1,0,0:0:0:0:
256,192,138349,1,8,0:0:0:0:
256,192,138449,1,8,0:0:0:0:
256,192,138549,1,0,0:0:0:0:
256,192,138749,1,0,0:0:0:0:
256,192,138849,1,0,0:0:0:0:
256,192,138949,1,8,0:0:0:0:
256,192,139049,1,8,0:0:0:0:
256,192,139149,1,0,0:0:0:0:
256,192,139249,1,0,0:0:0:0:
256,192,139349,1,8,0:0:0:0:
256,192,139449,1,0,0:0:0:0:
256,192,139549,1,8,0:0:0:0:
256,192,139599,1,8,0:0:0:0:
256,192,139649,1,8,0:0:0:0:
256,192,139699,1,8,0:0:0:0:
256,192,139749,1,0,0:0:0:0:
256,192,139849,1,8,0:0:0:0:
256,192,139949,1,8,0:0:0:0:
256,192,140049,1,8,0:0:0:0:
256,192,140149,1,0,0:0:0:0:
256,192,140349,1,8,0:0:0:0:
256,192,140449,1,8,0:0:0:0:
256,192,140549,1,0,0:0:0:0:
256,192,140615,1,0,0:0:0:0:
256,192,140682,1,0,0:0:0:0:
256,192,140749,1,8,0:0:0:0:
256,192,140849,1,8,0:0:0:0:
256,192,140949,1,0,0:0:0:0:
256,192,141015,1,0,0:0:0:0:
256,192,141082,1,8,0:0:0:0:
256,192,141149,1,8,0:0:0:0:
256,192,141215,1,0,0:0:0:0:
256,192,141282,1,8,0:0:0:0:
256,192,141349,1,0,0:0:0:0:
256,192,141549,1,0,0:0:0:0:
256,192,141749,1,8,0:0:0:0:
256,192,141949,1,8,0:0:0:0:
256,192,142049,1,8,0:0:0:0:
256,192,142149,1,0,0:0:0:0:
256,192,142249,1,8,0:0:0:0:
256,192,142349,1,8,0:0:0:0:
256,192,142549,1,0,0:0:0:0:
256,192,142749,1,8,0:0:0:0:
256,192,142799,1,8,0:0:0:0:
256,192,142849,1,8,0:0:0:0:
256,192,142899,1,8,0:0:0:0:
256,192,142949,1,0,0:0:0:0:
256,192,143049,1,0,0:0:0:0:
256,192,143099,1,0,0:0:0:0:
256,192,143149,1,8,0:0:0:0:
256,192,143249,1,8,0:0:0:0:
256,192,143349,1,0,0:0:0:0:
256,192,143549,1,8,0:0:0:0:
256,192,143649,1,8,0:0:0:0:
256,192,143749,1,0,0:0:0:0:
256,192,143849,1,0,0:0:0:0:
256,192,143949,1,8,0:0:0:0:
256,192,144149,1,0,0:0:0:0:
256,192,144349,1,8,0:0:0:0:
256,192,144399,1,8,0:0:0:0:
256,192,144449,1,8,0:0:0:0:
256,192,144549,1,0,0:0:0:0:
256,192,144649,1,0,0:0:0:0:
256,192,144749,1,8,0:0:0:0:
256,192,144849,1,8,0:0:0:0:
256,192,144949,1,0,0:0:0:0:
256,192,145149,1,0,0:0:0:0:
256,192,145349,1,0,0:0:0:0:
256,192,145449,1,8,0:0:0:0:
256,192,145549,1,0,0:0:0:0:
256,192,145649,1,8,0:0:0:0:
256,192,145749,1,0,0:0:0:0:
256,192,145949,1,0,0:0:0:0:
256,192,146049,1,8,0:0:0:0:
256,192,146149,1,0,0:0:0:0:
256,192,146415,1,0,0:0:0:0:
256,192,146549,1,8,0:0:0:0:
256,192,146815,1,8,0:0:0:0:
256,192,146949,1,0,0:0:0:0:
256,192,147082,1,0,0:0:0:0:
256,192,147215,1,8,0:0:0:0:
256,192,147349,1,0,0:0:0:0:
256,192,147482,1,8,0:0:0:0:
256,192,147615,1,8,0:0:0:0:
256,192,147749,1,4,0:0:0:0:
256,192,148015,1,0,0:0:0:0:
256,192,148149,1,8,0:0:0:0:
256,192,148415,1,8,0:0:0:0:
256,192,148549,1,0,0:0:0:0:
256,192,148682,1,0,0:0:0:0:
256,192,148815,1,0,0:0:0:0:
256,192,148949,1,8,0:0:0:0:
256,192,149215,1,0,0:0:0:0:
256,192,149349,1,8,0:0:0:0:
256,192,149615,1,8,0:0:0:0:
256,192,149749,1,0,0:0:0:0:
256,192,150015,1,8,0:0:0:0:
256,192,150149,1,0,0:0:0:0:
256,192,150282,1,0,0:0:0:0:
256,192,150415,1,0,0:0:0:0:
256,192,150549,1,8,0:0:0:0:
256,192,150682,1,8,0:0:0:0:
256,192,150815,1,8,0:0:0:0:
256,192,150949,1,0,0:0:0:0:
256,192,151215,1,0,0:0:0:0:
256,192,151349,1,8,0:0:0:0:
256,192,151415,1,8,0:0:0:0:
256,192,151482,1,0,0:0:0:0:
256,192,151549,1,0,0:0:0:0:
256,192,151615,1,0,0:0:0:0:
256,192,151749,1,8,0:0:0:0:
256,192,151882,1,8,0:0:0:0:
256,192,152015,1,0,0:0:0:0:
256,192,152149,1,8,0:0:0:0:
256,192,152215,1,0,0:0:0:0:
256,192,152282,1,0,0:0:0:0:
256,192,152349,1,8,0:0:0:0:
256,192,152415,1,8,0:0:0:0:
256,192,152482,1,8,0:0:0:0:
256,192,152549,1,0,0:0:0:0:
256,192,152815,1,0,0:0:0:0:
256,192,152949,1,8,0:0:0:0:
256,192,153082,1,8,0:0:0:0:
256,192,153215,1,8,0:0:0:0:
256,192,153349,1,0,0:0:0:0:
256,192,153482,1,0,0:0:0:0:
256,192,153615,1,8,0:0:0:0:
256,192,153749,1,0,0:0:0:0:
256,192,153882,1,8,0:0:0:0:
256,192,154015,1,8,0:0:0:0:
256,192,154149,1,0,0:0:0:0:
256,192,154415,1,0,0:0:0:0:
256,192,154549,1,8,0:0:0:0:
256,192,154815,1,8,0:0:0:0:
256,192,154949,1,0,0:0:0:0:
256,192,155082,1,0,0:0:0:0:
256,192,155215,1,0,0:0:0:0:
256,192,155349,1,8,0:0:0:0:
256,192,155615,1,0,0:0:0:0:
256,192,155749,1,8,0:0:0:0:
256,192,156015,1,8,0:0:0:0:
256,192,156149,1,0,0:0:0:0:
256,192,156215,1,0,0:0:0:0:
256,192,156282,1,0,0:0:0:0:
256,192,156349,1,0,0:0:0:0:
256,192,156415,1,0,0:0:0:0:
256,192,156482,1,0,0:0:0:0:
256,192,156549,1,8,0:0:0:0:
256,192,156682,1,0,0:0:0:0:
256,192,156815,1,0,0:0:0:0:
256,192,156949,1,8,0:0:0:0:
256,192,157082,1,8,0:0:0:0:
256,192,157215,1,8,0:0:0:0:
256,192,157349,1,0,0:0:0:0:
256,192,157615,1,0,0:0:0:0:
256,192,157749,1,8,0:0:0:0:
256,192,157815,1,8,0:0:0:0:
256,192,157882,1,0,0:0:0:0:
256,192,157949,1,0,0:0:0:0:
256,192,158015,1,0,0:0:0:0:
256,192,158149,1,8,0:0:0:0:
256,192,158282,1,8,0:0:0:0:
256,192,158415,1,0,0:0:0:0:
256,192,158549,1,8,0:0:0:0:
256,192,158615,1,0,0:0:0:0:
256,192,158682,1,8,0:0:0:0:
256,192,158749,1,8,0:0:0:0:
256,192,158815,1,0,0:0:0:0:
256,192,158882,1,0,0:0:0:0:
256,192,158949,1,8,0:0:0:0:
256,192,159215,1,4,0:0:0:0:
256,192,159349,1,0,0:0:0:0:
256,192,159482,1,12,0:0:0:0:
256,192,159615,1,8,0:0:0:0:
256,192,159749,1,0,0:0:0:0:
256,192,159815,1,0,0:0:0:0:
256,192,159882,1,0,0:0:0:0:
256,192,159949,1,8,0:0:0:0:
256,192,160015,1,0,0:0:0:0:
256,192,160082,1,8,0:0:0:0:
256,192,160149,1,8,0:0:0:0:
256,192,160215,1,0,0:0:0:0:
256,192,160282,1,0,0:0:0:0:
256,192,160349,1,8,0:0:0:0:
256,192,160415,1,8,0:0:0:0:
256,192,160482,1,8,0:0:0:0:
256,192,160549,1,0,0:0:0:0:
256,192,160815,1,0,0:0:0:0:
256,192,160949,1,12,0:0:0:0:
256,192,161215,1,8,0:0:0:0:
256,192,161349,1,4,0:0:0:0:
256,192,161482,1,0,0:0:0:0:
256,192,161615,1,0,0:0:0:0:
256,192,161749,1,12,0:0:0:0:
256,192,162015,1,0,0:0:0:0:
256,192,162149,1,12,0:0:0:0:
256,192,162415,1,8,0:0:0:0:
256,192,162549,1,4,0:0:0:0:
256,192,162815,1,8,0:0:0:0:
256,192,162949,1,4,0:0:0:0:
256,192,163082,1,0,0:0:0:0:
256,192,163215,1,0,0:0:0:0:
256,192,163349,1,12,0:0:0:0:
256,192,163482,1,8,0:0:0:0:
256,192,163615,1,8,0:0:0:0:
256,192,163749,1,4,0:0:0:0:
256,192,164015,1,0,0:0:0:0:
256,192,164149,1,12,0:0:0:0:
256,192,164282,1,8,0:0:0:0:
256,192,164415,1,8,0:0:0:0:
256,192,164549,1,4,0:0:0:0:
256,192,164682,1,0,0:0:0:0:
256,192,164815,1,0,0:0:0:0:
256,192,164949,1,12,0:0:0:0:
256,192,165215,1,8,0:0:0:0:
256,192,165349,1,4,0:0:0:0:
256,192,165482,1,0,0:0:0:0:
256,192,165615,1,8,0:0:0:0:
256,192,165749,1,4,0:0:0:0:
256,192,165882,1,8,0:0:0:0:
256,192,166015,1,8,0:0:0:0:
256,192,166149,1,4,0:0:0:0:
256,192,166282,1,0,0:0:0:0:
256,192,166415,1,0,0:0:0:0:
256,192,166549,1,12,0:0:0:0:
256,192,166682,1,0,0:0:0:0:
256,192,166815,1,8,0:0:0:0:
256,192,166949,1,4,0:0:0:0:
256,192,167215,1,0,0:0:0:0:
256,192,167349,1,12,0:0:0:0:
256,192,167615,1,8,0:0:0:0:
256,192,167749,1,4,0:0:0:0:
256,192,167882,1,0,0:0:0:0:
256,192,168015,1,0,0:0:0:0:
256,192,168149,1,12,0:0:0:0:
256,192,168282,1,8,0:0:0:0:
256,192,168415,1,0,0:0:0:0:
256,192,168549,1,0,0:0:0:0:
256,192,168615,1,0,0:0:0:0:
256,192,168682,1,8,0:0:0:0:
256,192,168815,1,8,0:0:0:0:
256,192,168949,1,8,0:0:0:0:
256,192,169015,1,0,0:0:0:0:
256,192,169082,1,0,0:0:0:0:
256,192,169149,1,8,0:0:0:0:
256,192,169215,1,8,0:0:0:0:
256,192,169282,1,8,0:0:0:0:
256,192,169349,1,0,0:0:0:0:
256,192,169482,1,0,0:0:0:0:
256,192,169615,1,0,0:0:0:0:
256,192,169749,1,12,0:0:0:0:
256,192,169882,1,0,0:0:0:0:
256,192,170015,1,8,0:0:0:0:
256,192,170149,1,4,0:0:0:0:
256,192,170415,1,8,0:0:0:0:
256,192,170549,1,4,0:0:0:0:
256,192,170682,1,0,0:0:0:0:
256,192,170815,1,8,0:0:0:0:
256,192,170949,1,4,0:0:0:0:
256,192,171082,1,8,0:0:0:0:
256,192,171215,1,8,0:0:0:0:
256,192,171349,1,0,0:0:0:0:
256,192,171415,1,0,0:0:0:0:
256,192,171482,1,0,0:0:0:0:
256,192,171549,1,0,0:0:0:0:
256,192,171615,1,0,0:0:0:0:
256,192,171682,1,0,0:0:0:0:
256,192,171749,1,8,0:0:0:0:
256,192,172015,1,4,0:0:0:0:
256,192,172149,1,8,0:0:0:0:
256,192,172282,1,4,0:0:0:0:
256,192,172415,1,8,0:0:0:0:
256,192,172549,1,0,0:0:0:0:
256,192,172615,1,0,0:0:0:0:
256,192,172682,1,0,0:0:0:0:
256,192,172749,1,8,0:0:0:0:
256,192,172815,1,0,0:0:0:0:
256,192,172882,1,8,0:0:0:0:
256,192,172949,1,8,0:0:0:0:
256,192,173015,1,0,0:0:0:0:
256,192,173082,1,0,0:0:0:0:
256,192,173149,1,8,0:0:0:0:
256,192,173215,1,8,0:0:0:0:
256,192,173282,1,8,0:0:0:0:
256,192,173349,1,0,0:0:0:0:
256,192,173549,1,0,0:0:0:0:
256,192,173749,1,8,0:0:0:0:
256,192,173949,1,0,0:0:0:0:
256,192,174349,1,0,0:0:0:0:
256,192,174549,1,8,0:0:0:0:
256,192,174849,1,8,0:0:0:0:
256,192,174949,1,0,0:0:0:0:
256,192,175349,1,8,0:0:0:0:
256,192,175549,1,0,0:0:0:0:
256,192,175649,1,8,0:0:0:0:
256,192,175849,1,8,0:0:0:0:
256,192,175949,1,0,0:0:0:0:
256,192,176149,1,8,0:0:0:0:
256,192,176349,1,0,0:0:0:0:
256,192,176549,1,0,0:0:0:0:
256,192,176749,1,0,0:0:0:0:
256,192,176949,1,8,0:0:0:0:
256,192,177149,1,0,0:0:0:0:
256,192,177249,1,8,0:0:0:0:
256,192,177349,1,0,0:0:0:0:
256,192,177549,1,0,0:0:0:0:
256,192,177749,1,8,0:0:0:0:
256,192,178049,1,8,0:0:0:0:
256,192,178149,1,0,0:0:0:0:
256,192,178449,1,0,0:0:0:0:
256,192,178549,1,8,0:0:0:0:
256,192,178749,1,8,0:0:0:0:
256,192,178849,1,0,0:0:0:0:
256,192,178949,1,8,0:0:0:0:
256,192,179049,1,8,0:0:0:0:
256,192,179149,1,0,0:0:0:0:
256,192,179215,1,0,0:0:0:0:
256,192,179282,1,0,0:0:0:0:
256,192,179349,1,8,0:0:0:0:
256,192,179449,1,0,0:0:0:0:
256,192,179549,1,8,0:0:0:0:
256,192,179615,1,8,0:0:0:0:
256,192,179682,1,8,0:0:0:0:
256,192,179749,1,0,0:0:0:0:
256,192,179949,1,0,0:0:0:0:
256,192,180149,1,8,0:0:0:0:
256,192,180349,1,0,0:0:0:0:
256,192,180449,1,8,0:0:0:0:
256,192,180549,1,0,0:0:0:0:
256,192,180749,1,0,0:0:0:0:
256,192,180949,1,8,0:0:0:0:
256,192,181249,1,8,0:0:0:0:
256,192,181349,1,0,0:0:0:0:
256,192,181749,1,8,0:0:0:0:
256,192,181949,1,0,0:0:0:0:
256,192,182049,1,8,0:0:0:0:
256,192,182249,1,8,0:0:0:0:
256,192,182349,1,0,0:0:0:0:
256,192,182549,1,8,0:0:0:0:
256,192,182749,1,0,0:0:0:0:
256,192,182949,1,0,0:0:0:0:
256,192,183149,1,0,0:0:0:0:
256,192,183349,1,8,0:0:0:0:
256,192,183549,1,0,0:0:0:0:
256,192,183649,1,8,0:0:0:0:
256,192,183749,1,0,0:0:0:0:
256,192,183949,1,0,0:0:0:0:
256,192,184149,1,8,0:0:0:0:
256,192,184549,1,0,0:0:0:0:
256,192,184615,1,0,0:0:0:0:
256,192,184682,1,0,0:0:0:0:
256,192,184749,1,0,0:0:0:0:
256,192,184849,1,0,0:0:0:0:
256,192,184949,1,8,0:0:0:0:
256,192,185049,1,0,0:0:0:0:
256,192,185149,1,8,0:0:0:0:
256,192,185249,1,8,0:0:0:0:
256,192,185349,1,0,0:0:0:0:
256,192,185415,1,0,0:0:0:0:
256,192,185482,1,0,0:0:0:0:
256,192,185549,1,8,0:0:0:0:
256,192,185615,1,8,0:0:0:0:
256,192,185682,1,8,0:0:0:0:
256,192,185749,1,0,0:0:0:0:
256,192,185799,1,0,0:0:0:0:
256,192,185849,1,0,0:0:0:0:
256,192,185949,1,8,0:0:0:0:
256,192,185999,1,8,0:0:0:0:
256,192,186049,1,8,0:0:0:0:
256,192,186149,1,4,0:0:0:0:
256,192,186349,1,4,0:0:0:0:
256,192,186549,1,0,0:0:0:0:
256,192,186649,1,0,0:0:0:0:
256,192,186749,1,8,0:0:0:0:
256,192,186849,1,8,0:0:0:0:
256,192,186949,1,0,0:0:0:0:
256,192,187149,1,8,0:0:0:0:
256,192,187249,1,0,0:0:0:0:
256,192,187349,1,8,0:0:0:0:
256,192,187449,1,8,0:0:0:0:
256,192,187549,1,0,0:0:0:0:
256,192,187649,1,8,0:0:0:0:
256,192,187749,1,0,0:0:0:0:
256,192,187849,1,0,0:0:0:0:
256,192,187949,1,8,0:0:0:0:
256,192,188049,1,8,0:0:0:0:
256,192,188149,1,0,0:0:0:0:
256,192,188249,1,0,0:0:0:0:
256,192,188349,1,8,0:0:0:0:
256,192,188449,1,0,0:0:0:0:
256,192,188549,1,8,0:0:0:0:
256,192,188649,1,8,0:0:0:0:
256,192,188749,1,0,0:0:0:0:
256,192,188799,1,0,0:0:0:0:
256,192,188849,1,0,0:0:0:0:
256,192,188949,1,8,0:0:0:0:
256,192,189049,1,0,0:0:0:0:
256,192,189149,1,8,0:0:0:0:
256,192,189249,1,8,0:0:0:0:
256,192,189349,1,4,0:0:0:0:
256,192,189549,1,4,0:0:0:0:
256,192,189749,1,8,0:0:0:0:
256,192,189849,1,0,0:0:0:0:
256,192,189949,1,8,0:0:0:0:
256,192,190049,1,8,0:0:0:0:
256,192,190149,1,0,0:0:0:0:
256,192,190349,1,0,0:0:0:0:
256,192,190449,1,8,0:0:0:0:
256,192,190549,1,0,0:0:0:0:
256,192,190615,1,0,0:0:0:0:
256,192,190682,1,0,0:0:0:0:
256,192,190749,1,8,0:0:0:0:
256,192,190815,1,8,0:0:0:0:
256,192,190882,1,8,0:0:0:0:
256,192,190949,1,0,0:0:0:0:
256,192,191049,1,0,0:0:0:0:
256,192,191149,1,8,0:0:0:0:
256,192,191249,1,0,0:0:0:0:
256,192,191349,1,8,0:0:0:0:
256,192,191449,1,8,0:0:0:0:
256,192,191549,1,0,0:0:0:0:
256,192,191615,1,0,0:0:0:0:
256,192,191682,1,0,0:0:0:0:
256,192,191749,1,8,0:0:0:0:
256,192,191815,1,0,0:0:0:0:
256,192,191882,1,8,0:0:0:0:
256,192,191949,1,8,0:0:0:0:
256,192,192015,1,0,0:0:0:0:
256,192,192082,1,0,0:0:0:0:
256,192,192149,1,8,0:0:0:0:
256,192,192215,1,8,0:0:0:0:
256,192,192282,1,8,0:0:0:0:
256,192,192349,1,0,0:0:0:0:
256,192,192415,1,0,0:0:0:0:
256,192,192482,1,8,0:0:0:0:
256,192,192549,1,0,0:0:0:0:
256,192,192749,1,4,0:0:0:0:
256,192,192949,1,0,0:0:0:0:
256,192,193049,1,0,0:0:0:0:
256,192,193149,1,8,0:0:0:0:
256,192,193249,1,8,0:0:0:0:
256,192,193349,1,4,0:0:0:0:
256,192,193649,1,4,0:0:0:0:
256,192,193849,1,8,0:0:0:0:
256,192,193949,1,4,0:0:0:0:
256,192,194149,1,4,0:0:0:0:
256,192,194349,1,4,0:0:0:0:
256,192,194549,1,0,0:0:0:0:
256,192,194649,1,8,0:0:0:0:
256,192,194749,1,0,0:0:0:0:
256,192,194815,1,0,0:0:0:0:
256,192,194882,1,0,0:0:0:0:
256,192,194949,1,8,0:0:0:0:
256,192,195015,1,8,0:0:0:0:
256,192,195082,1,8,0:0:0:0:
256,192,195149,1,0,0:0:0:0:
256,192,195215,1,0,0:0:0:0:
256,192,195282,1,8,0:0:0:0:
256,192,195349,1,0,0:0:0:0:
256,192,195449,1,0,0:0:0:0:
256,192,195549,1,8,0:0:0:0:
256,192,195615,1,8,0:0:0:0:
256,192,195682,1,8,0:0:0:0:
256,192,195749,1,0,0:0:0:0:
256,192,195949,1,4,0:0:0:0:
256,192,196149,1,0,0:0:0:0:
256,192,196249,1,8,0:0:0:0:
256,192,196349,1,0,0:0:0:0:
256,192,196549,1,8,0:0:0:0:
256,192,196649,1,0,0:0:0:0:
256,192,196749,1,8,0:0:0:0:
256,192,196849,1,8,0:0:0:0:
256,192,196949,1,0,0:0:0:0:
256,192,197015,1,0,0:0:0:0:
256,192,197082,1,0,0:0:0:0:
256,192,197149,1,8,0:0:0:0:
256,192,197215,1,8,0:0:0:0:
256,192,197282,1,8,0:0:0:0:
256,192,197349,1,0,0:0:0:0:
256,192,197549,1,0,0:0:0:0:
256,192,197749,1,0,0:0:0:0:
256,192,197849,1,8,0:0:0:0:
256,192,197949,1,0,0:0:0:0:
256,192,198015,1,0,0:0:0:0:
256,192,198082,1,0,0:0:0:0:
256,192,198149,1,8,0:0:0:0:
256,192,198249,1,0,0:0:0:0:
256,192,198349,1,8,0:0:0:0:
256,192,198415,1,8,0:0:0:0:
256,192,198482,1,8,0:0:0:0:
256,192,198549,1,0,0:0:0:0:
256,192,198649,1,8,0:0:0:0:
256,192,198749,1,0,0:0:0:0:
256,192,198815,1,0,0:0:0:0:
256,192,198882,1,0,0:0:0:0:
256,192,198949,1,8,0:0:0:0:
256,192,199149,1,0,0:0:0:0:
256,192,199249,1,0,0:0:0:0:
256,192,199349,1,8,0:0:0:0:
256,192,199749,1,0,0:0:0:0:
256,192,200149,1,8,0:0:0:0:
256,192,200549,1,0,0:0:0:0:
256,192,200615,1,0,0:0:0:0:
256,192,200682,1,0,0:0:0:0:
256,192,200749,1,8,0:0:0:0:
256,192,200849,1,8,0:0:0:0:
256,192,200949,1,0,0:0:0:0:
256,192,201049,1,8,0:0:0:0:
256,192,201149,1,0,0:0:0:0:
256,192,201249,1,0,0:0:0:0:
256,192,201349,1,0,0:0:0:0:
256,192,201415,1,0,0:0:0:0:
256,192,201482,1,0,0:0:0:0:
256,192,201549,1,8,0:0:0:0:
256,192,201649,1,0,0:0:0:0:
256,192,201749,1,12,0:0:0:0:
256,192,202149,1,4,0:0:0:0:
256,192,202349,1,0,0:0:0:0:
256,192,202449,1,0,0:0:0:0:
256,192,202549,1,8,0:0:0:0:
256,192,202949,1,0,0:0:0:0:
256,192,203349,1,8,0:0:0:0:
256,192,203415,1,8,0:0:0:0:
256,192,203482,1,8,0:0:0:0:
256,192,203549,1,8,0:0:0:0:
256,192,203615,1,8,0:0:0:0:
256,192,203682,1,8,0:0:0:0:
256,192,203749,1,0,0:0:0:0:
256,192,203849,1,0,0:0:0:0:
256,192,203949,1,8,0:0:0:0:
256,192,204049,1,0,0:0:0:0:
256,192,204149,1,8,0:0:0:0:
256,192,204249,1,8,0:0:0:0:
256,192,204349,1,0,0:0:0:0:
256,192,204449,1,8,0:0:0:0:
256,192,204549,1,0,0:0:0:0:
256,192,204649,1,0,0:0:0:0:
256,192,204749,1,8,0:0:0:0:
256,192,204849,1,0,0:0:0:0:
256,192,204949,1,0,0:0:0:0:
256,192,204999,1,0,0:0:0:0:
256,192,205049,1,0,0:0:0:0:
256,192,205099,1,0,0:0:0:0:
256,192,205149,1,8,0:0:0:0:
256,192,205249,1,8,0:0:0:0:
256,192,205349,1,4,0:0:0:0:
256,192,205549,1,8,0:0:0:0:
256,192,205649,1,8,0:0:0:0:
256,192,205749,1,0,0:0:0:0:
256,192,205949,1,0,0:0:0:0:
256,192,206049,1,0,0:0:0:0:
256,192,206149,1,8,0:0:0:0:
256,192,206249,1,0,0:0:0:0:
256,192,206349,1,8,0:0:0:0:
256,192,206449,1,8,0:0:0:0:
256,192,206549,1,0,0:0:0:0:
256,192,206615,1,0,0:0:0:0:
256,192,206682,1,0,0:0:0:0:
256,192,206749,1,8,0:0:0:0:
256,192,206849,1,8,0:0:0:0:
256,192,206949,1,0,0:0:0:0:
256,192,207149,1,8,0:0:0:0:
256,192,207249,1,8,0:0:0:0:
256,192,207349,1,0,0:0:0:0:
256,192,207549,1,0,0:0:0:0:
256,192,207649,1,8,0:0:0:0:
256,192,207749,1,0,0:0:0:0:
256,192,207849,1,0,0:0:0:0:
256,192,207949,1,8,0:0:0:0:
256,192,208049,1,8,0:0:0:0:
256,192,208149,1,0,0:0:0:0:
256,192,208215,1,0,0:0:0:0:
256,192,208282,1,0,0:0:0:0:
256,192,208349,1,8,0:0:0:0:
256,192,208449,1,8,0:0:0:0:
256,192,208549,1,0,0:0:0:0:
256,192,208749,1,8,0:0:0:0:
256,192,208849,1,8,0:0:0:0:
256,192,208949,1,0,0:0:0:0:
256,192,209149,1,8,0:0:0:0:
256,192,209249,1,8,0:0:0:0:
256,192,209349,1,0,0:0:0:0:
256,192,209449,1,0,0:0:0:0:
256,192,209549,1,8,0:0:0:0:
256,192,209649,1,0,0:0:0:0:
256,192,209749,1,8,0:0:0:0:
256,192,209849,1,8,0:0:0:0:
256,192,209949,1,0,0:0:0:0:
256,192,210049,1,8,0:0:0:0:
256,192,210149,1,0,0:0:0:0:
256,192,210349,1,0,0:0:0:0:
256,192,210449,1,8,0:0:0:0:
256,192,210649,1,8,0:0:0:0:
256,192,210749,1,0,0:0:0:0:
256,192,210949,1,0,0:0:0:0:
256,192,211049,1,8,0:0:0:0:
256,192,211149,1,8,0:0:0:0:
256,192,211249,1,0,0:0:0:0:
256,192,211349,1,0,0:0:0:0:
256,192,211415,1,0,0:0:0:0:
256,192,211482,1,0,0:0:0:0:
256,192,211549,1,8,0:0:0:0:
256,192,211649,1,8,0:0:0:0:
256,192,211749,1,0,0:0:0:0:
256,192,211949,1,8,0:0:0:0:
256,192,212049,1,8,0:0:0:0:
256,192,212149,1,0,0:0:0:0:
256,192,212349,1,0,0:0:0:0:
256,192,212449,1,0,0:0:0:0:
256,192,212549,1,8,0:0:0:0:
256,192,212649,1,0,0:0:0:0:
256,192,212749,1,8,0:0:0:0:
256,192,212849,1,8,0:0:0:0:
256,192,212949,1,0,0:0:0:0:
256,192,213015,1,0,0:0:0:0:
256,192,213082,1,0,0:0:0:0:
256,192,213149,1,8,0:0:0:0:
256,192,213249,1,8,0:0:0:0:
256,192,213349,1,0,0:0:0:0:
256,192,213549,1,8,0:0:0:0:
256,192,213649,1,8,0:0:0:0:
256,192,213749,1,0,0:0:0:0:
256,192,213949,1,0,0:0:0:0:
256,192,214049,1,8,0:0:0:0:
256,192,214149,1,0,0:0:0:0:
256,192,214249,1,0,0:0:0:0:
256,192,214349,1,8,0:0:0:0:
256,192,214449,1,8,0:0:0:0:
256,192,214549,1,0,0:0:0:0:
256,192,214615,1,0,0:0:0:0:
256,192,214682,1,0,0:0:0:0:
256,192,214749,1,8,0:0:0:0:
256,192,214849,1,8,0:0:0:0:
256,192,214949,1,0,0:0:0:0:
256,192,215015,1,0,0:0:0:0:
256,192,215082,1,0,0:0:0:0:
256,192,215149,1,8,0:0:0:0:
256,192,215249,1,8,0:0:0:0:
256,192,215349,1,0,0:0:0:0:
256,192,215449,1,8,0:0:0:0:
256,192,215549,1,0,0:0:0:0:
256,192,215615,1,8,0:0:0:0:
256,192,215682,1,8,0:0:0:0:
256,192,215749,1,0,0:0:0:0:
256,192,215849,1,0,0:0:0:0:
256,192,215949,1,8,0:0:0:0:
256,192,216049,1,8,0:0:0:0:
256,192,216149,1,0,0:0:0:0:
256,192,216215,1,0,0:0:0:0:
256,192,216282,1,8,0:0:0:0:
256,192,216349,1,0,0:0:0:0:
256,192,216415,1,8,0:0:0:0:
256,192,216482,1,8,0:0:0:0:
256,192,216549,1,0,0:0:0:0:
256,192,216649,1,8,0:0:0:0:
256,192,216749,1,8,0:0:0:0:
256,192,216849,1,0,0:0:0:0:
256,192,216949,1,8,0:0:0:0:
256,192,217049,1,8,0:0:0:0:
256,192,217149,1,0,0:0:0:0:
256,192,217249,1,8,0:0:0:0:
256,192,217349,1,8,0:0:0:0:
256,192,217449,1,0,0:0:0:0:
256,192,217549,1,8,0:0:0:0:
256,192,217649,1,8,0:0:0:0:
256,192,217749,1,0,0:0:0:0:
256,192,217815,1,0,0:0:0:0:
256,192,217882,1,0,0:0:0:0:
256,192,217949,1,8,0:0:0:0:
256,192,218049,1,8,0:0:0:0:
256,192,218149,1,0,0:0:0:0:
256,192,218349,1,8,0:0:0:0:
256,192,218449,1,8,0:0:0:0:
256,192,218549,1,0,0:0:0:0:
256,192,218749,1,0,0:0:0:0:
256,192,218849,1,0,0:0:0:0:
256,192,218949,1,8,0:0:0:0:
256,192,219049,1,0,0:0:0:0:
256,192,219149,1,8,0:0:0:0:
256,192,219249,1,8,0:0:0:0:
256,192,219349,1,0,0:0:0:0:
256,192,219415,1,0,0:0:0:0:
256,192,219482,1,0,0:0:0:0:
256,192,219549,1,8,0:0:0:0:
256,192,219649,1,8,0:0:0:0:
256,192,219749,1,0,0:0:0:0:
256,192,219949,1,8,0:0:0:0:
256,192,220049,1,8,0:0:0:0:
256,192,220149,1,0,0:0:0:0:
256,192,220349,1,0,0:0:0:0:
256,192,220449,1,8,0:0:0:0:
256,192,220549,1,0,0:0:0:0:
256,192,220649,1,0,0:0:0:0:
256,192,220749,1,8,0:0:0:0:
256,192,220849,1,8,0:0:0:0:
256,192,220949,1,0,0:0:0:0:
256,192,221015,1,0,0:0:0:0:
256,192,221082,1,0,0:0:0:0:
256,192,221149,1,8,0:0:0:0:
256,192,221249,1,8,0:0:0:0:
256,192,221349,1,0,0:0:0:0:
256,192,221549,1,8,0:0:0:0:
256,192,221649,1,8,0:0:0:0:
256,192,221749,1,0,0:0:0:0:
256,192,221949,1,8,0:0:0:0:
256,192,222049,1,8,0:0:0:0:
256,192,222149,1,0,0:0:0:0:
256,192,222249,1,0,0:0:0:0:
256,192,222349,1,8,0:0:0:0:
256,192,222449,1,0,0:0:0:0:
256,192,222549,1,8,0:0:0:0:
256,192,222649,1,8,0:0:0:0:
256,192,222749,1,0,0:0:0:0:
256,192,222849,1,8,0:0:0:0:
256,192,222949,1,0,0:0:0:0:
256,192,223149,1,0,0:0:0:0:
256,192,223249,1,8,0:0:0:0:
256,192,223449,1,8,0:0:0:0:
256,192,223549,1,0,0:0:0:0:
256,192,223749,1,0,0:0:0:0:
256,192,223849,1,8,0:0:0:0:
256,192,224049,1,8,0:0:0:0:
256,192,224149,1,0,0:0:0:0:
256,192,224249,1,8,0:0:0:0:
256,192,224349,1,8,0:0:0:0:
256,192,224449,1,8,0:0:0:0:
256,192,224549,1,0,0:0:0:0:
256,192,224749,1,8,0:0:0:0:
256,192,224849,1,8,0:0:0:0:
256,192,224949,1,0,0:0:0:0:
256,192,225149,1,0,0:0:0:0:
256,192,225249,1,0,0:0:0:0:
256,192,225349,1,8,0:0:0:0:
256,192,225449,1,0,0:0:0:0:
256,192,225549,1,8,0:0:0:0:
256,192,225649,1,8,0:0:0:0:
256,192,225749,1,0,0:0:0:0:
256,192,225815,1,0,0:0:0:0:
256,192,225882,1,0,0:0:0:0:
256,192,225949,1,8,0:0:0:0:
256,192,226049,1,8,0:0:0:0:
256,192,226149,1,0,0:0:0:0:
256,192,226349,1,8,0:0:0:0:
256,192,226449,1,8,0:0:0:0:
256,192,226549,1,0,0:0:0:0:
256,192,226749,1,0,0:0:0:0:
256,192,226849,1,8,0:0:0:0:
256,192,226949,1,0,0:0:0:0:
256,192,227049,1,0,0:0:0:0:
256,192,227149,1,8,0:0:0:0:
256,192,227249,1,8,0:0:0:0:
256,192,227349,1,0,0:0:0:0:
256,192,227415,1,0,0:0:0:0:
256,192,227482,1,0,0:0:0:0:
256,192,227549,1,8,0:0:0:0:
256,192,227649,1,8,0:0:0:0:
256,192,227749,1,0,0:0:0:0:
256,192,227815,1,0,0:0:0:0:
256,192,227882,1,0,0:0:0:0:
256,192,227949,1,8,0:0:0:0:
256,192,228049,1,8,0:0:0:0:
256,192,228149,1,0,0:0:0:0:
256,192,228249,1,8,0:0:0:0:
256,192,228349,1,0,0:0:0:0:
256,192,228415,1,8,0:0:0:0:
256,192,228482,1,8,0:0:0:0:
256,192,228549,1,0,0:0:0:0:
256,192,228649,1,0,0:0:0:0:
256,192,228749,1,8,0:0:0:0:
256,192,228849,1,8,0:0:0:0:
256,192,228949,1,0,0:0:0:0:
256,192,229015,1,0,0:0:0:0:
256,192,229082,1,8,0:0:0:0:
256,192,229149,1,8,0:0:0:0:
256,192,229215,1,0,0:0:0:0:
256,192,229282,1,8,0:0:0:0:
256,192,229349,1,0,0:0:0:0:
256,192,229449,1,8,0:0:0:0:
256,192,229549,1,8,0:0:0:0:
256,192,229649,1,0,0:0:0:0:
256,192,229749,1,8,0:0:0:0:
256,192,229849,1,8,0:0:0:0:
256,192,229949,1,0,0:0:0:0:
256,192,230049,1,8,0:0:0:0:
256,192,230149,1,8,0:0:0:0:
256,192,230249,1,0,0:0:0:0:
256,192,230349,1,8,0:0:0:0:
256,192,230449,1,8,0:0:0:0:
256,192,230549,1,0,0:0:0:0:
256,192,230615,1,0,0:0:0:0:
256,192,230682,1,0,0:0:0:0:
256,192,230749,1,8,0:0:0:0:
256,192,230849,1,8,0:0:0:0:
256,192,230949,1,0,0:0:0:0:
256,192,231349,1,0,0:0:0:0:
256,192,231549,1,0,0:0:0:0:
256,192,231749,1,8,0:0:0:0:
256,192,231849,1,8,0:0:0:0:
256,192,231949,1,0,0:0:0:0:
256,192,232049,1,0,0:0:0:0:
256,192,232149,1,8,0:0:0:0:
256,192,232215,1,8,0:0:0:0:
256,192,232282,1,0,0:0:0:0:
256,192,232349,1,8,0:0:0:0:
256,192,232449,1,8,0:0:0:0:
256,192,232549,1,0,0:0:0:0:
256,192,232649,1,0,0:0:0:0:
256,192,232749,1,8,0:0:0:0:
256,192,232849,1,8,0:0:0:0:
256,192,232949,1,0,0:0:0:0:
256,192,233082,1,0,0:0:0:0:
256,192,233149,1,8,0:0:0:0:
256,192,233249,1,8,0:0:0:0:
256,192,233349,1,0,0:0:0:0:
256,192,233449,1,0,0:0:0:0:
256,192,233549,1,8,0:0:0:0:
256,192,233649,1,8,0:0:0:0:
256,192,233749,1,0,0:0:0:0:
256,192,233849,1,8,0:0:0:0:
256,192,233949,1,8,0:0:0:0:
256,192,234049,1,8,0:0:0:0:
256,192,234149,1,0,0:0:0:0:
256,192,234215,1,0,0:0:0:0:
256,192,234282,1,0,0:0:0:0:
256,192,234349,1,8,0:0:0:0:
256,192,234449,1,0,0:0:0:0:
256,192,234549,1,8,0:0:0:0:
256,192,234649,1,8,0:0:0:0:
256,192,234749,1,0,0:0:0:0:
256,192,234849,1,0,0:0:0:0:
256,192,234949,1,8,0:0:0:0:
256,192,235049,1,8,0:0:0:0:
256,192,235149,1,0,0:0:0:0:
256,192,235249,1,8,0:0:0:0:
256,192,235349,1,0,0:0:0:0:
256,192,235449,1,0,0:0:0:0:
256,192,235549,1,8,0:0:0:0:
256,192,235749,1,0,0:0:0:0:
256,192,235849,1,0,0:0:0:0:
256,192,235949,1,8,0:0:0:0:
256,192,236049,1,8,0:0:0:0:
256,192,236149,1,0,0:0:0:0:
256,192,236349,1,8,0:0:0:0:
256,192,236449,1,8,0:0:0:0:
256,192,236549,1,0,0:0:0:0:
256,192,236649,1,8,0:0:0:0:
256,192,236749,1,0,0:0:0:0:
256,192,236849,1,0,0:0:0:0:
256,192,236949,1,8,0:0:0:0:
256,192,237049,1,0,0:0:0:0:
256,192,237149,1,8,0:0:0:0:
256,192,237249,1,8,0:0:0:0:
256,192,237349,1,0,0:0:0:0:
256,192,237415,1,0,0:0:0:0:
256,192,237482,1,0,0:0:0:0:
256,192,237549,1,8,0:0:0:0:
256,192,237649,1,8,0:0:0:0:
256,192,237749,1,0,0:0:0:0:
256,192,237849,1,8,0:0:0:0:
256,192,237949,1,0,0:0:0:0:
256,192,238015,1,0,0:0:0:0:
256,192,238082,1,0,0:0:0:0:
256,192,238149,1,8,0:0:0:0:
256,192,238215,1,8,0:0:0:0:
256,192,238282,1,8,0:0:0:0:
256,192,238349,1,0,0:0:0:0:
256,192,238449,1,8,0:0:0:0:
256,192,238549,1,0,0:0:0:0:
256,192,238615,1,0,0:0:0:0:
256,192,238682,1,0,0:0:0:0:
256,192,238749,1,8,0:0:0:0:
256,192,238849,1,8,0:0:0:0:
256,192,238949,1,0,0:0:0:0:
256,192,239049,1,0,0:0:0:0:
256,192,239149,1,8,0:0:0:0:
256,192,239249,1,0,0:0:0:0:
256,192,239349,1,8,0:0:0:0:
256,192,239449,1,8,0:0:0:0:
256,192,239549,1,0,0:0:0:0:
256,192,239649,1,0,0:0:0:0:
256,192,239749,1,8,0:0:0:0:
256,192,239849,1,8,0:0:0:0:
256,192,239949,1,0,0:0:0:0:
256,192,240049,1,8,0:0:0:0:
256,192,240149,1,0,0:0:0:0:
256,192,240249,1,0,0:0:0:0:
256,192,240349,1,8,0:0:0:0:
256,192,240549,1,0,0:0:0:0:
256,192,240649,1,0,0:0:0:0:
256,192,240749,1,8,0:0:0:0:
256,192,240849,1,0,0:0:0:0:
256,192,240949,1,8,0:0:0:0:
256,192,241049,1,8,0:0:0:0:
256,192,241149,1,0,0:0:0:0:
256,192,241249,1,0,0:0:0:0:
256,192,241349,1,8,0:0:0:0:
256,192,241399,1,8,0:0:0:0:
256,192,241449,1,8,0:0:0:0:
256,192,241499,1,8,0:0:0:0:
256,192,241549,1,0,0:0:0:0:
256,192,241649,1,8,0:0:0:0:
256,192,241749,1,0,0:0:0:0:
256,192,241849,1,0,0:0:0:0:
256,192,241949,1,8,0:0:0:0:
256,192,242015,1,8,0:0:0:0:
256,192,242082,1,8,0:0:0:0:
256,192,242149,1,0,0:0:0:0:
256,192,242215,1,0,0:0:0:0:
256,192,242282,1,0,0:0:0:0:
256,192,242349,1,8,0:0:0:0:
256,192,242449,1,0,0:0:0:0:
256,192,242549,1,8,0:0:0:0:
256,192,242649,1,8,0:0:0:0:
256,192,242749,1,0,0:0:0:0:
256,192,242849,1,0,0:0:0:0:
256,192,242949,1,8,0:0:0:0:
256,192,243049,1,8,0:0:0:0:
256,192,243149,1,0,0:0:0:0:
256,192,243249,1,0,0:0:0:0:
256,192,243349,1,8,0:0:0:0:
256,192,243449,1,0,0:0:0:0:
256,192,243549,1,8,0:0:0:0:
256,192,243649,1,8,0:0:0:0:
256,192,243749,1,0,0:0:0:0:
256,192,243815,1,0,0:0:0:0:
256,192,243882,1,0,0:0:0:0:
256,192,243949,1,8,0:0:0:0:
256,192,244049,1,0,0:0:0:0:
256,192,244149,1,8,0:0:0:0:
256,192,244249,1,8,0:0:0:0:
256,192,244349,1,0,0:0:0:0:
256,192,244449,1,0,0:0:0:0:
256,192,244549,1,8,0:0:0:0:
256,192,244615,1,0,0:0:0:0:
256,192,244682,1,0,0:0:0:0:
256,192,244749,1,8,0:0:0:0:
256,192,244849,1,8,0:0:0:0:
256,192,244949,1,0,0:0:0:0:
256,192,245015,1,0,0:0:0:0:
256,192,245082,1,8,0:0:0:0:
256,192,245149,1,0,0:0:0:0:
256,192,245215,1,8,0:0:0:0:
256,192,245282,1,8,0:0:0:0:
256,192,245349,1,0,0:0:0:0:
256,192,245449,1,0,0:0:0:0:
256,192,245549,1,8,0:0:0:0:
256,192,245649,1,8,0:0:0:0:
256,192,245749,1,0,0:0:0:0:
256,192,245882,1,0,0:0:0:0:
256,192,245949,1,8,0:0:0:0:
256,192,246049,1,8,0:0:0:0:
256,192,246149,1,0,0:0:0:0:
256,192,246249,1,0,0:0:0:0:
256,192,246349,1,8,0:0:0:0:
256,192,246449,1,8,0:0:0:0:
256,192,246549,1,0,0:0:0:0:
256,192,246649,1,8,0:0:0:0:
256,192,246749,1,8,0:0:0:0:
256,192,246849,1,8,0:0:0:0:
256,192,246949,1,0,0:0:0:0:
256,192,247015,1,0,0:0:0:0:
256,192,247082,1,0,0:0:0:0:
256,192,247149,1,8,0:0:0:0:
256,192,247249,1,0,0:0:0:0:
256,192,247349,1,8,0:0:0:0:
256,192,247449,1,8,0:0:0:0:
256,192,247549,1,0,0:0:0:0:
256,192,247649,1,0,0:0:0:0:
256,192,247749,1,8,0:0:0:0:
256,192,247849,1,8,0:0:0:0:
256,192,247949,1,0,0:0:0:0:
256,192,248049,1,8,0:0:0:0:
256,192,248149,1,0,0:0:0:0:
256,192,248249,1,0,0:0:0:0:
256,192,248349,1,8,0:0:0:0:
256,192,248549,1,0,0:0:0:0:
256,192,248649,1,0,0:0:0:0:
256,192,248749,1,8,0:0:0:0:
256,192,248849,1,8,0:0:0:0:
256,192,248949,1,0,0:0:0:0:
256,192,249149,1,8,0:0:0:0:
256,192,249249,1,8,0:0:0:0:
256,192,249349,1,0,0:0:0:0:
256,192,249449,1,8,0:0:0:0:
256,192,249549,1,0,0:0:0:0:
256,192,249649,1,0,0:0:0:0:
256,192,249749,1,8,0:0:0:0:
256,192,249849,1,0,0:0:0:0:
256,192,249949,1,8,0:0:0:0:
256,192,250049,1,8,0:0:0:0:
256,192,250149,1,0,0:0:0:0:
256,192,250215,1,0,0:0:0:0:
256,192,250282,1,0,0:0:0:0:
256,192,250349,1,8,0:0:0:0:
256,192,250449,1,8,0:0:0:0:
256,192,250549,1,0,0:0:0:0:
256,192,250649,1,8,0:0:0:0:
256,192,250749,1,0,0:0:0:0:
256,192,250815,1,0,0:0:0:0:
256,192,250882,1,0,0:0:0:0:
256,192,250949,1,8,0:0:0:0:
256,192,251015,1,8,0:0:0:0:
256,192,251082,1,8,0:0:0:0:
256,192,251149,1,0,0:0:0:0:
256,192,251249,1,8,0:0:0:0:
256,192,251349,1,0,0:0:0:0:
256,192,251415,1,0,0:0:0:0:
256,192,251482,1,0,0:0:0:0:
256,192,251549,1,8,0:0:0:0:
256,192,251649,1,8,0:0:0:0:
256,192,251749,1,0,0:0:0:0:
256,192,251949,1,8,0:0:0:0:
256,192,252049,1,8,0:0:0:0:
256,192,252149,1,0,0:0:0:0:
256,192,252349,1,8,0:0:0:0:
256,192,252449,1,0,0:0:0:0:
256,192,252549,1,8,0:0:0:0:
256,192,252649,1,8,0:0:0:0:
256,192,252749,1,0,0:0:0:0:
256,192,252849,1,8,0:0:0:0:
256,192,252949,1,0,0:0:0:0:
256,192,253049,1,0,0:0:0:0:
256,192,253149,1,8,0:0:0:0:
256,192,253249,1,8,0:0:0:0:
256,192,253349,1,0,0:0:0:0:
256,192,253549,1,8,0:0:0:0:
256,192,253649,1,0,0:0:0:0:
256,192,253749,1,8,0:0:0:0:
256,192,253849,1,8,0:0:0:0:
256,192,253949,1,0,0:0:0:0:
256,192,254049,1,0,0:0:0:0:
256,192,254149,1,8,0:0:0:0:
256,192,254199,1,8,0:0:0:0:
256,192,254249,1,8,0:0:0:0:
256,192,254299,1,8,0:0:0:0:
256,192,254349,1,0,0:0:0:0:
256,192,254449,1,8,0:0:0:0:
256,192,254549,1,0,0:0:0:0:
256,192,254649,1,0,0:0:0:0:
256,192,254749,1,8,0:0:0:0:
256,192,254815,1,8,0:0:0:0:
256,192,254882,1,8,0:0:0:0:
256,192,254949,1,0,0:0:0:0:
256,192,255015,1,0,0:0:0:0:
256,192,255082,1,0,0:0:0:0:
256,192,255149,1,8,0:0:0:0:
256,192,255249,1,0,0:0:0:0:
256,192,255349,1,8,0:0:0:0:
256,192,255449,1,8,0:0:0:0:
256,192,255549,1,0,0:0:0:0:
256,192,255649,1,0,0:0:0:0:
256,192,255749,1,8,0:0:0:0:
256,192,255849,1,0,0:0:0:0:
256,192,255949,1,0,0:0:0:0:
256,192,256015,1,0,0:0:0:0:
256,192,256082,1,0,0:0:0:0:
256,192,256149,1,8,0:0:0:0:
256,192,256249,1,0,0:0:0:0:
256,192,256349,1,8,0:0:0:0:
256,192,256449,1,8,0:0:0:0:
256,192,256549,1,0,0:0:0:0:
256,192,256615,1,0,0:0:0:0:
256,192,256682,1,0,0:0:0:0:
256,192,256749,1,8,0:0:0:0:
256,192,256849,1,8,0:0:0:0:
256,192,256949,1,0,0:0:0:0:
256,192,257015,1,8,0:0:0:0:
256,192,257082,1,8,0:0:0:0:
256,192,257149,1,0,0:0:0:0:
256,192,257249,1,0,0:0:0:0:
256,192,257349,1,8,0:0:0:0:
256,192,257415,1,0,0:0:0:0:
256,192,257482,1,0,0:0:0:0:
256,192,257549,1,8,0:0:0:0:
256,192,257615,1,0,0:0:0:0:
256,192,257682,1,8,0:0:0:0:
256,192,257749,1,8,0:0:0:0:
256,192,257815,1,0,0:0:0:0:
256,192,257882,1,0,0:0:0:0:
256,192,257949,1,8,0:0:0:0:
256,192,258015,1,8,0:0:0:0:
256,192,258082,1,8,0:0:0:0:
256,192,258149,1,0,0:0:0:0:
