osu file format v14

[General]
AudioFilename: audio.mp3
AudioLeadIn: 0
PreviewTime: 82115
Countdown: 0
SampleSet: Normal
StackLeniency: 0.7
Mode: 1
LetterboxInBreaks: 0
WidescreenStoryboard: 0

[Editor]
Bookmarks: 245342
DistanceSpacing: 0.6
BeatDivisor: 4
GridSize: 32
TimelineZoom: 1.6

[Metadata]
Title:Cyberspace
TitleUnicode:Cyberspace
Artist:xi vs. Feryquitous
ArtistUnicode:xi vs. Feryquitous
Creator:MTDex
Version:Fapu's Oni
Source:
Tags:electronic instrumental diverse system 5th quietus ray dvsp-0214 c95 comiket 95 genjuro faputa
BeatmapID:2126289
BeatmapSetID:1007934

[Difficulty]
HPDrainRate:5
CircleSize:2
OverallDifficulty:6
ApproachRate:10
SliderMultiplier:1.4
SliderTickRate:1

[Events]
//Background and Video events
0,0,"BG.jpg",0,15
//Break Periods
//Storyboard Layer 0 (Background)
//Storyboard Layer 1 (Fail)
//Storyboard Layer 2 (Pass)
//Storyboard Layer 3 (Foreground)
//Storyboard Layer 4 (Overlay)
//Storyboard Sound Samples

[TimingPoints]
549,400,4,1,0,70,1,0
549,-111.111111111111,4,1,0,70,0,0
5349,-105.263157894737,4,1,0,85,0,0
6549,-104.166666666667,4,1,0,85,0,0
6749,-102.040816326531,4,1,0,85,0,0
6949,-100,4,1,0,100,0,0
40149,-99.009900990099,4,1,0,100,0,0
40249,-98.0392156862745,4,1,0,100,0,0
40349,-97.0873786407767,4,1,0,100,0,0
40449,-96.1538461538461,4,1,0,100,0,0
40549,-95.2380952380952,4,1,0,100,0,1
53349,-95.2380952380952,4,1,0,100,0,0
53649,-105.263157894737,4,1,0,85,0,0
59749,-100,4,1,0,100,0,0
66349,-133.333333333333,4,1,0,85,0,0
72549,-125,4,1,0,85,0,0
72749,-125,4,1,0,100,0,0
74149,-117.647058823529,4,1,0,100,0,0
75749,-111.111111111111,4,1,0,100,0,0
77349,-105.263157894737,4,1,0,100,0,0
79149,-100,4,1,0,85,0,0
79749,-100,4,1,0,70,0,0
80549,-100,4,1,0,85,0,0
81749,-100,4,1,0,100,0,0
82149,-93.4579439252336,4,1,0,100,0,1
107749,-93.4579439252336,4,1,0,100,0,0
107949,-95.2380952380952,4,1,0,100,0,0
109149,-100,4,1,0,100,0,0
122449,-100,4,1,0,85,0,0
146349,-98.0392156862745,4,1,0,85,0,0
146749,-96.1538461538461,4,1,0,85,0,0
147149,-95.2380952380952,4,1,0,85,0,0
147349,-94.3396226415094,4,1,0,85,0,0
147749,-93.4579439252336,4,1,0,100,0,1
158949,-93.4579439252336,4,1,0,100,0,0
159149,-92.5925925925926,4,1,0,100,0,0
159449,-91.743119266055,4,1,0,100,0,0
159649,-90.9090909090909,4,1,0,100,0,0
159849,-90.0900900900901,4,1,0,100,0,0
159949,-89.2857142857143,4,1,0,100,0,0
160149,-88.4955752212389,4,1,0,100,0,0
160549,-86.9565217391304,4,1,0,100,0,1
167149,-85.4700854700855,4,1,0,100,0,1
170049,-84.7457627118644,4,1,0,100,0,1
170749,-84.0336134453781,4,1,0,100,0,1
171549,-83.3333333333333,4,1,0,100,0,1
173349,-83.3333333333333,4,1,0,100,0,0
173549,-111.111111111111,4,1,0,70,0,0
179949,-105.263157894737,4,1,0,85,0,0
186149,-100,4,1,0,100,0,0
192449,-98.0392156862745,4,1,0,100,0,0
194049,-96.1538461538461,4,1,0,100,0,0
195649,-94.3396226415094,4,1,0,100,0,0
197249,-92.5925925925926,4,1,0,100,0,0
199149,-92.5925925925926,4,1,0,85,0,0
199749,-92.5925925925926,4,1,0,70,0,0
200149,-92.5925925925926,4,1,0,100,0,0
200549,-92.5925925925926,4,1,0,70,0,0
201749,-92.5925925925926,4,1,0,100,0,0
202049,-90.0900900900901,4,1,0,100,0,0
202349,-90.0900900900901,4,1,0,85,0,0
202949,-90.0900900900901,4,1,0,70,0,0
203349,-90.0900900900901,4,1,0,85,0,0
205349,-86.9565217391304,4,1,0,100,0,1
230949,-86.9565217391304,4,1,0,100,0,0
231149,-90.9090909090909,4,1,0,100,0,0
232349,-95.2380952380952,4,1,0,100,0,0
243649,-96.1538461538461,4,1,0,100,0,0
243949,-97.0873786407767,4,1,0,100,0,0
244249,-98.0392156862745,4,1,0,100,0,0
244549,-99.009900990099,4,1,0,100,0,0
245249,-100,4,1,0,100,0,0

[HitObjects]
256,192,549,5,12,0:0:0:0:
256,192,949,1,8,0:0:0:0:
256,192,1149,1,0,0:0:0:0:
256,192,1549,1,0,0:0:0:0:
256,192,1749,1,8,0:0:0:0:
256,192,2149,1,0,0:0:0:0:
256,192,2549,1,8,0:0:0:0:
256,192,2749,1,0,0:0:0:0:
256,192,3049,1,0,0:0:0:0:
256,192,3349,1,8,0:0:0:0:
256,192,3749,1,0,0:0:0:0:
256,192,4149,1,8,0:0:0:0:
256,192,4349,1,0,0:0:0:0:
256,192,4749,1,0,0:0:0:0:
256,192,4949,1,8,0:0:0:0:
256,192,5349,1,0,0:0:0:0:
256,192,5415,1,0,0:0:0:0:
256,192,5482,1,0,0:0:0:0:
256,192,5549,1,8,0:0:0:0:
256,192,5749,1,8,0:0:0:0:
256,192,5949,1,0,0:0:0:0:
256,192,6049,1,0,0:0:0:0:
256,192,6149,1,8,0:0:0:0:
256,192,6249,1,8,0:0:0:0:
256,192,6349,1,0,0:0:0:0:
256,192,6549,1,8,0:0:0:0:
256,192,6749,1,0,0:0:0:0:
256,192,6949,1,12,0:0:0:0:
256,192,7149,1,12,0:0:0:0:
256,192,7549,1,8,0:0:0:0:
256,192,7749,1,4,0:0:0:0:
256,192,8049,1,4,0:0:0:0:
256,192,8349,1,4,0:0:0:0:
256,192,8549,1,12,0:0:0:0:
256,192,8749,1,12,0:0:0:0:
256,192,9149,1,0,0:0:0:0:
256,192,9215,1,0,0:0:0:0:
256,192,9282,1,0,0:0:0:0:
256,192,9349,1,8,0:0:0:0:
256,192,9649,1,8,0:0:0:0:
256,192,9949,1,0,0:0:0:0:
256,192,10149,1,12,0:0:0:0:
256,192,10349,1,12,0:0:0:0:
256,192,10549,1,4,0:0:0:0:
256,192,10749,1,0,0:0:0:0:
256,192,10949,1,8,0:0:0:0:
256,192,11049,1,0,0:0:0:0:
256,192,11149,1,0,0:0:0:0:
256,192,11349,1,8,0:0:0:0:
256,192,11415,1,8,0:0:0:0:
256,192,11482,1,8,0:0:0:0:
256,192,11549,1,0,0:0:0:0:
256,192,11749,1,12,0:0:0:0:
256,192,11949,1,12,0:0:0:0:
256,192,12149,8,0,13149,0:0:0:0:
256,192,13349,5,4,0:0:0:0:
256,192,14349,1,8,0:0:0:0:
256,192,14649,1,0,0:0:0:0:
256,192,14749,1,8,0:0:0:0:
256,192,14849,1,0,0:0:0:0:
256,192,14949,1,12,0:0:0:0:
256,192,15249,1,8,0:0:0:0:
256,192,15549,1,0,0:0:0:0:
256,192,15749,1,0,0:0:0:0:
256,192,15949,1,8,0:0:0:0:
256,192,16015,1,8,0:0:0:0:
256,192,16082,1,8,0:0:0:0:
256,192,16149,1,0,0:0:0:0:
256,192,16349,1,8,0:0:0:0:
256,192,16549,1,8,0:0:0:0:
256,192,16849,1,0,0:0:0:0:
256,192,17149,1,8,0:0:0:0:
256,192,17349,1,0,0:0:0:0:
256,192,17549,1,8,0:0:0:0:
256,192,17649,1,0,0:0:0:0:
256,192,17849,1,8,0:0:0:0:
256,192,17949,1,0,0:0:0:0:
256,192,18149,1,8,0:0:0:0:
256,192,18549,1,0,0:0:0:0:
256,192,18749,1,8,0:0:0:0:
256,192,18949,1,0,0:0:0:0:
256,192,19149,1,8,0:0:0:0:
256,192,19449,1,0,0:0:0:0:
256,192,19749,1,8,0:0:0:0:
256,192,20049,1,8,0:0:0:0:
256,192,20349,1,0,0:0:0:0:
256,192,20415,1,0,0:0:0:0:
256,192,20482,1,0,0:0:0:0:
256,192,20549,1,8,0:0:0:0:
256,192,20749,1,0,0:0:0:0:
256,192,21049,1,0,0:0:0:0:
256,192,21149,1,8,0:0:0:0:
256,192,21249,1,0,0:0:0:0:
256,192,21349,1,12,0:0:0:0:
256,192,21649,1,8,0:0:0:0:
256,192,21949,1,0,0:0:0:0:
256,192,22149,1,8,0:0:0:0:
256,192,22349,1,8,0:0:0:0:
256,192,22415,1,8,0:0:0:0:
256,192,22482,1,8,0:0:0:0:
256,192,22549,1,0,0:0:0:0:
256,192,22749,1,0,0:0:0:0:
256,192,22949,1,8,0:0:0:0:
256,192,23249,1,0,0:0:0:0:
256,192,23549,1,8,0:0:0:0:
256,192,23749,1,0,0:0:0:0:
256,192,23949,1,8,0:0:0:0:
256,192,24049,1,0,0:0:0:0:
256,192,24249,1,8,0:0:0:0:
256,192,24349,1,0,0:0:0:0:
256,192,24549,1,8,0:0:0:0:
256,192,24949,1,0,0:0:0:0:
256,192,25149,1,8,0:0:0:0:
256,192,25349,1,0,0:0:0:0:
256,192,25549,1,8,0:0:0:0:
256,192,25849,1,8,0:0:0:0:
256,192,26149,1,0,0:0:0:0:
256,192,26449,1,0,0:0:0:0:
256,192,26749,1,8,0:0:0:0:
256,192,26815,1,8,0:0:0:0:
256,192,26882,1,8,0:0:0:0:
256,192,26949,1,0,0:0:0:0:
256,192,27149,1,8,0:0:0:0:
256,192,27449,1,0,0:0:0:0:
256,192,27549,1,8,0:0:0:0:
256,192,27649,1,0,0:0:0:0:
256,192,27749,1,12,0:0:0:0:
256,192,28049,1,8,0:0:0:0:
256,192,28149,1,0,0:0:0:0:
256,192,28349,1,8,0:0:0:0:
256,192,28549,1,0,0:0:0:0:
256,192,28649,1,0,0:0:0:0:
256,192,28749,1,8,0:0:0:0:
256,192,28949,1,8,0:0:0:0:
256,192,29149,1,0,0:0:0:0:
256,192,29349,1,8,0:0:0:0:
256,192,29649,1,0,0:0:0:0:
256,192,29749,1,8,0:0:0:0:
256,192,29949,1,0,0:0:0:0:
256,192,30149,1,8,0:0:0:0:
256,192,30349,1,8,0:0:0:0:
256,192,30449,1,0,0:0:0:0:
256,192,30649,1,0,0:0:0:0:
256,192,30749,1,8,0:0:0:0:
256,192,30949,1,4,0:0:0:0:
256,192,31349,1,0,0:0:0:0:
256,192,31449,1,0,0:0:0:0:
256,192,31549,1,8,0:0:0:0:
256,192,31749,1,0,0:0:0:0:
256,192,31949,1,8,0:0:0:0:
256,192,32049,1,8,0:0:0:0:
256,192,32149,1,0,0:0:0:0:
256,192,32349,1,8,0:0:0:0:
256,192,32549,1,0,0:0:0:0:
256,192,32849,1,8,0:0:0:0:
256,192,32949,1,0,0:0:0:0:
256,192,33149,1,8,0:0:0:0:
256,192,33215,1,8,0:0:0:0:
256,192,33282,1,8,0:0:0:0:
256,192,33349,1,0,0:0:0:0:
256,192,33549,1,8,0:0:0:0:
256,192,33749,1,0,0:0:0:0:
256,192,33849,1,0,0:0:0:0:
256,192,33949,1,8,0:0:0:0:
256,192,34049,1,0,0:0:0:0:
256,192,34149,1,12,0:0:0:0:
256,192,34449,1,8,0:0:0:0:
256,192,34749,1,0,0:0:0:0:
256,192,34849,1,0,0:0:0:0:
256,192,34949,1,8,0:0:0:0:
256,192,35149,1,0,0:0:0:0:
256,192,35349,1,8,0:0:0:0:
256,192,35449,1,8,0:0:0:0:
256,192,35549,1,0,0:0:0:0:
256,192,35749,1,12,0:0:0:0:
256,192,36049,1,0,0:0:0:0:
256,192,36349,1,8,0:0:0:0:
256,192,36449,1,8,0:0:0:0:
256,192,36549,1,0,0:0:0:0:
256,192,36749,1,8,0:0:0:0:
256,192,36949,1,0,0:0:0:0:
256,192,37049,1,8,0:0:0:0:
256,192,37149,1,0,0:0:0:0:
256,192,37349,1,12,0:0:0:0:
256,192,37749,1,0,0:0:0:0:
256,192,37849,1,8,0:0:0:0:
256,192,37949,1,8,0:0:0:0:
256,192,38149,1,4,0:0:0:0:
256,192,38349,1,8,0:0:0:0:
256,192,38449,1,8,0:0:0:0:
256,192,38549,1,0,0:0:0:0:
256,192,38649,1,0,0:0:0:0:
256,192,38749,1,0,0:0:0:0:
256,192,38949,1,12,0:0:0:0:
256,192,39349,1,12,0:0:0:0:
256,192,39749,1,12,0:0:0:0:
256,192,39949,1,0,0:0:0:0:
256,192,40149,1,8,0:0:0:0:
256,192,40249,1,8,0:0:0:0:
256,192,40349,1,8,0:0:0:0:
256,192,40449,1,0,0:0:0:0:
256,192,40549,1,12,0:0:0:0:
256,192,40849,1,12,0:0:0:0:
256,192,41149,1,4,0:0:0:0:
256,192,41449,1,8,0:0:0:0:
256,192,41549,1,8,0:0:0:0:
256,192,41749,1,0,0:0:0:0:
256,192,41849,1,0,0:0:0:0:
256,192,41949,1,8,0:0:0:0:
256,192,42049,1,8,0:0:0:0:
256,192,42149,1,0,0:0:0:0:
256,192,42349,1,8,0:0:0:0:
256,192,42449,1,8,0:0:0:0:
256,192,42549,1,0,0:0:0:0:
256,192,42749,1,8,0:0:0:0:
256,192,42949,1,0,0:0:0:0:
256,192,43015,1,0,0:0:0:0:
256,192,43082,1,0,0:0:0:0:
256,192,43149,1,8,0:0:0:0:
256,192,43349,1,8,0:0:0:0:
256,192,43449,1,8,0:0:0:0:
256,192,43549,1,0,0:0:0:0:
256,192,43749,1,12,0:0:0:0:
256,192,44149,1,8,0:0:0:0:
256,192,44349,1,8,0:0:0:0:
256,192,44549,1,0,0:0:0:0:
256,192,44615,1,0,0:0:0:0:
256,192,44682,1,0,0:0:0:0:
256,192,44749,1,8,0:0:0:0:
256,192,44949,1,8,0:0:0:0:
256,192,45049,1,0,0:0:0:0:
256,192,45149,1,8,0:0:0:0:
256,192,45349,1,0,0:0:0:0:
256,192,45449,1,8,0:0:0:0:
256,192,45649,1,0,0:0:0:0:
256,192,45749,1,8,0:0:0:0:
256,192,45949,1,8,0:0:0:0:
256,192,46149,1,4,0:0:0:0:
256,192,46349,1,4,0:0:0:0:
256,192,46549,1,12,0:0:0:0:
256,192,46749,1,12,0:0:0:0:
256,192,46949,1,12,0:0:0:0:
256,192,47249,1,0,0:0:0:0:
256,192,47549,1,0,0:0:0:0:
256,192,47749,1,8,0:0:0:0:
256,192,47815,1,8,0:0:0:0:
256,192,47882,1,8,0:0:0:0:
256,192,47949,1,0,0:0:0:0:
256,192,48149,1,0,0:0:0:0:
256,192,48349,1,8,0:0:0:0:
256,192,48449,1,0,0:0:0:0:
256,192,48549,1,0,0:0:0:0:
256,192,48749,1,8,0:0:0:0:
256,192,48849,1,0,0:0:0:0:
256,192,48949,1,8,0:0:0:0:
256,192,49149,1,8,0:0:0:0:
256,192,49349,1,0,0:0:0:0:
256,192,49415,1,0,0:0:0:0:
256,192,49482,1,0,0:0:0:0:
256,192,49549,1,8,0:0:0:0:
256,192,49749,1,8,0:0:0:0:
256,192,49815,1,8,0:0:0:0:
256,192,49882,1,8,0:0:0:0:
256,192,49949,1,0,0:0:0:0:
256,192,50149,1,12,0:0:0:0:
256,192,50549,1,8,0:0:0:0:
256,192,50749,1,0,0:0:0:0:
256,192,50949,1,12,0:0:0:0:
256,192,51149,1,0,0:0:0:0:
256,192,51249,1,8,0:0:0:0:
256,192,51449,1,8,0:0:0:0:
256,192,51549,1,0,0:0:0:0:
256,192,51749,1,12,0:0:0:0:
256,192,51949,1,0,0:0:0:0:
256,192,52049,1,0,0:0:0:0:
256,192,52149,1,8,0:0:0:0:
256,192,52349,1,8,0:0:0:0:
256,192,52449,1,8,0:0:0:0:
256,192,52549,1,4,0:0:0:0:
256,192,52749,1,12,0:0:0:0:
256,192,52949,1,12,0:0:0:0:
256,192,53149,1,4,0:0:0:0:
256,192,53349,1,12,0:0:0:0:
256,192,53649,1,8,0:0:0:0:
256,192,53949,1,8,0:0:0:0:
256,192,54349,1,8,0:0:0:0:
256,192,54649,1,0,0:0:0:0:
256,192,54949,1,8,0:0:0:0:
256,192,55249,1,0,0:0:0:0:
256,192,55349,1,8,0:0:0:0:
256,192,55549,1,0,0:0:0:0:
256,192,55949,1,0,0:0:0:0:
256,192,56249,1,0,0:0:0:0:
256,192,56549,1,8,0:0:0:0:
256,192,56849,1,8,0:0:0:0:
256,192,57149,1,8,0:0:0:0:
256,192,57549,1,8,0:0:0:0:
256,192,57849,1,0,0:0:0:0:
256,192,58149,1,8,0:0:0:0:
256,192,58449,1,0,0:0:0:0:
256,192,58549,1,8,0:0:0:0:
256,192,58749,1,0,0:0:0:0:
256,192,59149,1,0,0:0:0:0:
256,192,59349,1,8,0:0:0:0:
256,192,59449,1,8,0:0:0:0:
256,192,59549,1,8,0:0:0:0:
256,192,59749,1,4,0:0:0:0:
256,192,59949,1,8,0:0:0:0:
256,192,60049,1,8,0:0:0:0:
256,192,60149,1,0,0:0:0:0:
256,192,60349,1,8,0:0:0:0:
256,192,60549,1,0,0:0:0:0:
256,192,60749,1,8,0:0:0:0:
256,192,61049,1,8,0:0:0:0:
256,192,61149,1,0,0:0:0:0:
256,192,61349,1,12,0:0:0:0:
256,192,61649,1,0,0:0:0:0:
256,192,61749,1,8,0:0:0:0:
256,192,61949,1,0,0:0:0:0:
256,192,62349,1,0,0:0:0:0:
256,192,62549,1,8,0:0:0:0:
256,192,62649,1,0,0:0:0:0:
256,192,62749,1,8,0:0:0:0:
256,192,62949,1,4,0:0:0:0:
256,192,63149,1,0,0:0:0:0:
256,192,63249,1,8,0:0:0:0:
256,192,63349,1,0,0:0:0:0:
256,192,63549,1,0,0:0:0:0:
256,192,63749,1,12,0:0:0:0:
256,192,63949,1,0,0:0:0:0:
256,192,64149,1,0,0:0:0:0:
256,192,64215,1,0,0:0:0:0:
256,192,64282,1,0,0:0:0:0:
256,192,64349,1,8,0:0:0:0:
256,192,64549,1,4,0:0:0:0:
256,192,64949,1,12,0:0:0:0:
256,192,65349,1,4,0:0:0:0:
256,192,65649,1,4,0:0:0:0:
256,192,65949,1,4,0:0:0:0:
256,192,66149,1,12,0:0:0:0:
256,192,66749,1,0,0:0:0:0:
256,192,67349,1,8,0:0:0:0:
256,192,67949,1,8,0:0:0:0:
256,192,68349,1,0,0:0:0:0:
256,192,68649,1,8,0:0:0:0:
256,192,68749,1,8,0:0:0:0:
256,192,68949,1,8,0:0:0:0:
256,192,69049,1,0,0:0:0:0:
256,192,69249,1,0,0:0:0:0:
256,192,69349,1,8,0:0:0:0:
256,192,69549,1,8,0:0:0:0:
256,192,69749,1,0,0:0:0:0:
256,192,69949,1,8,0:0:0:0:
256,192,70149,1,0,0:0:0:0:
256,192,70349,1,8,0:0:0:0:
256,192,70549,1,0,0:0:0:0:
256,192,70749,1,0,0:0:0:0:
256,192,70949,1,8,0:0:0:0:
256,192,71549,1,8,0:0:0:0:
256,192,71949,1,0,0:0:0:0:
256,192,72015,1,0,0:0:0:0:
256,192,72082,1,0,0:0:0:0:
256,192,72149,1,8,0:0:0:0:
256,192,72349,1,0,0:0:0:0:
256,192,72549,1,12,0:0:0:0:
256,192,72749,1,12,0:0:0:0:
256,192,73149,1,8,0:0:0:0:
256,192,73349,1,4,0:0:0:0:
256,192,73649,1,4,0:0:0:0:
256,192,73949,1,4,0:0:0:0:
256,192,74149,1,12,0:0:0:0:
256,192,74349,1,12,0:0:0:0:
256,192,74749,1,0,0:0:0:0:
256,192,74815,1,0,0:0:0:0:
256,192,74882,1,0,0:0:0:0:
256,192,74949,1,8,0:0:0:0:
256,192,75249,1,8,0:0:0:0:
256,192,75549,1,0,0:0:0:0:
256,192,75749,1,12,0:0:0:0:
256,192,75949,1,12,0:0:0:0:
256,192,76149,1,0,0:0:0:0:
256,192,76249,1,0,0:0:0:0:
256,192,76349,1,0,0:0:0:0:
256,192,76549,1,8,0:0:0:0:
256,192,76649,1,0,0:0:0:0:
256,192,76749,1,0,0:0:0:0:
256,192,76949,1,8,0:0:0:0:
256,192,77015,1,8,0:0:0:0:
256,192,77082,1,8,0:0:0:0:
256,192,77149,1,0,0:0:0:0:
256,192,77349,1,12,0:0:0:0:
256,192,77549,1,12,0:0:0:0:
256,192,77749,1,0,0:0:0:0:
256,192,77949,1,8,0:0:0:0:
256,192,78015,1,8,0:0:0:0:
256,192,78082,1,8,0:0:0:0:
256,192,78149,1,0,0:0:0:0:
256,192,78349,1,8,0:0:0:0:
256,192,78549,1,0,0:0:0:0:
256,192,78749,1,8,0:0:0:0:
256,192,78815,1,8,0:0:0:0:
256,192,78882,1,8,0:0:0:0:
256,192,78949,1,0,0:0:0:0:
256,192,80549,1,0,0:0:0:0:
256,192,80615,1,0,0:0:0:0:
256,192,80682,1,0,0:0:0:0:
256,192,80749,1,8,0:0:0:0:
256,192,80949,1,0,0:0:0:0:
256,192,81049,1,8,0:0:0:0:
256,192,81149,1,0,0:0:0:0:
256,192,81349,1,8,0:0:0:0:
256,192,81415,1,8,0:0:0:0:
256,192,81482,1,8,0:0:0:0:
256,192,81549,1,0,0:0:0:0:
256,192,81749,1,12,0:0:0:0:
256,192,82149,1,4,0:0:0:0:
256,192,82349,1,8,0:0:0:0:
256,192,82449,1,8,0:0:0:0:
256,192,82749,1,8,0:0:0:0:
256,192,82849,1,8,0:0:0:0:
256,192,83149,1,8,0:0:0:0:
256,192,83349,1,0,0:0:0:0:
256,192,83415,1,0,0:0:0:0:
256,192,83482,1,0,0:0:0:0:
256,192,83549,1,8,0:0:0:0:
256,192,83949,1,0,0:0:0:0:
256,192,84049,1,0,0:0:0:0:
256,192,84349,1,0,0:0:0:0:
256,192,84449,1,0,0:0:0:0:
256,192,84749,1,0,0:0:0:0:
256,192,84949,1,8,0:0:0:0:
256,192,85015,1,8,0:0:0:0:
256,192,85082,1,8,0:0:0:0:
256,192,85149,1,0,0:0:0:0:
256,192,85349,1,12,0:0:0:0:
256,192,85549,1,0,0:0:0:0:
256,192,85649,1,0,0:0:0:0:
256,192,85949,1,0,0:0:0:0:
256,192,86049,1,8,0:0:0:0:
256,192,86349,1,8,0:0:0:0:
256,192,86449,1,8,0:0:0:0:
256,192,86549,1,0,0:0:0:0:
256,192,86649,1,0,0:0:0:0:
256,192,86749,1,0,0:0:0:0:
256,192,86849,1,0,0:0:0:0:
256,192,86949,1,8,0:0:0:0:
256,192,87249,1,8,0:0:0:0:
256,192,87549,1,0,0:0:0:0:
256,192,87849,1,8,0:0:0:0:
256,192,88149,1,0,0:0:0:0:
256,192,88215,1,0,0:0:0:0:
256,192,88282,1,0,0:0:0:0:
256,192,88349,1,8,0:0:0:0:
256,192,88549,1,4,0:0:0:0:
256,192,88749,1,8,0:0:0:0:
256,192,88849,1,8,0:0:0:0:
256,192,89149,1,8,0:0:0:0:
256,192,89249,1,8,0:0:0:0:
256,192,89549,1,8,0:0:0:0:
256,192,89749,1,0,0:0:0:0:
256,192,89815,1,0,0:0:0:0:
256,192,89882,1,0,0:0:0:0:
256,192,89949,1,8,0:0:0:0:
256,192,90149,1,4,0:0:0:0:
256,192,90349,1,8,0:0:0:0:
256,192,90449,1,8,0:0:0:0:
256,192,90749,1,8,0:0:0:0:
256,192,90849,1,8,0:0:0:0:
256,192,91149,1,8,0:0:0:0:
256,192,91349,1,0,0:0:0:0:
256,192,91415,1,0,0:0:0:0:
256,192,91482,1,0,0:0:0:0:
256,192,91549,1,8,0:0:0:0:
256,192,91749,1,8,0:0:0:0:
256,192,91815,1,8,0:0:0:0:
256,192,91882,1,8,0:0:0:0:
256,192,91949,1,0,0:0:0:0:
256,192,92149,1,0,0:0:0:0:
256,192,92349,1,8,0:0:0:0:
256,192,92415,1,8,0:0:0:0:
256,192,92482,1,8,0:0:0:0:
256,192,92549,1,0,0:0:0:0:
256,192,92749,1,0,0:0:0:0:
256,192,92949,1,12,0:0:0:0:
256,192,93349,1,8,0:0:0:0:
256,192,93649,1,8,0:0:0:0:
256,192,93949,1,0,0:0:0:0:
256,192,94249,1,0,0:0:0:0:
256,192,94449,1,8,0:0:0:0:
256,192,94549,1,0,0:0:0:0:
256,192,94749,1,0,0:0:0:0:
256,192,94949,1,12,0:0:0:0:
256,192,95149,1,0,0:0:0:0:
256,192,95249,1,8,0:0:0:0:
256,192,95549,1,8,0:0:0:0:
256,192,95649,1,8,0:0:0:0:
256,192,95949,1,8,0:0:0:0:
256,192,96149,1,0,0:0:0:0:
256,192,96215,1,0,0:0:0:0:
256,192,96282,1,0,0:0:0:0:
256,192,96349,1,8,0:0:0:0:
256,192,96749,1,8,0:0:0:0:
256,192,96849,1,0,0:0:0:0:
256,192,97149,1,0,0:0:0:0:
256,192,97249,1,0,0:0:0:0:
256,192,97549,1,0,0:0:0:0:
256,192,97749,1,8,0:0:0:0:
256,192,97815,1,8,0:0:0:0:
256,192,97882,1,8,0:0:0:0:
256,192,97949,1,0,0:0:0:0:
256,192,98149,1,12,0:0:0:0:
256,192,98349,1,0,0:0:0:0:
256,192,98449,1,8,0:0:0:0:
256,192,98749,1,8,0:0:0:0:
256,192,98849,1,0,0:0:0:0:
256,192,99149,1,0,0:0:0:0:
256,192,99249,1,0,0:0:0:0:
256,192,99349,1,8,0:0:0:0:
256,192,99449,1,8,0:0:0:0:
256,192,99549,1,0,0:0:0:0:
256,192,99649,1,0,0:0:0:0:
256,192,99749,1,8,0:0:0:0:
256,192,100049,1,8,0:0:0:0:
256,192,100349,1,0,0:0:0:0:
256,192,100649,1,8,0:0:0:0:
256,192,100849,1,8,0:0:0:0:
256,192,100949,1,0,0:0:0:0:
256,192,101149,1,8,0:0:0:0:
256,192,101249,1,8,0:0:0:0:
256,192,101349,1,4,0:0:0:0:
256,192,101549,1,8,0:0:0:0:
256,192,101649,1,0,0:0:0:0:
256,192,101949,1,8,0:0:0:0:
256,192,102049,1,8,0:0:0:0:
256,192,102349,1,8,0:0:0:0:
256,192,102549,1,0,0:0:0:0:
256,192,102615,1,0,0:0:0:0:
256,192,102682,1,0,0:0:0:0:
256,192,102749,1,8,0:0:0:0:
256,192,102949,1,4,0:0:0:0:
256,192,103149,1,8,0:0:0:0:
256,192,103249,1,8,0:0:0:0:
256,192,103549,1,0,0:0:0:0:
256,192,103649,1,8,0:0:0:0:
256,192,103949,1,8,0:0:0:0:
256,192,104149,1,0,0:0:0:0:
256,192,104215,1,0,0:0:0:0:
256,192,104282,1,0,0:0:0:0:
256,192,104349,1,8,0:0:0:0:
256,192,104549,1,8,0:0:0:0:
256,192,104615,1,8,0:0:0:0:
256,192,104682,1,8,0:0:0:0:
256,192,104749,1,0,0:0:0:0:
256,192,104949,1,0,0:0:0:0:
256,192,105149,1,8,0:0:0:0:
256,192,105215,1,8,0:0:0:0:
256,192,105282,1,8,0:0:0:0:
256,192,105349,1,0,0:0:0:0:
256,192,105549,1,0,0:0:0:0:
256,192,105749,1,12,0:0:0:0:
256,192,106149,1,8,0:0:0:0:
256,192,106449,1,8,0:0:0:0:
256,192,106749,1,0,0:0:0:0:
256,192,107049,1,0,0:0:0:0:
256,192,107249,1,8,0:0:0:0:
256,192,107349,1,8,0:0:0:0:
256,192,107549,1,0,0:0:0:0:
256,192,107649,1,0,0:0:0:0:
256,192,107749,1,12,0:0:0:0:
256,192,108149,1,0,0:0:0:0:
256,192,108349,1,0,0:0:0:0:
256,192,108549,1,0,0:0:0:0:
256,192,108849,1,0,0:0:0:0:
256,192,108949,1,12,0:0:0:0:
256,192,109349,1,8,0:0:0:0:
256,192,109449,1,8,0:0:0:0:
256,192,109549,1,8,0:0:0:0:
256,192,109749,1,8,0:0:0:0:
256,192,109949,1,0,0:0:0:0:
256,192,110049,1,0,0:0:0:0:
256,192,110149,1,8,0:0:0:0:
256,192,110549,1,8,0:0:0:0:
256,192,110949,1,0,0:0:0:0:
256,192,111149,1,8,0:0:0:0:
256,192,111449,1,8,0:0:0:0:
256,192,111749,1,8,0:0:0:0:
256,192,111949,1,0,0:0:0:0:
256,192,112049,1,8,0:0:0:0:
256,192,112149,1,0,0:0:0:0:
256,192,112349,1,8,0:0:0:0:
256,192,112549,1,4,0:0:0:0:
256,192,112749,1,8,0:0:0:0:
256,192,112949,1,0,0:0:0:0:
256,192,113149,1,8,0:0:0:0:
256,192,113249,1,8,0:0:0:0:
256,192,113349,1,0,0:0:0:0:
256,192,113749,1,8,0:0:0:0:
256,192,114149,1,0,0:0:0:0:
256,192,114349,1,8,0:0:0:0:
256,192,114649,1,8,0:0:0:0:
256,192,114949,1,0,0:0:0:0:
256,192,115049,1,0,0:0:0:0:
256,192,115149,1,0,0:0:0:0:
256,192,115349,1,8,0:0:0:0:
256,192,115449,1,8,0:0:0:0:
256,192,115549,1,8,0:0:0:0:
256,192,115749,1,4,0:0:0:0:
256,192,115949,1,8,0:0:0:0:
256,192,116149,1,8,0:0:0:0:
256,192,116349,1,0,0:0:0:0:
256,192,116549,1,8,0:0:0:0:
256,192,116949,1,0,0:0:0:0:
256,192,117349,1,12,0:0:0:0:
256,192,117649,1,12,0:0:0:0:
256,192,117949,1,12,0:0:0:0:
256,192,118149,1,0,0:0:0:0:
256,192,118249,1,0,0:0:0:0:
256,192,118349,1,0,0:0:0:0:
256,192,118449,1,0,0:0:0:0:
256,192,118549,1,8,0:0:0:0:
256,192,118749,1,0,0:0:0:0:
256,192,118949,1,8,0:0:0:0:
256,192,119015,1,8,0:0:0:0:
256,192,119082,1,8,0:0:0:0:
256,192,119149,1,0,0:0:0:0:
256,192,119349,1,0,0:0:0:0:
256,192,119549,1,8,0:0:0:0:
256,192,119749,1,0,0:0:0:0:
256,192,119949,1,8,0:0:0:0:
256,192,120015,1,8,0:0:0:0:
256,192,120082,1,8,0:0:0:0:
256,192,120149,1,0,0:0:0:0:
256,192,120349,1,0,0:0:0:0:
256,192,120549,1,12,0:0:0:0:
256,192,120849,1,12,0:0:0:0:
256,192,121149,1,12,0:0:0:0:
256,192,121349,1,0,0:0:0:0:
256,192,121449,1,0,0:0:0:0:
256,192,121549,1,0,0:0:0:0:
256,192,121649,1,0,0:0:0:0:
256,192,121749,1,8,0:0:0:0:
256,192,121949,1,0,0:0:0:0:
256,192,122149,1,12,0:0:0:0:
256,192,122349,1,12,0:0:0:0:
256,192,122549,1,0,0:0:0:0:
256,192,122949,1,0,0:0:0:0:
256,192,123049,1,0,0:0:0:0:
256,192,123149,1,0,0:0:0:0:
256,192,123349,1,8,0:0:0:0:
256,192,123749,1,0,0:0:0:0:
256,192,123849,1,8,0:0:0:0:
256,192,123949,1,8,0:0:0:0:
256,192,124149,1,0,0:0:0:0:
256,192,124349,1,8,0:0:0:0:
256,192,124449,1,8,0:0:0:0:
256,192,124549,1,0,0:0:0:0:
256,192,124749,1,0,0:0:0:0:
256,192,124949,1,8,0:0:0:0:
256,192,125349,1,0,0:0:0:0:
256,192,125449,1,0,0:0:0:0:
256,192,125549,1,8,0:0:0:0:
256,192,125749,1,0,0:0:0:0:
256,192,126149,1,8,0:0:0:0:
256,192,126249,1,0,0:0:0:0:
256,192,126349,1,8,0:0:0:0:
256,192,126549,1,0,0:0:0:0:
256,192,126949,1,0,0:0:0:0:
256,192,127049,1,8,0:0:0:0:
256,192,127249,1,8,0:0:0:0:
256,192,127349,1,0,0:0:0:0:
256,192,127549,1,8,0:0:0:0:
256,192,127649,1,8,0:0:0:0:
256,192,127749,1,0,0:0:0:0:
256,192,127949,1,0,0:0:0:0:
256,192,128149,1,8,0:0:0:0:
256,192,128549,1,12,0:0:0:0:
256,192,128949,1,8,0:0:0:0:
256,192,129149,1,8,0:0:0:0:
256,192,129349,1,0,0:0:0:0:
256,192,129449,1,0,0:0:0:0:
256,192,129549,1,0,0:0:0:0:
256,192,129749,1,8,0:0:0:0:
256,192,130149,1,8,0:0:0:0:
256,192,130249,1,0,0:0:0:0:
256,192,130349,1,8,0:0:0:0:
256,192,130549,1,0,0:0:0:0:
256,192,130749,1,0,0:0:0:0:
256,192,130849,1,8,0:0:0:0:
256,192,130949,1,8,0:0:0:0:
256,192,131149,1,0,0:0:0:0:
256,192,131349,1,8,0:0:0:0:
256,192,131749,1,4,0:0:0:0:
256,192,132149,1,8,0:0:0:0:
256,192,132549,1,4,0:0:0:0:
256,192,132949,1,8,0:0:0:0:
256,192,133049,1,8,0:0:0:0:
256,192,133149,1,8,0:0:0:0:
256,192,133349,1,4,0:0:0:0:
256,192,133549,1,4,0:0:0:0:
256,192,133749,1,4,0:0:0:0:
256,192,133949,1,4,0:0:0:0:
256,192,134149,1,8,0:0:0:0:
256,192,134215,1,8,0:0:0:0:
256,192,134282,1,8,0:0:0:0:
256,192,134349,1,0,0:0:0:0:
256,192,134549,1,0,0:0:0:0:
256,192,134649,1,8,0:0:0:0:
256,192,134749,1,8,0:0:0:0:
256,192,134849,1,0,0:0:0:0:
256,192,134949,1,12,0:0:0:0:
256,192,135149,1,12,0:0:0:0:
256,192,135349,1,0,0:0:0:0:
256,192,135549,1,8,0:0:0:0:
256,192,135649,1,8,0:0:0:0:
256,192,135749,1,0,0:0:0:0:
256,192,135849,1,0,0:0:0:0:
256,192,135949,1,0,0:0:0:0:
256,192,136149,1,8,0:0:0:0:
256,192,136549,1,0,0:0:0:0:
256,192,136649,1,8,0:0:0:0:
256,192,136749,1,8,0:0:0:0:
256,192,136949,1,0,0:0:0:0:
256,192,137149,1,8,0:0:0:0:
256,192,137249,1,8,0:0:0:0:
256,192,137349,1,0,0:0:0:0:
256,192,137449,1,8,0:0:0:0:
256,192,137549,1,0,0:0:0:0:
256,192,137749,1,8,0:0:0:0:
256,192,138149,1,12,0:0:0:0:
256,192,138349,1,0,0:0:0:0:
256,192,138549,1,8,0:0:0:0:
256,192,138749,1,0,0:0:0:0:
256,192,138849,1,0,0:0:0:0:
256,192,138949,1,8,0:0:0:0:
256,192,139049,1,0,0:0:0:0:
256,192,139149,1,8,0:0:0:0:
256,192,139349,1,0,0:0:0:0:
256,192,139749,1,8,0:0:0:0:
256,192,139849,1,8,0:0:0:0:
256,192,139949,1,0,0:0:0:0:
256,192,140149,1,8,0:0:0:0:
256,192,140349,1,0,0:0:0:0:
256,192,140449,1,8,0:0:0:0:
256,192,140549,1,0,0:0:0:0:
256,192,140749,1,0,0:0:0:0:
256,192,140949,1,8,0:0:0:0:
256,192,141149,1,0,0:0:0:0:
256,192,141349,1,12,0:0:0:0:
256,192,141549,1,12,0:0:0:0:
256,192,141749,1,0,0:0:0:0:
256,192,141949,1,8,0:0:0:0:
256,192,142049,1,8,0:0:0:0:
256,192,142149,1,0,0:0:0:0:
256,192,142249,1,0,0:0:0:0:
256,192,142349,1,8,0:0:0:0:
256,192,142549,1,8,0:0:0:0:
256,192,142949,1,0,0:0:0:0:
256,192,143015,1,0,0:0:0:0:
256,192,143082,1,0,0:0:0:0:
256,192,143149,1,8,0:0:0:0:
256,192,143349,1,0,0:0:0:0:
256,192,143549,1,8,0:0:0:0:
256,192,143649,1,8,0:0:0:0:
256,192,143749,1,0,0:0:0:0:
256,192,143949,1,0,0:0:0:0:
256,192,144149,1,8,0:0:0:0:
256,192,144549,1,4,0:0:0:0:
256,192,144749,1,8,0:0:0:0:
256,192,144949,1,8,0:0:0:0:
256,192,145149,1,8,0:0:0:0:
256,192,145349,1,4,0:0:0:0:
256,192,145549,1,8,0:0:0:0:
256,192,145649,1,8,0:0:0:0:
256,192,145749,1,8,0:0:0:0:
256,192,145949,1,8,0:0:0:0:
256,192,146149,1,4,0:0:0:0:
256,192,146415,1,8,0:0:0:0:
256,192,146549,1,4,0:0:0:0:
256,192,146815,1,8,0:0:0:0:
256,192,146949,1,4,0:0:0:0:
256,192,147215,1,4,0:0:0:0:
256,192,147482,1,4,0:0:0:0:
256,192,147749,1,12,0:0:0:0:
256,192,148015,1,0,0:0:0:0:
256,192,148149,1,8,0:0:0:0:
256,192,148415,1,8,0:0:0:0:
256,192,148549,1,0,0:0:0:0:
256,192,148682,1,0,0:0:0:0:
256,192,148815,1,8,0:0:0:0:
256,192,148949,1,8,0:0:0:0:
256,192,149215,1,0,0:0:0:0:
256,192,149349,1,8,0:0:0:0:
256,192,149615,1,8,0:0:0:0:
256,192,149749,1,0,0:0:0:0:
256,192,150015,1,0,0:0:0:0:
256,192,150149,1,8,0:0:0:0:
256,192,150282,1,0,0:0:0:0:
256,192,150415,1,8,0:0:0:0:
256,192,150549,1,8,0:0:0:0:
256,192,150682,1,0,0:0:0:0:
256,192,150815,1,0,0:0:0:0:
256,192,150949,1,8,0:0:0:0:
256,192,151215,1,8,0:0:0:0:
256,192,151349,1,0,0:0:0:0:
256,192,151749,1,8,0:0:0:0:
256,192,151882,1,8,0:0:0:0:
256,192,152015,1,8,0:0:0:0:
256,192,152149,1,0,0:0:0:0:
256,192,152549,1,8,0:0:0:0:
256,192,152815,1,8,0:0:0:0:
256,192,152949,1,8,0:0:0:0:
256,192,153082,1,8,0:0:0:0:
256,192,153215,1,8,0:0:0:0:
256,192,153349,1,0,0:0:0:0:
256,192,153482,1,0,0:0:0:0:
256,192,153615,1,0,0:0:0:0:
256,192,153749,1,8,0:0:0:0:
256,192,153882,1,8,0:0:0:0:
256,192,154015,1,0,0:0:0:0:
256,192,154149,1,8,0:0:0:0:
256,192,154415,1,0,0:0:0:0:
256,192,154549,1,8,0:0:0:0:
256,192,154815,1,8,0:0:0:0:
256,192,154949,1,0,0:0:0:0:
256,192,155082,1,0,0:0:0:0:
256,192,155215,1,8,0:0:0:0:
256,192,155349,1,8,0:0:0:0:
256,192,155615,1,0,0:0:0:0:
256,192,155749,1,8,0:0:0:0:
256,192,156015,1,8,0:0:0:0:
256,192,156149,1,0,0:0:0:0:
256,192,156215,1,0,0:0:0:0:
256,192,156282,1,0,0:0:0:0:
256,192,156349,1,0,0:0:0:0:
256,192,156415,1,8,0:0:0:0:
256,192,156549,1,8,0:0:0:0:
256,192,156682,1,0,0:0:0:0:
256,192,156815,1,0,0:0:0:0:
256,192,156949,1,8,0:0:0:0:
256,192,157082,1,8,0:0:0:0:
256,192,157215,1,0,0:0:0:0:
256,192,157349,1,8,0:0:0:0:
256,192,157615,1,8,0:0:0:0:
256,192,157749,1,0,0:0:0:0:
256,192,158149,1,8,0:0:0:0:
256,192,158282,1,8,0:0:0:0:
256,192,158415,1,8,0:0:0:0:
256,192,158549,1,0,0:0:0:0:
256,192,158682,1,0,0:0:0:0:
256,192,158815,1,0,0:0:0:0:
256,192,158949,1,12,0:0:0:0:
256,192,159215,1,12,0:0:0:0:
256,192,159482,1,12,0:0:0:0:
256,192,159749,1,0,0:0:0:0:
256,192,159882,1,0,0:0:0:0:
256,192,160015,1,0,0:0:0:0:
256,192,160149,1,8,0:0:0:0:
256,192,160215,1,8,0:0:0:0:
256,192,160282,1,8,0:0:0:0:
256,192,160349,1,8,0:0:0:0:
256,192,160415,1,0,0:0:0:0:
256,192,160549,1,12,0:0:0:0:
256,192,160949,1,12,0:0:0:0:
256,192,161215,1,12,0:0:0:0:
256,192,161349,1,4,0:0:0:0:
256,192,161615,1,4,0:0:0:0:
256,192,161749,1,12,0:0:0:0:
256,192,162015,1,4,0:0:0:0:
256,192,162149,1,12,0:0:0:0:
256,192,162549,1,12,0:0:0:0:
256,192,162815,1,4,0:0:0:0:
256,192,162949,1,4,0:0:0:0:
256,192,163215,1,12,0:0:0:0:
256,192,163349,1,4,0:0:0:0:
256,192,163615,1,4,0:0:0:0:
256,192,163749,1,12,0:0:0:0:
256,192,164015,1,4,0:0:0:0:
256,192,164149,1,12,0:0:0:0:
256,192,164415,1,12,0:0:0:0:
256,192,164549,1,4,0:0:0:0:
256,192,164815,1,12,0:0:0:0:
256,192,164949,1,12,0:0:0:0:
256,192,165215,1,4,0:0:0:0:
256,192,165349,1,12,0:0:0:0:
256,192,165615,1,12,0:0:0:0:
256,192,165882,1,12,0:0:0:0:
256,192,166149,1,4,0:0:0:0:
256,192,166415,1,4,0:0:0:0:
256,192,166549,1,12,0:0:0:0:
256,192,166815,1,12,0:0:0:0:
256,192,166949,1,12,0:0:0:0:
256,192,167215,1,0,0:0:0:0:
256,192,167349,1,8,0:0:0:0:
256,192,167482,1,0,0:0:0:0:
256,192,167549,1,0,0:0:0:0:
256,192,167615,1,0,0:0:0:0:
256,192,167749,1,8,0:0:0:0:
256,192,167882,1,8,0:0:0:0:
256,192,167949,1,8,0:0:0:0:
256,192,168015,1,8,0:0:0:0:
256,192,168149,1,0,0:0:0:0:
256,192,168282,1,0,0:0:0:0:
256,192,168349,1,0,0:0:0:0:
256,192,168415,1,0,0:0:0:0:
256,192,168549,1,8,0:0:0:0:
256,192,168949,1,8,0:0:0:0:
256,192,169082,1,0,0:0:0:0:
256,192,169149,1,0,0:0:0:0:
256,192,169215,1,0,0:0:0:0:
256,192,169282,1,0,0:0:0:0:
256,192,169349,1,8,0:0:0:0:
256,192,169482,1,8,0:0:0:0:
256,192,169615,1,0,0:0:0:0:
256,192,169749,1,8,0:0:0:0:
256,192,169882,1,0,0:0:0:0:
256,192,169949,1,0,0:0:0:0:
256,192,170015,1,0,0:0:0:0:
256,192,170149,1,8,0:0:0:0:
256,192,170282,1,8,0:0:0:0:
256,192,170349,1,8,0:0:0:0:
256,192,170415,1,8,0:0:0:0:
256,192,170549,1,8,0:0:0:0:
256,192,170815,1,0,0:0:0:0:
256,192,170949,1,8,0:0:0:0:
256,192,171082,1,8,0:0:0:0:
256,192,171149,1,8,0:0:0:0:
256,192,171215,1,8,0:0:0:0:
256,192,171349,1,8,0:0:0:0:
256,192,171615,1,8,0:0:0:0:
256,192,171749,1,0,0:0:0:0:
256,192,172015,1,12,0:0:0:0:
256,192,172282,1,12,0:0:0:0:
256,192,172549,1,12,0:0:0:0:
256,192,172815,1,0,0:0:0:0:
256,192,172949,1,8,0:0:0:0:
256,192,173015,1,8,0:0:0:0:
256,192,173082,1,8,0:0:0:0:
256,192,173149,1,8,0:0:0:0:
256,192,173215,1,0,0:0:0:0:
256,192,173349,1,12,0:0:0:0:
256,192,173749,1,8,0:0:0:0:
256,192,173949,1,0,0:0:0:0:
256,192,174349,1,0,0:0:0:0:
256,192,174549,1,8,0:0:0:0:
256,192,174949,1,0,0:0:0:0:
256,192,175349,1,8,0:0:0:0:
256,192,175549,1,0,0:0:0:0:
256,192,175849,1,0,0:0:0:0:
256,192,176149,1,8,0:0:0:0:
256,192,176549,1,0,0:0:0:0:
256,192,176949,1,8,0:0:0:0:
256,192,177149,1,0,0:0:0:0:
256,192,177549,1,0,0:0:0:0:
256,192,177749,1,8,0:0:0:0:
256,192,178149,1,0,0:0:0:0:
256,192,178549,1,8,0:0:0:0:
256,192,178749,1,0,0:0:0:0:
256,192,178949,1,8,0:0:0:0:
256,192,179149,1,0,0:0:0:0:
256,192,179249,1,8,0:0:0:0:
256,192,179549,1,0,0:0:0:0:
256,192,179749,1,12,0:0:0:0:
256,192,180149,1,8,0:0:0:0:
256,192,180349,1,0,0:0:0:0:
256,192,180749,1,0,0:0:0:0:
256,192,180949,1,8,0:0:0:0:
256,192,181149,1,8,0:0:0:0:
256,192,181349,1,0,0:0:0:0:
256,192,181749,1,8,0:0:0:0:
256,192,181949,1,0,0:0:0:0:
256,192,182249,1,0,0:0:0:0:
256,192,182549,1,8,0:0:0:0:
256,192,182749,1,8,0:0:0:0:
256,192,182949,1,0,0:0:0:0:
256,192,183349,1,8,0:0:0:0:
256,192,183549,1,0,0:0:0:0:
256,192,183949,1,0,0:0:0:0:
256,192,184149,1,8,0:0:0:0:
256,192,184349,1,8,0:0:0:0:
256,192,184549,1,0,0:0:0:0:
256,192,184615,1,0,0:0:0:0:
256,192,184682,1,0,0:0:0:0:
256,192,184749,1,8,0:0:0:0:
256,192,184949,1,8,0:0:0:0:
256,192,185149,1,0,0:0:0:0:
256,192,185249,1,0,0:0:0:0:
256,192,185349,1,8,0:0:0:0:
256,192,185449,1,8,0:0:0:0:
256,192,185549,1,0,0:0:0:0:
256,192,185749,1,8,0:0:0:0:
256,192,185949,1,0,0:0:0:0:
256,192,186149,1,12,0:0:0:0:
256,192,186349,1,12,0:0:0:0:
256,192,186549,1,0,0:0:0:0:
256,192,186949,1,8,0:0:0:0:
256,192,187149,1,0,0:0:0:0:
256,192,187349,1,8,0:0:0:0:
256,192,187549,1,8,0:0:0:0:
256,192,187749,1,0,0:0:0:0:
256,192,188149,1,8,0:0:0:0:
256,192,188349,1,0,0:0:0:0:
256,192,188449,1,0,0:0:0:0:
256,192,188549,1,8,0:0:0:0:
256,192,188749,1,0,0:0:0:0:
256,192,188949,1,8,0:0:0:0:
256,192,189149,1,0,0:0:0:0:
256,192,189349,1,12,0:0:0:0:
256,192,189549,1,12,0:0:0:0:
256,192,189749,1,0,0:0:0:0:
256,192,190149,1,8,0:0:0:0:
256,192,190349,1,8,0:0:0:0:
256,192,190549,1,0,0:0:0:0:
256,192,190749,1,0,0:0:0:0:
256,192,190849,1,0,0:0:0:0:
256,192,190949,1,8,0:0:0:0:
256,192,191149,1,0,0:0:0:0:
256,192,191249,1,0,0:0:0:0:
256,192,191449,1,0,0:0:0:0:
256,192,191549,1,8,0:0:0:0:
256,192,191849,1,0,0:0:0:0:
256,192,192149,1,8,0:0:0:0:
256,192,192349,1,0,0:0:0:0:
256,192,192549,1,12,0:0:0:0:
256,192,192749,1,12,0:0:0:0:
256,192,193149,1,8,0:0:0:0:
256,192,193349,1,4,0:0:0:0:
256,192,193649,1,4,0:0:0:0:
256,192,193949,1,4,0:0:0:0:
256,192,194149,1,12,0:0:0:0:
256,192,194349,1,12,0:0:0:0:
256,192,194749,1,0,0:0:0:0:
256,192,194815,1,0,0:0:0:0:
256,192,194882,1,0,0:0:0:0:
256,192,194949,1,8,0:0:0:0:
256,192,195249,1,8,0:0:0:0:
256,192,195549,1,0,0:0:0:0:
256,192,195749,1,12,0:0:0:0:
256,192,195949,1,12,0:0:0:0:
256,192,196149,1,0,0:0:0:0:
256,192,196249,1,0,0:0:0:0:
256,192,196349,1,0,0:0:0:0:
256,192,196549,1,8,0:0:0:0:
256,192,196649,1,0,0:0:0:0:
256,192,196749,1,0,0:0:0:0:
256,192,196949,1,8,0:0:0:0:
256,192,197015,1,8,0:0:0:0:
256,192,197082,1,8,0:0:0:0:
256,192,197149,1,0,0:0:0:0:
256,192,197349,1,12,0:0:0:0:
256,192,197549,1,12,0:0:0:0:
256,192,197749,1,0,0:0:0:0:
256,192,197949,1,8,0:0:0:0:
256,192,198015,1,8,0:0:0:0:
256,192,198082,1,8,0:0:0:0:
256,192,198149,1,0,0:0:0:0:
256,192,198349,1,8,0:0:0:0:
256,192,198549,1,0,0:0:0:0:
256,192,198749,1,8,0:0:0:0:
256,192,198815,1,8,0:0:0:0:
256,192,198882,1,8,0:0:0:0:
256,192,198949,1,0,0:0:0:0:
256,192,200549,1,0,0:0:0:0:
256,192,200615,1,0,0:0:0:0:
256,192,200682,1,0,0:0:0:0:
256,192,200749,1,8,0:0:0:0:
256,192,200949,1,0,0:0:0:0:
256,192,201049,1,8,0:0:0:0:
256,192,201149,1,0,0:0:0:0:
256,192,201349,1,8,0:0:0:0:
256,192,201415,1,8,0:0:0:0:
256,192,201482,1,8,0:0:0:0:
256,192,201549,1,0,0:0:0:0:
256,192,201749,1,12,0:0:0:0:
256,192,202149,1,4,0:0:0:0:
256,192,203349,1,8,0:0:0:0:
256,192,203449,1,8,0:0:0:0:
256,192,203549,1,8,0:0:0:0:
256,192,203749,1,0,0:0:0:0:
256,192,203849,1,0,0:0:0:0:
256,192,203949,1,0,0:0:0:0:
256,192,204049,1,0,0:0:0:0:
256,192,204149,1,8,0:0:0:0:
256,192,204349,1,0,0:0:0:0:
256,192,204549,1,8,0:0:0:0:
256,192,204649,1,0,0:0:0:0:
256,192,204749,1,8,0:0:0:0:
256,192,204949,1,0,0:0:0:0:
256,192,205015,1,0,0:0:0:0:
256,192,205082,1,0,0:0:0:0:
256,192,205149,1,8,0:0:0:0:
256,192,205349,1,4,0:0:0:0:
256,192,205549,1,8,0:0:0:0:
256,192,205649,1,8,0:0:0:0:
256,192,205949,1,8,0:0:0:0:
256,192,206049,1,8,0:0:0:0:
256,192,206349,1,8,0:0:0:0:
256,192,206549,1,0,0:0:0:0:
256,192,206615,1,0,0:0:0:0:
256,192,206682,1,0,0:0:0:0:
256,192,206749,1,8,0:0:0:0:
256,192,207149,1,0,0:0:0:0:
256,192,207249,1,0,0:0:0:0:
256,192,207549,1,0,0:0:0:0:
256,192,207649,1,0,0:0:0:0:
256,192,207949,1,0,0:0:0:0:
256,192,208149,1,8,0:0:0:0:
256,192,208215,1,8,0:0:0:0:
256,192,208282,1,8,0:0:0:0:
256,192,208349,1,0,0:0:0:0:
256,192,208549,1,12,0:0:0:0:
256,192,208749,1,0,0:0:0:0:
256,192,208849,1,0,0:0:0:0:
256,192,209149,1,0,0:0:0:0:
256,192,209249,1,8,0:0:0:0:
256,192,209549,1,8,0:0:0:0:
256,192,209649,1,8,0:0:0:0:
256,192,209749,1,0,0:0:0:0:
256,192,209849,1,0,0:0:0:0:
256,192,209949,1,0,0:0:0:0:
256,192,210049,1,0,0:0:0:0:
256,192,210149,1,8,0:0:0:0:
256,192,210449,1,8,0:0:0:0:
256,192,210749,1,0,0:0:0:0:
256,192,211049,1,8,0:0:0:0:
256,192,211349,1,0,0:0:0:0:
256,192,211415,1,0,0:0:0:0:
256,192,211482,1,0,0:0:0:0:
256,192,211549,1,8,0:0:0:0:
256,192,211749,1,4,0:0:0:0:
256,192,211949,1,8,0:0:0:0:
256,192,212049,1,8,0:0:0:0:
256,192,212349,1,8,0:0:0:0:
256,192,212449,1,8,0:0:0:0:
256,192,212749,1,8,0:0:0:0:
256,192,212949,1,0,0:0:0:0:
256,192,213015,1,0,0:0:0:0:
256,192,213082,1,0,0:0:0:0:
256,192,213149,1,8,0:0:0:0:
256,192,213349,1,4,0:0:0:0:
256,192,213549,1,8,0:0:0:0:
256,192,213649,1,8,0:0:0:0:
256,192,213949,1,8,0:0:0:0:
256,192,214049,1,8,0:0:0:0:
256,192,214349,1,8,0:0:0:0:
256,192,214549,1,0,0:0:0:0:
256,192,214615,1,0,0:0:0:0:
256,192,214682,1,0,0:0:0:0:
256,192,214749,1,8,0:0:0:0:
256,192,214949,1,8,0:0:0:0:
256,192,215015,1,8,0:0:0:0:
256,192,215082,1,8,0:0:0:0:
256,192,215149,1,0,0:0:0:0:
256,192,215349,1,0,0:0:0:0:
256,192,215549,1,8,0:0:0:0:
256,192,215615,1,8,0:0:0:0:
256,192,215682,1,8,0:0:0:0:
256,192,215749,1,0,0:0:0:0:
256,192,215949,1,0,0:0:0:0:
256,192,216149,1,12,0:0:0:0:
256,192,216549,1,8,0:0:0:0:
256,192,216849,1,8,0:0:0:0:
256,192,217149,1,0,0:0:0:0:
256,192,217449,1,0,0:0:0:0:
256,192,217649,1,8,0:0:0:0:
256,192,217749,1,0,0:0:0:0:
256,192,217949,1,0,0:0:0:0:
256,192,218149,1,12,0:0:0:0:
256,192,218349,1,0,0:0:0:0:
256,192,218449,1,8,0:0:0:0:
256,192,218749,1,8,0:0:0:0:
256,192,218849,1,8,0:0:0:0:
256,192,219149,1,8,0:0:0:0:
256,192,219349,1,0,0:0:0:0:
256,192,219415,1,0,0:0:0:0:
256,192,219482,1,0,0:0:0:0:
256,192,219549,1,8,0:0:0:0:
256,192,219949,1,8,0:0:0:0:
256,192,220049,1,0,0:0:0:0:
256,192,220349,1,0,0:0:0:0:
256,192,220449,1,0,0:0:0:0:
256,192,220749,1,0,0:0:0:0:
256,192,220949,1,8,0:0:0:0:
256,192,221015,1,8,0:0:0:0:
256,192,221082,1,8,0:0:0:0:
256,192,221149,1,0,0:0:0:0:
256,192,221349,1,12,0:0:0:0:
256,192,221549,1,0,0:0:0:0:
256,192,221649,1,8,0:0:0:0:
256,192,221949,1,8,0:0:0:0:
256,192,222049,1,0,0:0:0:0:
256,192,222349,1,0,0:0:0:0:
256,192,222449,1,0,0:0:0:0:
256,192,222549,1,8,0:0:0:0:
256,192,222649,1,8,0:0:0:0:
256,192,222749,1,0,0:0:0:0:
256,192,222849,1,0,0:0:0:0:
256,192,222949,1,8,0:0:0:0:
256,192,223249,1,8,0:0:0:0:
256,192,223549,1,0,0:0:0:0:
256,192,223849,1,8,0:0:0:0:
256,192,224049,1,8,0:0:0:0:
256,192,224149,1,0,0:0:0:0:
256,192,224349,1,8,0:0:0:0:
256,192,224449,1,8,0:0:0:0:
256,192,224549,1,4,0:0:0:0:
256,192,224749,1,8,0:0:0:0:
256,192,224849,1,0,0:0:0:0:
256,192,225149,1,8,0:0:0:0:
256,192,225249,1,8,0:0:0:0:
256,192,225549,1,8,0:0:0:0:
256,192,225749,1,0,0:0:0:0:
256,192,225815,1,0,0:0:0:0:
256,192,225882,1,0,0:0:0:0:
256,192,225949,1,8,0:0:0:0:
256,192,226149,1,4,0:0:0:0:
256,192,226349,1,8,0:0:0:0:
256,192,226449,1,8,0:0:0:0:
256,192,226749,1,0,0:0:0:0:
256,192,226849,1,8,0:0:0:0:
256,192,227149,1,8,0:0:0:0:
256,192,227349,1,0,0:0:0:0:
256,192,227415,1,0,0:0:0:0:
256,192,227482,1,0,0:0:0:0:
256,192,227549,1,8,0:0:0:0:
256,192,227749,1,8,0:0:0:0:
256,192,227815,1,8,0:0:0:0:
256,192,227882,1,8,0:0:0:0:
256,192,227949,1,0,0:0:0:0:
256,192,228149,1,0,0:0:0:0:
256,192,228349,1,8,0:0:0:0:
256,192,228415,1,8,0:0:0:0:
256,192,228482,1,8,0:0:0:0:
256,192,228549,1,0,0:0:0:0:
256,192,228749,1,0,0:0:0:0:
256,192,228949,1,12,0:0:0:0:
256,192,229349,1,8,0:0:0:0:
256,192,229649,1,8,0:0:0:0:
256,192,229949,1,0,0:0:0:0:
256,192,230249,1,0,0:0:0:0:
256,192,230449,1,8,0:0:0:0:
256,192,230549,1,8,0:0:0:0:
256,192,230749,1,0,0:0:0:0:
256,192,230849,1,0,0:0:0:0:
256,192,230949,1,12,0:0:0:0:
256,192,231349,1,0,0:0:0:0:
256,192,231549,1,0,0:0:0:0:
256,192,231749,1,0,0:0:0:0:
256,192,232049,1,0,0:0:0:0:
256,192,232149,1,12,0:0:0:0:
256,192,232549,1,8,0:0:0:0:
256,192,232649,1,8,0:0:0:0:
256,192,232749,1,8,0:0:0:0:
256,192,232949,1,8,0:0:0:0:
256,192,233149,1,0,0:0:0:0:
256,192,233249,1,0,0:0:0:0:
256,192,233349,1,8,0:0:0:0:
256,192,233549,1,0,0:0:0:0:
256,192,233749,1,0,0:0:0:0:
256,192,233849,1,8,0:0:0:0:
256,192,234049,1,8,0:0:0:0:
256,192,234149,1,0,0:0:0:0:
256,192,234349,1,8,0:0:0:0:
256,192,234649,1,8,0:0:0:0:
256,192,234949,1,8,0:0:0:0:
256,192,235149,1,0,0:0:0:0:
256,192,235249,1,8,0:0:0:0:
256,192,235349,1,0,0:0:0:0:
256,192,235549,1,8,0:0:0:0:
256,192,235749,1,4,0:0:0:0:
256,192,235949,1,8,0:0:0:0:
256,192,236149,1,0,0:0:0:0:
256,192,236349,1,8,0:0:0:0:
256,192,236449,1,8,0:0:0:0:
256,192,236549,1,0,0:0:0:0:
256,192,236749,1,8,0:0:0:0:
256,192,236849,1,8,0:0:0:0:
256,192,236949,1,8,0:0:0:0:
256,192,237349,1,0,0:0:0:0:
256,192,237549,1,8,0:0:0:0:
256,192,237849,1,8,0:0:0:0:
256,192,238149,1,0,0:0:0:0:
256,192,238249,1,0,0:0:0:0:
256,192,238349,1,0,0:0:0:0:
256,192,238549,1,8,0:0:0:0:
256,192,238649,1,8,0:0:0:0:
256,192,238749,1,8,0:0:0:0:
256,192,238949,1,4,0:0:0:0:
256,192,239149,1,8,0:0:0:0:
256,192,239349,1,8,0:0:0:0:
256,192,239549,1,0,0:0:0:0:
256,192,239749,1,8,0:0:0:0:
256,192,239849,1,8,0:0:0:0:
256,192,239949,1,0,0:0:0:0:
256,192,240149,1,0,0:0:0:0:
256,192,240249,1,8,0:0:0:0:
256,192,240349,1,0,0:0:0:0:
256,192,240549,1,12,0:0:0:0:
256,192,240849,1,12,0:0:0:0:
256,192,241149,1,12,0:0:0:0:
256,192,241349,1,0,0:0:0:0:
256,192,241449,1,0,0:0:0:0:
256,192,241549,1,0,0:0:0:0:
256,192,241649,1,0,0:0:0:0:
256,192,241749,1,8,0:0:0:0:
256,192,241949,1,0,0:0:0:0:
256,192,242149,1,8,0:0:0:0:
256,192,242249,1,8,0:0:0:0:
256,192,242349,1,0,0:0:0:0:
256,192,242549,1,0,0:0:0:0:
256,192,242749,1,8,0:0:0:0:
256,192,242949,1,0,0:0:0:0:
256,192,243049,1,0,0:0:0:0:
256,192,243149,1,8,0:0:0:0:
256,192,243349,1,0,0:0:0:0:
256,192,243549,1,0,0:0:0:0:
256,192,243749,1,12,0:0:0:0:
256,192,244049,1,12,0:0:0:0:
256,192,244349,1,12,0:0:0:0:
256,192,244549,1,0,0:0:0:0:
256,192,244649,1,0,0:0:0:0:
256,192,244749,1,0,0:0:0:0:
256,192,244849,1,0,0:0:0:0:
256,192,244949,1,8,0:0:0:0:
256,192,245149,1,0,0:0:0:0:
256,192,245349,1,8,0:0:0:0:
256,192,245449,1,8,0:0:0:0:
256,192,245549,1,8,0:0:0:0:
256,192,245749,1,8,0:0:0:0:
256,192,245949,1,0,0:0:0:0:
256,192,246049,1,0,0:0:0:0:
256,192,246149,1,8,0:0:0:0:
256,192,246549,1,8,0:0:0:0:
256,192,246949,1,0,0:0:0:0:
256,192,247149,1,8,0:0:0:0:
256,192,247449,1,8,0:0:0:0:
256,192,247749,1,8,0:0:0:0:
256,192,247949,1,0,0:0:0:0:
256,192,248049,1,8,0:0:0:0:
256,192,248149,1,0,0:0:0:0:
256,192,248349,1,8,0:0:0:0:
256,192,248549,1,4,0:0:0:0:
256,192,248749,1,8,0:0:0:0:
256,192,248949,1,0,0:0:0:0:
256,192,249149,1,8,0:0:0:0:
256,192,249249,1,8,0:0:0:0:
256,192,249349,1,0,0:0:0:0:
256,192,249749,1,8,0:0:0:0:
256,192,250149,1,0,0:0:0:0:
256,192,250349,1,8,0:0:0:0:
256,192,250649,1,8,0:0:0:0:
256,192,250949,1,0,0:0:0:0:
256,192,251049,1,0,0:0:0:0:
256,192,251149,1,0,0:0:0:0:
256,192,251349,1,8,0:0:0:0:
256,192,251449,1,8,0:0:0:0:
256,192,251549,1,8,0:0:0:0:
256,192,251749,1,4,0:0:0:0:
256,192,251949,1,8,0:0:0:0:
256,192,252149,1,8,0:0:0:0:
256,192,252349,1,0,0:0:0:0:
256,192,252549,1,8,0:0:0:0:
256,192,252949,1,0,0:0:0:0:
256,192,253349,1,12,0:0:0:0:
256,192,253649,1,12,0:0:0:0:
256,192,253949,1,12,0:0:0:0:
256,192,254149,1,0,0:0:0:0:
256,192,254249,1,0,0:0:0:0:
256,192,254349,1,0,0:0:0:0:
256,192,254449,1,0,0:0:0:0:
256,192,254549,1,8,0:0:0:0:
256,192,254749,1,0,0:0:0:0:
256,192,254949,1,8,0:0:0:0:
256,192,255015,1,8,0:0:0:0:
256,192,255082,1,8,0:0:0:0:
256,192,255149,1,0,0:0:0:0:
256,192,255349,1,0,0:0:0:0:
256,192,255549,1,8,0:0:0:0:
256,192,255749,1,0,0:0:0:0:
256,192,255949,1,8,0:0:0:0:
256,192,256015,1,8,0:0:0:0:
256,192,256082,1,8,0:0:0:0:
256,192,256149,1,0,0:0:0:0:
256,192,256349,1,0,0:0:0:0:
256,192,256549,1,12,0:0:0:0:
256,192,256849,1,12,0:0:0:0:
256,192,257149,1,12,0:0:0:0:
256,192,257349,1,0,0:0:0:0:
256,192,257449,1,0,0:0:0:0:
256,192,257549,1,0,0:0:0:0:
256,192,257649,1,0,0:0:0:0:
256,192,257749,1,8,0:0:0:0:
256,192,257949,1,0,0:0:0:0:
256,192,258149,1,12,0:0:0:0:
